<?xml version="1.0" standalone="no"?>
<!DOCTYPE svg PUBLIC "-//W3C//DTD SVG 1.1//EN" "http://www.w3.org/Graphics/SVG/1.1/DTD/svg11.dtd" >
<svg xmlns="http://www.w3.org/2000/svg" xmlns:xlink="http://www.w3.org/1999/xlink" version="1.1">
<metadata>
Created by FontForge 20170731 at Sat Jul 15 13:22:05 2017
 By Aleksey,,,
Copyright (c) 2015 by Kostas Bartsokas. All rights reserved.
</metadata>
<defs>
<font id="AvertaStd-Black" horiz-adv-x="0" >
  <font-face 
    font-family="Averta Std Black"
    font-weight="900"
    font-stretch="normal"
    units-per-em="1000"
    panose-1="0 0 10 0 0 0 0 0 0 0"
    ascent="800"
    descent="-200"
    x-height="490"
    cap-height="710"
    bbox="-724 -258 1436 1066"
    underline-thickness="63"
    underline-position="-227"
    unicode-range="U+000D-2E18"
  />
<missing-glyph horiz-adv-x="437" 
 />
    <glyph glyph-name=".notdef" horiz-adv-x="437" 
 />
    <glyph glyph-name=".null" 
 />
    <glyph glyph-name="nonmarkingreturn" horiz-adv-x="333" 
 />
    <glyph glyph-name="CR" unicode="&#xd;" 
 />
    <glyph glyph-name="space" unicode=" " horiz-adv-x="229" 
 />
    <glyph glyph-name="exclam" unicode="!" horiz-adv-x="299" 
d="M86 256l-30 480h185l-30 -480h-125zM150 -10q-41 0 -69.5 28t-28.5 68q0 39 29 67t69 28t68.5 -28t28.5 -67q0 -40 -28.5 -68t-68.5 -28z" />
    <glyph glyph-name="quotedbl" unicode="&#x22;" horiz-adv-x="472" 
d="M26 432l29 278h172l-73 -278h-128zM254 432l29 278h173l-74 -278h-128z" />
    <glyph glyph-name="numbersign" unicode="#" horiz-adv-x="645" 
d="M89 -52l27 172h-94v130h114l19 118h-106v129h126l24 159h118l-25 -159h114l25 159h117l-24 -159h97l-1 -129h-116l-19 -118h108l-1 -130h-127l-27 -172h-118l27 172h-113l-26 -172h-119zM254 250h113l19 118h-113z" />
    <glyph glyph-name="dollar" unicode="$" horiz-adv-x="559" 
d="M535 208q0 -87 -52.5 -142t-143.5 -69v-111h-117v112q-118 19 -203 106l108 132q78 -72 164 -72q42 0 42 29q0 14 -15.5 26.5t-64.5 26.5q-51 15 -84 29t-66.5 38t-50 59.5t-16.5 82.5q0 83 50 139.5t138 69.5v114h117v-117q106 -22 185 -88l-105 -132q-77 52 -140 52
q-45 0 -45 -25t70 -46q62 -18 98 -33t69.5 -39t47.5 -58.5t14 -83.5z" />
    <glyph glyph-name="percent" unicode="%" horiz-adv-x="1004" 
d="M405 -28l-122 52l318 704l121 -53zM222 318q-86 0 -144.5 56.5t-58.5 145.5q0 84 56.5 141.5t146.5 57.5q86 0 145 -55.5t59 -143.5q0 -85 -57 -143.5t-147 -58.5zM223 432q34 0 55 25t21 61q0 38 -22 62t-54 24q-33 0 -54.5 -25t-21.5 -61q0 -38 22 -62t54 -24zM782 -10
q-86 0 -144.5 56.5t-58.5 144.5q0 85 56.5 143t146.5 58q86 0 144.5 -56t58.5 -145q0 -84 -56.5 -142.5t-146.5 -58.5zM783 104q34 0 55 25t21 61q0 38 -22 61.5t-54 23.5q-34 0 -55 -24.5t-21 -60.5q0 -38 22 -62t54 -24z" />
    <glyph glyph-name="ampersand" unicode="&#x26;" horiz-adv-x="650" 
d="M254 -10q-102 0 -170.5 62.5t-68.5 162.5q0 128 123 207v2l-70 95q6 92 68 147t161 55q169 0 239 -163l-141 -51q-25 67 -80 67q-29 0 -42 -17t-13 -34l173 -239l3 1q10 37 10 65l159 4q0 -123 -61 -219v-4l95 -131h-191l-25 34h-4q-64 -44 -165 -44zM273 145q31 0 58 12
v3l-103 141q-42 -27 -42 -75q0 -38 24.5 -59.5t62.5 -21.5z" />
    <glyph glyph-name="quotesingle" unicode="'" horiz-adv-x="243" 
d="M26 432l29 278h172l-73 -278h-128z" />
    <glyph glyph-name="parenleft" unicode="(" horiz-adv-x="315" 
d="M167 -165q-128 184 -128 459q0 276 128 459l125 -55q-98 -181 -98 -404q0 -221 98 -403z" />
    <glyph glyph-name="parenright" unicode=")" horiz-adv-x="315" 
d="M148 -165l-125 56q98 182 98 403q0 223 -98 404l125 55q128 -183 128 -459q0 -275 -128 -459z" />
    <glyph glyph-name="asterisk" unicode="*" horiz-adv-x="382" 
d="M141 375l5 89l-74 -47l-51 86l78 39l-78 41l51 87l74 -48l-5 88h100l-6 -88l75 46l51 -85l-79 -40l79 -40l-51 -87l-72 48l3 -89h-100z" />
    <glyph glyph-name="plus" unicode="+" horiz-adv-x="570" 
d="M211 39v166h-166v145h166v167h147v-167h167v-145h-167v-166h-147z" />
    <glyph glyph-name="comma" unicode="," horiz-adv-x="249" 
d="M14 -135l28 279h172l-73 -279h-127z" />
    <glyph glyph-name="hyphen" unicode="-" horiz-adv-x="373" 
d="M32 230v159h309v-159h-309z" />
    <glyph glyph-name="period" unicode="." horiz-adv-x="267" 
d="M134 -10q-41 0 -69.5 28t-28.5 68q0 39 29 67t69 28t68.5 -28t28.5 -67q0 -40 -28.5 -68t-68.5 -28z" />
    <glyph glyph-name="slash" unicode="/" horiz-adv-x="446" 
d="M96 -111l-121 55l379 855l120 -55z" />
    <glyph glyph-name="zero" unicode="0" horiz-adv-x="618" 
d="M309 -10q-127 0 -202.5 95t-75.5 259q0 161 75.5 257t202.5 96t202.5 -95t75.5 -258t-75.5 -258.5t-202.5 -95.5zM309 164q39 0 62.5 44t23.5 136q0 82 -21 130.5t-65 48.5q-40 0 -63 -44t-23 -135q0 -83 21 -131.5t65 -48.5z" />
    <glyph glyph-name="one" unicode="1" horiz-adv-x="430" 
d="M181 0v463l-94 -70l-88 138l223 156h147v-687h-188z" />
    <glyph glyph-name="two" unicode="2" horiz-adv-x="520" 
d="M27 0l-2 120l195 210q42 44 60 74.5t18 63.5q0 25 -16 41.5t-40 16.5q-52 0 -92 -54l-132 95q78 130 240 130q94 0 160.5 -57t66.5 -150q0 -64 -22 -112.5t-90 -118.5l-86 -89l2 -3h202v-167h-464z" />
    <glyph glyph-name="three" unicode="3" horiz-adv-x="522" 
d="M256 -10q-93 0 -162 46t-95 118l162 62q18 -66 81 -66q25 0 43.5 16.5t18.5 47.5q0 29 -20 47t-56 18h-41v141h53q27 0 43 15t16 41q0 27 -16 42.5t-43 15.5q-46 0 -65 -51l-149 79q21 59 82 97t137 38q99 0 164.5 -50t65.5 -137q0 -98 -83 -154v-3q105 -48 105 -164
q0 -91 -67.5 -145t-173.5 -54z" />
    <glyph glyph-name="four" unicode="4" horiz-adv-x="557" 
d="M273 0v104h-266v106l304 477h141v-433h85v-150h-85v-104h-179zM188 240h105v167z" />
    <glyph glyph-name="five" unicode="5" horiz-adv-x="522" 
d="M290 448q86 0 145.5 -61.5t59.5 -158.5q0 -105 -71.5 -171.5t-179.5 -66.5q-153 0 -247 102l132 107q44 -44 97 -44q34 0 58.5 22t24.5 53q0 39 -26 59t-54 20q-39 0 -83 -33l-96 38l23 373h384v-166h-237l-6 -86q45 13 76 13z" />
    <glyph glyph-name="six" unicode="6" horiz-adv-x="563" 
d="M333 445q83 0 143 -59t60 -163q0 -106 -71 -169.5t-184 -63.5q-112 0 -181 78t-69 206q0 157 99.5 280t276.5 157l48 -141q-169 -49 -219 -145l1 -1q46 21 96 21zM282 149q37 0 58.5 22.5t21.5 58.5q0 34 -21.5 56t-58.5 22q-43 0 -79 -42v-9q0 -49 23 -78.5t56 -29.5z
" />
    <glyph glyph-name="seven" unicode="7" horiz-adv-x="463" 
d="M12 687h430v-119l-206 -586l-183 33l190 507h-231v165z" />
    <glyph glyph-name="eight" unicode="8" horiz-adv-x="554" 
d="M276 -10q-110 0 -182.5 54.5t-72.5 145.5q0 67 33.5 113t87.5 68v3q-35 15 -58.5 53.5t-23.5 85.5q0 89 60.5 136.5t155.5 47.5q94 0 155.5 -48t61.5 -136q0 -47 -23.5 -85.5t-58.5 -53.5v-3q56 -20 89 -67t33 -114q0 -92 -73 -146t-184 -54zM276 439q22 0 37.5 16.5
t15.5 40.5q0 25 -15 42.5t-38 17.5q-22 0 -37 -17.5t-15 -42.5q0 -24 15 -40.5t37 -16.5zM276 139q30 0 50 22.5t20 54.5t-20 53t-50 21t-50 -21t-20 -53t20.5 -54.5t49.5 -22.5z" />
    <glyph glyph-name="nine" unicode="9" horiz-adv-x="565" 
d="M275 697q118 0 187.5 -79t69.5 -208q0 -156 -100 -279.5t-278 -157.5l-49 141q169 47 221 146l-1 1q-45 -22 -98 -22q-83 0 -143 59t-60 163q0 105 72 170.5t179 65.5zM199 454q0 -35 21.5 -56.5t57.5 -21.5q43 0 80 43v8q0 49 -23.5 79t-57.5 30q-36 0 -57 -23t-21 -59z
" />
    <glyph glyph-name="colon" unicode=":" horiz-adv-x="271" 
d="M137 308q-41 0 -69.5 28t-28.5 68q0 39 29 67t69 28t68.5 -28t28.5 -67q0 -40 -28.5 -68t-68.5 -28zM137 -10q-41 0 -69.5 28t-28.5 68q0 39 29 67t69 28t68.5 -28t28.5 -67q0 -40 -28.5 -68t-68.5 -28z" />
    <glyph glyph-name="semicolon" unicode=";" horiz-adv-x="256" 
d="M133 308q-41 0 -69.5 28t-28.5 68q0 39 29 67t69 28t68.5 -28t28.5 -67q0 -40 -28.5 -68t-68.5 -28zM17 -135l28 279h172l-73 -279h-127z" />
    <glyph glyph-name="less" unicode="&#x3c;" horiz-adv-x="567" 
d="M528 13l-476 196v121l476 201v-160l-262 -100l262 -102v-156z" />
    <glyph glyph-name="equal" unicode="=" horiz-adv-x="578" 
d="M49 321v145h480v-145h-480zM49 89v145h480v-145h-480z" />
    <glyph glyph-name="greater" unicode="&#x3e;" horiz-adv-x="567" 
d="M52 13v156l262 102l-262 100v160l476 -201v-121z" />
    <glyph glyph-name="question" unicode="?" horiz-adv-x="469" 
d="M118 250l-1 48q0 15 4 30.5t8 25.5t15.5 25t16 20.5t20 22t18.5 19.5q22 22 30 31.5t19.5 28.5t11.5 35q0 50 -53 50q-46 0 -87 -41l-120 110q34 40 95.5 66t125.5 26q98 0 161 -51t63 -150q0 -52 -24 -91t-66 -77q-53 -47 -64 -65q-8 -13 -9 -25l-5 -38h-159zM201 -10
q-41 0 -69.5 28t-28.5 68q0 39 29 67t69 28t68.5 -28t28.5 -67q0 -40 -28.5 -68t-68.5 -28z" />
    <glyph glyph-name="at" unicode="@" horiz-adv-x="881" 
d="M407 -154q-161 0 -267.5 109t-106.5 279q0 74 24.5 146.5t74 137.5t139 105.5t205.5 40.5q173 0 275 -106.5t102 -266.5q0 -31 -5.5 -62t-22 -66.5t-41.5 -62.5t-69 -44.5t-100 -17.5q-105 0 -129 59l-3 1q-42 -50 -105 -50q-74 0 -117 52t-43 137q0 26 5.5 56t19 63
t33.5 59.5t51.5 44t70.5 17.5q61 0 98 -47h2l5 37h166l-27 -278q-2 -14 -2 -20q0 -36 28 -36q31 0 53 28t31 62.5t9 66.5q0 123 -74 203t-211 80q-92 0 -162 -31.5t-108.5 -82.5t-57.5 -108.5t-19 -117.5q0 -133 80.5 -214.5t211.5 -81.5q101 0 190 60l48 -71
q-105 -80 -252 -80zM429 188q25 0 47 23.5t22 62.5q0 28 -14 45t-34 17q-25 0 -48 -24t-23 -62q0 -28 15 -45t35 -17z" />
    <glyph glyph-name="A" unicode="A" horiz-adv-x="693" 
d="M-2 0l258 710h182l257 -710h-198l-36 115h-228l-36 -115h-199zM282 274h130l-64 205h-2z" />
    <glyph glyph-name="B" unicode="B" horiz-adv-x="626" 
d="M53 0v710h279q119 0 177 -45.5t58 -127.5q0 -114 -109 -155v-2q146 -38 146 -180q0 -91 -59.5 -145.5t-175.5 -54.5h-316zM237 430h77q65 0 65 57q0 28 -16.5 43t-59.5 15h-66v-115zM237 163h98q72 0 72 65q0 30 -19 46.5t-53 16.5h-98v-128z" />
    <glyph glyph-name="C" unicode="C" horiz-adv-x="706" 
d="M401 -10q-163 0 -267 96t-104 268q0 159 99.5 263t271.5 104q78 0 155 -34.5t134 -103.5l-139 -119q-65 74 -150 74q-70 0 -120.5 -49t-50.5 -135q0 -76 46.5 -128.5t124.5 -52.5q91 0 150 72l139 -120q-49 -60 -124 -97.5t-165 -37.5z" />
    <glyph glyph-name="D" unicode="D" horiz-adv-x="707" 
d="M53 0v710h256q167 0 267.5 -98.5t100.5 -257.5t-97.5 -256.5t-267.5 -97.5h-259zM237 169h62q79 0 129 53.5t50 131.5q0 79 -47.5 133t-117.5 54h-76v-372z" />
    <glyph glyph-name="E" unicode="E" horiz-adv-x="574" 
d="M52 0v710h472v-169h-288v-107h225v-162h-225v-103h309v-169h-493z" />
    <glyph glyph-name="F" unicode="F" horiz-adv-x="564" 
d="M53 0v710h488v-169h-304v-134h249v-168h-249v-239h-184z" />
    <glyph glyph-name="G" unicode="G" horiz-adv-x="726" 
d="M401 -9q-161 0 -266 96.5t-105 266.5q0 159 97.5 263t265.5 104q81 0 161 -34.5t132 -97.5l-135 -113q-68 66 -158 66q-69 0 -116.5 -50.5t-47.5 -137.5q0 -80 46 -134.5t126 -54.5q55 0 106 23v66h-121v153h300v-330q-50 -37 -127.5 -61.5t-157.5 -24.5z" />
    <glyph glyph-name="H" unicode="H" horiz-adv-x="705" 
d="M53 0v710h192v-283h215v283h192v-710h-192v259h-215v-259h-192z" />
    <glyph glyph-name="I" unicode="I" horiz-adv-x="310" 
d="M57 0v710h196v-710h-196z" />
    <glyph glyph-name="J" unicode="J" horiz-adv-x="499" 
d="M217 -10q-135 0 -213 98l111 128q37 -49 84 -49q57 0 57 85v458h194v-454q0 -126 -57 -196t-176 -70z" />
    <glyph glyph-name="K" unicode="K" horiz-adv-x="661" 
d="M53 0v710h189v-238h3l172 238h240l-250 -304l260 -406h-233l-152 256l-40 -49v-207h-189z" />
    <glyph glyph-name="L" unicode="L" horiz-adv-x="543" 
d="M53 0v710h196v-541h277v-169h-473z" />
    <glyph glyph-name="M" unicode="M" horiz-adv-x="847" 
d="M53 0v710h192l178 -353h2l176 353h193v-710h-188v349h-3l-119 -221h-121l-119 223h-3v-351h-188z" />
    <glyph glyph-name="N" unicode="N" horiz-adv-x="727" 
d="M53 0v710h181l251 -402l2 1v401h187v-710h-187l-246 389h-2v-389h-186z" />
    <glyph glyph-name="O" unicode="O" horiz-adv-x="798" 
d="M399 -10q-164 0 -266.5 101.5t-102.5 263.5t103 264t266 102t266 -101.5t103 -264.5q0 -162 -103 -263.5t-266 -101.5zM399 167q74 0 121.5 54t47.5 134q0 79 -47.5 133.5t-121.5 54.5q-73 0 -121 -54t-48 -134t48 -134t121 -54z" />
    <glyph glyph-name="P" unicode="P" horiz-adv-x="604" 
d="M53 0v710h276q128 0 193 -68.5t65 -183.5q0 -118 -72 -179.5t-198 -61.5h-80v-217h-184zM237 381h57q46 0 71 21t25 60q0 36 -23.5 58.5t-72.5 22.5h-57v-162z" />
    <glyph glyph-name="Q" unicode="Q" horiz-adv-x="804" 
d="M787 94l-91 -119l-82 75q-91 -60 -214 -60q-164 0 -267 101.5t-103 263.5t103 264t267 102q163 0 265.5 -101.5t102.5 -264.5q0 -111 -52 -199zM229 355q0 -83 48 -137t123 -54q50 0 87 24l-57 51l72 85l55 -48q13 39 13 79q0 79 -47.5 133.5t-122.5 54.5
q-74 0 -122.5 -54t-48.5 -134z" />
    <glyph glyph-name="R" unicode="R" horiz-adv-x="644" 
d="M53 0v710h284q129 0 194 -68.5t65 -183.5q0 -153 -122 -212l162 -246h-221l-134 217h-44v-217h-184zM237 381h68q94 0 94 81q0 36 -22.5 58.5t-71.5 22.5h-68v-162z" />
    <glyph glyph-name="S" unicode="S" horiz-adv-x="559" 
d="M271 -10q-152 0 -263 114l108 132q78 -79 162 -79q31 0 46 13.5t15 32.5q0 22 -17.5 36t-72.5 32q-48 16 -80.5 32.5t-66.5 43t-51.5 66.5t-17.5 92q0 91 67.5 152t169.5 63q141 3 251 -95l-105 -135q-83 64 -135 64q-50 0 -50 -42q0 -19 18 -35t69 -36q111 -42 146 -66
q75 -51 75 -150q0 -64 -24.5 -111.5t-65.5 -73.5t-85.5 -38t-92.5 -12z" />
    <glyph glyph-name="T" unicode="T" horiz-adv-x="584" 
d="M195 0v541h-177v169h549v-169h-177v-541h-195z" />
    <glyph glyph-name="U" unicode="U" horiz-adv-x="691" 
d="M344 -10q-136 0 -217 80.5t-81 227.5v412h192v-401q0 -61 27 -101.5t79 -40.5q49 0 79.5 37.5t30.5 104.5v401h191v-412q0 -142 -78.5 -225t-222.5 -83z" />
    <glyph glyph-name="V" unicode="V" horiz-adv-x="686" 
d="M260 0l-260 710h207l136 -438h2l137 438h204l-259 -710h-167z" />
    <glyph glyph-name="W" unicode="W" horiz-adv-x="1020" 
d="M228 0l-221 710h203l103 -398h3l95 398h200l93 -397h3l103 397h203l-221 -710h-173l-105 432h-2l-111 -432h-173z" />
    <glyph glyph-name="X" unicode="X" horiz-adv-x="712" 
d="M7 0l222 357l-212 353h220l119 -206h3l121 206h215l-212 -352l222 -358h-224l-125 213h-3l-127 -213h-219z" />
    <glyph glyph-name="Y" unicode="Y" horiz-adv-x="641" 
d="M223 0v307l-229 403h218l108 -216h2l105 216h220l-230 -403v-307h-194z" />
    <glyph glyph-name="Z" unicode="Z" horiz-adv-x="607" 
d="M33 0v148l287 390l-2 3h-276v169h532v-143l-297 -395l2 -3h295v-169h-541z" />
    <glyph glyph-name="bracketleft" unicode="[" horiz-adv-x="363" 
d="M58 -151v888h274v-127h-127v-633h127v-128h-274z" />
    <glyph glyph-name="backslash" unicode="\" horiz-adv-x="446" 
d="M362 -111l-378 855l120 55l379 -855z" />
    <glyph glyph-name="bracketright" unicode="]" horiz-adv-x="363" 
d="M305 -151h-274v128h127v633h-127v127h274v-888z" />
    <glyph glyph-name="asciicircum" unicode="^" horiz-adv-x="449" 
d="M34 500l133 210h114l134 -210h-131l-59 109l-65 -109h-126z" />
    <glyph glyph-name="underscore" unicode="_" horiz-adv-x="526" 
d="M-9 -144v117h544v-117h-544z" />
    <glyph glyph-name="grave" unicode="`" horiz-adv-x="487" 
d="M204 518l-123 152l177 -1l103 -151h-157z" />
    <glyph glyph-name="a" unicode="a" horiz-adv-x="588" 
d="M249 -10q-101 0 -164.5 71t-63.5 184q0 112 62 183.5t155 71.5q75 0 127 -58h2v48h179v-490h-170v44l-2 1q-45 -55 -125 -55zM289 146q36 0 61 27.5t25 71.5q0 43 -25 70.5t-61 27.5q-38 0 -62.5 -27.5t-24.5 -70.5q0 -45 24 -72t63 -27z" />
    <glyph glyph-name="b" unicode="b" horiz-adv-x="596" 
d="M345 -10q-86 0 -130 56l-2 -1v-45h-169v736h179v-295h2q51 59 131 59q93 0 155 -71.5t62 -183.5q0 -113 -63.5 -184t-164.5 -71zM306 146q38 0 62.5 27.5t24.5 71.5q0 43 -24.5 70.5t-62.5 27.5q-40 0 -65.5 -27.5t-25.5 -70.5q0 -45 25.5 -72t65.5 -27z" />
    <glyph glyph-name="c" unicode="c" horiz-adv-x="517" 
d="M282 -10q-113 0 -186 70.5t-73 182.5q0 116 72 186t191 70q140 0 214 -81l-113 -117q-30 40 -84 40q-44 0 -72 -26.5t-28 -70.5q0 -43 28.5 -69.5t72.5 -26.5q54 0 95 40l105 -116q-74 -82 -222 -82z" />
    <glyph glyph-name="d" unicode="d" horiz-adv-x="595" 
d="M250 -10q-101 0 -164.5 71t-63.5 184q0 112 62 183.5t155 71.5q80 0 131 -59l2 1v294h179v-736h-170v45h-2q-45 -55 -129 -55zM289 146q39 0 64.5 27t25.5 72q0 43 -25.5 70.5t-64.5 27.5q-38 0 -62.5 -27.5t-24.5 -70.5q0 -44 24.5 -71.5t62.5 -27.5z" />
    <glyph glyph-name="e" unicode="e" horiz-adv-x="545" 
d="M523 249q0 -24 -4 -48h-321q6 -34 33.5 -52t69.5 -18q63 0 110 51l96 -106q-71 -86 -227 -86q-111 0 -184 71.5t-73 183.5q0 111 71.5 183t182.5 72q106 0 176 -70.5t70 -180.5zM276 364q-30 0 -51 -17.5t-27 -48.5h152q-13 66 -74 66z" />
    <glyph glyph-name="f" unicode="f" horiz-adv-x="349" 
d="M61 0v348h-44v142h44v70q0 92 45.5 139.5t122.5 47.5q46 0 84 -14t52 -26l-31 -122q-23 14 -51 14q-43 0 -43 -42v-67h80v-142h-80v-348h-179z" />
    <glyph glyph-name="g" unicode="g" horiz-adv-x="588" 
d="M275 -208q-117 0 -203 45l39 141q27 -17 67 -28.5t74 -11.5q57 0 88.5 22.5t31.5 56.5v43l-2 1q-48 -51 -129 -51q-97 0 -158.5 68.5t-61.5 171.5q0 109 60.5 179.5t149.5 70.5q81 0 134 -57l2 1v46h179v-419q0 -133 -62.5 -206t-208.5 -73zM289 167q37 0 61.5 24.5
t24.5 62.5t-24.5 63t-61.5 25t-62 -24.5t-25 -63.5q0 -38 25 -62.5t62 -24.5z" />
    <glyph glyph-name="h" unicode="h" horiz-adv-x="581" 
d="M44 0v736h179v-299l2 -1q56 64 143 64q82 0 128 -46t46 -158v-296h-179v253q0 51 -15.5 70t-53.5 19q-71 0 -71 -96v-246h-179z" />
    <glyph glyph-name="i" unicode="i" horiz-adv-x="275" 
d="M139 545q-45 0 -74 27.5t-29 69.5q0 40 29 67.5t74 27.5t73.5 -27t28.5 -68q0 -42 -28.5 -69.5t-73.5 -27.5zM48 0v490h179v-490h-179z" />
    <glyph glyph-name="j" unicode="j" horiz-adv-x="267" 
d="M136 545q-45 0 -74 27.5t-29 69.5q0 40 29 67.5t74 27.5t73.5 -27t28.5 -68q0 -42 -28.5 -69.5t-73.5 -27.5zM60 -208q-66 0 -120 19l29 137q23 -7 41 -7q22 0 28 13.5t6 45.5v490h179v-510q0 -188 -163 -188z" />
    <glyph glyph-name="k" unicode="k" horiz-adv-x="540" 
d="M44 0v736h175v-398h2l116 152h205l-159 -195l165 -295h-197l-97 180l-35 -38v-142h-175z" />
    <glyph glyph-name="l" unicode="l" horiz-adv-x="275" 
d="M48 0v736h179v-736h-179z" />
    <glyph glyph-name="m" unicode="m" horiz-adv-x="871" 
d="M44 0v490h179v-54h1q55 64 131 64q98 0 140 -69h2q57 69 159 69q175 0 175 -213v-287h-179v246q0 96 -59 96q-29 0 -47 -24t-18 -72v-246h-178v246q0 96 -59 96q-68 0 -68 -96v-246h-179z" />
    <glyph glyph-name="n" unicode="n" horiz-adv-x="576" 
d="M44 0v490h179v-52h2q53 62 138 62q82 0 128 -46t46 -158v-296h-179v253q0 51 -15 70t-49 19q-71 0 -71 -96v-246h-179z" />
    <glyph glyph-name="o" unicode="o" horiz-adv-x="583" 
d="M292 -10q-119 0 -194 71t-75 184t75 184t194 71q118 0 193 -71t75 -184t-75 -184t-193 -71zM292 147q38 0 63 27.5t25 70.5t-24.5 70t-63.5 27t-64 -27t-25 -70t25.5 -70.5t63.5 -27.5z" />
    <glyph glyph-name="p" unicode="p" horiz-adv-x="596" 
d="M44 -198v688h179v-49h2q51 59 131 59q93 0 155 -71.5t62 -183.5q0 -113 -63.5 -184t-164.5 -71q-74 0 -121 52l-2 -1v-239h-178zM306 146q38 0 62.5 27.5t24.5 71.5q0 43 -24.5 70.5t-62.5 27.5q-40 0 -65.5 -27.5t-25.5 -70.5q0 -45 25.5 -72t65.5 -27z" />
    <glyph glyph-name="q" unicode="q" horiz-adv-x="598" 
d="M374 -198v240l-2 1q-45 -53 -122 -53q-101 0 -164 71t-63 184q0 112 62 183.5t155 71.5q80 0 131 -59h2v49h179v-688h-178zM290 146q39 0 64.5 27t25.5 72q0 43 -25.5 70.5t-64.5 27.5q-38 0 -62.5 -27.5t-24.5 -70.5q0 -44 24.5 -71.5t62.5 -27.5z" />
    <glyph glyph-name="r" unicode="r" horiz-adv-x="373" 
d="M44 0v490h179v-66h2q53 76 136 76h1v-191q-15 1 -38 1q-50 0 -75.5 -26t-25.5 -70v-214h-179z" />
    <glyph glyph-name="s" unicode="s" horiz-adv-x="435" 
d="M208 -10q-118 0 -200 73l81 110q62 -55 122 -55q37 0 37 20q0 10 -12.5 17.5t-54.5 20.5q-156 45 -156 159q0 78 54 121.5t134 43.5q104 0 192 -62l-83 -119q-48 51 -103 51q-31 0 -31 -20q0 -15 61 -35q91 -29 128.5 -62t37.5 -101q0 -74 -53 -118t-154 -44z" />
    <glyph glyph-name="t" unicode="t" horiz-adv-x="378" 
d="M210 -10q-66 0 -106.5 41.5t-40.5 122.5v194h-53v142h53v154l179 18v-172h106v-142h-106v-156q0 -49 32 -49q18 0 36 7l44 -124q-63 -36 -144 -36z" />
    <glyph glyph-name="u" unicode="u" horiz-adv-x="566" 
d="M210 -10q-173 0 -173 213v287h178v-244q0 -52 15 -75.5t49 -23.5q30 0 48.5 24.5t18.5 72.5v246h179v-490h-179v52l-2 1q-51 -63 -134 -63z" />
    <glyph glyph-name="v" unicode="v" horiz-adv-x="543" 
d="M191 0l-187 490h187l81 -278h1l82 278h184l-187 -490h-161z" />
    <glyph glyph-name="w" unicode="w" horiz-adv-x="763" 
d="M169 0l-164 490h176l69 -236h1l62 236h136l62 -236h2l69 236h176l-165 -490h-138l-73 273h-1l-70 -273h-142z" />
    <glyph glyph-name="x" unicode="x" horiz-adv-x="524" 
d="M2 0l161 254l-158 236h199l57 -105h1l58 105h198l-158 -237l161 -253h-190l-68 106h-2l-70 -106h-189z" />
    <glyph glyph-name="y" unicode="y" horiz-adv-x="537" 
d="M108 -198l83 234l-187 454h191l80 -231h3l78 231h177l-251 -688h-174z" />
    <glyph glyph-name="z" unicode="z" horiz-adv-x="472" 
d="M24 0v117l194 232v3h-175v138h409v-116l-199 -233v-2h189v-139h-418z" />
    <glyph glyph-name="braceleft" unicode="{" horiz-adv-x="352" 
d="M238 -149q-53 0 -89 39t-36 101v160q0 21 -1.5 31.5t-9.5 23.5t-26.5 19t-49.5 6v126q31 0 50 6.5t26 20.5t9 24t2 28v160q0 60 35 100.5t90 40.5h90v-112h-19q-52 0 -52 -62v-155q0 -83 -50 -113v-1q19 -11 27.5 -18.5t15.5 -31t7 -65.5v-153q0 -32 9.5 -48t42.5 -16h19
v-111h-90z" />
    <glyph glyph-name="bar" unicode="|" horiz-adv-x="314" 
d="M89 -115v852h137v-852h-137z" />
    <glyph glyph-name="braceright" unicode="}" horiz-adv-x="352" 
d="M114 -149h-90v111h19q33 0 42.5 16t9.5 48v153q0 42 7 65.5t15.5 31t27.5 18.5v1q-50 30 -50 113v155q0 62 -52 62h-19v112h90q55 0 90 -40.5t35 -100.5v-160q0 -18 2 -28t9 -24t26 -20.5t50 -6.5v-126q-31 0 -49.5 -6t-26.5 -19t-9.5 -23.5t-1.5 -31.5v-160
q0 -62 -36 -101t-89 -39z" />
    <glyph glyph-name="asciitilde" unicode="~" horiz-adv-x="563" 
d="M374 184q-44 0 -101 22q-40 16 -59 16q-36 0 -61 -41l-116 47q21 64 61 104t94 40q45 0 103 -24q25 -13 53 -13q36 0 63 41l114 -39q-19 -66 -58.5 -109.5t-92.5 -43.5z" />
    <glyph glyph-name="uni00A0" unicode="&#xa0;" horiz-adv-x="229" 
 />
    <glyph glyph-name="exclamdown" unicode="&#xa1;" horiz-adv-x="299" 
d="M150 499q40 0 68.5 -28t28.5 -68q0 -39 -28.5 -67t-68.5 -28t-69 28t-29 67q0 40 28.5 68t69.5 28zM86 233h125l30 -480h-185z" />
    <glyph glyph-name="cent" unicode="&#xa2;" horiz-adv-x="522" 
d="M510 136q-57 -71 -166 -88v-95h-116v95q-91 17 -147 84.5t-56 165.5q0 97 55.5 164t147.5 86v88h116v-86q104 -18 164 -96l-119 -102q-37 44 -91 44q-42 0 -67.5 -26.5t-25.5 -69.5q0 -42 26.5 -70t68.5 -28q54 0 88 41z" />
    <glyph glyph-name="sterling" unicode="&#xa3;" horiz-adv-x="560" 
d="M36 0v167h54v120h-48v126h48v31q0 131 62 191.5t159 60.5q59 0 116 -25.5t95 -71.5l-91 -114q-48 48 -94 48q-57 0 -57 -93v-27h133v-126h-131v-120h257v-167h-503z" />
    <glyph glyph-name="currency" unicode="&#xa4;" horiz-adv-x="508" 
d="M438 389q0 -47 -21 -84l82 -83l-78 -79l-82 83q-40 -20 -85 -20q-47 0 -84 21l-83 -83l-78 78l83 83q-20 40 -20 84q0 45 20 82l-83 85l78 78l83 -83q39 21 84 21q46 0 84 -21l83 84l78 -79l-81 -83q20 -38 20 -84zM254 327q26 1 44.5 19.5t19.5 44.5q0 26 -19 45t-45 19
q-26 -1 -44.5 -19.5t-19.5 -44.5q0 -26 19 -44.5t45 -19.5z" />
    <glyph glyph-name="yen" unicode="&#xa5;" horiz-adv-x="620" 
d="M624 687l-169 -316h78v-90h-126v-44h126v-90h-126v-147h-195v147h-136v90h136v44h-136v90h89l-169 316h220l93 -219h1l91 219h223z" />
    <glyph glyph-name="brokenbar" unicode="&#xa6;" horiz-adv-x="314" 
d="M89 384v353h137v-353h-137zM89 -114v351h137v-351h-137z" />
    <glyph glyph-name="section" unicode="&#xa7;" horiz-adv-x="536" 
d="M438 149q47 -41 47 -118q0 -86 -59.5 -135.5t-155.5 -49.5q-136 0 -236 100l98 118q71 -65 136 -65q16 0 25 8t9 21q0 14 -11 24t-52 25q-40 16 -65.5 27.5t-54.5 28.5t-45 34t-27 41t-11 53q0 89 66 132q-46 46 -46 114q0 80 56.5 131t152.5 51q56 0 117 -23.5
t105 -61.5l-95 -119q-71 48 -118 48q-37 0 -37 -23q0 -10 10 -18.5t47 -24.5q119 -51 148 -72q59 -39 63 -108q1 -7 1 -15q0 -76 -68 -123zM203 293q0 -11 4 -19t23.5 -20t56.5 -27l23 -9q27 8 27 32q0 11 -3.5 17.5t-24.5 19t-63 29.5q-13 5 -16 7q-27 -7 -27 -30z" />
    <glyph glyph-name="dieresis" unicode="&#xa8;" horiz-adv-x="541" 
d="M152 518q-45 0 -73.5 27.5t-28.5 69.5q0 40 29 67.5t73 27.5q45 0 74 -27t29 -68q0 -42 -29 -69.5t-74 -27.5zM388 518q-45 0 -73.5 27.5t-28.5 69.5q0 40 29 67.5t73 27.5q45 0 74 -27t29 -68q0 -42 -29 -69.5t-74 -27.5z" />
    <glyph glyph-name="copyright" unicode="&#xa9;" horiz-adv-x="726" 
d="M362 -10q-137 0 -232.5 97t-95.5 233q0 135 96 232.5t234 97.5q137 0 232 -97t95 -233q0 -135 -95.5 -232.5t-233.5 -97.5zM362 94q94 0 158.5 66t64.5 160t-63.5 159.5t-158.5 65.5q-96 0 -159.5 -66t-63.5 -161q0 -94 63.5 -159t158.5 -65zM370 154q-71 0 -119.5 43
t-48.5 120q0 70 44.5 116.5t123.5 46.5t130 -62l-67 -57q-29 31 -63 31q-29 0 -49.5 -19.5t-20.5 -55.5q0 -31 19 -53t51 -22q37 0 63 31l67 -59q-51 -60 -130 -60z" />
    <glyph glyph-name="ordfeminine" unicode="&#xaa;" horiz-adv-x="375" 
d="M149 384q-60 0 -96.5 43t-36.5 113q0 68 35.5 110.5t90.5 42.5q52 0 85 -41l2 1v34h120v-296h-120v25h-2q-26 -32 -78 -32zM184 496q18 0 30 12t12 31t-12.5 31t-29.5 12q-19 0 -31.5 -12t-12.5 -31q0 -20 12.5 -31.5t31.5 -11.5z" />
    <glyph glyph-name="guillemotleft" unicode="&#xab;" horiz-adv-x="544" 
d="M298 53h-164l-111 195l113 198h163l-114 -198zM541 53h-164l-111 195l112 198h164l-115 -198z" />
    <glyph glyph-name="logicalnot" unicode="&#xac;" horiz-adv-x="536" 
d="M351 132v165h-314v145h462v-310h-148z" />
    <glyph glyph-name="registered" unicode="&#xae;" horiz-adv-x="726" 
d="M364 650q137 0 232 -97t95 -233q0 -135 -95.5 -232.5t-233.5 -97.5q-137 0 -232.5 97t-95.5 233q0 135 96 232.5t234 97.5zM362 94q94 0 158.5 66t64.5 160t-63.5 159.5t-158.5 65.5q-96 0 -159.5 -66t-63.5 -161q0 -94 63.5 -159t158.5 -65zM493 367q0 -70 -54 -97
l70 -110h-105l-56 95h-16v-95h-90v324h132q59 0 89 -32t30 -85zM332 402v-67h21q19 0 31.5 9t12.5 25q0 14 -12 23.5t-33 9.5h-20z" />
    <glyph glyph-name="macron" unicode="&#xaf;" horiz-adv-x="436" 
d="M58 541v132h320v-132h-320z" />
    <glyph glyph-name="degree" unicode="&#xb0;" horiz-adv-x="364" 
d="M182 437q-59 0 -101.5 41.5t-42.5 100.5q0 57 43.5 99.5t100.5 42.5q58 0 101.5 -42.5t43.5 -101.5q0 -58 -43 -99t-102 -41zM182 531q20 0 33 14t13 34t-13.5 34t-32.5 14q-20 0 -33.5 -14.5t-13.5 -34.5t13.5 -33.5t33.5 -13.5z" />
    <glyph glyph-name="plusminus" unicode="&#xb1;" horiz-adv-x="579" 
d="M215 193v166h-166v145h166v167h147v-167h167v-145h-167v-166h-147zM50 0v145h480v-145h-480z" />
    <glyph glyph-name="uni00B2" unicode="&#xb2;" horiz-adv-x="323" 
d="M12 435l-1 83l117 123q47 49 47 71q0 25 -26 25q-27 0 -50 -26l-94 66q22 34 62.5 56t93.5 22q60 0 102.5 -34.5t42.5 -91.5q0 -40 -13 -69t-58 -69l-44 -40l1 -2h117v-114h-297z" />
    <glyph glyph-name="uni00B3" unicode="&#xb3;" horiz-adv-x="331" 
d="M164 427q-59 0 -104 29.5t-60 75.5l114 44q9 -39 41 -39q14 0 23 8.5t9 20.5q0 32 -42 32h-24v91h31q14 0 23.5 7.5t9.5 18.5q0 12 -8 20.5t-21 8.5q-25 0 -34 -31l-104 55q12 38 51 62.5t88 24.5q64 0 105.5 -30.5t41.5 -84.5q0 -58 -48 -92v-1q62 -29 62 -97
q0 -57 -42.5 -90t-111.5 -33z" />
    <glyph glyph-name="acute" unicode="&#xb4;" horiz-adv-x="488" 
d="M122 530l109 152l175 1l-124 -153h-160z" />
    <glyph glyph-name="uni00B5" unicode="&#xb5;" horiz-adv-x="574" 
d="M44 -198v688h179v-244q0 -53 15 -76t49 -23q29 0 47.5 24.5t18.5 72.5v246h179v-490h-165l-11 50h-1q-46 -60 -110 -60q-25 0 -40 7l-2 -2q20 -69 20 -126v-67h-179z" />
    <glyph glyph-name="paragraph" unicode="&#xb6;" horiz-adv-x="525" 
d="M297 0v253q-106 9 -169 65t-63 151q0 98 69 158t190 60h149v-687h-176z" />
    <glyph glyph-name="periodcentered" unicode="&#xb7;" horiz-adv-x="278" 
d="M149 145q-41 0 -69.5 28t-28.5 68q0 39 29 67t69 28t68.5 -28t28.5 -67q0 -40 -28.5 -68t-68.5 -28z" />
    <glyph glyph-name="cedilla" unicode="&#xb8;" horiz-adv-x="353" 
d="M145 -194q-37 0 -67 6v68q23 -7 44 -7q40 0 40 25q0 28 -67 28v39l23 41h86l-21 -34l1 -2q111 -3 111 -81q0 -38 -38.5 -60.5t-111.5 -22.5z" />
    <glyph glyph-name="uni00B9" unicode="&#xb9;" horiz-adv-x="280" 
d="M113 435v256l-51 -36l-62 96l143 96h96v-412h-126z" />
    <glyph glyph-name="ordmasculine" unicode="&#xba;" horiz-adv-x="374" 
d="M182 384q-74 0 -120 43t-46 112t46 111.5t120 42.5t120.5 -43t46.5 -111q0 -69 -46.5 -112t-120.5 -43zM182 495q19 0 31 12.5t12 31.5t-12 31.5t-31 12.5t-31 -12t-12 -32t12.5 -32t30.5 -12z" />
    <glyph glyph-name="guillemotright" unicode="&#xbb;" horiz-adv-x="544" 
d="M3 53l114 195l-115 198h164l112 -198l-111 -195h-164zM246 53l113 195l-114 198h163l113 -198l-111 -195h-164z" />
    <glyph glyph-name="onequarter" unicode="&#xbc;" horiz-adv-x="804" 
d="M309 -28l-122 52l317 704l122 -53zM113 298v256l-51 -36l-62 96l143 96h96v-412h-126zM620 0v59h-152v74l179 279h99v-246h51v-107h-51v-59h-126zM569 157h62v98z" />
    <glyph glyph-name="onehalf" unicode="&#xbd;" horiz-adv-x="837" 
d="M309 -28l-122 52l317 704l122 -53zM113 298v256l-51 -36l-62 96l143 96h96v-412h-126zM526 0l-1 83l117 123q47 49 47 71q0 25 -26 25q-27 0 -50 -26l-94 66q22 34 62.5 56t93.5 22q60 0 102.5 -34.5t42.5 -91.5q0 -40 -13 -69t-58 -69l-44 -40l1 -2h117v-114h-297z" />
    <glyph glyph-name="threequarters" unicode="&#xbe;" horiz-adv-x="828" 
d="M333 -28l-122 52l317 704l122 -53zM164 290q-59 0 -104 29.5t-60 75.5l114 44q9 -39 41 -39q14 0 23 8.5t9 20.5q0 32 -42 32h-24v91h31q14 0 23.5 7.5t9.5 18.5q0 12 -8 20.5t-21 8.5q-25 0 -34 -31l-104 55q12 38 51 62.5t88 24.5q64 0 105.5 -30.5t41.5 -84.5
q0 -58 -48 -92v-1q62 -29 62 -97q0 -57 -42.5 -90t-111.5 -33zM644 0v59h-152v74l179 279h99v-246h51v-107h-51v-59h-126zM593 157h62v98z" />
    <glyph glyph-name="questiondown" unicode="&#xbf;" horiz-adv-x="446" 
d="M268 499q41 0 69.5 -28t28.5 -68q0 -39 -29 -67t-69 -28t-68.5 28t-28.5 67q0 40 28.5 68t68.5 28zM351 239l1 -48q0 -15 -4 -30.5t-8 -25.5t-15.5 -25t-16 -20.5t-20 -22t-18.5 -19.5q-22 -22 -30 -31.5t-19.5 -28.5t-11.5 -35q0 -50 53 -50q46 0 87 41l120 -110
q-34 -40 -95.5 -66t-125.5 -26q-98 0 -161 51t-63 150q0 52 24 91t66 77q53 47 64 65q8 13 9 25l5 38h159z" />
    <glyph glyph-name="Agrave" unicode="&#xc0;" horiz-adv-x="693" 
d="M276 754l-126 143h177l106 -143h-157zM-2 0l258 710h182l257 -710h-198l-36 115h-228l-36 -115h-199zM282 274h130l-64 205h-2z" />
    <glyph glyph-name="Aacute" unicode="&#xc1;" horiz-adv-x="693" 
d="M269 754l106 143h177l-126 -143h-157zM-2 0l258 710h182l257 -710h-198l-36 115h-228l-36 -115h-199zM282 274h130l-64 205h-2z" />
    <glyph glyph-name="Acircumflex" unicode="&#xc2;" horiz-adv-x="693" 
d="M160 754l87 143h194l93 -143h-150l-39 62h-2l-39 -62h-144zM-2 0l258 710h182l257 -710h-198l-36 115h-228l-36 -115h-199zM282 274h130l-64 205h-2z" />
    <glyph glyph-name="Atilde" unicode="&#xc3;" horiz-adv-x="693" 
d="M436 754q-38 0 -88 26q-34 18 -51 18q-32 0 -53 -43l-102 37q18 52 52.5 86t81.5 34q54 0 91 -25q24 -16 46 -16q33 0 55 43l100 -31q-17 -55 -51.5 -92t-80.5 -37zM-2 0l258 710h182l257 -710h-198l-36 115h-228l-36 -115h-199zM282 274h130l-64 205h-2z" />
    <glyph glyph-name="Adieresis" unicode="&#xc4;" horiz-adv-x="693" 
d="M227 746q-45 0 -73.5 27.5t-28.5 69.5q0 40 29 67.5t73 27.5q45 0 74 -27t29 -68q0 -42 -29 -69.5t-74 -27.5zM463 746q-45 0 -73.5 27.5t-28.5 69.5q0 40 29 67.5t73 27.5q45 0 74 -27t29 -68q0 -42 -29 -69.5t-74 -27.5zM-2 0l258 710h182l257 -710h-198l-36 115h-228
l-36 -115h-199zM282 274h130l-64 205h-2z" />
    <glyph glyph-name="Aring" unicode="&#xc5;" horiz-adv-x="693" 
d="M347 743q-47 0 -79 30t-32 76q0 45 31 75.5t80 30.5q47 0 79 -30t32 -76q0 -45 -31 -75.5t-80 -30.5zM347 816q14 0 24 10.5t10 24.5t-10 24t-24 10t-24 -10.5t-10 -24.5t10 -24t24 -10zM-2 0l258 710h182l257 -710h-198l-36 115h-228l-36 -115h-199zM282 274h130
l-64 205h-2z" />
    <glyph glyph-name="AE" unicode="&#xc6;" horiz-adv-x="938" 
d="M-2 0l305 710h590v-169h-291v-107h233v-163h-233v-102h312v-169h-494v115h-173l-47 -115h-202zM307 264h123v295h-2z" />
    <glyph glyph-name="Ccedilla" unicode="&#xc7;" horiz-adv-x="706" 
d="M401 173q91 0 150 72l139 -120q-47 -58 -118 -94.5t-157 -40.5l-11 -18l1 -2q111 -3 111 -81q0 -38 -38.5 -60.5t-111.5 -22.5q-37 0 -67 6v68q23 -7 44 -7q40 0 40 25q0 28 -67 28v39l17 30q-137 19 -220 112.5t-83 246.5q0 159 99.5 263t271.5 104q78 0 155 -34.5
t134 -103.5l-139 -119q-65 74 -150 74q-70 0 -120.5 -49t-50.5 -135q0 -76 46.5 -128.5t124.5 -52.5z" />
    <glyph glyph-name="Egrave" unicode="&#xc8;" horiz-adv-x="574" 
d="M238 752l-126 143h177l106 -143h-157zM52 0v710h472v-169h-288v-107h225v-162h-225v-103h309v-169h-493z" />
    <glyph glyph-name="Eacute" unicode="&#xc9;" horiz-adv-x="574" 
d="M168 752l106 143h177l-126 -143h-157zM52 0v710h472v-169h-288v-107h225v-162h-225v-103h309v-169h-493z" />
    <glyph glyph-name="Ecircumflex" unicode="&#xca;" horiz-adv-x="574" 
d="M102 752l87 143h194l93 -143h-150l-39 62h-2l-39 -62h-144zM52 0v710h472v-169h-288v-107h225v-162h-225v-103h309v-169h-493z" />
    <glyph glyph-name="Edieresis" unicode="&#xcb;" horiz-adv-x="574" 
d="M169 744q-45 0 -73.5 27.5t-28.5 69.5q0 40 29 67.5t73 27.5q45 0 74 -27t29 -68q0 -42 -29 -69.5t-74 -27.5zM405 744q-45 0 -73.5 27.5t-28.5 69.5q0 40 29 67.5t73 27.5q45 0 74 -27t29 -68q0 -42 -29 -69.5t-74 -27.5zM52 0v710h472v-169h-288v-107h225v-162h-225
v-103h309v-169h-493z" />
    <glyph glyph-name="Igrave" unicode="&#xcc;" horiz-adv-x="310" 
d="M85 752l-126 143h177l106 -143h-157zM57 0v710h196v-710h-196z" />
    <glyph glyph-name="Iacute" unicode="&#xcd;" horiz-adv-x="310" 
d="M67 752l106 143h177l-126 -143h-157zM57 0v710h196v-710h-196z" />
    <glyph glyph-name="Icircumflex" unicode="&#xce;" horiz-adv-x="310" 
d="M-31 752l87 143h194l93 -143h-150l-39 62h-2l-39 -62h-144zM57 0v710h196v-710h-196z" />
    <glyph glyph-name="Idieresis" unicode="&#xcf;" horiz-adv-x="310" 
d="M36 744q-45 0 -73.5 27.5t-28.5 69.5q0 40 29 67.5t73 27.5q45 0 74 -27t29 -68q0 -42 -29 -69.5t-74 -27.5zM272 744q-45 0 -73.5 27.5t-28.5 69.5q0 40 29 67.5t73 27.5q45 0 74 -27t29 -68q0 -42 -29 -69.5t-74 -27.5zM57 0v710h196v-710h-196z" />
    <glyph glyph-name="Eth" unicode="&#xd0;" horiz-adv-x="707" 
d="M309 710q167 0 267.5 -98.5t100.5 -257.5t-97.5 -256.5t-267.5 -97.5h-259v267h-43v159h43v284h256zM299 169q79 0 129 53.5t50 131.5q0 79 -47.5 133t-117.5 54h-76v-115h119v-159h-119v-98h62z" />
    <glyph glyph-name="Ntilde" unicode="&#xd1;" horiz-adv-x="727" 
d="M457 754q-38 0 -88 26q-34 18 -51 18q-32 0 -53 -43l-102 37q18 52 52.5 86t81.5 34q53 0 91 -25q24 -16 46 -16q33 0 55 43l100 -31q-17 -55 -51.5 -92t-80.5 -37zM53 0v710h181l251 -402l2 1v401h187v-710h-187l-246 389h-2v-389h-186z" />
    <glyph glyph-name="Ograve" unicode="&#xd2;" horiz-adv-x="798" 
d="M340 754l-126 143h177l106 -143h-157zM399 -10q-164 0 -266.5 101.5t-102.5 263.5t103 264t266 102t266 -101.5t103 -264.5q0 -162 -103 -263.5t-266 -101.5zM399 167q74 0 121.5 54t47.5 134q0 79 -47.5 133.5t-121.5 54.5q-73 0 -121 -54t-48 -134t48 -134t121 -54z
" />
    <glyph glyph-name="Oacute" unicode="&#xd3;" horiz-adv-x="798" 
d="M308 754l106 143h177l-126 -143h-157zM399 -10q-164 0 -266.5 101.5t-102.5 263.5t103 264t266 102t266 -101.5t103 -264.5q0 -162 -103 -263.5t-266 -101.5zM399 167q74 0 121.5 54t47.5 134q0 79 -47.5 133.5t-121.5 54.5q-73 0 -121 -54t-48 -134t48 -134t121 -54z
" />
    <glyph glyph-name="Ocircumflex" unicode="&#xd4;" horiz-adv-x="798" 
d="M213 754l87 143h194l93 -143h-150l-39 62h-2l-39 -62h-144zM399 -10q-164 0 -266.5 101.5t-102.5 263.5t103 264t266 102t266 -101.5t103 -264.5q0 -162 -103 -263.5t-266 -101.5zM399 167q74 0 121.5 54t47.5 134q0 79 -47.5 133.5t-121.5 54.5q-73 0 -121 -54t-48 -134
t48 -134t121 -54z" />
    <glyph glyph-name="Otilde" unicode="&#xd5;" horiz-adv-x="798" 
d="M489 754q-38 0 -88 26q-34 18 -51 18q-32 0 -53 -43l-102 37q18 52 52.5 86t81.5 34q53 0 91 -25q24 -16 46 -16q33 0 55 43l100 -31q-17 -55 -51.5 -92t-80.5 -37zM399 -10q-164 0 -266.5 101.5t-102.5 263.5t103 264t266 102t266 -101.5t103 -264.5q0 -162 -103 -263.5
t-266 -101.5zM399 167q74 0 121.5 54t47.5 134q0 79 -47.5 133.5t-121.5 54.5q-73 0 -121 -54t-48 -134t48 -134t121 -54z" />
    <glyph glyph-name="Odieresis" unicode="&#xd6;" horiz-adv-x="798" 
d="M280 746q-45 0 -73.5 27.5t-28.5 69.5q0 40 29 67.5t73 27.5q45 0 74 -27t29 -68q0 -42 -29 -69.5t-74 -27.5zM516 746q-45 0 -73.5 27.5t-28.5 69.5q0 40 29 67.5t73 27.5q45 0 74 -27t29 -68q0 -42 -29 -69.5t-74 -27.5zM399 -10q-164 0 -266.5 101.5t-102.5 263.5
t103 264t266 102t266 -101.5t103 -264.5q0 -162 -103 -263.5t-266 -101.5zM399 167q74 0 121.5 54t47.5 134q0 79 -47.5 133.5t-121.5 54.5q-73 0 -121 -54t-48 -134t48 -134t121 -54z" />
    <glyph glyph-name="multiply" unicode="&#xd7;" horiz-adv-x="525" 
d="M136 47l-104 105l127 126l-127 127l104 102l126 -126l127 127l104 -104l-127 -127l127 -127l-103 -103l-127 127z" />
    <glyph glyph-name="Oslash" unicode="&#xd8;" horiz-adv-x="798" 
d="M686 596q82 -98 82 -241q0 -162 -103 -263.5t-266 -101.5q-120 0 -211 57l-77 -85l-69 64l75 82q-87 100 -87 247q0 162 103 264t266 102q125 0 218 -62l74 81l69 -63zM230 355q0 -54 23 -97l235 259q-41 26 -89 26q-73 0 -121 -54t-48 -134zM399 167q74 0 121.5 54
t47.5 134q0 47 -19 90l-232 -256q38 -22 82 -22z" />
    <glyph glyph-name="Ugrave" unicode="&#xd9;" horiz-adv-x="691" 
d="M267 754l-126 143h177l106 -143h-157zM344 -10q-136 0 -217 80.5t-81 227.5v412h192v-401q0 -61 27 -101.5t79 -40.5q49 0 79.5 37.5t30.5 104.5v401h191v-412q0 -142 -78.5 -225t-222.5 -83z" />
    <glyph glyph-name="Uacute" unicode="&#xda;" horiz-adv-x="691" 
d="M256 754l106 143h177l-126 -143h-157zM344 -10q-136 0 -217 80.5t-81 227.5v412h192v-401q0 -61 27 -101.5t79 -40.5q49 0 79.5 37.5t30.5 104.5v401h191v-412q0 -142 -78.5 -225t-222.5 -83z" />
    <glyph glyph-name="Ucircumflex" unicode="&#xdb;" horiz-adv-x="691" 
d="M158 754l87 143h194l93 -143h-150l-39 62h-2l-39 -62h-144zM344 -10q-136 0 -217 80.5t-81 227.5v412h192v-401q0 -61 27 -101.5t79 -40.5q49 0 79.5 37.5t30.5 104.5v401h191v-412q0 -142 -78.5 -225t-222.5 -83z" />
    <glyph glyph-name="Udieresis" unicode="&#xdc;" horiz-adv-x="691" 
d="M225 746q-45 0 -73.5 27.5t-28.5 69.5q0 40 29 67.5t73 27.5q45 0 74 -27t29 -68q0 -42 -29 -69.5t-74 -27.5zM461 746q-45 0 -73.5 27.5t-28.5 69.5q0 40 29 67.5t73 27.5q45 0 74 -27t29 -68q0 -42 -29 -69.5t-74 -27.5zM344 -10q-136 0 -217 80.5t-81 227.5v412h192
v-401q0 -61 27 -101.5t79 -40.5q49 0 79.5 37.5t30.5 104.5v401h191v-412q0 -142 -78.5 -225t-222.5 -83z" />
    <glyph glyph-name="Yacute" unicode="&#xdd;" horiz-adv-x="641" 
d="M229 754l106 143h177l-126 -143h-157zM223 0v307l-229 403h218l108 -216h2l105 216h220l-230 -403v-307h-194z" />
    <glyph glyph-name="Thorn" unicode="&#xde;" horiz-adv-x="630" 
d="M53 0v710h184v-112h114q128 0 193 -69t65 -183q0 -116 -72 -177t-198 -61h-102v-108h-184zM237 273h80q46 0 70.5 20.5t24.5 57.5q0 35 -23 57.5t-72 22.5h-80v-158z" />
    <glyph glyph-name="germandbls" unicode="&#xdf;" horiz-adv-x="621" 
d="M294 -10v156h36q44 0 69 25t25 64q0 41 -27 65t-76 24h-21v142h13q34 0 55 19.5t21 47.5q0 29 -21.5 46t-57.5 17q-37 0 -62 -23.5t-25 -76.5v-496h-179v482q0 130 69.5 197.5t193.5 67.5q125 0 190 -57t65 -138q0 -88 -69 -135v-2q51 -26 80.5 -77t29.5 -115
q0 -108 -61.5 -170.5t-168.5 -62.5h-79z" />
    <glyph glyph-name="agrave" unicode="&#xe0;" horiz-adv-x="588" 
d="M236 545l-123 152l177 -1l103 -151h-157zM249 -10q-101 0 -164.5 71t-63.5 184q0 112 62 183.5t155 71.5q75 0 127 -58h2v48h179v-490h-170v44l-2 1q-45 -55 -125 -55zM289 146q36 0 61 27.5t25 71.5q0 43 -25 70.5t-61 27.5q-38 0 -62.5 -27.5t-24.5 -70.5q0 -45 24 -72
t63 -27z" />
    <glyph glyph-name="aacute" unicode="&#xe1;" horiz-adv-x="588" 
d="M190 545l109 152l175 1l-124 -153h-160zM249 -10q-101 0 -164.5 71t-63.5 184q0 112 62 183.5t155 71.5q75 0 127 -58h2v48h179v-490h-170v44l-2 1q-45 -55 -125 -55zM289 146q36 0 61 27.5t25 71.5q0 43 -25 70.5t-61 27.5q-38 0 -62.5 -27.5t-24.5 -70.5q0 -45 24 -72
t63 -27z" />
    <glyph glyph-name="acircumflex" unicode="&#xe2;" horiz-adv-x="588" 
d="M105 545l87 151h194l93 -151h-150l-39 70h-2l-39 -70h-144zM249 -10q-101 0 -164.5 71t-63.5 184q0 112 62 183.5t155 71.5q75 0 127 -58h2v48h179v-490h-170v44l-2 1q-45 -55 -125 -55zM289 146q36 0 61 27.5t25 71.5q0 43 -25 70.5t-61 27.5q-38 0 -62.5 -27.5
t-24.5 -70.5q0 -45 24 -72t63 -27z" />
    <glyph glyph-name="atilde" unicode="&#xe3;" horiz-adv-x="588" 
d="M380 547q-44 0 -88 25q-34 18 -51 18q-32 0 -53 -45l-102 41q18 57 53 93.5t82 36.5t90 -26q27 -16 46 -16q33 0 55 44l100 -33q-17 -60 -51.5 -99t-80.5 -39zM249 -10q-101 0 -164.5 71t-63.5 184q0 112 62 183.5t155 71.5q75 0 127 -58h2v48h179v-490h-170v44l-2 1
q-45 -55 -125 -55zM289 146q36 0 61 27.5t25 71.5q0 43 -25 70.5t-61 27.5q-38 0 -62.5 -27.5t-24.5 -70.5q0 -45 24 -72t63 -27z" />
    <glyph glyph-name="adieresis" unicode="&#xe4;" horiz-adv-x="588" 
d="M172 545q-45 0 -73.5 27.5t-28.5 69.5q0 40 29 67.5t73 27.5q45 0 74 -27t29 -68q0 -42 -29 -69.5t-74 -27.5zM408 545q-45 0 -73.5 27.5t-28.5 69.5q0 40 29 67.5t73 27.5q45 0 74 -27t29 -68q0 -42 -29 -69.5t-74 -27.5zM249 -10q-101 0 -164.5 71t-63.5 184
q0 112 62 183.5t155 71.5q75 0 127 -58h2v48h179v-490h-170v44l-2 1q-45 -55 -125 -55zM289 146q36 0 61 27.5t25 71.5q0 43 -25 70.5t-61 27.5q-38 0 -62.5 -27.5t-24.5 -70.5q0 -45 24 -72t63 -27z" />
    <glyph glyph-name="aring" unicode="&#xe5;" horiz-adv-x="588" 
d="M291 538q-47 0 -79 30t-32 76q0 45 31 75.5t80 30.5q47 0 79 -30t32 -76q0 -45 -31 -75.5t-80 -30.5zM291 611q14 0 24 10.5t10 24.5t-10 24t-24 10t-24 -10.5t-10 -24.5t10 -24t24 -10zM249 -10q-101 0 -164.5 71t-63.5 184q0 112 62 183.5t155 71.5q75 0 127 -58h2v48
h179v-490h-170v44l-2 1q-45 -55 -125 -55zM289 146q36 0 61 27.5t25 71.5q0 43 -25 70.5t-61 27.5q-38 0 -62.5 -27.5t-24.5 -70.5q0 -45 24 -72t63 -27z" />
    <glyph glyph-name="ae" unicode="&#xe6;" horiz-adv-x="790" 
d="M769 246q0 -19 -5 -44h-308q22 -68 104 -68q53 0 98 51l96 -109q-32 -40 -85.5 -63t-117.5 -23q-109 0 -171 58h-3q-63 -58 -174 -58q-92 0 -138.5 41.5t-46.5 110.5q0 153 203 153l63 1q0 36 -14 50.5t-45 14.5q-53 0 -115 -32l-62 125q88 46 194 46q91 0 137 -51h5
q62 51 150 51q102 0 168.5 -72t66.5 -182zM528 362q-59 0 -74 -64h143q-12 64 -69 64zM226 111q29 0 43.5 16t14.5 40v38l-42 -1q-58 -2 -58 -48q0 -45 42 -45z" />
    <glyph glyph-name="ccedilla" unicode="&#xe7;" horiz-adv-x="517" 
d="M504 72q-69 -78 -208 -82l-11 -18l1 -2q111 -3 111 -81q0 -38 -38.5 -60.5t-111.5 -22.5q-37 0 -67 6v68q23 -7 44 -7q40 0 40 25q0 28 -67 28v39l18 32q-87 20 -139.5 86t-52.5 160q0 116 72 186t191 70q140 0 214 -81l-113 -117q-30 40 -84 40q-44 0 -72 -26.5
t-28 -70.5q0 -43 28.5 -69.5t72.5 -26.5q54 0 95 40z" />
    <glyph glyph-name="egrave" unicode="&#xe8;" horiz-adv-x="545" 
d="M375 545h-157l-123 152l177 -1zM523 249q0 -24 -4 -48h-321q6 -34 33.5 -52t69.5 -18q63 0 110 51l96 -106q-71 -86 -227 -86q-111 0 -184 71.5t-73 183.5q0 111 71.5 183t182.5 72q106 0 176 -70.5t70 -180.5zM276 364q-30 0 -51 -17.5t-27 -48.5h152q-13 66 -74 66z
" />
    <glyph glyph-name="eacute" unicode="&#xe9;" horiz-adv-x="545" 
d="M491 698l-124 -153h-160l109 152zM523 249q0 -24 -4 -48h-321q6 -34 33.5 -52t69.5 -18q63 0 110 51l96 -106q-71 -86 -227 -86q-111 0 -184 71.5t-73 183.5q0 111 71.5 183t182.5 72q106 0 176 -70.5t70 -180.5zM276 364q-30 0 -51 -17.5t-27 -48.5h152q-13 66 -74 66z
" />
    <glyph glyph-name="ecircumflex" unicode="&#xea;" horiz-adv-x="545" 
d="M275 615l-39 -70h-144l87 151h194l93 -151h-150l-39 70h-2zM523 249q0 -24 -4 -48h-321q6 -34 33.5 -52t69.5 -18q63 0 110 51l96 -106q-71 -86 -227 -86q-111 0 -184 71.5t-73 183.5q0 111 71.5 183t182.5 72q106 0 176 -70.5t70 -180.5zM276 364q-30 0 -51 -17.5
t-27 -48.5h152q-13 66 -74 66z" />
    <glyph glyph-name="edieresis" unicode="&#xeb;" horiz-adv-x="545" 
d="M159 545q-45 0 -73.5 27.5t-28.5 69.5q0 40 29 67.5t73 27.5q45 0 74 -27t29 -68q0 -42 -29 -69.5t-74 -27.5zM395 545q-45 0 -73.5 27.5t-28.5 69.5q0 40 29 67.5t73 27.5q45 0 74 -27t29 -68q0 -42 -29 -69.5t-74 -27.5zM523 249q0 -24 -4 -48h-321q6 -34 33.5 -52
t69.5 -18q63 0 110 51l96 -106q-71 -86 -227 -86q-111 0 -184 71.5t-73 183.5q0 111 71.5 183t182.5 72q106 0 176 -70.5t70 -180.5zM276 364q-30 0 -51 -17.5t-27 -48.5h152q-13 66 -74 66z" />
    <glyph glyph-name="igrave" unicode="&#xec;" horiz-adv-x="275" 
d="M62 557l-79 153l174 -1l65 -152h-160zM48 0v490h179v-490h-179z" />
    <glyph glyph-name="iacute" unicode="&#xed;" horiz-adv-x="275" 
d="M61 545l109 152l175 1l-124 -153h-160zM48 0v490h179v-490h-179z" />
    <glyph glyph-name="icircumflex" unicode="&#xee;" horiz-adv-x="275" 
d="M-48 545l87 151h194l93 -151h-150l-39 70h-2l-39 -70h-144zM48 0v490h179v-490h-179z" />
    <glyph glyph-name="idieresis" unicode="&#xef;" horiz-adv-x="275" 
d="M29 545q-41 0 -70 28.5t-29 68.5q0 39 29 67.5t70 28.5q39 0 68 -28.5t29 -67.5q0 -40 -29 -68.5t-68 -28.5zM245 545q-40 0 -69 28.5t-29 68.5q0 39 29 67.5t69 28.5t69 -28.5t29 -67.5q0 -40 -29 -68.5t-69 -28.5zM48 0v490h179v-490h-179z" />
    <glyph glyph-name="eth" unicode="&#xf0;" horiz-adv-x="582" 
d="M425 588q134 -137 134 -318q0 -134 -73 -207t-194 -73q-118 0 -193.5 69.5t-75.5 176.5q0 110 63.5 179.5t154.5 69.5q36 0 69 -15l1 2q-77 95 -217 151l65 131q87 -33 163 -82l78 102l109 -81zM292 147q38 0 63 27.5t25 70.5t-24.5 70t-63.5 27t-64 -27t-25 -70
t25.5 -70.5t63.5 -27.5z" />
    <glyph glyph-name="ntilde" unicode="&#xf1;" horiz-adv-x="576" 
d="M391 547q-44 0 -88 25q-34 18 -51 18q-32 0 -53 -45l-102 41q18 57 53 93.5t82 36.5t90 -26q27 -16 46 -16q33 0 55 44l100 -33q-17 -60 -51.5 -99t-80.5 -39zM44 0v490h179v-52h2q53 62 138 62q82 0 128 -46t46 -158v-296h-179v253q0 51 -15 70t-49 19q-71 0 -71 -96
v-246h-179z" />
    <glyph glyph-name="ograve" unicode="&#xf2;" horiz-adv-x="583" 
d="M231 545l-123 152l177 -1l103 -151h-157zM292 -10q-119 0 -194 71t-75 184t75 184t194 71q118 0 193 -71t75 -184t-75 -184t-193 -71zM292 147q38 0 63 27.5t25 70.5t-24.5 70t-63.5 27t-64 -27t-25 -70t25.5 -70.5t63.5 -27.5z" />
    <glyph glyph-name="oacute" unicode="&#xf3;" horiz-adv-x="583" 
d="M215 545l109 152l175 1l-124 -153h-160zM292 -10q-119 0 -194 71t-75 184t75 184t194 71q118 0 193 -71t75 -184t-75 -184t-193 -71zM292 147q38 0 63 27.5t25 70.5t-24.5 70t-63.5 27t-64 -27t-25 -70t25.5 -70.5t63.5 -27.5z" />
    <glyph glyph-name="ocircumflex" unicode="&#xf4;" horiz-adv-x="583" 
d="M106 545l87 151h194l93 -151h-150l-39 70h-2l-39 -70h-144zM292 -10q-119 0 -194 71t-75 184t75 184t194 71q118 0 193 -71t75 -184t-75 -184t-193 -71zM292 147q38 0 63 27.5t25 70.5t-24.5 70t-63.5 27t-64 -27t-25 -70t25.5 -70.5t63.5 -27.5z" />
    <glyph glyph-name="otilde" unicode="&#xf5;" horiz-adv-x="583" 
d="M381 547q-44 0 -88 25q-34 18 -51 18q-32 0 -53 -45l-102 41q18 57 53 93.5t82 36.5t90 -26q27 -16 46 -16q33 0 55 44l100 -33q-17 -60 -51.5 -99t-80.5 -39zM292 -10q-119 0 -194 71t-75 184t75 184t194 71q118 0 193 -71t75 -184t-75 -184t-193 -71zM292 147
q38 0 63 27.5t25 70.5t-24.5 70t-63.5 27t-64 -27t-25 -70t25.5 -70.5t63.5 -27.5z" />
    <glyph glyph-name="odieresis" unicode="&#xf6;" horiz-adv-x="583" 
d="M173 545q-45 0 -73.5 27.5t-28.5 69.5q0 40 29 67.5t73 27.5q45 0 74 -27t29 -68q0 -42 -29 -69.5t-74 -27.5zM409 545q-45 0 -73.5 27.5t-28.5 69.5q0 40 29 67.5t73 27.5q45 0 74 -27t29 -68q0 -42 -29 -69.5t-74 -27.5zM292 -10q-119 0 -194 71t-75 184t75 184t194 71
q118 0 193 -71t75 -184t-75 -184t-193 -71zM292 147q38 0 63 27.5t25 70.5t-24.5 70t-63.5 27t-64 -27t-25 -70t25.5 -70.5t63.5 -27.5z" />
    <glyph glyph-name="divide" unicode="&#xf7;" horiz-adv-x="553" 
d="M273 391q-40 0 -66.5 25t-26.5 63q0 36 26.5 61t66.5 25t66 -25t26 -61q0 -38 -26 -63t-66 -25zM37 205v145h480v-145h-480zM273 -10q-40 0 -66.5 25t-26.5 63q0 36 26.5 61t66.5 25t66 -25t26 -61q0 -38 -26 -63t-66 -25z" />
    <glyph glyph-name="oslash" unicode="&#xf8;" horiz-adv-x="583" 
d="M497 417q63 -69 63 -172q0 -113 -75 -184t-193 -71q-86 0 -152 39l-51 -56l-57 53l49 53q-58 67 -58 166q0 113 75 184t194 71q82 0 143 -35l46 50l58 -53zM203 245q0 -17 4 -29l112 122q-12 4 -27 4q-39 0 -64 -27t-25 -70zM292 147q38 0 63 27.5t25 70.5q0 20 -6 38
l-118 -128q18 -8 36 -8z" />
    <glyph glyph-name="ugrave" unicode="&#xf9;" horiz-adv-x="566" 
d="M221 545l-123 152l177 -1l103 -151h-157zM210 -10q-173 0 -173 213v287h178v-244q0 -52 15 -75.5t49 -23.5q30 0 48.5 24.5t18.5 72.5v246h179v-490h-179v52l-2 1q-51 -63 -134 -63z" />
    <glyph glyph-name="uacute" unicode="&#xfa;" horiz-adv-x="566" 
d="M198 545l109 152l175 1l-124 -153h-160zM210 -10q-173 0 -173 213v287h178v-244q0 -52 15 -75.5t49 -23.5q30 0 48.5 24.5t18.5 72.5v246h179v-490h-179v52l-2 1q-51 -63 -134 -63z" />
    <glyph glyph-name="ucircumflex" unicode="&#xfb;" horiz-adv-x="566" 
d="M99 545l87 151h194l93 -151h-150l-39 70h-2l-39 -70h-144zM210 -10q-173 0 -173 213v287h178v-244q0 -52 15 -75.5t49 -23.5q30 0 48.5 24.5t18.5 72.5v246h179v-490h-179v52l-2 1q-51 -63 -134 -63z" />
    <glyph glyph-name="udieresis" unicode="&#xfc;" horiz-adv-x="566" 
d="M166 545q-45 0 -73.5 27.5t-28.5 69.5q0 40 29 67.5t73 27.5q45 0 74 -27t29 -68q0 -42 -29 -69.5t-74 -27.5zM402 545q-45 0 -73.5 27.5t-28.5 69.5q0 40 29 67.5t73 27.5q45 0 74 -27t29 -68q0 -42 -29 -69.5t-74 -27.5zM210 -10q-173 0 -173 213v287h178v-244
q0 -52 15 -75.5t49 -23.5q30 0 48.5 24.5t18.5 72.5v246h179v-490h-179v52l-2 1q-51 -63 -134 -63z" />
    <glyph glyph-name="yacute" unicode="&#xfd;" horiz-adv-x="537" 
d="M182 545l109 152l175 1l-124 -153h-160zM108 -198l83 234l-187 454h191l80 -231h3l78 231h177l-251 -688h-174z" />
    <glyph glyph-name="thorn" unicode="&#xfe;" horiz-adv-x="596" 
d="M44 -198v934h179v-295h2q51 59 131 59q93 0 155 -71.5t62 -183.5q0 -113 -63.5 -184t-164.5 -71q-74 0 -121 52l-2 -1v-239h-178zM306 146q38 0 62.5 27.5t24.5 71.5q0 43 -24.5 70.5t-62.5 27.5q-40 0 -65.5 -27.5t-25.5 -70.5q0 -45 25.5 -72t65.5 -27z" />
    <glyph glyph-name="ydieresis" unicode="&#xff;" horiz-adv-x="537" 
d="M152 545q-45 0 -73.5 27.5t-28.5 69.5q0 40 29 67.5t73 27.5q45 0 74 -27t29 -68q0 -42 -29 -69.5t-74 -27.5zM388 545q-45 0 -73.5 27.5t-28.5 69.5q0 40 29 67.5t73 27.5q45 0 74 -27t29 -68q0 -42 -29 -69.5t-74 -27.5zM108 -198l83 234l-187 454h191l80 -231h3
l78 231h177l-251 -688h-174z" />
    <glyph glyph-name="Amacron" unicode="&#x100;" horiz-adv-x="693" 
d="M186 767v125h320v-125h-320zM-2 0l258 710h182l257 -710h-198l-36 115h-228l-36 -115h-199zM282 274h130l-64 205h-2z" />
    <glyph glyph-name="amacron" unicode="&#x101;" horiz-adv-x="588" 
d="M130 568v132h320v-132h-320zM249 -10q-101 0 -164.5 71t-63.5 184q0 112 62 183.5t155 71.5q75 0 127 -58h2v48h179v-490h-170v44l-2 1q-45 -55 -125 -55zM289 146q36 0 61 27.5t25 71.5q0 43 -25 70.5t-61 27.5q-38 0 -62.5 -27.5t-24.5 -70.5q0 -45 24 -72t63 -27z" />
    <glyph glyph-name="Abreve" unicode="&#x102;" horiz-adv-x="693" 
d="M346 747q-79 0 -126 37.5t-54 112.5h127q2 -18 17 -30t36 -12q22 0 37 12t17 30h127q-6 -69 -51 -109.5t-130 -40.5zM-2 0l258 710h182l257 -710h-198l-36 115h-228l-36 -115h-199zM282 274h130l-64 205h-2z" />
    <glyph glyph-name="abreve" unicode="&#x103;" horiz-adv-x="588" 
d="M290 534q-72 0 -123 43t-57 119h127q2 -18 17 -30t36 -12q22 0 37 12t17 30h127q-5 -70 -53.5 -116t-127.5 -46zM249 -10q-101 0 -164.5 71t-63.5 184q0 112 62 183.5t155 71.5q75 0 127 -58h2v48h179v-490h-170v44l-2 1q-45 -55 -125 -55zM289 146q36 0 61 27.5t25 71.5
q0 43 -25 70.5t-61 27.5q-38 0 -62.5 -27.5t-24.5 -70.5q0 -45 24 -72t63 -27z" />
    <glyph glyph-name="Aogonek" unicode="&#x104;" horiz-adv-x="693" 
d="M663 0q-44 0 -71.5 -20t-27.5 -46q0 -38 36 -38q9 0 15.5 0.5t11.5 2t8 1.5l7 -82q-29 -11 -77 -11q-58 0 -92 27.5t-34 70.5q0 61 57 98l-35 112h-228l-36 -115h-199l258 710h182l257 -710h-32zM282 274h130l-64 205h-2z" />
    <glyph glyph-name="aogonek" unicode="&#x105;" horiz-adv-x="588" 
d="M367 490h179v-490h-10q-44 0 -71.5 -20t-27.5 -46q0 -38 36 -38q9 0 15.5 0.5t11.5 2t8 1.5l7 -82q-29 -11 -77 -11q-58 0 -92 27.5t-34 70.5q0 28 15.5 56t48.5 46v37l-2 1q-45 -55 -125 -55q-101 0 -164.5 71t-63.5 184q0 112 62 183.5t155 71.5q75 0 127 -58h2v48z
M289 146q36 0 61 27.5t25 71.5q0 43 -25 70.5t-61 27.5q-38 0 -62.5 -27.5t-24.5 -70.5q0 -45 24 -72t63 -27z" />
    <glyph glyph-name="Cacute" unicode="&#x106;" horiz-adv-x="706" 
d="M308 754l106 143h177l-126 -143h-157zM401 -10q-163 0 -267 96t-104 268q0 159 99.5 263t271.5 104q78 0 155 -34.5t134 -103.5l-139 -119q-65 74 -150 74q-70 0 -120.5 -49t-50.5 -135q0 -76 46.5 -128.5t124.5 -52.5q91 0 150 72l139 -120q-49 -60 -124 -97.5
t-165 -37.5z" />
    <glyph glyph-name="cacute" unicode="&#x107;" horiz-adv-x="517" 
d="M204 545l109 152l175 1l-124 -153h-160zM282 -10q-113 0 -186 70.5t-73 182.5q0 116 72 186t191 70q140 0 214 -81l-113 -117q-30 40 -84 40q-44 0 -72 -26.5t-28 -70.5q0 -43 28.5 -69.5t72.5 -26.5q54 0 95 40l105 -116q-74 -82 -222 -82z" />
    <glyph glyph-name="Ccircumflex" unicode="&#x108;" horiz-adv-x="706" 
d="M214 754l87 143h194l93 -143h-150l-39 62h-2l-39 -62h-144zM401 -10q-163 0 -267 96t-104 268q0 159 99.5 263t271.5 104q78 0 155 -34.5t134 -103.5l-139 -119q-65 74 -150 74q-70 0 -120.5 -49t-50.5 -135q0 -76 46.5 -128.5t124.5 -52.5q91 0 150 72l139 -120
q-49 -60 -124 -97.5t-165 -37.5z" />
    <glyph glyph-name="ccircumflex" unicode="&#x109;" horiz-adv-x="517" 
d="M100 545l87 151h194l93 -151h-150l-39 70h-2l-39 -70h-144zM282 -10q-113 0 -186 70.5t-73 182.5q0 116 72 186t191 70q140 0 214 -81l-113 -117q-30 40 -84 40q-44 0 -72 -26.5t-28 -70.5q0 -43 28.5 -69.5t72.5 -26.5q54 0 95 40l105 -116q-74 -82 -222 -82z" />
    <glyph glyph-name="Cdotaccent" unicode="&#x10a;" horiz-adv-x="706" 
d="M401 746q-45 0 -74 27.5t-29 69.5q0 40 29 67.5t74 27.5t73.5 -27t28.5 -68q0 -42 -28.5 -69.5t-73.5 -27.5zM401 -10q-163 0 -267 96t-104 268q0 159 99.5 263t271.5 104q78 0 155 -34.5t134 -103.5l-139 -119q-65 74 -150 74q-70 0 -120.5 -49t-50.5 -135
q0 -76 46.5 -128.5t124.5 -52.5q91 0 150 72l139 -120q-49 -60 -124 -97.5t-165 -37.5z" />
    <glyph glyph-name="cdotaccent" unicode="&#x10b;" horiz-adv-x="517" 
d="M287 545q-45 0 -74 27.5t-29 69.5q0 40 29 67.5t74 27.5t73.5 -27t28.5 -68q0 -42 -28.5 -69.5t-73.5 -27.5zM282 -10q-113 0 -186 70.5t-73 182.5q0 116 72 186t191 70q140 0 214 -81l-113 -117q-30 40 -84 40q-44 0 -72 -26.5t-28 -70.5q0 -43 28.5 -69.5t72.5 -26.5
q54 0 95 40l105 -116q-74 -82 -222 -82z" />
    <glyph glyph-name="Ccaron" unicode="&#x10c;" horiz-adv-x="706" 
d="M307 754l-93 143h150l39 -62h2l39 62h144l-87 -143h-194zM401 -10q-163 0 -267 96t-104 268q0 159 99.5 263t271.5 104q78 0 155 -34.5t134 -103.5l-139 -119q-65 74 -150 74q-70 0 -120.5 -49t-50.5 -135q0 -76 46.5 -128.5t124.5 -52.5q91 0 150 72l139 -120
q-49 -60 -124 -97.5t-165 -37.5z" />
    <glyph glyph-name="ccaron" unicode="&#x10d;" horiz-adv-x="517" 
d="M192 545l-93 151h150l39 -70h2l39 70h144l-87 -151h-194zM282 -10q-113 0 -186 70.5t-73 182.5q0 116 72 186t191 70q140 0 214 -81l-113 -117q-30 40 -84 40q-44 0 -72 -26.5t-28 -70.5q0 -43 28.5 -69.5t72.5 -26.5q54 0 95 40l105 -116q-74 -82 -222 -82z" />
    <glyph glyph-name="Dcaron" unicode="&#x10e;" horiz-adv-x="707" 
d="M235 752l-93 143h150l39 -62h2l39 62h144l-87 -143h-194zM53 0v710h256q167 0 267.5 -98.5t100.5 -257.5t-97.5 -256.5t-267.5 -97.5h-259zM237 169h62q79 0 129 53.5t50 131.5q0 79 -47.5 133t-117.5 54h-76v-372z" />
    <glyph glyph-name="dcaron" unicode="&#x10f;" horiz-adv-x="654" 
d="M596 574l34 226h167l-77 -226h-124zM250 -10q-101 0 -164.5 71t-63.5 184q0 112 62 183.5t155 71.5q80 0 131 -59l2 1v294h179v-736h-170v45h-2q-45 -55 -129 -55zM289 146q39 0 64.5 27t25.5 72q0 43 -25.5 70.5t-64.5 27.5q-38 0 -62.5 -27.5t-24.5 -70.5
q0 -44 24.5 -71.5t62.5 -27.5z" />
    <glyph glyph-name="Dcroat" unicode="&#x110;" horiz-adv-x="707" 
d="M309 710q167 0 267.5 -98.5t100.5 -257.5t-97.5 -256.5t-267.5 -97.5h-259v267h-43v159h43v284h256zM299 169q79 0 129 53.5t50 131.5q0 79 -47.5 133t-117.5 54h-76v-115h119v-159h-119v-98h62z" />
    <glyph glyph-name="dcroat" unicode="&#x111;" horiz-adv-x="597" 
d="M604 637v-101h-53v-536h-170v45h-2q-45 -55 -129 -55q-101 0 -164.5 71t-63.5 184q0 112 62 183.5t155 71.5q80 0 131 -59l2 1v94h-155v101h155v99h179v-99h53zM289 146q39 0 64.5 27t25.5 72q0 43 -25.5 70.5t-64.5 27.5q-38 0 -62.5 -27.5t-24.5 -70.5
q0 -44 24.5 -71.5t62.5 -27.5z" />
    <glyph glyph-name="Emacron" unicode="&#x112;" horiz-adv-x="574" 
d="M128 765v125h320v-125h-320zM52 0v710h472v-169h-288v-107h225v-162h-225v-103h309v-169h-493z" />
    <glyph glyph-name="emacron" unicode="&#x113;" horiz-adv-x="545" 
d="M437 700v-132h-320v132h320zM523 249q0 -24 -4 -48h-321q6 -34 33.5 -52t69.5 -18q63 0 110 51l96 -106q-71 -86 -227 -86q-111 0 -184 71.5t-73 183.5q0 111 71.5 183t182.5 72q106 0 176 -70.5t70 -180.5zM276 364q-30 0 -51 -17.5t-27 -48.5h152q-13 66 -74 66z" />
    <glyph glyph-name="Ebreve" unicode="&#x114;" horiz-adv-x="574" 
d="M288 745q-79 0 -126 37.5t-54 112.5h127q2 -18 17 -30t36 -12q22 0 37 12t17 30h127q-6 -69 -51 -109.5t-130 -40.5zM52 0v710h472v-169h-288v-107h225v-162h-225v-103h309v-169h-493z" />
    <glyph glyph-name="ebreve" unicode="&#x115;" horiz-adv-x="545" 
d="M277 534q-72 0 -123 43t-57 119h127q2 -18 17 -30t36 -12q22 0 37 12t17 30h127q-5 -70 -53.5 -116t-127.5 -46zM523 249q0 -24 -4 -48h-321q6 -34 33.5 -52t69.5 -18q63 0 110 51l96 -106q-71 -86 -227 -86q-111 0 -184 71.5t-73 183.5q0 111 71.5 183t182.5 72
q106 0 176 -70.5t70 -180.5zM276 364q-30 0 -51 -17.5t-27 -48.5h152q-13 66 -74 66z" />
    <glyph glyph-name="Edotaccent" unicode="&#x116;" horiz-adv-x="574" 
d="M289 744q-45 0 -74 27.5t-29 69.5q0 40 29 67.5t74 27.5t73.5 -27t28.5 -68q0 -42 -28.5 -69.5t-73.5 -27.5zM52 0v710h472v-169h-288v-107h225v-162h-225v-103h309v-169h-493z" />
    <glyph glyph-name="edotaccent" unicode="&#x117;" horiz-adv-x="545" 
d="M279 545q-45 0 -74 27.5t-29 69.5q0 40 29 67.5t74 27.5t73.5 -27t28.5 -68q0 -42 -28.5 -69.5t-73.5 -27.5zM523 249q0 -24 -4 -48h-321q6 -34 33.5 -52t69.5 -18q63 0 110 51l96 -106q-71 -86 -227 -86q-111 0 -184 71.5t-73 183.5q0 111 71.5 183t182.5 72
q106 0 176 -70.5t70 -180.5zM276 364q-30 0 -51 -17.5t-27 -48.5h152q-13 66 -74 66z" />
    <glyph glyph-name="Eogonek" unicode="&#x118;" horiz-adv-x="574" 
d="M545 0q-44 0 -71.5 -20t-27.5 -46q0 -38 36 -38q9 0 15.5 0.5t11.5 2t8 1.5l7 -82q-29 -11 -77 -11q-58 0 -92 27.5t-34 70.5q0 58 52 95h-321v710h472v-169h-288v-107h225v-162h-225v-103h309v-169z" />
    <glyph glyph-name="eogonek" unicode="&#x119;" horiz-adv-x="545" 
d="M523 249q0 -24 -4 -48h-321q6 -34 33.5 -52t69.5 -18q63 0 110 51l96 -106q-49 -60 -146 -79q-63 -26 -63 -63q0 -38 36 -38q8 0 14 0.5t9 1t6.5 1.5t6.5 1l6 -82q-30 -11 -77 -11q-58 0 -92 27.5t-34 70.5q0 52 45 89v3q-88 19 -141.5 86t-53.5 162q0 111 71.5 183
t182.5 72q106 0 176 -70.5t70 -180.5zM276 364q-30 0 -51 -17.5t-27 -48.5h152q-13 66 -74 66z" />
    <glyph glyph-name="Ecaron" unicode="&#x11a;" horiz-adv-x="574" 
d="M195 752l-93 143h150l39 -62h2l39 62h144l-87 -143h-194zM52 0v710h472v-169h-288v-107h225v-162h-225v-103h309v-169h-493z" />
    <glyph glyph-name="ecaron" unicode="&#x11b;" horiz-adv-x="545" 
d="M378 545h-194l-93 151h150l39 -70h2l39 70h144zM523 249q0 -24 -4 -48h-321q6 -34 33.5 -52t69.5 -18q63 0 110 51l96 -106q-71 -86 -227 -86q-111 0 -184 71.5t-73 183.5q0 111 71.5 183t182.5 72q106 0 176 -70.5t70 -180.5zM276 364q-30 0 -51 -17.5t-27 -48.5h152
q-13 66 -74 66z" />
    <glyph glyph-name="Gcircumflex" unicode="&#x11c;" horiz-adv-x="726" 
d="M192 752l87 143h194l93 -143h-150l-39 62h-2l-39 -62h-144zM401 -9q-161 0 -266 96.5t-105 266.5q0 159 97.5 263t265.5 104q81 0 161 -34.5t132 -97.5l-135 -113q-68 66 -158 66q-69 0 -116.5 -50.5t-47.5 -137.5q0 -80 46 -134.5t126 -54.5q55 0 106 23v66h-121v153
h300v-330q-50 -37 -127.5 -61.5t-157.5 -24.5z" />
    <glyph glyph-name="gcircumflex" unicode="&#x11d;" horiz-adv-x="588" 
d="M111 545l87 151h194l93 -151h-150l-39 70h-2l-39 -70h-144zM275 -208q-117 0 -203 45l39 141q27 -17 67 -28.5t74 -11.5q57 0 88.5 22.5t31.5 56.5v43l-2 1q-48 -51 -129 -51q-97 0 -158.5 68.5t-61.5 171.5q0 109 60.5 179.5t149.5 70.5q81 0 134 -57l2 1v46h179v-419
q0 -133 -62.5 -206t-208.5 -73zM289 167q37 0 61.5 24.5t24.5 62.5t-24.5 63t-61.5 25t-62 -24.5t-25 -63.5q0 -38 25 -62.5t62 -24.5z" />
    <glyph glyph-name="Gbreve" unicode="&#x11e;" horiz-adv-x="726" 
d="M378 745q-79 0 -126 37.5t-54 112.5h127q2 -18 17 -30t36 -12q22 0 37 12t17 30h127q-6 -69 -51 -109.5t-130 -40.5zM401 -9q-161 0 -266 96.5t-105 266.5q0 159 97.5 263t265.5 104q81 0 161 -34.5t132 -97.5l-135 -113q-68 66 -158 66q-69 0 -116.5 -50.5t-47.5 -137.5
q0 -80 46 -134.5t126 -54.5q55 0 106 23v66h-121v153h300v-330q-50 -37 -127.5 -61.5t-157.5 -24.5z" />
    <glyph glyph-name="gbreve" unicode="&#x11f;" horiz-adv-x="588" 
d="M296 534q-72 0 -123 43t-57 119h127q2 -18 17 -30t36 -12q22 0 37 12t17 30h127q-5 -70 -53.5 -116t-127.5 -46zM275 -208q-117 0 -203 45l39 141q27 -17 67 -28.5t74 -11.5q57 0 88.5 22.5t31.5 56.5v43l-2 1q-48 -51 -129 -51q-97 0 -158.5 68.5t-61.5 171.5
q0 109 60.5 179.5t149.5 70.5q81 0 134 -57l2 1v46h179v-419q0 -133 -62.5 -206t-208.5 -73zM289 167q37 0 61.5 24.5t24.5 62.5t-24.5 63t-61.5 25t-62 -24.5t-25 -63.5q0 -38 25 -62.5t62 -24.5z" />
    <glyph glyph-name="Gdotaccent" unicode="&#x120;" horiz-adv-x="726" 
d="M379 744q-45 0 -74 27.5t-29 69.5q0 40 29 67.5t74 27.5t73.5 -27t28.5 -68q0 -42 -28.5 -69.5t-73.5 -27.5zM401 -9q-161 0 -266 96.5t-105 266.5q0 159 97.5 263t265.5 104q81 0 161 -34.5t132 -97.5l-135 -113q-68 66 -158 66q-69 0 -116.5 -50.5t-47.5 -137.5
q0 -80 46 -134.5t126 -54.5q55 0 106 23v66h-121v153h300v-330q-50 -37 -127.5 -61.5t-157.5 -24.5z" />
    <glyph glyph-name="gdotaccent" unicode="&#x121;" horiz-adv-x="588" 
d="M298 545q-45 0 -74 27.5t-29 69.5q0 40 29 67.5t74 27.5t73.5 -27t28.5 -68q0 -42 -28.5 -69.5t-73.5 -27.5zM275 -208q-117 0 -203 45l39 141q27 -17 67 -28.5t74 -11.5q57 0 88.5 22.5t31.5 56.5v43l-2 1q-48 -51 -129 -51q-97 0 -158.5 68.5t-61.5 171.5
q0 109 60.5 179.5t149.5 70.5q81 0 134 -57l2 1v46h179v-419q0 -133 -62.5 -206t-208.5 -73zM289 167q37 0 61.5 24.5t24.5 62.5t-24.5 63t-61.5 25t-62 -24.5t-25 -63.5q0 -38 25 -62.5t62 -24.5z" />
    <glyph glyph-name="Gcommaaccent" unicode="&#x122;" horiz-adv-x="726" 
d="M401 -9q-161 0 -266 96.5t-105 266.5q0 159 97.5 263t265.5 104q81 0 161 -34.5t132 -97.5l-135 -113q-68 66 -158 66q-69 0 -116.5 -50.5t-47.5 -137.5q0 -80 46 -134.5t126 -54.5q55 0 106 23v66h-121v153h300v-330q-50 -37 -127.5 -61.5t-157.5 -24.5zM285 -222
l-30 95q54 7 54 39q0 15 -7 35h140q6 -20 6 -39q0 -130 -163 -130z" />
    <glyph glyph-name="gcommaaccent" unicode="&#x123;" horiz-adv-x="588" 
d="M385 739l30 -95q-54 -7 -54 -39q0 -15 7 -35h-140q-6 19 -6 39q0 130 163 130zM275 -208q-117 0 -203 45l39 141q27 -17 67 -28.5t74 -11.5q57 0 88.5 22.5t31.5 56.5v43l-2 1q-48 -51 -129 -51q-97 0 -158.5 68.5t-61.5 171.5q0 109 60.5 179.5t149.5 70.5q81 0 134 -57
l2 1v46h179v-419q0 -133 -62.5 -206t-208.5 -73zM289 167q37 0 61.5 24.5t24.5 62.5t-24.5 63t-61.5 25t-62 -24.5t-25 -63.5q0 -38 25 -62.5t62 -24.5z" />
    <glyph glyph-name="Hcircumflex" unicode="&#x124;" horiz-adv-x="705" 
d="M169 754l87 143h194l93 -143h-150l-39 62h-2l-39 -62h-144zM53 0v710h192v-283h215v283h192v-710h-192v259h-215v-259h-192z" />
    <glyph glyph-name="hcircumflex" unicode="&#x125;" horiz-adv-x="581" 
d="M82 767l87 143h194l93 -143h-150l-39 62h-2l-39 -62h-144zM44 0v736h179v-299l2 -1q56 64 143 64q82 0 128 -46t46 -158v-296h-179v253q0 51 -15.5 70t-53.5 19q-71 0 -71 -96v-246h-179z" />
    <glyph glyph-name="Hbar" unicode="&#x126;" horiz-adv-x="732" 
d="M714 626v-121h-49v-505h-192v259h-215v-259h-192v505h-47v121h47v84h192v-84h215v84h192v-84h49zM473 427v78h-215v-78h215z" />
    <glyph glyph-name="hbar" unicode="&#x127;" horiz-adv-x="581" 
d="M368 500q82 0 128 -46t46 -158v-296h-179v253q0 51 -15.5 70t-53.5 19q-71 0 -71 -96v-246h-179v536h-46v101h46v99h179v-99h162v-101h-162v-99l2 -1q56 64 143 64z" />
    <glyph glyph-name="Itilde" unicode="&#x128;" horiz-adv-x="310" 
d="M245 752q-38 0 -88 26q-34 18 -51 18q-32 0 -53 -43l-102 37q18 52 52.5 86t81.5 34q53 0 91 -25q24 -16 46 -16q33 0 55 43l100 -31q-17 -55 -51.5 -92t-80.5 -37zM57 0v710h196v-710h-196z" />
    <glyph glyph-name="itilde" unicode="&#x129;" horiz-adv-x="275" 
d="M43 534l-102 41q46 118 132 118q11 0 20.5 -1.5t19 -5t14 -5.5t15 -8t11.5 -7q25 -14 38 -14q25 0 47 43l100 -33q-18 -51 -51 -88.5t-78 -37.5q-30 0 -69 24q-31 19 -49 19q-27 0 -48 -45zM48 0v490h179v-490h-179z" />
    <glyph glyph-name="Imacron" unicode="&#x12a;" horiz-adv-x="310" 
d="M-5 765v125h320v-125h-320zM57 0v710h196v-710h-196z" />
    <glyph glyph-name="imacron" unicode="&#x12b;" horiz-adv-x="275" 
d="M-23 568v132h320v-132h-320zM48 0v490h179v-490h-179z" />
    <glyph glyph-name="Ibreve" unicode="&#x12c;" horiz-adv-x="310" 
d="M155 745q-79 0 -126 37.5t-54 112.5h127q2 -18 17 -30t36 -12q22 0 37 12t17 30h127q-6 -69 -51 -109.5t-130 -40.5zM57 0v710h196v-710h-196z" />
    <glyph glyph-name="ibreve" unicode="&#x12d;" horiz-adv-x="275" 
d="M138 549q-64 0 -106.5 42.5t-49.5 118.5h122q5 -51 34 -51q31 0 34 51h123q-6 -71 -46 -116t-111 -45zM48 0v490h179v-490h-179z" />
    <glyph glyph-name="Iogonek" unicode="&#x12e;" horiz-adv-x="310" 
d="M57 710h196v-710h-22q-44 0 -71.5 -20t-27.5 -46q0 -38 36 -38q9 0 15.5 0.5t11.5 2t8 1.5l7 -82q-29 -11 -77 -11q-58 0 -92 27.5t-34 70.5q0 58 52 95h-2v710z" />
    <glyph glyph-name="iogonek" unicode="&#x12f;" horiz-adv-x="275" 
d="M139 545q-45 0 -74 27.5t-29 69.5q0 40 29 67.5t74 27.5t73.5 -27t28.5 -68q0 -42 -28.5 -69.5t-73.5 -27.5zM48 1v489h179v-490h-9q-44 0 -71.5 -20t-27.5 -46q0 -38 36 -38q9 0 15.5 0.5t11.5 2t8 1.5l7 -82q-29 -11 -77 -11q-58 0 -92 27.5t-34 70.5q0 59 54 96z" />
    <glyph glyph-name="Idotaccent" unicode="&#x130;" horiz-adv-x="310" 
d="M156 744q-45 0 -74 27.5t-29 69.5q0 40 29 67.5t74 27.5t73.5 -27t28.5 -68q0 -42 -28.5 -69.5t-73.5 -27.5zM57 0v710h196v-710h-196z" />
    <glyph glyph-name="dotlessi" unicode="&#x131;" horiz-adv-x="275" 
d="M48 0v490h179v-490h-179z" />
    <glyph glyph-name="IJ" unicode="&#x132;" horiz-adv-x="809" 
d="M57 0v710h196v-710h-196zM527 -10q-135 0 -213 98l111 128q37 -49 84 -49q57 0 57 85v458h194v-454q0 -126 -57 -196t-176 -70z" />
    <glyph glyph-name="ij" unicode="&#x133;" horiz-adv-x="542" 
d="M139 545q-45 0 -74 27.5t-29 69.5q0 40 29 67.5t74 27.5t73.5 -27t28.5 -68q0 -42 -28.5 -69.5t-73.5 -27.5zM411 545q-45 0 -74 27.5t-29 69.5q0 40 29 67.5t74 27.5t73.5 -27t28.5 -68q0 -42 -28.5 -69.5t-73.5 -27.5zM48 0v490h179v-490h-179zM335 -208q-66 0 -120 19
l29 137q23 -7 41 -7q22 0 28 13.5t6 45.5v490h179v-510q0 -188 -163 -188z" />
    <glyph glyph-name="Jcircumflex" unicode="&#x134;" horiz-adv-x="499" 
d="M169 754l87 143h194l93 -143h-150l-39 62h-2l-39 -62h-144zM217 -10q-135 0 -213 98l111 128q37 -49 84 -49q57 0 57 85v458h194v-454q0 -126 -57 -196t-176 -70z" />
    <glyph glyph-name="jcircumflex" unicode="&#x135;" horiz-adv-x="267" 
d="M-51 545l87 151h194l93 -151h-150l-39 70h-2l-39 -70h-144zM60 -208q-66 0 -120 19l29 137q23 -7 41 -7q22 0 28 13.5t6 45.5v490h179v-510q0 -188 -163 -188z" />
    <glyph glyph-name="Kcommaaccent" unicode="&#x136;" horiz-adv-x="661" 
d="M53 0v710h189v-238h3l172 238h240l-250 -304l260 -406h-233l-152 256l-40 -49v-207h-189zM248 -222l-30 95q54 7 54 39q0 15 -7 35h140q6 -20 6 -39q0 -130 -163 -130z" />
    <glyph glyph-name="kcommaaccent" unicode="&#x137;" horiz-adv-x="540" 
d="M44 0v736h175v-398h2l116 152h205l-159 -195l165 -295h-197l-97 180l-35 -38v-142h-175zM183 -222l-30 95q54 7 54 39q0 15 -7 35h140q6 -20 6 -39q0 -130 -163 -130z" />
    <glyph glyph-name="kgreenlandic" unicode="&#x138;" horiz-adv-x="546" 
d="M44 0v489h175v-156h2l122 157h205l-164 -194l170 -296h-197l-103 182l-35 -38v-144h-175z" />
    <glyph glyph-name="Lacute" unicode="&#x139;" horiz-adv-x="543" 
d="M162 754l106 143h177l-126 -143h-157zM53 0v710h196v-541h277v-169h-473z" />
    <glyph glyph-name="lacute" unicode="&#x13a;" horiz-adv-x="275" 
d="M54 767l106 143h177l-126 -143h-157zM48 0v736h179v-736h-179z" />
    <glyph glyph-name="Lcommaaccent" unicode="&#x13b;" horiz-adv-x="543" 
d="M53 0v710h196v-541h277v-169h-473zM208 -222l-30 95q54 7 54 39q0 15 -7 35h140q6 -20 6 -39q0 -130 -163 -130z" />
    <glyph glyph-name="lcommaaccent" unicode="&#x13c;" horiz-adv-x="275" 
d="M48 0v736h179v-736h-179zM50 -222l-30 95q54 7 54 39q0 15 -7 35h140q6 -20 6 -39q0 -130 -163 -130z" />
    <glyph glyph-name="Lcaron" unicode="&#x13d;" horiz-adv-x="562" 
d="M344 572l34 226h167l-77 -226h-124zM53 0v710h196v-541h277v-169h-473z" />
    <glyph glyph-name="lcaron" unicode="&#x13e;" horiz-adv-x="331" 
d="M272 574l34 226h167l-77 -226h-124zM48 0v736h179v-736h-179z" />
    <glyph glyph-name="Ldot" unicode="&#x13f;" horiz-adv-x="543" 
d="M53 0v710h196v-541h277v-169h-473zM426 247q-41 0 -69.5 28t-28.5 68q0 39 29 67t69 28t68.5 -28t28.5 -67q0 -40 -28.5 -68t-68.5 -28z" />
    <glyph glyph-name="ldot" unicode="&#x140;" horiz-adv-x="498" 
d="M48 0v736h179v-736h-179zM388 181q-41 0 -69.5 28t-28.5 68q0 39 29 67t69 28t68.5 -28t28.5 -67q0 -40 -28.5 -68t-68.5 -28z" />
    <glyph glyph-name="Lslash" unicode="&#x141;" horiz-adv-x="556" 
d="M262 169h277v-169h-473v248l-61 -26v133l61 26v329h196v-244l101 44v-134l-101 -43v-164z" />
    <glyph glyph-name="lslash" unicode="&#x142;" horiz-adv-x="330" 
d="M321 459v-115l-66 -29v-315h-179v236l-69 -31v114l69 31v386h179v-306z" />
    <glyph glyph-name="Nacute" unicode="&#x143;" horiz-adv-x="727" 
d="M247 754l106 143h177l-126 -143h-157zM53 0v710h181l251 -402l2 1v401h187v-710h-187l-246 389h-2v-389h-186z" />
    <glyph glyph-name="nacute" unicode="&#x144;" horiz-adv-x="576" 
d="M195 545l109 152l175 1l-124 -153h-160zM44 0v490h179v-52h2q53 62 138 62q82 0 128 -46t46 -158v-296h-179v253q0 51 -15 70t-49 19q-71 0 -71 -96v-246h-179z" />
    <glyph glyph-name="Ncommaaccent" unicode="&#x145;" horiz-adv-x="727" 
d="M53 0v710h181l251 -402l2 1v401h187v-710h-187l-246 389h-2v-389h-186zM276 -222l-30 95q54 7 54 39q0 15 -7 35h140q6 -20 6 -39q0 -130 -163 -130z" />
    <glyph glyph-name="ncommaaccent" unicode="&#x146;" horiz-adv-x="576" 
d="M44 0v490h179v-52h2q53 62 138 62q82 0 128 -46t46 -158v-296h-179v253q0 51 -15 70t-49 19q-71 0 -71 -96v-246h-179zM212 -222l-30 95q54 7 54 39q0 15 -7 35h140q6 -20 6 -39q0 -130 -163 -130z" />
    <glyph glyph-name="Ncaron" unicode="&#x147;" horiz-adv-x="727" 
d="M274 754l-93 143h150l39 -62h2l39 62h144l-87 -143h-194zM53 0v710h181l251 -402l2 1v401h187v-710h-187l-246 389h-2v-389h-186z" />
    <glyph glyph-name="ncaron" unicode="&#x148;" horiz-adv-x="576" 
d="M208 545l-93 151h150l39 -70h2l39 70h144l-87 -151h-194zM44 0v490h179v-52h2q53 62 138 62q82 0 128 -46t46 -158v-296h-179v253q0 51 -15 70t-49 19q-71 0 -71 -96v-246h-179z" />
    <glyph glyph-name="napostrophe" unicode="&#x149;" horiz-adv-x="727" 
d="M-36 474l35 236h166l-77 -236h-124zM195 0v490h179v-52h2q53 62 138 62q82 0 128 -46t46 -158v-296h-179v253q0 51 -15 70t-49 19q-71 0 -71 -96v-246h-179z" />
    <glyph glyph-name="Eng" unicode="&#x14a;" horiz-adv-x="727" 
d="M487 710h187v-710q0 -208 -214 -208q-45 0 -105 11l13 140q30 -5 47 -5q71 0 71 62v1l-245 388h-2v-389h-186v710h181l251 -402l2 1v401z" />
    <glyph glyph-name="eng" unicode="&#x14b;" horiz-adv-x="573" 
d="M341 -208q-47 0 -90 15l14 127q23 -5 36 -5q54 0 54 71v253q0 51 -15 70t-49 19q-68 0 -68 -96v-246h-179v490h179v-52h2q49 62 135 62q82 0 128 -46t46 -158v-296q0 -111 -45 -159.5t-148 -48.5z" />
    <glyph glyph-name="Omacron" unicode="&#x14c;" horiz-adv-x="798" 
d="M239 767v125h320v-125h-320zM399 -10q-164 0 -266.5 101.5t-102.5 263.5t103 264t266 102t266 -101.5t103 -264.5q0 -162 -103 -263.5t-266 -101.5zM399 167q74 0 121.5 54t47.5 134q0 79 -47.5 133.5t-121.5 54.5q-73 0 -121 -54t-48 -134t48 -134t121 -54z" />
    <glyph glyph-name="omacron" unicode="&#x14d;" horiz-adv-x="583" 
d="M131 568v132h320v-132h-320zM292 -10q-119 0 -194 71t-75 184t75 184t194 71q118 0 193 -71t75 -184t-75 -184t-193 -71zM292 147q38 0 63 27.5t25 70.5t-24.5 70t-63.5 27t-64 -27t-25 -70t25.5 -70.5t63.5 -27.5z" />
    <glyph glyph-name="Obreve" unicode="&#x14e;" horiz-adv-x="798" 
d="M399 747q-79 0 -126 37.5t-54 112.5h127q2 -18 17 -30t36 -12q22 0 37 12t17 30h127q-6 -69 -51 -109.5t-130 -40.5zM399 -10q-164 0 -266.5 101.5t-102.5 263.5t103 264t266 102t266 -101.5t103 -264.5q0 -162 -103 -263.5t-266 -101.5zM399 167q74 0 121.5 54t47.5 134
q0 79 -47.5 133.5t-121.5 54.5q-73 0 -121 -54t-48 -134t48 -134t121 -54z" />
    <glyph glyph-name="obreve" unicode="&#x14f;" horiz-adv-x="583" 
d="M291 534q-72 0 -123 43t-57 119h127q2 -18 17 -30t36 -12q22 0 37 12t17 30h127q-5 -70 -53.5 -116t-127.5 -46zM292 -10q-119 0 -194 71t-75 184t75 184t194 71q118 0 193 -71t75 -184t-75 -184t-193 -71zM292 147q38 0 63 27.5t25 70.5t-24.5 70t-63.5 27t-64 -27
t-25 -70t25.5 -70.5t63.5 -27.5z" />
    <glyph glyph-name="Ohungarumlaut" unicode="&#x150;" horiz-adv-x="798" 
d="M205 754l108 152l175 1l-123 -153h-160zM443 754l108 152l175 1l-123 -153h-160zM399 -10q-164 0 -266.5 101.5t-102.5 263.5t103 264t266 102t266 -101.5t103 -264.5q0 -162 -103 -263.5t-266 -101.5zM399 167q74 0 121.5 54t47.5 134q0 79 -47.5 133.5t-121.5 54.5
q-73 0 -121 -54t-48 -134t48 -134t121 -54z" />
    <glyph glyph-name="ohungarumlaut" unicode="&#x151;" horiz-adv-x="583" 
d="M97 557l108 152l175 1l-123 -153h-160zM335 557l108 152l175 1l-123 -153h-160zM292 -10q-119 0 -194 71t-75 184t75 184t194 71q118 0 193 -71t75 -184t-75 -184t-193 -71zM292 147q38 0 63 27.5t25 70.5t-24.5 70t-63.5 27t-64 -27t-25 -70t25.5 -70.5t63.5 -27.5z" />
    <glyph glyph-name="OE" unicode="&#x152;" horiz-adv-x="941" 
d="M608 169h304v-169h-516q-162 0 -264 99.5t-102 254.5q0 156 102 256t264 100h496v-168h-284v-109h225v-158h-225v-106zM396 177h29v356h-29q-72 0 -119.5 -52t-47.5 -127q0 -73 47.5 -125.5t119.5 -51.5z" />
    <glyph glyph-name="oe" unicode="&#x153;" horiz-adv-x="817" 
d="M795 246q0 -19 -5 -44h-302q22 -68 99 -68q53 0 98 51l96 -109q-32 -40 -85.5 -63t-117.5 -23q-105 0 -170 58h-3q-64 -58 -154 -58q-104 0 -166 68.5t-62 184.5q0 118 62 187.5t171 69.5q84 0 148 -56h3q64 56 154 56q107 0 170.5 -71t63.5 -183zM562 362
q-32 0 -51 -17.5t-24 -46.5h136q-5 28 -22 46t-39 18zM262 147q30 0 46 26.5t16 71.5q0 97 -62 97q-26 0 -42.5 -26t-16.5 -71q0 -46 16 -72t43 -26z" />
    <glyph glyph-name="Racute" unicode="&#x154;" horiz-adv-x="644" 
d="M186 754l106 143h177l-126 -143h-157zM53 0v710h284q129 0 194 -68.5t65 -183.5q0 -153 -122 -212l162 -246h-221l-134 217h-44v-217h-184zM237 381h68q94 0 94 81q0 36 -22.5 58.5t-71.5 22.5h-68v-162z" />
    <glyph glyph-name="racute" unicode="&#x155;" horiz-adv-x="373" 
d="M68 545l109 152l175 1l-124 -153h-160zM44 0v490h179v-66h2q53 76 136 76h1v-191q-15 1 -38 1q-50 0 -75.5 -26t-25.5 -70v-214h-179z" />
    <glyph glyph-name="Rcommaaccent" unicode="&#x156;" horiz-adv-x="644" 
d="M53 0v710h284q129 0 194 -68.5t65 -183.5q0 -153 -122 -212l162 -246h-221l-134 217h-44v-217h-184zM237 381h68q94 0 94 81q0 36 -22.5 58.5t-71.5 22.5h-68v-162zM241 -222l-30 95q54 7 54 39q0 15 -7 35h140q6 -20 6 -39q0 -130 -163 -130z" />
    <glyph glyph-name="rcommaaccent" unicode="&#x157;" horiz-adv-x="373" 
d="M44 0v490h179v-66h2q53 76 136 76h1v-191q-15 1 -38 1q-50 0 -75.5 -26t-25.5 -70v-214h-179zM47 -222l-30 95q54 7 54 39q0 15 -7 35h140q6 -20 6 -39q0 -130 -163 -130z" />
    <glyph glyph-name="Rcaron" unicode="&#x158;" horiz-adv-x="644" 
d="M213 754l-93 143h150l39 -62h2l39 62h144l-87 -143h-194zM53 0v710h284q129 0 194 -68.5t65 -183.5q0 -153 -122 -212l162 -246h-221l-134 217h-44v-217h-184zM237 381h68q94 0 94 81q0 36 -22.5 58.5t-71.5 22.5h-68v-162z" />
    <glyph glyph-name="rcaron" unicode="&#x159;" horiz-adv-x="373" 
d="M130 545l-93 151h150l39 -70h2l39 70h144l-87 -151h-194zM44 0v490h179v-66h2q53 76 136 76h1v-191q-15 1 -38 1q-50 0 -75.5 -26t-25.5 -70v-214h-179z" />
    <glyph glyph-name="Sacute" unicode="&#x15a;" horiz-adv-x="559" 
d="M188 754l106 143h177l-126 -143h-157zM271 -10q-152 0 -263 114l108 132q78 -79 162 -79q31 0 46 13.5t15 32.5q0 22 -17.5 36t-72.5 32q-48 16 -80.5 32.5t-66.5 43t-51.5 66.5t-17.5 92q0 91 67.5 152t169.5 63q141 3 251 -95l-105 -135q-83 64 -135 64q-50 0 -50 -42
q0 -19 18 -35t69 -36q111 -42 146 -66q75 -51 75 -150q0 -64 -24.5 -111.5t-65.5 -73.5t-85.5 -38t-92.5 -12z" />
    <glyph glyph-name="sacute" unicode="&#x15b;" horiz-adv-x="435" 
d="M119 545l109 152l175 1l-124 -153h-160zM208 -10q-118 0 -200 73l81 110q62 -55 122 -55q37 0 37 20q0 10 -12.5 17.5t-54.5 20.5q-156 45 -156 159q0 78 54 121.5t134 43.5q104 0 192 -62l-83 -119q-48 51 -103 51q-31 0 -31 -20q0 -15 61 -35q91 -29 128.5 -62
t37.5 -101q0 -74 -53 -118t-154 -44z" />
    <glyph glyph-name="Scircumflex" unicode="&#x15c;" horiz-adv-x="559" 
d="M94 754l87 143h194l93 -143h-150l-39 62h-2l-39 -62h-144zM271 -10q-152 0 -263 114l108 132q78 -79 162 -79q31 0 46 13.5t15 32.5q0 22 -17.5 36t-72.5 32q-48 16 -80.5 32.5t-66.5 43t-51.5 66.5t-17.5 92q0 91 67.5 152t169.5 63q141 3 251 -95l-105 -135
q-83 64 -135 64q-50 0 -50 -42q0 -19 18 -35t69 -36q111 -42 146 -66q75 -51 75 -150q0 -64 -24.5 -111.5t-65.5 -73.5t-85.5 -38t-92.5 -12z" />
    <glyph glyph-name="scircumflex" unicode="&#x15d;" horiz-adv-x="435" 
d="M34 545l87 151h194l93 -151h-150l-39 70h-2l-39 -70h-144zM208 -10q-118 0 -200 73l81 110q62 -55 122 -55q37 0 37 20q0 10 -12.5 17.5t-54.5 20.5q-156 45 -156 159q0 78 54 121.5t134 43.5q104 0 192 -62l-83 -119q-48 51 -103 51q-31 0 -31 -20q0 -15 61 -35
q91 -29 128.5 -62t37.5 -101q0 -74 -53 -118t-154 -44z" />
    <glyph glyph-name="Scedilla" unicode="&#x15e;" horiz-adv-x="559" 
d="M539 225q0 -60 -22.5 -106.5t-60 -72.5t-79.5 -40t-89 -16l-11 -18l1 -2q111 -3 111 -81q0 -38 -38.5 -60.5t-111.5 -22.5q-37 0 -67 6v68q23 -7 44 -7q40 0 40 25q0 28 -67 28v39l17 31q-114 21 -198 108l108 132q78 -79 162 -79q31 0 46 13.5t15 32.5q0 22 -17.5 36
t-72.5 32q-48 16 -80.5 32.5t-66.5 43t-51.5 66.5t-17.5 92q0 91 67.5 152t169.5 63q141 3 251 -95l-105 -135q-83 64 -135 64q-50 0 -50 -42q0 -19 18 -35t69 -36q111 -42 146 -66q75 -51 75 -150z" />
    <glyph glyph-name="scedilla" unicode="&#x15f;" horiz-adv-x="435" 
d="M415 152q0 -69 -45.5 -111.5t-132.5 -49.5l-12 -19l1 -2q111 -3 111 -81q0 -38 -38.5 -60.5t-111.5 -22.5q-37 0 -67 6v68q23 -7 44 -7q40 0 40 25q0 28 -67 28v39l16 29q-84 14 -145 69l81 110q62 -55 122 -55q37 0 37 20q0 10 -12.5 17.5t-54.5 20.5q-156 45 -156 159
q0 78 54 121.5t134 43.5q104 0 192 -62l-83 -119q-48 51 -103 51q-31 0 -31 -20q0 -15 61 -35q91 -29 128.5 -62t37.5 -101z" />
    <glyph glyph-name="Scaron" unicode="&#x160;" horiz-adv-x="559" 
d="M187 754l-93 143h150l39 -62h2l39 62h144l-87 -143h-194zM271 -10q-152 0 -263 114l108 132q78 -79 162 -79q31 0 46 13.5t15 32.5q0 22 -17.5 36t-72.5 32q-48 16 -80.5 32.5t-66.5 43t-51.5 66.5t-17.5 92q0 91 67.5 152t169.5 63q141 3 251 -95l-105 -135
q-83 64 -135 64q-50 0 -50 -42q0 -19 18 -35t69 -36q111 -42 146 -66q75 -51 75 -150q0 -64 -24.5 -111.5t-65.5 -73.5t-85.5 -38t-92.5 -12z" />
    <glyph glyph-name="scaron" unicode="&#x161;" horiz-adv-x="435" 
d="M126 545l-93 151h150l39 -70h2l39 70h144l-87 -151h-194zM208 -10q-118 0 -200 73l81 110q62 -55 122 -55q37 0 37 20q0 10 -12.5 17.5t-54.5 20.5q-156 45 -156 159q0 78 54 121.5t134 43.5q104 0 192 -62l-83 -119q-48 51 -103 51q-31 0 -31 -20q0 -15 61 -35
q91 -29 128.5 -62t37.5 -101q0 -74 -53 -118t-154 -44z" />
    <glyph glyph-name="uni0162" unicode="&#x162;" horiz-adv-x="584" 
d="M390 0h-80l-17 -28l1 -2q111 -3 111 -81q0 -38 -38.5 -60.5t-111.5 -22.5q-37 0 -67 6v68q23 -7 44 -7q40 0 40 25q0 28 -67 28v39l20 35h-30v541h-177v169h549v-169h-177v-541z" />
    <glyph glyph-name="uni0163" unicode="&#x163;" horiz-adv-x="378" 
d="M210 -30q111 -3 111 -81q0 -38 -38.5 -60.5t-111.5 -22.5q-37 0 -67 6v68q23 -7 44 -7q40 0 40 25q0 28 -67 28v39l22 39q-80 37 -80 150v194h-53v142h53v154l179 18v-172h106v-142h-106v-156q0 -49 32 -49q18 0 36 7l44 -124q-61 -35 -134 -36l-11 -18z" />
    <glyph glyph-name="Tcaron" unicode="&#x164;" horiz-adv-x="584" 
d="M198 754l-93 143h150l39 -62h2l39 62h144l-87 -143h-194zM195 0v541h-177v169h549v-169h-177v-541h-195z" />
    <glyph glyph-name="tcaron" unicode="&#x165;" horiz-adv-x="378" 
d="M276 574l34 226h167l-77 -226h-124zM210 -10q-66 0 -106.5 41.5t-40.5 122.5v194h-53v142h53v154l179 18v-172h106v-142h-106v-156q0 -49 32 -49q18 0 36 7l44 -124q-63 -36 -144 -36z" />
    <glyph glyph-name="Tbar" unicode="&#x166;" horiz-adv-x="584" 
d="M567 541h-177v-162h115v-129h-115v-250h-195v250h-105v129h105v162h-177v169h549v-169z" />
    <glyph glyph-name="tbar" unicode="&#x167;" horiz-adv-x="378" 
d="M310 150l44 -124q-63 -36 -144 -36q-66 0 -106.5 41.5t-40.5 122.5v51h-41v101h41v42h-53v142h53v154l179 18v-172h106v-142h-106v-42h87v-101h-87v-13q0 -49 32 -49q18 0 36 7z" />
    <glyph glyph-name="Utilde" unicode="&#x168;" horiz-adv-x="691" 
d="M434 754q-38 0 -88 26q-34 18 -51 18q-32 0 -53 -43l-102 37q18 52 52.5 86t81.5 34q54 0 91 -25q24 -16 46 -16q33 0 55 43l100 -31q-17 -55 -51.5 -92t-80.5 -37zM344 -10q-136 0 -217 80.5t-81 227.5v412h192v-401q0 -61 27 -101.5t79 -40.5q49 0 79.5 37.5
t30.5 104.5v401h191v-412q0 -142 -78.5 -225t-222.5 -83z" />
    <glyph glyph-name="utilde" unicode="&#x169;" horiz-adv-x="566" 
d="M374 547q-44 0 -88 25q-34 18 -51 18q-32 0 -53 -45l-102 41q18 57 53 93.5t82 36.5t90 -26q27 -16 46 -16q33 0 55 44l100 -33q-17 -60 -51.5 -99t-80.5 -39zM210 -10q-173 0 -173 213v287h178v-244q0 -52 15 -75.5t49 -23.5q30 0 48.5 24.5t18.5 72.5v246h179v-490
h-179v52l-2 1q-51 -63 -134 -63z" />
    <glyph glyph-name="Umacron" unicode="&#x16a;" horiz-adv-x="691" 
d="M184 767v125h320v-125h-320zM344 -10q-136 0 -217 80.5t-81 227.5v412h192v-401q0 -61 27 -101.5t79 -40.5q49 0 79.5 37.5t30.5 104.5v401h191v-412q0 -142 -78.5 -225t-222.5 -83z" />
    <glyph glyph-name="umacron" unicode="&#x16b;" horiz-adv-x="566" 
d="M124 568v132h320v-132h-320zM210 -10q-173 0 -173 213v287h178v-244q0 -52 15 -75.5t49 -23.5q30 0 48.5 24.5t18.5 72.5v246h179v-490h-179v52l-2 1q-51 -63 -134 -63z" />
    <glyph glyph-name="Ubreve" unicode="&#x16c;" horiz-adv-x="691" 
d="M344 747q-79 0 -126 37.5t-54 112.5h127q2 -18 17 -30t36 -12q22 0 37 12t17 30h127q-6 -69 -51 -109.5t-130 -40.5zM344 -10q-136 0 -217 80.5t-81 227.5v412h192v-401q0 -61 27 -101.5t79 -40.5q49 0 79.5 37.5t30.5 104.5v401h191v-412q0 -142 -78.5 -225t-222.5 -83z
" />
    <glyph glyph-name="ubreve" unicode="&#x16d;" horiz-adv-x="566" 
d="M284 534q-72 0 -123 43t-57 119h127q2 -18 17 -30t36 -12q22 0 37 12t17 30h127q-5 -70 -53.5 -116t-127.5 -46zM210 -10q-173 0 -173 213v287h178v-244q0 -52 15 -75.5t49 -23.5q30 0 48.5 24.5t18.5 72.5v246h179v-490h-179v52l-2 1q-51 -63 -134 -63z" />
    <glyph glyph-name="Uring" unicode="&#x16e;" horiz-adv-x="691" 
d="M345 743q-47 0 -79 30t-32 76q0 45 31 75.5t80 30.5q47 0 79 -30t32 -76q0 -45 -31 -75.5t-80 -30.5zM345 816q14 0 24 10.5t10 24.5t-10 24t-24 10t-24 -10.5t-10 -24.5t10 -24t24 -10zM344 -10q-136 0 -217 80.5t-81 227.5v412h192v-401q0 -61 27 -101.5t79 -40.5
q49 0 79.5 37.5t30.5 104.5v401h191v-412q0 -142 -78.5 -225t-222.5 -83z" />
    <glyph glyph-name="uring" unicode="&#x16f;" horiz-adv-x="566" 
d="M285 538q-47 0 -79 30t-32 76q0 45 31 75.5t80 30.5q47 0 79 -30t32 -76q0 -45 -31 -75.5t-80 -30.5zM285 611q14 0 24 10.5t10 24.5t-10 24t-24 10t-24 -10.5t-10 -24.5t10 -24t24 -10zM210 -10q-173 0 -173 213v287h178v-244q0 -52 15 -75.5t49 -23.5q30 0 48.5 24.5
t18.5 72.5v246h179v-490h-179v52l-2 1q-51 -63 -134 -63z" />
    <glyph glyph-name="Uhungarumlaut" unicode="&#x170;" horiz-adv-x="691" 
d="M150 754l108 152l175 1l-123 -153h-160zM388 754l108 152l175 1l-123 -153h-160zM344 -10q-136 0 -217 80.5t-81 227.5v412h192v-401q0 -61 27 -101.5t79 -40.5q49 0 79.5 37.5t30.5 104.5v401h191v-412q0 -142 -78.5 -225t-222.5 -83z" />
    <glyph glyph-name="uhungarumlaut" unicode="&#x171;" horiz-adv-x="566" 
d="M90 557l108 152l175 1l-123 -153h-160zM328 557l108 152l175 1l-123 -153h-160zM210 -10q-173 0 -173 213v287h178v-244q0 -52 15 -75.5t49 -23.5q30 0 48.5 24.5t18.5 72.5v246h179v-490h-179v52l-2 1q-51 -63 -134 -63z" />
    <glyph glyph-name="Uogonek" unicode="&#x172;" horiz-adv-x="691" 
d="M454 710h191v-412q0 -110 -48 -186t-139 -105q-92 -34 -92 -78q0 -33 36 -33q3 0 35 4l7 -82q-29 -11 -77 -11q-57 0 -91.5 27.5t-34.5 70.5q0 52 44 88v1q-111 17 -175 95.5t-64 208.5v412h192v-401q0 -61 27 -101.5t79 -40.5q49 0 79.5 37.5t30.5 104.5v401z" />
    <glyph glyph-name="uogonek" unicode="&#x173;" horiz-adv-x="566" 
d="M346 490h179v-490h-9q-44 0 -71.5 -20t-27.5 -46q0 -38 36 -38q9 0 15.5 0.5t11.5 2t8 1.5l7 -82q-29 -11 -77 -11q-58 0 -92 27.5t-34 70.5q0 59 54 96v51l-2 1q-51 -63 -134 -63q-173 0 -173 213v287h178v-244q0 -52 15 -75.5t49 -23.5q30 0 48.5 24.5t18.5 72.5v246z
" />
    <glyph glyph-name="Wcircumflex" unicode="&#x174;" horiz-adv-x="1020" 
d="M324 754l87 143h194l93 -143h-150l-39 62h-2l-39 -62h-144zM228 0l-221 710h203l103 -398h3l95 398h200l93 -397h3l103 397h203l-221 -710h-173l-105 432h-2l-111 -432h-173z" />
    <glyph glyph-name="wcircumflex" unicode="&#x175;" horiz-adv-x="763" 
d="M195 545l87 151h194l93 -151h-150l-39 70h-2l-39 -70h-144zM169 0l-164 490h176l69 -236h1l62 236h136l62 -236h2l69 236h176l-165 -490h-138l-73 273h-1l-70 -273h-142z" />
    <glyph glyph-name="Ycircumflex" unicode="&#x176;" horiz-adv-x="641" 
d="M134 754l87 143h194l93 -143h-150l-39 62h-2l-39 -62h-144zM223 0v307l-229 403h218l108 -216h2l105 216h220l-230 -403v-307h-194z" />
    <glyph glyph-name="ycircumflex" unicode="&#x177;" horiz-adv-x="537" 
d="M85 545l87 151h194l93 -151h-150l-39 70h-2l-39 -70h-144zM108 -198l83 234l-187 454h191l80 -231h3l78 231h177l-251 -688h-174z" />
    <glyph glyph-name="Ydieresis" unicode="&#x178;" horiz-adv-x="641" 
d="M201 746q-45 0 -73.5 27.5t-28.5 69.5q0 40 29 67.5t73 27.5q45 0 74 -27t29 -68q0 -42 -29 -69.5t-74 -27.5zM437 746q-45 0 -73.5 27.5t-28.5 69.5q0 40 29 67.5t73 27.5q45 0 74 -27t29 -68q0 -42 -29 -69.5t-74 -27.5zM223 0v307l-229 403h218l108 -216h2l105 216
h220l-230 -403v-307h-194z" />
    <glyph glyph-name="Zacute" unicode="&#x179;" horiz-adv-x="607" 
d="M179 754l106 143h177l-126 -143h-157zM33 0v148l287 390l-2 3h-276v169h532v-143l-297 -395l2 -3h295v-169h-541z" />
    <glyph glyph-name="zacute" unicode="&#x17a;" horiz-adv-x="472" 
d="M141 545l109 152l175 1l-124 -153h-160zM24 0v117l194 232v3h-175v138h409v-116l-199 -233v-2h189v-139h-418z" />
    <glyph glyph-name="Zdotaccent" unicode="&#x17b;" horiz-adv-x="607" 
d="M300 746q-45 0 -74 27.5t-29 69.5q0 40 29 67.5t74 27.5t73.5 -27t28.5 -68q0 -42 -28.5 -69.5t-73.5 -27.5zM33 0v148l287 390l-2 3h-276v169h532v-143l-297 -395l2 -3h295v-169h-541z" />
    <glyph glyph-name="zdotaccent" unicode="&#x17c;" horiz-adv-x="472" 
d="M239 545q-45 0 -74 27.5t-29 69.5q0 40 29 67.5t74 27.5t73.5 -27t28.5 -68q0 -42 -28.5 -69.5t-73.5 -27.5zM24 0v117l194 232v3h-175v138h409v-116l-199 -233v-2h189v-139h-418z" />
    <glyph glyph-name="Zcaron" unicode="&#x17d;" horiz-adv-x="607" 
d="M206 754l-93 143h150l39 -62h2l39 62h144l-87 -143h-194zM33 0v148l287 390l-2 3h-276v169h532v-143l-297 -395l2 -3h295v-169h-541z" />
    <glyph glyph-name="zcaron" unicode="&#x17e;" horiz-adv-x="472" 
d="M144 545l-93 151h150l39 -70h2l39 70h144l-87 -151h-194zM24 0v117l194 232v3h-175v138h409v-116l-199 -233v-2h189v-139h-418z" />
    <glyph glyph-name="longs" unicode="&#x17f;" horiz-adv-x="349" 
d="M61 0v348h-44v142h44v70q0 92 45.5 139.5t122.5 47.5q46 0 84 -14t52 -26l-31 -122q-23 14 -51 14q-43 0 -43 -42v-557h-179z" />
    <glyph glyph-name="uni018F" unicode="&#x18f;" horiz-adv-x="758" 
d="M359 721q174 0 271.5 -97t97.5 -270q0 -179 -97.5 -271.5t-255.5 -92.5q-166 0 -256.5 95t-92.5 243q0 50 6 82h496q-22 137 -181 137q-85 0 -166 -49l-105 138q51 40 127.5 62.5t155.5 22.5zM374 153q64 0 103 28t50 78h-308q7 -44 49.5 -75t105.5 -31z" />
    <glyph glyph-name="florin" unicode="&#x192;" horiz-adv-x="540" 
d="M96 -181q-64 0 -106 15t-55 29l59 115q50 -8 66 -8q28 0 42.5 17t20.5 59l36 281h-74l20 144h74l12 92q24 184 205 184q63 0 105 -15.5t56 -29.5l-60 -115q-50 8 -66 8q-28 0 -43 -17.5t-20 -59.5l-5 -47h117l-20 -144h-118l-42 -325q-25 -183 -204 -183z" />
    <glyph glyph-name="uni019D" unicode="&#x19d;" horiz-adv-x="727" 
d="M487 710h187v-710h-187l-246 389h-2v-389q0 -105 -51 -156.5t-137 -51.5q-34 0 -92 11l12 140q18 -5 35 -5q25 0 36 14.5t11 47.5v710h181l251 -402l2 1v401z" />
    <glyph glyph-name="Ohorn" unicode="&#x1a0;" horiz-adv-x="827" 
d="M708 774h143v-78q0 -138 -120 -169q37 -77 37 -172q0 -162 -103 -263.5t-266 -101.5q-164 0 -266.5 101.5t-102.5 263.5t103 264t266 102q179 0 282 -119q27 18 27 85v87zM399 167q74 0 121.5 54t47.5 134q0 79 -47.5 133.5t-121.5 54.5q-73 0 -121 -54t-48 -134t48 -134
t121 -54z" />
    <glyph glyph-name="ohorn" unicode="&#x1a1;" horiz-adv-x="701" 
d="M535 565h143v-78q0 -142 -127 -170q9 -35 9 -72q0 -113 -75 -184t-193 -71q-119 0 -194 71t-75 184t75 184t194 71q71 0 128.5 -27t92.5 -76q22 20 22 81v87zM292 147q38 0 63 27.5t25 70.5t-24.5 70t-63.5 27t-64 -27t-25 -70t25.5 -70.5t63.5 -27.5z" />
    <glyph glyph-name="Uhorn" unicode="&#x1af;" horiz-adv-x="828" 
d="M709 774h143v-78q0 -182 -207 -177v-221q0 -142 -78.5 -225t-222.5 -83q-136 0 -217 80.5t-81 227.5v412h192v-401q0 -61 27 -101.5t79 -40.5q49 0 79.5 37.5t30.5 104.5v401h191v-122q38 6 51 28.5t13 70.5v87z" />
    <glyph glyph-name="uhorn" unicode="&#x1b0;" horiz-adv-x="728" 
d="M577 565h143v-78q0 -176 -195 -178v-309h-179v52l-2 1q-51 -63 -134 -63q-173 0 -173 213v287h178v-244q0 -52 15 -75.5t49 -23.5q30 0 48.5 24.5t18.5 72.5v246h179v-108q31 8 41.5 29.5t10.5 66.5v87z" />
    <glyph glyph-name="uni01CD" unicode="&#x1cd;" horiz-adv-x="693" 
d="M253 754l-93 143h150l39 -62h2l39 62h144l-87 -143h-194zM-2 0l258 710h182l257 -710h-198l-36 115h-228l-36 -115h-199zM282 274h130l-64 205h-2z" />
    <glyph glyph-name="uni01CE" unicode="&#x1ce;" horiz-adv-x="588" 
d="M197 545l-93 151h150l39 -70h2l39 70h144l-87 -151h-194zM249 -10q-101 0 -164.5 71t-63.5 184q0 112 62 183.5t155 71.5q75 0 127 -58h2v48h179v-490h-170v44l-2 1q-45 -55 -125 -55zM289 146q36 0 61 27.5t25 71.5q0 43 -25 70.5t-61 27.5q-38 0 -62.5 -27.5
t-24.5 -70.5q0 -45 24 -72t63 -27z" />
    <glyph glyph-name="uni01CF" unicode="&#x1cf;" horiz-adv-x="310" 
d="M62 752l-93 143h150l39 -62h2l39 62h144l-87 -143h-194zM57 0v710h196v-710h-196z" />
    <glyph glyph-name="uni01D0" unicode="&#x1d0;" horiz-adv-x="275" 
d="M44 545l-93 151h150l39 -70h2l39 70h144l-87 -151h-194zM48 0v490h179v-490h-179z" />
    <glyph glyph-name="uni01D1" unicode="&#x1d1;" horiz-adv-x="798" 
d="M306 754l-93 143h150l39 -62h2l39 62h144l-87 -143h-194zM399 -10q-164 0 -266.5 101.5t-102.5 263.5t103 264t266 102t266 -101.5t103 -264.5q0 -162 -103 -263.5t-266 -101.5zM399 167q74 0 121.5 54t47.5 134q0 79 -47.5 133.5t-121.5 54.5q-73 0 -121 -54t-48 -134
t48 -134t121 -54z" />
    <glyph glyph-name="uni01D2" unicode="&#x1d2;" horiz-adv-x="583" 
d="M198 545l-93 151h150l39 -70h2l39 70h144l-87 -151h-194zM292 -10q-119 0 -194 71t-75 184t75 184t194 71q118 0 193 -71t75 -184t-75 -184t-193 -71zM292 147q38 0 63 27.5t25 70.5t-24.5 70t-63.5 27t-64 -27t-25 -70t25.5 -70.5t63.5 -27.5z" />
    <glyph glyph-name="uni01D3" unicode="&#x1d3;" horiz-adv-x="691" 
d="M251 754l-93 143h150l39 -62h2l39 62h144l-87 -143h-194zM344 -10q-136 0 -217 80.5t-81 227.5v412h192v-401q0 -61 27 -101.5t79 -40.5q49 0 79.5 37.5t30.5 104.5v401h191v-412q0 -142 -78.5 -225t-222.5 -83z" />
    <glyph glyph-name="uni01D4" unicode="&#x1d4;" horiz-adv-x="566" 
d="M191 545l-93 151h150l39 -70h2l39 70h144l-87 -151h-194zM210 -10q-173 0 -173 213v287h178v-244q0 -52 15 -75.5t49 -23.5q30 0 48.5 24.5t18.5 72.5v246h179v-490h-179v52l-2 1q-51 -63 -134 -63z" />
    <glyph glyph-name="uni01D5" unicode="&#x1d5;" horiz-adv-x="691" 
d="M187 931v82h320v-82h-320zM239 751q-36 0 -59.5 22.5t-23.5 55.5q0 32 23.5 54t59.5 22t58.5 -21.5t22.5 -54.5q0 -34 -22.5 -56t-58.5 -22zM467 751q-36 0 -59.5 22.5t-23.5 55.5q0 32 23.5 54t59.5 22t58.5 -21.5t22.5 -54.5q0 -34 -22.5 -56t-58.5 -22zM344 -10
q-136 0 -217 80.5t-81 227.5v412h192v-401q0 -61 27 -101.5t79 -40.5q49 0 79.5 37.5t30.5 104.5v401h191v-412q0 -142 -78.5 -225t-222.5 -83z" />
    <glyph glyph-name="uni01D6" unicode="&#x1d6;" horiz-adv-x="566" 
d="M126 733v108h320v-108h-320zM187 534q-38 0 -63 24t-25 60q0 35 25 58.5t63 23.5q39 0 64.5 -23.5t25.5 -58.5q0 -37 -25.5 -60.5t-64.5 -23.5zM392 534q-38 0 -63 24t-25 60q0 35 25 58.5t63 23.5q39 0 64.5 -23.5t25.5 -58.5q0 -37 -25.5 -60.5t-64.5 -23.5zM210 -10
q-173 0 -173 213v287h178v-244q0 -52 15 -75.5t49 -23.5q30 0 48.5 24.5t18.5 72.5v246h179v-490h-179v52l-2 1q-51 -63 -134 -63z" />
    <glyph glyph-name="uni01D7" unicode="&#x1d7;" horiz-adv-x="691" 
d="M295 911l88 134l175 1l-147 -135h-116zM239 752q-36 0 -59.5 22.5t-23.5 55.5q0 32 23.5 54t59.5 22t58.5 -21.5t22.5 -54.5q0 -34 -22.5 -56t-58.5 -22zM467 752q-36 0 -59.5 22.5t-23.5 55.5q0 32 23.5 54t59.5 22t58.5 -21.5t22.5 -54.5q0 -34 -22.5 -56t-58.5 -22z
M344 -10q-136 0 -217 80.5t-81 227.5v412h192v-401q0 -61 27 -101.5t79 -40.5q49 0 79.5 37.5t30.5 104.5v401h191v-412q0 -142 -78.5 -225t-222.5 -83z" />
    <glyph glyph-name="uni01D8" unicode="&#x1d8;" horiz-adv-x="566" 
d="M217 725l109 132l160 1l-138 -133h-131zM182 538q-38 0 -63 24t-25 60q0 35 25 58.5t63 23.5q39 0 64.5 -23.5t25.5 -58.5q0 -37 -25.5 -60.5t-64.5 -23.5zM387 538q-38 0 -63 24t-25 60q0 35 25 58.5t63 23.5q39 0 64.5 -23.5t25.5 -58.5q0 -37 -25.5 -60.5t-64.5 -23.5
zM210 -10q-173 0 -173 213v287h178v-244q0 -52 15 -75.5t49 -23.5q30 0 48.5 24.5t18.5 72.5v246h179v-490h-179v52l-2 1q-51 -63 -134 -63z" />
    <glyph glyph-name="uni01D9" unicode="&#x1d9;" horiz-adv-x="691" 
d="M261 918l-93 122h150l39 -53h2l39 53h144l-87 -122h-194zM239 752q-36 0 -59.5 22.5t-23.5 55.5q0 32 23.5 54t59.5 22t58.5 -21.5t22.5 -54.5q0 -34 -22.5 -56t-58.5 -22zM467 752q-36 0 -59.5 22.5t-23.5 55.5q0 32 23.5 54t59.5 22t58.5 -21.5t22.5 -54.5
q0 -34 -22.5 -56t-58.5 -22zM344 -10q-136 0 -217 80.5t-81 227.5v412h192v-401q0 -61 27 -101.5t79 -40.5q49 0 79.5 37.5t30.5 104.5v401h191v-412q0 -142 -78.5 -225t-222.5 -83z" />
    <glyph glyph-name="uni01DA" unicode="&#x1da;" horiz-adv-x="566" 
d="M190 725l-93 136h150l39 -63h2l39 63h144l-87 -136h-194zM182 538q-38 0 -63 24t-25 60q0 35 25 58.5t63 23.5q39 0 64.5 -23.5t25.5 -58.5q0 -37 -25.5 -60.5t-64.5 -23.5zM387 538q-38 0 -63 24t-25 60q0 35 25 58.5t63 23.5q39 0 64.5 -23.5t25.5 -58.5
q0 -37 -25.5 -60.5t-64.5 -23.5zM210 -10q-173 0 -173 213v287h178v-244q0 -52 15 -75.5t49 -23.5q30 0 48.5 24.5t18.5 72.5v246h179v-490h-179v52l-2 1q-51 -63 -134 -63z" />
    <glyph glyph-name="uni01DB" unicode="&#x1db;" horiz-adv-x="691" 
d="M304 910l-147 135l175 -1l88 -134h-116zM239 751q-36 0 -59.5 22.5t-23.5 55.5q0 32 23.5 54t59.5 22t58.5 -21.5t22.5 -54.5q0 -34 -22.5 -56t-58.5 -22zM467 751q-36 0 -59.5 22.5t-23.5 55.5q0 32 23.5 54t59.5 22t58.5 -21.5t22.5 -54.5q0 -34 -22.5 -56t-58.5 -22z
M344 -10q-136 0 -217 80.5t-81 227.5v412h192v-401q0 -61 27 -101.5t79 -40.5q49 0 79.5 37.5t30.5 104.5v401h191v-412q0 -142 -78.5 -225t-222.5 -83z" />
    <glyph glyph-name="uni01DC" unicode="&#x1dc;" horiz-adv-x="566" 
d="M356 725h-131l-138 133l160 -1zM182 538q-38 0 -63 24t-25 60q0 35 25 58.5t63 23.5q39 0 64.5 -23.5t25.5 -58.5q0 -37 -25.5 -60.5t-64.5 -23.5zM387 538q-38 0 -63 24t-25 60q0 35 25 58.5t63 23.5q39 0 64.5 -23.5t25.5 -58.5q0 -37 -25.5 -60.5t-64.5 -23.5z
M210 -10q-173 0 -173 213v287h178v-244q0 -52 15 -75.5t49 -23.5q30 0 48.5 24.5t18.5 72.5v246h179v-490h-179v52l-2 1q-51 -63 -134 -63z" />
    <glyph glyph-name="Gcaron" unicode="&#x1e6;" horiz-adv-x="726" 
d="M285 752l-93 143h150l39 -62h2l39 62h144l-87 -143h-194zM401 -9q-161 0 -266 96.5t-105 266.5q0 159 97.5 263t265.5 104q81 0 161 -34.5t132 -97.5l-135 -113q-68 66 -158 66q-69 0 -116.5 -50.5t-47.5 -137.5q0 -80 46 -134.5t126 -54.5q55 0 106 23v66h-121v153h300
v-330q-50 -37 -127.5 -61.5t-157.5 -24.5z" />
    <glyph glyph-name="gcaron" unicode="&#x1e7;" horiz-adv-x="588" 
d="M203 545l-93 151h150l39 -70h2l39 70h144l-87 -151h-194zM275 -208q-117 0 -203 45l39 141q27 -17 67 -28.5t74 -11.5q57 0 88.5 22.5t31.5 56.5v43l-2 1q-48 -51 -129 -51q-97 0 -158.5 68.5t-61.5 171.5q0 109 60.5 179.5t149.5 70.5q81 0 134 -57l2 1v46h179v-419
q0 -133 -62.5 -206t-208.5 -73zM289 167q37 0 61.5 24.5t24.5 62.5t-24.5 63t-61.5 25t-62 -24.5t-25 -63.5q0 -38 25 -62.5t62 -24.5z" />
    <glyph glyph-name="uni01EA" unicode="&#x1ea;" horiz-adv-x="798" 
d="M768 355q0 -136 -75 -231.5t-199 -123.5h-1q-28 -6 -44 -7q-25 -9 -39 -25t-14 -34q0 -38 36 -38q9 0 15.5 0.5t11.5 2t8 1.5l7 -82q-29 -11 -77 -11q-58 0 -92 27.5t-34 70.5q0 53 46 91v2q-131 24 -209 120.5t-78 236.5q0 162 103 264t266 102t266 -101.5t103 -264.5z
M399 167q74 0 121.5 54t47.5 134q0 79 -47.5 133.5t-121.5 54.5q-73 0 -121 -54t-48 -134t48 -134t121 -54z" />
    <glyph glyph-name="uni01EB" unicode="&#x1eb;" horiz-adv-x="583" 
d="M322 -9q-49 -19 -49 -57t36 -38q9 0 15.5 0.5t11.5 2t8 1.5l7 -82q-29 -11 -77 -11q-58 0 -92 27.5t-34 70.5q0 58 52 95v3q-82 24 -129.5 88.5t-47.5 153.5q0 113 75 184t194 71q118 0 193 -71t75 -184q0 -105 -66 -174.5t-172 -79.5zM292 342q-39 0 -64 -27t-25 -70
t25.5 -70.5t63.5 -27.5t63 27.5t25 70.5t-24.5 70t-63.5 27z" />
    <glyph glyph-name="Aringacute" unicode="&#x1fa;" horiz-adv-x="693" 
d="M347 743q-47 0 -79 30t-32 76q0 45 31 75.5t80 30.5q36 0 65 -19l66 54l175 1l-197 -164q-8 -36 -37.5 -60t-71.5 -24zM347 885q-14 0 -24 -10.5t-10 -24.5t10 -24t24 -10t24 10.5t10 24.5t-10 24t-24 10zM438 710l257 -710h-198l-36 115h-228l-36 -115h-199l258 710h182
zM282 274h130l-64 205h-2z" />
    <glyph glyph-name="aringacute" unicode="&#x1fb;" horiz-adv-x="588" 
d="M291 538q-47 0 -79 30t-32 76q0 45 31 75.5t80 30.5q42 0 73 -25l69 56h174l-212 -175q-11 -31 -38.5 -49.5t-65.5 -18.5zM291 680q-14 0 -24 -10.5t-10 -24.5t10 -24t24 -10t24 10.5t10 24.5t-10 24t-24 10zM367 442v48h179v-490h-170v44l-2 1q-45 -55 -125 -55
q-101 0 -164.5 71t-63.5 184q0 112 62 183.5t155 71.5q75 0 127 -58h2zM289 146q36 0 61 27.5t25 71.5q0 43 -25 70.5t-61 27.5q-38 0 -62.5 -27.5t-24.5 -70.5q0 -45 24 -72t63 -27z" />
    <glyph glyph-name="AEacute" unicode="&#x1fc;" horiz-adv-x="938" 
d="M361 754l106 143h177l-126 -143h-157zM-2 0l305 710h590v-169h-291v-107h233v-163h-233v-102h312v-169h-494v115h-173l-47 -115h-202zM307 264h123v295h-2z" />
    <glyph glyph-name="aeacute" unicode="&#x1fd;" horiz-adv-x="790" 
d="M568 698l-124 -153h-160l109 152zM769 246q0 -19 -5 -44h-308q22 -68 104 -68q53 0 98 51l96 -109q-32 -40 -85.5 -63t-117.5 -23q-109 0 -171 58h-3q-63 -58 -174 -58q-92 0 -138.5 41.5t-46.5 110.5q0 153 203 153l63 1q0 36 -14 50.5t-45 14.5q-53 0 -115 -32l-62 125
q88 46 194 46q91 0 137 -51h5q62 51 150 51q102 0 168.5 -72t66.5 -182zM528 362q-59 0 -74 -64h143q-12 64 -69 64zM226 111q29 0 43.5 16t14.5 40v38l-42 -1q-58 -2 -58 -48q0 -45 42 -45z" />
    <glyph glyph-name="Oslashacute" unicode="&#x1fe;" horiz-adv-x="798" 
d="M602 895l-126 -143h-157l106 143h177zM686 596q82 -98 82 -241q0 -162 -103 -263.5t-266 -101.5q-120 0 -211 57l-77 -85l-69 64l75 82q-87 100 -87 247q0 162 103 264t266 102q125 0 218 -62l74 81l69 -63zM230 355q0 -54 23 -97l235 259q-41 26 -89 26q-73 0 -121 -54
t-48 -134zM399 167q74 0 121.5 54t47.5 134q0 47 -19 90l-232 -256q38 -22 82 -22z" />
    <glyph glyph-name="oslashacute" unicode="&#x1ff;" horiz-adv-x="583" 
d="M499 698l-124 -153h-160l109 152zM497 417q63 -69 63 -172q0 -113 -75 -184t-193 -71q-86 0 -152 39l-51 -56l-57 53l49 53q-58 67 -58 166q0 113 75 184t194 71q82 0 143 -35l46 50l58 -53zM203 245q0 -17 4 -29l112 122q-12 4 -27 4q-39 0 -64 -27t-25 -70zM292 147
q38 0 63 27.5t25 70.5q0 20 -6 38l-118 -128q18 -8 36 -8z" />
    <glyph glyph-name="Scommaaccent" unicode="&#x218;" horiz-adv-x="559" 
d="M271 -10q-152 0 -263 114l108 132q78 -79 162 -79q31 0 46 13.5t15 32.5q0 22 -17.5 36t-72.5 32q-48 16 -80.5 32.5t-66.5 43t-51.5 66.5t-17.5 92q0 91 67.5 152t169.5 63q141 3 251 -95l-105 -135q-83 64 -135 64q-50 0 -50 -42q0 -19 18 -35t69 -36q111 -42 146 -66
q75 -51 75 -150q0 -64 -24.5 -111.5t-65.5 -73.5t-85.5 -38t-92.5 -12zM186 -222l-30 95q54 7 54 39q0 15 -7 35h140q6 -20 6 -39q0 -130 -163 -130z" />
    <glyph glyph-name="scommaaccent" unicode="&#x219;" horiz-adv-x="435" 
d="M208 -10q-118 0 -200 73l81 110q62 -55 122 -55q37 0 37 20q0 10 -12.5 17.5t-54.5 20.5q-156 45 -156 159q0 78 54 121.5t134 43.5q104 0 192 -62l-83 -119q-48 51 -103 51q-31 0 -31 -20q0 -15 61 -35q91 -29 128.5 -62t37.5 -101q0 -74 -53 -118t-154 -44zM134 -222
l-30 95q54 7 54 39q0 15 -7 35h140q6 -20 6 -39q0 -130 -163 -130z" />
    <glyph glyph-name="uni021A" unicode="&#x21a;" horiz-adv-x="584" 
d="M195 0v541h-177v169h549v-169h-177v-541h-195zM202 -222l-30 95q54 7 54 39q0 15 -7 35h140q6 -20 6 -39q0 -130 -163 -130z" />
    <glyph glyph-name="uni021B" unicode="&#x21b;" horiz-adv-x="378" 
d="M210 -10q-66 0 -106.5 41.5t-40.5 122.5v194h-53v142h53v154l179 18v-172h106v-142h-106v-156q0 -49 32 -49q18 0 36 7l44 -124q-63 -36 -144 -36zM118 -222l-30 95q54 7 54 39q0 15 -7 35h140q6 -20 6 -39q0 -130 -163 -130z" />
    <glyph glyph-name="uni0232" unicode="&#x232;" horiz-adv-x="641" 
d="M160 767v125h320v-125h-320zM223 0v307l-229 403h218l108 -216h2l105 216h220l-230 -403v-307h-194z" />
    <glyph glyph-name="uni0233" unicode="&#x233;" horiz-adv-x="537" 
d="M110 568v132h320v-132h-320zM108 -198l83 234l-187 454h191l80 -231h3l78 231h177l-251 -688h-174z" />
    <glyph glyph-name="uni0237" unicode="&#x237;" horiz-adv-x="267" 
d="M60 -208q-66 0 -120 19l29 137q23 -7 41 -7q22 0 28 13.5t6 45.5v490h179v-510q0 -188 -163 -188z" />
    <glyph glyph-name="uni0251" unicode="&#x251;" horiz-adv-x="588" 
d="M249 -10q-101 0 -164.5 71t-63.5 184q0 112 62 183.5t155 71.5q75 0 127 -58h2v48h179v-490h-170v44l-2 1q-45 -55 -125 -55zM289 146q36 0 61 27.5t25 71.5q0 43 -25 70.5t-61 27.5q-38 0 -62.5 -27.5t-24.5 -70.5q0 -45 24 -72t63 -27z" />
    <glyph glyph-name="uni0259" unicode="&#x259;" horiz-adv-x="542" 
d="M251 500q121 0 194.5 -67.5t73.5 -189.5q0 -117 -67 -185t-183 -68q-120 0 -184 69.5t-64 183.5q0 27 5 47h321q-6 33 -35 50t-69 17q-64 0 -114 -35l-73 124q36 25 94 39.5t101 14.5zM271 126q33 0 53.5 18t23.5 49h-162q5 -28 27.5 -47.5t57.5 -19.5z" />
    <glyph glyph-name="uni0261" unicode="&#x261;" horiz-adv-x="588" 
d="M275 -208q-117 0 -203 45l39 141q27 -17 67 -28.5t74 -11.5q57 0 88.5 22.5t31.5 56.5v43l-2 1q-48 -51 -129 -51q-97 0 -158.5 68.5t-61.5 171.5q0 109 60.5 179.5t149.5 70.5q81 0 134 -57l2 1v46h179v-419q0 -133 -62.5 -206t-208.5 -73zM289 167q37 0 61.5 24.5
t24.5 62.5t-24.5 63t-61.5 25t-62 -24.5t-25 -63.5q0 -38 25 -62.5t62 -24.5z" />
    <glyph glyph-name="uni0272" unicode="&#x272;" horiz-adv-x="576" 
d="M363 500q82 0 128 -46t46 -158v-296h-179v253q0 51 -15 70t-49 19q-71 0 -71 -96v-246q0 -110 -43.5 -159t-140.5 -49q-49 0 -85 15l12 127q15 -4 30 -4q48 0 48 68v492h179v-52h2q53 62 138 62z" />
    <glyph glyph-name="uni02BB" unicode="&#x2bb;" horiz-adv-x="247" 
d="M46 409l26 278h128l17 -278h-171z" />
    <glyph glyph-name="uni02BC" unicode="&#x2bc;" horiz-adv-x="245" 
d="M35 474l35 236h166l-77 -236h-124z" />
    <glyph glyph-name="uni02BE" unicode="&#x2be;" horiz-adv-x="230" 
d="M25 418l-10 116q64 5 64 64q0 28 -16.5 45t-47.5 18l10 117q91 0 142.5 -47.5t51.5 -133.5t-51.5 -132.5t-142.5 -46.5z" />
    <glyph glyph-name="uni02BF" unicode="&#x2bf;" horiz-adv-x="258" 
d="M233 418q-91 0 -142.5 46.5t-51.5 132.5t51.5 133.5t142.5 47.5l10 -117q-31 -1 -47.5 -18t-16.5 -45q0 -59 64 -64z" />
    <glyph glyph-name="circumflex" unicode="&#x2c6;" horiz-adv-x="458" 
d="M42 518l87 151h194l93 -151h-150l-39 70h-2l-39 -70h-144z" />
    <glyph glyph-name="caron" unicode="&#x2c7;" horiz-adv-x="458" 
d="M135 518l-93 151h150l39 -70h2l39 70h144l-87 -151h-194z" />
    <glyph glyph-name="uni02C8" unicode="&#x2c8;" horiz-adv-x="209" 
d="M36 700h119v-320h-119v320z" />
    <glyph glyph-name="uni02C9" unicode="&#x2c9;" horiz-adv-x="364" 
d="M22 568v132h320v-132h-320z" />
    <glyph glyph-name="uni02CA" unicode="&#x2ca;" horiz-adv-x="329" 
d="M30 557l109 152l175 1l-124 -153h-160z" />
    <glyph glyph-name="uni02CB" unicode="&#x2cb;" horiz-adv-x="328" 
d="M137 545l-123 152l177 -1l103 -151h-157z" />
    <glyph glyph-name="uni02CC" unicode="&#x2cc;" horiz-adv-x="209" 
d="M36 138h119v-320h-119v320z" />
    <glyph glyph-name="breve" unicode="&#x2d8;" horiz-adv-x="461" 
d="M230 507q-72 0 -123 43t-57 119h127q2 -18 17 -30t36 -12q22 0 37 12t17 30h127q-5 -70 -53.5 -116t-127.5 -46z" />
    <glyph glyph-name="dotaccent" unicode="&#x2d9;" horiz-adv-x="503" 
d="M252 518q-45 0 -74 27.5t-29 69.5q0 40 29 67.5t74 27.5t73.5 -27t28.5 -68q0 -42 -28.5 -69.5t-73.5 -27.5z" />
    <glyph glyph-name="ring" unicode="&#x2da;" horiz-adv-x="440" 
d="M220 512q-47 0 -79 30t-32 76q0 45 31 75.5t80 30.5q47 0 79 -30t32 -76q0 -45 -31 -75.5t-80 -30.5zM220 585q14 0 24 10.5t10 24.5t-10 24t-24 10t-24 -10.5t-10 -24.5t10 -24t24 -10z" />
    <glyph glyph-name="ogonek" unicode="&#x2db;" horiz-adv-x="482" 
d="M274 -193q-58 0 -92 27.5t-34 70.5q0 31 18.5 61t58.5 48l147 -14q-44 0 -71.5 -20t-27.5 -46q0 -38 36 -38q9 0 15.5 0.5t11.5 2t8 1.5l7 -82q-29 -11 -77 -11z" />
    <glyph glyph-name="tilde" unicode="&#x2dc;" horiz-adv-x="500" 
d="M331 520q-44 0 -88 25q-34 18 -51 18q-32 0 -53 -45l-102 41q18 57 53 93.5t82 36.5t90 -26q27 -16 46 -16q33 0 55 44l100 -33q-17 -60 -51.5 -99t-80.5 -39z" />
    <glyph glyph-name="hungarumlaut" unicode="&#x2dd;" horiz-adv-x="566" 
d="M28 530l108 152l175 1l-123 -153h-160zM266 530l108 152l175 1l-123 -153h-160z" />
    <glyph glyph-name="gravecomb" unicode="&#x300;" 
d="M-551 518l-123 152l177 -1l103 -151h-157z" />
    <glyph glyph-name="acutecomb" unicode="&#x301;" 
d="M-622 518l109 152l175 1l-124 -153h-160z" />
    <glyph glyph-name="uni0302" unicode="&#x302;" 
d="M-686 518l87 151h194l93 -151h-150l-39 70h-2l-39 -70h-144z" />
    <glyph glyph-name="tildecomb" unicode="&#x303;" 
d="M-411 520q-44 0 -88 25q-34 18 -51 18q-32 0 -53 -45l-102 41q18 57 53 93.5t82 36.5t90 -26q27 -16 46 -16q33 0 55 44l100 -33q-17 -60 -51.5 -99t-80.5 -39z" />
    <glyph glyph-name="uni0304" unicode="&#x304;" 
d="M-661 541v132h320v-132h-320z" />
    <glyph glyph-name="uni0306" unicode="&#x306;" 
d="M-501 507q-72 0 -123 43t-57 119h127q2 -18 17 -30t36 -12q22 0 37 12t17 30h127q-5 -70 -53.5 -116t-127.5 -46z" />
    <glyph glyph-name="uni0307" unicode="&#x307;" 
d="M-499 518q-45 0 -74 27.5t-29 69.5q0 40 29 67.5t74 27.5t73.5 -27t28.5 -68q0 -42 -28.5 -69.5t-73.5 -27.5z" />
    <glyph glyph-name="uni0308" unicode="&#x308;" 
d="M-619 518q-45 0 -73.5 27.5t-28.5 69.5q0 40 29 67.5t73 27.5q45 0 74 -27t29 -68q0 -42 -29 -69.5t-74 -27.5zM-383 518q-45 0 -73.5 27.5t-28.5 69.5q0 40 29 67.5t73 27.5q45 0 74 -27t29 -68q0 -42 -29 -69.5t-74 -27.5z" />
    <glyph glyph-name="hookabovecomb" unicode="&#x309;" 
d="M-543 521q48 38 48 70q0 24 -29 24q-31 0 -58 -18l-30 68q24 24 65 40.5t82 16.5q55 0 83.5 -23t28.5 -66q0 -33 -25 -63t-69 -49h-96z" />
    <glyph glyph-name="uni030A" unicode="&#x30a;" 
d="M-500 512q-47 0 -79 30t-32 76q0 45 31 75.5t80 30.5q47 0 79 -30t32 -76q0 -45 -31 -75.5t-80 -30.5zM-500 585q14 0 24 10.5t10 24.5t-10 24t-24 10t-24 -10.5t-10 -24.5t10 -24t24 -10z" />
    <glyph glyph-name="uni030B" unicode="&#x30b;" 
d="M-695 530l108 152l175 1l-123 -153h-160zM-457 530l108 152l175 1l-123 -153h-160z" />
    <glyph glyph-name="uni030C" unicode="&#x30c;" 
d="M-594 518l-93 151h150l39 -70h2l39 70h144l-87 -151h-194z" />
    <glyph glyph-name="uni0312" unicode="&#x312;" 
d="M-568 543q-6 19 -6 39q0 130 163 130l30 -95q-54 -7 -54 -39q0 -15 7 -35h-140z" />
    <glyph glyph-name="uni0313" unicode="&#x313;" 
d="M-426 702q6 -20 6 -39q0 -130 -163 -130l-30 95q54 7 54 39q0 15 -7 35h140z" />
    <glyph glyph-name="uni031B" unicode="&#x31b;" 
d="M-521 455l-3 68q47 4 62 26t15 74v87h143v-78q0 -187 -217 -177z" />
    <glyph glyph-name="dotbelowcomb" unicode="&#x323;" 
d="M-500 -48q45 0 74 -27.5t29 -69.5q0 -40 -29 -67.5t-74 -27.5t-73.5 27t-28.5 68q0 42 28.5 69.5t73.5 27.5z" />
    <glyph glyph-name="uni0324" unicode="&#x324;" 
d="M-617 -48q45 0 73.5 -27.5t28.5 -69.5q0 -40 -29 -67.5t-73 -27.5q-45 0 -74 27t-29 68q0 42 29 69.5t74 27.5zM-381 -48q45 0 73.5 -27.5t28.5 -69.5q0 -40 -29 -67.5t-73 -27.5q-45 0 -74 27t-29 68q0 42 29 69.5t74 27.5z" />
    <glyph glyph-name="uni0326" unicode="&#x326;" 
d="M-588 -222l-30 95q54 7 54 39q0 15 -7 35h140q6 -20 6 -39q0 -130 -163 -130z" />
    <glyph glyph-name="uni0327" unicode="&#x327;" 
d="M-535 -194q-37 0 -67 6v68q23 -7 44 -7q40 0 40 25q0 28 -67 28v39l23 41h86l-21 -34l1 -2q111 -3 111 -81q0 -38 -38.5 -60.5t-111.5 -22.5z" />
    <glyph glyph-name="uni0328" unicode="&#x328;" 
d="M-598 -193q-58 0 -92 27.5t-34 70.5q0 31 18.5 61t58.5 48l147 -14q-44 0 -71.5 -20t-27.5 -46q0 -38 36 -38q9 0 15.5 0.5t11.5 2t8 1.5l7 -82q-29 -11 -77 -11z" />
    <glyph glyph-name="uni032E" unicode="&#x32e;" 
d="M-499 -238q-79 0 -127.5 46t-53.5 116h127q2 -18 17 -30t37 -12q21 0 36 12t17 30h127q-6 -76 -57 -119t-123 -43z" />
    <glyph glyph-name="uni0331" unicode="&#x331;" 
d="M-340 -227h-320v132h320v-132z" />
    <glyph glyph-name="uni0335" unicode="&#x335;" 
d="M-651 206v101h307v-101h-307z" />
    <glyph glyph-name="uni0374" unicode="&#x374;" horiz-adv-x="287" 
d="M35 463l48 270h169l-81 -270h-136z" />
    <glyph glyph-name="uni0375" unicode="&#x375;" horiz-adv-x="325" 
d="M65 -163l48 270h169l-81 -270h-136z" />
    <glyph glyph-name="uni037E" unicode="&#x37e;" horiz-adv-x="256" 
d="M133 308q-41 0 -69.5 28t-28.5 68q0 39 29 67t69 28t68.5 -28t28.5 -67q0 -40 -28.5 -68t-68.5 -28zM17 -135l28 279h172l-73 -279h-127z" />
    <glyph glyph-name="tonos" unicode="&#x384;" horiz-adv-x="461" 
d="M120 530l53 180h188l-90 -180h-151z" />
    <glyph glyph-name="dieresistonos" unicode="&#x385;" horiz-adv-x="632" 
d="M121 518q-45 0 -74 27.5t-29 69.5q0 40 29 67.5t74 27.5t73.5 -27t28.5 -68q0 -42 -28.5 -69.5t-73.5 -27.5zM240 530l1 180h137l-33 -180h-105zM482 518q-45 0 -73.5 27.5t-28.5 69.5q0 40 29 67.5t73 27.5q45 0 74 -27t29 -68q0 -42 -29 -69.5t-74 -27.5z" />
    <glyph glyph-name="Alphatonos" unicode="&#x386;" horiz-adv-x="693" 
d="M-78 530l68 180h188l-105 -180h-151zM-2 0l258 710h182l257 -710h-198l-36 115h-228l-36 -115h-199zM282 274h130l-64 205h-2z" />
    <glyph glyph-name="anoteleia" unicode="&#x387;" horiz-adv-x="262" 
d="M134 308q-41 0 -69.5 28t-28.5 68q0 39 29 67t69 28t68.5 -28t28.5 -67q0 -40 -28.5 -68t-68.5 -28z" />
    <glyph glyph-name="Epsilontonos" unicode="&#x388;" horiz-adv-x="574" 
d="M-243 530l68 180h188l-105 -180h-151zM52 0v710h472v-169h-288v-107h225v-162h-225v-103h309v-169h-493z" />
    <glyph glyph-name="Etatonos" unicode="&#x389;" horiz-adv-x="705" 
d="M-243 530l68 180h188l-105 -180h-151zM53 0v710h192v-283h215v283h192v-710h-192v259h-215v-259h-192z" />
    <glyph glyph-name="Iotatonos" unicode="&#x38a;" horiz-adv-x="310" 
d="M-238 530l68 180h188l-105 -180h-151zM57 0v710h196v-710h-196z" />
    <glyph glyph-name="Omicrontonos" unicode="&#x38c;" horiz-adv-x="798" 
d="M399 -10q-164 0 -266.5 101.5t-102.5 263.5t103 264t266 102t266 -101.5t103 -264.5q0 -162 -103 -263.5t-266 -101.5zM-151 530l68 180h188l-105 -180h-151zM399 167q74 0 121.5 54t47.5 134q0 79 -47.5 133.5t-121.5 54.5q-73 0 -121 -54t-48 -134t48 -134t121 -54z
" />
    <glyph glyph-name="Upsilontonos" unicode="&#x38e;" horiz-adv-x="641" 
d="M-284 530l68 180h188l-105 -180h-151zM223 0v307l-229 403h218l108 -216h2l105 216h220l-230 -403v-307h-194z" />
    <glyph glyph-name="Omegatonos" unicode="&#x38f;" horiz-adv-x="731" 
d="M38 0v169h100l1 2q-109 88 -109 227q0 142 91.5 232.5t243.5 90.5q153 0 244.5 -90.5t91.5 -232.5q0 -139 -109 -227l1 -2h100v-169h-289v169q97 97 97 218q0 70 -37.5 116t-98.5 45q-61 0 -98.5 -45.5t-37.5 -115.5q0 -120 98 -218v-169h-289zM-168 530l68 180h188
l-105 -180h-151z" />
    <glyph glyph-name="iotadieresistonos" unicode="&#x390;" horiz-adv-x="318" 
d="M-42 545q-45 0 -74 27.5t-29 69.5q0 40 29 67.5t74 27.5t73.5 -27t28.5 -68q0 -42 -28.5 -69.5t-73.5 -27.5zM77 557l1 180h137l-33 -180h-105zM319 545q-45 0 -73.5 27.5t-28.5 69.5q0 40 29 67.5t73 27.5q45 0 74 -27t29 -68q0 -42 -29 -69.5t-74 -27.5zM199 -10
q-74 0 -112.5 40t-38.5 137v323h179v-307q0 -18 5 -27t10.5 -11t15.5 -2q9 0 39 4l21 -132q-55 -25 -119 -25z" />
    <glyph glyph-name="Alpha" unicode="&#x391;" horiz-adv-x="693" 
d="M-2 0l258 710h182l257 -710h-198l-36 115h-228l-36 -115h-199zM282 274h130l-64 205h-2z" />
    <glyph glyph-name="Beta" unicode="&#x392;" horiz-adv-x="626" 
d="M53 0v710h279q119 0 177 -45.5t58 -127.5q0 -114 -109 -155v-2q146 -38 146 -180q0 -91 -59.5 -145.5t-175.5 -54.5h-316zM237 430h77q65 0 65 57q0 28 -16.5 43t-59.5 15h-66v-115zM237 163h98q72 0 72 65q0 30 -19 46.5t-53 16.5h-98v-128z" />
    <glyph glyph-name="Gamma" unicode="&#x393;" horiz-adv-x="556" 
d="M53 0v710h487v-168h-291v-542h-196z" />
    <glyph glyph-name="uni0394" unicode="&#x394;" horiz-adv-x="684" 
d="M24 0v145l224 565h188l224 -565v-145h-636zM235 169h212l-103 304h-2z" />
    <glyph glyph-name="Epsilon" unicode="&#x395;" horiz-adv-x="574" 
d="M52 0v710h472v-169h-288v-107h225v-162h-225v-103h309v-169h-493z" />
    <glyph glyph-name="Zeta" unicode="&#x396;" horiz-adv-x="607" 
d="M33 0v148l287 390l-2 3h-276v169h532v-143l-297 -395l2 -3h295v-169h-541z" />
    <glyph glyph-name="Eta" unicode="&#x397;" horiz-adv-x="705" 
d="M53 0v710h192v-283h215v283h192v-710h-192v259h-215v-259h-192z" />
    <glyph glyph-name="Theta" unicode="&#x398;" horiz-adv-x="798" 
d="M399 -10q-164 0 -266.5 101.5t-102.5 263.5t103 264t266 102t266 -101.5t103 -264.5q0 -162 -103 -263.5t-266 -101.5zM399 167q74 0 121.5 54t47.5 134q0 79 -47.5 133.5t-121.5 54.5q-73 0 -121 -54t-48 -134t48 -134t121 -54zM299 272v158h197v-158h-197z" />
    <glyph glyph-name="Iota" unicode="&#x399;" horiz-adv-x="310" 
d="M57 0v710h196v-710h-196z" />
    <glyph glyph-name="Kappa" unicode="&#x39a;" horiz-adv-x="661" 
d="M53 0v710h189v-238h3l172 238h240l-250 -304l260 -406h-233l-152 256l-40 -49v-207h-189z" />
    <glyph glyph-name="Lambda" unicode="&#x39b;" horiz-adv-x="662" 
d="M-2 0l241 710h183l242 -710h-202l-130 442h-2l-130 -442h-202z" />
    <glyph glyph-name="Mu" unicode="&#x39c;" horiz-adv-x="847" 
d="M53 0v710h192l178 -353h2l176 353h193v-710h-188v349h-3l-119 -221h-121l-119 223h-3v-351h-188z" />
    <glyph glyph-name="Nu" unicode="&#x39d;" horiz-adv-x="727" 
d="M53 0v710h181l251 -402l2 1v401h187v-710h-187l-246 389h-2v-389h-186z" />
    <glyph glyph-name="Xi" unicode="&#x39e;" horiz-adv-x="614" 
d="M37 540v170h540v-170h-540zM101 272v162h408v-162h-408zM30 0v171h554v-171h-554z" />
    <glyph glyph-name="Omicron" unicode="&#x39f;" horiz-adv-x="798" 
d="M399 -10q-164 0 -266.5 101.5t-102.5 263.5t103 264t266 102t266 -101.5t103 -264.5q0 -162 -103 -263.5t-266 -101.5zM399 167q74 0 121.5 54t47.5 134q0 79 -47.5 133.5t-121.5 54.5q-73 0 -121 -54t-48 -134t48 -134t121 -54z" />
    <glyph glyph-name="Pi" unicode="&#x3a0;" horiz-adv-x="672" 
d="M53 0v710h567v-710h-192v541h-183v-541h-192z" />
    <glyph glyph-name="Rho" unicode="&#x3a1;" horiz-adv-x="604" 
d="M53 0v710h276q128 0 193 -68.5t65 -183.5q0 -118 -72 -179.5t-198 -61.5h-80v-217h-184zM237 381h57q46 0 71 21t25 60q0 36 -23.5 58.5t-72.5 22.5h-57v-162z" />
    <glyph glyph-name="Sigma" unicode="&#x3a3;" horiz-adv-x="581" 
d="M30 0v131l174 224l-174 219v136h525v-168h-266l-2 -3l144 -184l-143 -183l1 -3h266v-169h-525z" />
    <glyph glyph-name="Tau" unicode="&#x3a4;" horiz-adv-x="584" 
d="M195 0v541h-177v169h549v-169h-177v-541h-195z" />
    <glyph glyph-name="Upsilon" unicode="&#x3a5;" horiz-adv-x="641" 
d="M223 0v307l-229 403h218l108 -216h2l105 216h220l-230 -403v-307h-194z" />
    <glyph glyph-name="Phi" unicode="&#x3a6;" horiz-adv-x="877" 
d="M850 361q0 -126 -79.5 -203.5t-235.5 -86.5v-71h-188v71q-156 7 -238 86t-82 204q0 128 82 211t238 91v62h188v-62q155 -8 235 -90.5t80 -211.5zM527 223q67 9 100 47.5t33 93.5q0 56 -33.5 96t-99.5 49v-286zM222 365q0 -57 32.5 -95.5t101.5 -46.5v285q-66 -7 -100 -47
t-34 -96z" />
    <glyph glyph-name="Chi" unicode="&#x3a7;" horiz-adv-x="712" 
d="M7 0l222 357l-212 353h220l119 -206h3l121 206h215l-212 -352l222 -358h-224l-125 213h-3l-127 -213h-219z" />
    <glyph glyph-name="Psi" unicode="&#x3a8;" horiz-adv-x="789" 
d="M573 710h179v-260q-1 -145 -71.5 -224.5t-193.5 -79.5v-146h-185v146h-1q-124 0 -194.5 79.5t-69.5 224.5v260h179v-237q-1 -85 20.5 -122t65.5 -40v399h185v-399q44 3 64.5 40t21.5 122v237z" />
    <glyph glyph-name="uni03A9" unicode="&#x3a9;" horiz-adv-x="731" 
d="M38 0v169h100l1 2q-109 88 -109 227q0 142 91.5 232.5t243.5 90.5q153 0 244.5 -90.5t91.5 -232.5q0 -139 -109 -227l1 -2h100v-169h-289v169q97 97 97 218q0 70 -37.5 116t-98.5 45q-61 0 -98.5 -45.5t-37.5 -115.5q0 -120 98 -218v-169h-289z" />
    <glyph glyph-name="Iotadieresis" unicode="&#x3aa;" horiz-adv-x="310" 
d="M42 745q-45 0 -73.5 27.5t-28.5 69.5q0 40 29 67.5t73 27.5q45 0 74 -27t29 -68q0 -42 -29 -69.5t-74 -27.5zM278 745q-45 0 -73.5 27.5t-28.5 69.5q0 40 29 67.5t73 27.5q45 0 74 -27t29 -68q0 -42 -29 -69.5t-74 -27.5zM57 0v710h196v-710h-196z" />
    <glyph glyph-name="Upsilondieresis" unicode="&#x3ab;" horiz-adv-x="641" 
d="M208 745q-45 0 -73.5 27.5t-28.5 69.5q0 40 29 67.5t73 27.5q45 0 74 -27t29 -68q0 -42 -29 -69.5t-74 -27.5zM444 745q-45 0 -73.5 27.5t-28.5 69.5q0 40 29 67.5t73 27.5q45 0 74 -27t29 -68q0 -42 -29 -69.5t-74 -27.5zM223 0v307l-229 403h218l108 -216h2l105 216
h220l-230 -403v-307h-194z" />
    <glyph glyph-name="alphatonos" unicode="&#x3ac;" horiz-adv-x="595" 
d="M220 557l53 180h188l-90 -180h-151zM234 -10q-97 0 -155 70.5t-58 184.5q0 112 61 183.5t151 71.5q100 0 142 -86h2l8 76h168l-34 -189v-123q0 -37 27 -37q13 0 28 6l21 -132q-47 -25 -99 -25q-100 0 -126 80h-2q-44 -80 -134 -80zM276 147q31 0 53.5 27t26.5 71
q0 44 -20 70.5t-55 26.5t-57 -27t-22 -70q0 -42 20 -70t54 -28z" />
    <glyph glyph-name="epsilontonos" unicode="&#x3ad;" horiz-adv-x="484" 
d="M415 738l-90 -180h-151l53 180h188zM418 161l61 -119q-54 -32 -110 -42t-137 -10q-97 0 -153 37.5t-56 107.5q0 83 98 112q-38 20 -60.5 52t-22.5 66q0 61 52 98t150 37q150 0 230 -47l-56 -115q-66 20 -147 20q-60 0 -60 -26q0 -33 54 -33h79v-105h-89q-51 0 -51 -30
q0 -32 82 -32q78 0 136 29z" />
    <glyph glyph-name="etatonos" unicode="&#x3ae;" horiz-adv-x="571" 
d="M218 558l53 180h188l-90 -180h-151zM353 -198v447q0 93 -59 93q-71 0 -71 -96v-246h-179v490h179v-52h2q53 62 133 62q86 0 130 -48.5t44 -160.5v-489h-179z" />
    <glyph glyph-name="iotatonos" unicode="&#x3af;" horiz-adv-x="318" 
d="M67 557l53 180h188l-90 -180h-151zM199 -10q-74 0 -112.5 40t-38.5 137v323h179v-307q0 -18 5 -27t10.5 -11t15.5 -2q9 0 39 4l21 -132q-55 -25 -119 -25z" />
    <glyph glyph-name="upsilondieresistonos" unicode="&#x3b0;" horiz-adv-x="552" 
d="M99 546q-45 0 -74 27.5t-29 69.5q0 40 29 67.5t74 27.5t73.5 -27t28.5 -68q0 -42 -28.5 -69.5t-73.5 -27.5zM218 558l1 180h137l-33 -180h-105zM460 546q-45 0 -73.5 27.5t-28.5 69.5q0 40 29 67.5t73 27.5q45 0 74 -27t29 -68q0 -42 -29 -69.5t-74 -27.5zM276 -10
q-112 0 -174.5 64t-62.5 191v245h178v-244q0 -52 14 -75.5t45 -23.5q59 0 59 99v244h179v-245q0 -127 -63 -191t-175 -64z" />
    <glyph glyph-name="alpha" unicode="&#x3b1;" horiz-adv-x="595" 
d="M234 -10q-97 0 -155 70.5t-58 184.5q0 112 61 183.5t151 71.5q100 0 142 -86h2l8 76h168l-34 -189v-123q0 -37 27 -37q13 0 28 6l21 -132q-47 -25 -99 -25q-100 0 -126 80h-2q-44 -80 -134 -80zM276 147q31 0 53.5 27t26.5 71q0 44 -20 70.5t-55 26.5t-57 -27t-22 -70
q0 -42 20 -70t54 -28z" />
    <glyph glyph-name="beta" unicode="&#x3b2;" horiz-adv-x="591" 
d="M44 -198v684q0 129 67 195t181 66t178.5 -58t64.5 -137q0 -102 -70 -151v-2q50 -26 78 -73t28 -103q0 -107 -60.5 -170t-164.5 -63q-78 0 -121 43l-2 -1v-230h-179zM308 129q37 0 60.5 25.5t23.5 62.5q0 43 -26.5 67.5t-73.5 24.5h-23v133h15q41 0 60.5 25t19.5 57
t-17.5 51.5t-49.5 19.5q-74 0 -74 -90v-279q0 -41 24 -69t61 -28z" />
    <glyph glyph-name="gamma" unicode="&#x3b3;" horiz-adv-x="541" 
d="M202 -198v32t-0.5 36.5t-2.5 34.5t-5.5 41.5t-10 41.5t-15.5 50l-164 452h185l82 -279h2l80 279h185l-181 -497q5 -18 8.5 -36.5t5 -41.5t2 -36.5t0.5 -41v-35.5h-171z" />
    <glyph glyph-name="delta" unicode="&#x3b4;" horiz-adv-x="568" 
d="M469 433q79 -76 79 -188q0 -116 -72 -185.5t-189 -69.5q-115 0 -189.5 65t-74.5 170q0 130 123 216q-77 56 -77 143q0 71 56 117t159 46q137 0 227 -53l-56 -129q-78 40 -153 40q-58 0 -58 -34q0 -15 17 -28.5t61 -29.5q103 -38 147 -80zM287 147q36 0 58.5 26t22.5 67
q0 37 -20 65t-82 60q-63 -49 -63 -125q0 -40 24 -66.5t60 -26.5z" />
    <glyph glyph-name="epsilon" unicode="&#x3b5;" horiz-adv-x="484" 
d="M418 161l61 -119q-54 -32 -110 -42t-137 -10q-97 0 -153 37.5t-56 107.5q0 83 98 112q-38 20 -60.5 52t-22.5 66q0 61 52 98t150 37q150 0 230 -47l-56 -115q-66 20 -147 20q-60 0 -60 -26q0 -33 54 -33h79v-105h-89q-51 0 -51 -30q0 -32 82 -32q78 0 136 29z" />
    <glyph glyph-name="zeta" unicode="&#x3b6;" horiz-adv-x="469" 
d="M391 -219l-149 68q54 54 54 88q0 44 -82 72q-32 11 -53 20t-50.5 27.5t-47 40.5t-30 57t-12.5 78q1 158 218 352l-1 3h-183v149h417v-130q-115 -93 -193 -194.5t-79 -174.5q0 -11 2.5 -20.5t5 -16.5t11 -14t14 -11t20 -11t22.5 -10.5t28.5 -11.5t31.5 -13
q80 -33 110.5 -73t30.5 -89q0 -101 -85 -186z" />
    <glyph glyph-name="eta" unicode="&#x3b7;" horiz-adv-x="571" 
d="M353 -198v447q0 93 -59 93q-71 0 -71 -96v-246h-179v490h179v-52h2q53 62 133 62q86 0 130 -48.5t44 -160.5v-489h-179z" />
    <glyph glyph-name="theta" unicode="&#x3b8;" horiz-adv-x="584" 
d="M292 747q123 0 196 -93.5t73 -284.5q0 -82 -15 -149.5t-46.5 -119.5t-84 -81t-123.5 -29q-123 0 -196 93.5t-73 285.5q0 110 26 192.5t88 134t155 51.5zM292 594q-77 0 -89 -156h180q-5 76 -25.5 116t-65.5 40zM292 142q77 0 90 156h-180q5 -76 25.5 -116t64.5 -40z" />
    <glyph glyph-name="iota" unicode="&#x3b9;" horiz-adv-x="318" 
d="M199 -10q-74 0 -112.5 40t-38.5 137v323h179v-307q0 -18 5 -27t10.5 -11t15.5 -2q9 0 39 4l21 -132q-55 -25 -119 -25z" />
    <glyph glyph-name="kappa" unicode="&#x3ba;" horiz-adv-x="568" 
d="M44 0v490h175v-172l3 -1l131 173h215l-171 -205l179 -285h-206l-106 179l-45 -50v-129h-175z" />
    <glyph glyph-name="lambda" unicode="&#x3bb;" horiz-adv-x="557" 
d="M556 0h-186q-31 99 -74 248h-1l-102 -248h-189l210 463q-20 52 -32 81q-19 46 -63 46q-35 0 -67 -9l-22 139q75 27 130 27q72 0 112.5 -34.5t79.5 -128.5q102 -247 204 -584z" />
    <glyph glyph-name="uni03BC" unicode="&#x3bc;" horiz-adv-x="574" 
d="M44 -198v688h179v-244q0 -53 15 -76t49 -23q29 0 47.5 24.5t18.5 72.5v246h179v-490h-165l-11 50h-1q-46 -60 -110 -60q-25 0 -40 7l-2 -2q20 -69 20 -126v-67h-179z" />
    <glyph glyph-name="nu" unicode="&#x3bd;" horiz-adv-x="543" 
d="M191 0l-187 490h187l81 -278h1l82 278h184l-187 -490h-161z" />
    <glyph glyph-name="xi" unicode="&#x3be;" horiz-adv-x="496" 
d="M402 -219l-148 68q53 61 53 94q0 41 -78 64q-37 11 -59.5 19t-54 25.5t-49 37.5t-31 52t-13.5 73q0 54 28.5 101t80.5 79v2q-76 57 -76 145q0 99 70 152.5t172 53.5q118 0 208 -53l-59 -142q-80 40 -142 40q-33 0 -53.5 -18.5t-20.5 -43.5q0 -75 174 -75h39v-145h-116
q-125 0 -125 -86q0 -29 31 -47t117 -46q79 -26 108.5 -66.5t29.5 -97.5q0 -93 -86 -186z" />
    <glyph glyph-name="omicron" unicode="&#x3bf;" horiz-adv-x="576" 
d="M288 -10q-117 0 -191 71t-74 184t74 184t191 71q118 0 191.5 -71t73.5 -184t-73.5 -184t-191.5 -71zM288 147q36 0 61 28t25 70q0 43 -24 70t-62 27q-37 0 -61 -27t-24 -70q0 -42 24.5 -70t60.5 -28z" />
    <glyph glyph-name="pi" unicode="&#x3c0;" horiz-adv-x="642" 
d="M627 490v-145h-73v-345h-179v345h-106v-345h-179v345h-75v145h612z" />
    <glyph glyph-name="rho" unicode="&#x3c1;" horiz-adv-x="583" 
d="M35 -198v443q0 112 67.5 183.5t189.5 71.5q116 0 193.5 -70.5t77.5 -184.5q0 -113 -62 -184t-161 -71q-78 0 -125 45l-2 -1v-232h-178zM292 147q39 0 65 27t26 71q0 42 -26 69.5t-65 27.5q-36 0 -61 -27.5t-25 -69.5q0 -43 25 -70.5t61 -27.5z" />
    <glyph glyph-name="uni03C2" unicode="&#x3c2;" horiz-adv-x="504" 
d="M393 -219l-149 68q52 50 52 88q0 21 -14 35t-62 35q-44 19 -72 35.5t-61 46t-49.5 72t-16.5 97.5q0 110 73.5 176t192.5 66q138 0 213 -82l-114 -119q-33 43 -91 43q-43 0 -68.5 -23t-25.5 -61q0 -40 28 -66.5t95 -56.5q89 -39 121 -77t32 -91q0 -102 -84 -186z" />
    <glyph glyph-name="sigma" unicode="&#x3c3;" horiz-adv-x="594" 
d="M277 -10q-111 0 -183.5 69t-72.5 181q0 114 74 182t200 68h293v-145h-101l-1 -3q56 -51 56 -125q0 -100 -74.5 -163.5t-190.5 -63.5zM282 147q35 0 57.5 25.5t22.5 67.5q0 57 -39 105h-23q-46 0 -72.5 -28t-26.5 -77q0 -43 25 -68t56 -25z" />
    <glyph glyph-name="tau" unicode="&#x3c4;" horiz-adv-x="461" 
d="M283 -10q-160 0 -160 182v173h-118v145h439v-145h-143v-147q0 -33 10 -44t31 -11t44 7l43 -122q-62 -38 -146 -38z" />
    <glyph glyph-name="upsilon" unicode="&#x3c5;" horiz-adv-x="552" 
d="M276 -10q-112 0 -174.5 64t-62.5 191v245h178v-244q0 -52 14 -75.5t45 -23.5q59 0 59 99v244h179v-245q0 -127 -63 -191t-175 -64z" />
    <glyph glyph-name="phi" unicode="&#x3c6;" horiz-adv-x="719" 
d="M698 259q0 -112 -67.5 -184.5t-191.5 -77.5v-195h-175v196q-109 7 -175 80.5t-66 200.5q0 117 64 221l159 -22q-49 -94 -49 -184q0 -132 71 -155v122q0 109 52 174t144 65q116 0 175 -64t59 -177zM436 136q43 10 66.5 44t23.5 79q0 89 -47 89q-43 0 -43 -86v-126z" />
    <glyph glyph-name="chi" unicode="&#x3c7;" horiz-adv-x="541" 
d="M449 -208q-70 0 -105.5 34t-64.5 125l-10 31h-2l-84 -180h-188l194 358l-63 137q-13 27 -27.5 37.5t-36.5 10.5q-8 0 -26 -2l-24 143q48 14 92 14q63 0 96 -29.5t64 -108.5l9 -27h1l72 155h192l-181 -329l75 -166q21 -48 64 -48q6 0 26 2l23 -143q-48 -14 -96 -14z" />
    <glyph glyph-name="psi" unicode="&#x3c8;" horiz-adv-x="731" 
d="M527 490h167v-250q0 -121 -65.5 -183.5t-173.5 -67.5v-187h-178v187q-108 4 -173.5 67t-65.5 184v250h166v-240q0 -97 78 -104v486h168v-486q77 7 77 104v240z" />
    <glyph glyph-name="omega" unicode="&#x3c9;" horiz-adv-x="731" 
d="M217 -10q-82 0 -139 63t-57 179q0 26 2 51t4.5 42.5t8 38.5t8.5 32t12 30t11.5 25t13 25.5t12.5 23.5l160 -24q-51 -118 -51 -225q0 -104 45 -104q18 0 32 25t14 72v123h145v-123q0 -47 14 -72t32 -25q45 0 45 104q0 107 -51 225l160 24q2 -4 11 -21t11.5 -22.5t10.5 -22
t10.5 -25.5t8.5 -26t8 -31.5t5.5 -34t4.5 -40.5t1 -45q0 -116 -56.5 -179t-138.5 -63q-105 0 -148 68h-2q-41 -68 -147 -68z" />
    <glyph glyph-name="iotadieresis" unicode="&#x3ca;" horiz-adv-x="318" 
d="M17 545q-45 0 -73.5 27.5t-28.5 69.5q0 40 29 67.5t73 27.5q45 0 74 -27t29 -68q0 -42 -29 -69.5t-74 -27.5zM253 545q-45 0 -73.5 27.5t-28.5 69.5q0 40 29 67.5t73 27.5q45 0 74 -27t29 -68q0 -42 -29 -69.5t-74 -27.5zM199 -10q-74 0 -112.5 40t-38.5 137v323h179
v-307q0 -18 5 -27t10.5 -11t15.5 -2q9 0 39 4l21 -132q-55 -25 -119 -25z" />
    <glyph glyph-name="upsilondieresis" unicode="&#x3cb;" horiz-adv-x="552" 
d="M158 546q-45 0 -73.5 27.5t-28.5 69.5q0 40 29 67.5t73 27.5q45 0 74 -27t29 -68q0 -42 -29 -69.5t-74 -27.5zM394 546q-45 0 -73.5 27.5t-28.5 69.5q0 40 29 67.5t73 27.5q45 0 74 -27t29 -68q0 -42 -29 -69.5t-74 -27.5zM276 -10q-112 0 -174.5 64t-62.5 191v245h178
v-244q0 -52 14 -75.5t45 -23.5q59 0 59 99v244h179v-245q0 -127 -63 -191t-175 -64z" />
    <glyph glyph-name="omicrontonos" unicode="&#x3cc;" horiz-adv-x="576" 
d="M217 558l53 180h188l-90 -180h-151zM288 -10q-117 0 -191 71t-74 184t74 184t191 71q118 0 191.5 -71t73.5 -184t-73.5 -184t-191.5 -71zM288 147q36 0 61 28t25 70q0 43 -24 70t-62 27q-37 0 -61 -27t-24 -70q0 -42 24.5 -70t60.5 -28z" />
    <glyph glyph-name="upsilontonos" unicode="&#x3cd;" horiz-adv-x="552" 
d="M208 558l53 180h188l-90 -180h-151zM276 -10q-112 0 -174.5 64t-62.5 191v245h178v-244q0 -52 14 -75.5t45 -23.5q59 0 59 99v244h179v-245q0 -127 -63 -191t-175 -64z" />
    <glyph glyph-name="omegatonos" unicode="&#x3ce;" horiz-adv-x="731" 
d="M294 558l53 180h188l-90 -180h-151zM217 -10q-82 0 -139 63t-57 179q0 26 2 51t4.5 42.5t8 38.5t8.5 32t12 30t11.5 25t13 25.5t12.5 23.5l160 -24q-51 -118 -51 -225q0 -104 45 -104q18 0 32 25t14 72v123h145v-123q0 -47 14 -72t32 -25q45 0 45 104q0 107 -51 225
l160 24q2 -4 11 -21t11.5 -22.5t10.5 -22t10.5 -25.5t8.5 -26t8 -31.5t5.5 -34t4.5 -40.5t1 -45q0 -116 -56.5 -179t-138.5 -63q-105 0 -148 68h-2q-41 -68 -147 -68z" />
    <glyph glyph-name="uni03D7" unicode="&#x3d7;" horiz-adv-x="597" 
d="M206 -216q-128 0 -201 35l25 133q70 -38 153 -38q61 0 115 22.5t88 60.5v4q-84 58 -124 157l-39 -44v-114h-179v490h179v-145l3 -1l124 146h215l-188 -206q39 -88 90 -134.5t126 -62.5v-89q-112 -121 -196.5 -167.5t-190.5 -46.5z" />
    <glyph glyph-name="uni1E0C" unicode="&#x1e0c;" horiz-adv-x="707" 
d="M53 0v710h256q167 0 267.5 -98.5t100.5 -257.5t-97.5 -256.5t-267.5 -97.5h-259zM237 169h62q79 0 129 53.5t50 131.5q0 79 -47.5 133t-117.5 54h-76v-372zM329 -48q45 0 74 -27.5t29 -69.5q0 -40 -29 -67.5t-74 -27.5t-73.5 27t-28.5 68q0 42 28.5 69.5t73.5 27.5z" />
    <glyph glyph-name="uni1E0D" unicode="&#x1e0d;" horiz-adv-x="595" 
d="M250 -10q-101 0 -164.5 71t-63.5 184q0 112 62 183.5t155 71.5q80 0 131 -59l2 1v294h179v-736h-170v45h-2q-45 -55 -129 -55zM289 146q39 0 64.5 27t25.5 72q0 43 -25.5 70.5t-64.5 27.5q-38 0 -62.5 -27.5t-24.5 -70.5q0 -44 24.5 -71.5t62.5 -27.5zM298 -48
q45 0 74 -27.5t29 -69.5q0 -40 -29 -67.5t-74 -27.5t-73.5 27t-28.5 68q0 42 28.5 69.5t73.5 27.5z" />
    <glyph glyph-name="uni1E0E" unicode="&#x1e0e;" horiz-adv-x="707" 
d="M53 0v710h256q167 0 267.5 -98.5t100.5 -257.5t-97.5 -256.5t-267.5 -97.5h-259zM237 169h62q79 0 129 53.5t50 131.5q0 79 -47.5 133t-117.5 54h-76v-372zM489 -227h-320v132h320v-132z" />
    <glyph glyph-name="uni1E0F" unicode="&#x1e0f;" horiz-adv-x="595" 
d="M250 -10q-101 0 -164.5 71t-63.5 184q0 112 62 183.5t155 71.5q80 0 131 -59l2 1v294h179v-736h-170v45h-2q-45 -55 -129 -55zM289 146q39 0 64.5 27t25.5 72q0 43 -25.5 70.5t-64.5 27.5q-38 0 -62.5 -27.5t-24.5 -70.5q0 -44 24.5 -71.5t62.5 -27.5zM458 -227h-320v132
h320v-132z" />
    <glyph glyph-name="uni1E20" unicode="&#x1e20;" horiz-adv-x="726" 
d="M218 765v125h320v-125h-320zM401 -9q-161 0 -266 96.5t-105 266.5q0 159 97.5 263t265.5 104q81 0 161 -34.5t132 -97.5l-135 -113q-68 66 -158 66q-69 0 -116.5 -50.5t-47.5 -137.5q0 -80 46 -134.5t126 -54.5q55 0 106 23v66h-121v153h300v-330q-50 -37 -127.5 -61.5
t-157.5 -24.5z" />
    <glyph glyph-name="uni1E21" unicode="&#x1e21;" horiz-adv-x="588" 
d="M136 568v132h320v-132h-320zM275 -208q-117 0 -203 45l39 141q27 -17 67 -28.5t74 -11.5q57 0 88.5 22.5t31.5 56.5v43l-2 1q-48 -51 -129 -51q-97 0 -158.5 68.5t-61.5 171.5q0 109 60.5 179.5t149.5 70.5q81 0 134 -57l2 1v46h179v-419q0 -133 -62.5 -206t-208.5 -73z
M289 167q37 0 61.5 24.5t24.5 62.5t-24.5 63t-61.5 25t-62 -24.5t-25 -63.5q0 -38 25 -62.5t62 -24.5z" />
    <glyph glyph-name="uni1E24" unicode="&#x1e24;" horiz-adv-x="705" 
d="M53 0v710h192v-283h215v283h192v-710h-192v259h-215v-259h-192zM356 -48q45 0 74 -27.5t29 -69.5q0 -40 -29 -67.5t-74 -27.5t-73.5 27t-28.5 68q0 42 28.5 69.5t73.5 27.5z" />
    <glyph glyph-name="uni1E25" unicode="&#x1e25;" horiz-adv-x="581" 
d="M44 0v736h179v-299l2 -1q56 64 143 64q82 0 128 -46t46 -158v-296h-179v253q0 51 -15.5 70t-53.5 19q-71 0 -71 -96v-246h-179zM290 -48q45 0 74 -27.5t29 -69.5q0 -40 -29 -67.5t-74 -27.5t-73.5 27t-28.5 68q0 42 28.5 69.5t73.5 27.5z" />
    <glyph glyph-name="uni1E2A" unicode="&#x1e2a;" horiz-adv-x="705" 
d="M53 0v710h192v-283h215v283h192v-710h-192v259h-215v-259h-192zM357 -238q-79 0 -127.5 46t-53.5 116h127q2 -18 17 -30t37 -12q21 0 36 12t17 30h127q-6 -76 -57 -119t-123 -43z" />
    <glyph glyph-name="uni1E2B" unicode="&#x1e2b;" horiz-adv-x="581" 
d="M44 0v736h179v-299l2 -1q56 64 143 64q82 0 128 -46t46 -158v-296h-179v253q0 51 -15.5 70t-53.5 19q-71 0 -71 -96v-246h-179zM291 -238q-79 0 -127.5 46t-53.5 116h127q2 -18 17 -30t37 -12q21 0 36 12t17 30h127q-6 -76 -57 -119t-123 -43z" />
    <glyph glyph-name="uni1E30" unicode="&#x1e30;" horiz-adv-x="661" 
d="M206 754l106 143h177l-126 -143h-157zM53 0v710h189v-238h3l172 238h240l-250 -304l260 -406h-233l-152 256l-40 -49v-207h-189z" />
    <glyph glyph-name="uni1E31" unicode="&#x1e31;" horiz-adv-x="540" 
d="M44 0v736h175v-398h2l116 152h205l-159 -195l165 -295h-197l-97 180l-35 -38v-142h-175zM250 545l109 152l175 1l-124 -153h-160z" />
    <glyph glyph-name="uni1E36" unicode="&#x1e36;" horiz-adv-x="543" 
d="M53 0v710h196v-541h277v-169h-473zM296 -48q45 0 74 -27.5t29 -69.5q0 -40 -29 -67.5t-74 -27.5t-73.5 27t-28.5 68q0 42 28.5 69.5t73.5 27.5z" />
    <glyph glyph-name="uni1E37" unicode="&#x1e37;" horiz-adv-x="275" 
d="M48 0v736h179v-736h-179zM138 -48q45 0 74 -27.5t29 -69.5q0 -40 -29 -67.5t-74 -27.5t-73.5 27t-28.5 68q0 42 28.5 69.5t73.5 27.5z" />
    <glyph glyph-name="uni1E38" unicode="&#x1e38;" horiz-adv-x="543" 
d="M122 767v125h320v-125h-320zM53 0v710h196v-541h277v-169h-473zM296 -48q45 0 74 -27.5t29 -69.5q0 -40 -29 -67.5t-74 -27.5t-73.5 27t-28.5 68q0 42 28.5 69.5t73.5 27.5z" />
    <glyph glyph-name="uni1E39" unicode="&#x1e39;" horiz-adv-x="275" 
d="M-21 780v125h320v-125h-320zM48 0v736h179v-736h-179zM138 -48q45 0 74 -27.5t29 -69.5q0 -40 -29 -67.5t-74 -27.5t-73.5 27t-28.5 68q0 42 28.5 69.5t73.5 27.5z" />
    <glyph glyph-name="uni1E3A" unicode="&#x1e3a;" horiz-adv-x="543" 
d="M53 0v710h196v-541h277v-169h-473zM456 -227h-320v132h320v-132z" />
    <glyph glyph-name="uni1E3B" unicode="&#x1e3b;" horiz-adv-x="275" 
d="M48 0v736h179v-736h-179zM298 -227h-320v132h320v-132z" />
    <glyph glyph-name="uni1E42" unicode="&#x1e42;" horiz-adv-x="847" 
d="M53 0v710h192l178 -353h2l176 353h193v-710h-188v349h-3l-119 -221h-121l-119 223h-3v-351h-188zM425 -48q45 0 74 -27.5t29 -69.5q0 -40 -29 -67.5t-74 -27.5t-73.5 27t-28.5 68q0 42 28.5 69.5t73.5 27.5z" />
    <glyph glyph-name="uni1E43" unicode="&#x1e43;" horiz-adv-x="871" 
d="M44 0v490h179v-54h1q55 64 131 64q98 0 140 -69h2q57 69 159 69q175 0 175 -213v-287h-179v246q0 96 -59 96q-29 0 -47 -24t-18 -72v-246h-178v246q0 96 -59 96q-68 0 -68 -96v-246h-179zM441 -48q45 0 74 -27.5t29 -69.5q0 -40 -29 -67.5t-74 -27.5t-73.5 27t-28.5 68
q0 42 28.5 69.5t73.5 27.5z" />
    <glyph glyph-name="uni1E44" unicode="&#x1e44;" horiz-adv-x="727" 
d="M368 746q-45 0 -74 27.5t-29 69.5q0 40 29 67.5t74 27.5t73.5 -27t28.5 -68q0 -42 -28.5 -69.5t-73.5 -27.5zM53 0v710h181l251 -402l2 1v401h187v-710h-187l-246 389h-2v-389h-186z" />
    <glyph glyph-name="uni1E45" unicode="&#x1e45;" horiz-adv-x="576" 
d="M303 545q-45 0 -74 27.5t-29 69.5q0 40 29 67.5t74 27.5t73.5 -27t28.5 -68q0 -42 -28.5 -69.5t-73.5 -27.5zM44 0v490h179v-52h2q53 62 138 62q82 0 128 -46t46 -158v-296h-179v253q0 51 -15 70t-49 19q-71 0 -71 -96v-246h-179z" />
    <glyph glyph-name="uni1E46" unicode="&#x1e46;" horiz-adv-x="727" 
d="M53 0v710h181l251 -402l2 1v401h187v-710h-187l-246 389h-2v-389h-186zM364 -48q45 0 74 -27.5t29 -69.5q0 -40 -29 -67.5t-74 -27.5t-73.5 27t-28.5 68q0 42 28.5 69.5t73.5 27.5z" />
    <glyph glyph-name="uni1E47" unicode="&#x1e47;" horiz-adv-x="576" 
d="M44 0v490h179v-52h2q53 62 138 62q82 0 128 -46t46 -158v-296h-179v253q0 51 -15 70t-49 19q-71 0 -71 -96v-246h-179zM300 -48q45 0 74 -27.5t29 -69.5q0 -40 -29 -67.5t-74 -27.5t-73.5 27t-28.5 68q0 42 28.5 69.5t73.5 27.5z" />
    <glyph glyph-name="uni1E48" unicode="&#x1e48;" horiz-adv-x="727" 
d="M53 0v710h181l251 -402l2 1v401h187v-710h-187l-246 389h-2v-389h-186zM524 -227h-320v132h320v-132z" />
    <glyph glyph-name="uni1E49" unicode="&#x1e49;" horiz-adv-x="576" 
d="M44 0v490h179v-52h2q53 62 138 62q82 0 128 -46t46 -158v-296h-179v253q0 51 -15 70t-49 19q-71 0 -71 -96v-246h-179zM460 -227h-320v132h320v-132z" />
    <glyph glyph-name="uni1E5A" unicode="&#x1e5a;" horiz-adv-x="644" 
d="M53 0v710h284q129 0 194 -68.5t65 -183.5q0 -153 -122 -212l162 -246h-221l-134 217h-44v-217h-184zM237 381h68q94 0 94 81q0 36 -22.5 58.5t-71.5 22.5h-68v-162zM329 -48q45 0 74 -27.5t29 -69.5q0 -40 -29 -67.5t-74 -27.5t-73.5 27t-28.5 68q0 42 28.5 69.5
t73.5 27.5z" />
    <glyph glyph-name="uni1E5B" unicode="&#x1e5b;" horiz-adv-x="373" 
d="M44 0v490h179v-66h2q53 76 136 76h1v-191q-15 1 -38 1q-50 0 -75.5 -26t-25.5 -70v-214h-179zM135 -48q45 0 74 -27.5t29 -69.5q0 -40 -29 -67.5t-74 -27.5t-73.5 27t-28.5 68q0 42 28.5 69.5t73.5 27.5z" />
    <glyph glyph-name="uni1E5C" unicode="&#x1e5c;" horiz-adv-x="644" 
d="M146 767v125h320v-125h-320zM53 0v710h284q129 0 194 -68.5t65 -183.5q0 -153 -122 -212l162 -246h-221l-134 217h-44v-217h-184zM237 381h68q94 0 94 81q0 36 -22.5 58.5t-71.5 22.5h-68v-162zM329 -48q45 0 74 -27.5t29 -69.5q0 -40 -29 -67.5t-74 -27.5t-73.5 27
t-28.5 68q0 42 28.5 69.5t73.5 27.5z" />
    <glyph glyph-name="uni1E5D" unicode="&#x1e5d;" horiz-adv-x="373" 
d="M63 568v132h320v-132h-320zM44 0v490h179v-66h2q53 76 136 76h1v-191q-15 1 -38 1q-50 0 -75.5 -26t-25.5 -70v-214h-179zM135 -48q45 0 74 -27.5t29 -69.5q0 -40 -29 -67.5t-74 -27.5t-73.5 27t-28.5 68q0 42 28.5 69.5t73.5 27.5z" />
    <glyph glyph-name="uni1E5E" unicode="&#x1e5e;" horiz-adv-x="644" 
d="M53 0v710h284q129 0 194 -68.5t65 -183.5q0 -153 -122 -212l162 -246h-221l-134 217h-44v-217h-184zM237 381h68q94 0 94 81q0 36 -22.5 58.5t-71.5 22.5h-68v-162zM489 -227h-320v132h320v-132z" />
    <glyph glyph-name="uni1E5F" unicode="&#x1e5f;" horiz-adv-x="373" 
d="M44 0v490h179v-66h2q53 76 136 76h1v-191q-15 1 -38 1q-50 0 -75.5 -26t-25.5 -70v-214h-179zM295 -227h-320v132h320v-132z" />
    <glyph glyph-name="uni1E60" unicode="&#x1e60;" horiz-adv-x="559" 
d="M281 746q-45 0 -74 27.5t-29 69.5q0 40 29 67.5t74 27.5t73.5 -27t28.5 -68q0 -42 -28.5 -69.5t-73.5 -27.5zM271 -10q-152 0 -263 114l108 132q78 -79 162 -79q31 0 46 13.5t15 32.5q0 22 -17.5 36t-72.5 32q-48 16 -80.5 32.5t-66.5 43t-51.5 66.5t-17.5 92
q0 91 67.5 152t169.5 63q141 3 251 -95l-105 -135q-83 64 -135 64q-50 0 -50 -42q0 -19 18 -35t69 -36q111 -42 146 -66q75 -51 75 -150q0 -64 -24.5 -111.5t-65.5 -73.5t-85.5 -38t-92.5 -12z" />
    <glyph glyph-name="uni1E61" unicode="&#x1e61;" horiz-adv-x="435" 
d="M221 545q-45 0 -74 27.5t-29 69.5q0 40 29 67.5t74 27.5t73.5 -27t28.5 -68q0 -42 -28.5 -69.5t-73.5 -27.5zM208 -10q-118 0 -200 73l81 110q62 -55 122 -55q37 0 37 20q0 10 -12.5 17.5t-54.5 20.5q-156 45 -156 159q0 78 54 121.5t134 43.5q104 0 192 -62l-83 -119
q-48 51 -103 51q-31 0 -31 -20q0 -15 61 -35q91 -29 128.5 -62t37.5 -101q0 -74 -53 -118t-154 -44z" />
    <glyph glyph-name="uni1E62" unicode="&#x1e62;" horiz-adv-x="559" 
d="M271 -10q-152 0 -263 114l108 132q78 -79 162 -79q31 0 46 13.5t15 32.5q0 22 -17.5 36t-72.5 32q-48 16 -80.5 32.5t-66.5 43t-51.5 66.5t-17.5 92q0 91 67.5 152t169.5 63q141 3 251 -95l-105 -135q-83 64 -135 64q-50 0 -50 -42q0 -19 18 -35t69 -36q111 -42 146 -66
q75 -51 75 -150q0 -64 -24.5 -111.5t-65.5 -73.5t-85.5 -38t-92.5 -12zM274 -48q45 0 74 -27.5t29 -69.5q0 -40 -29 -67.5t-74 -27.5t-73.5 27t-28.5 68q0 42 28.5 69.5t73.5 27.5z" />
    <glyph glyph-name="uni1E63" unicode="&#x1e63;" horiz-adv-x="435" 
d="M208 -10q-118 0 -200 73l81 110q62 -55 122 -55q37 0 37 20q0 10 -12.5 17.5t-54.5 20.5q-156 45 -156 159q0 78 54 121.5t134 43.5q104 0 192 -62l-83 -119q-48 51 -103 51q-31 0 -31 -20q0 -15 61 -35q91 -29 128.5 -62t37.5 -101q0 -74 -53 -118t-154 -44zM222 -48
q45 0 74 -27.5t29 -69.5q0 -40 -29 -67.5t-74 -27.5t-73.5 27t-28.5 68q0 42 28.5 69.5t73.5 27.5z" />
    <glyph glyph-name="uni1E6C" unicode="&#x1e6c;" horiz-adv-x="584" 
d="M195 0v541h-177v169h549v-169h-177v-541h-195zM290 -48q45 0 74 -27.5t29 -69.5q0 -40 -29 -67.5t-74 -27.5t-73.5 27t-28.5 68q0 42 28.5 69.5t73.5 27.5z" />
    <glyph glyph-name="uni1E6D" unicode="&#x1e6d;" horiz-adv-x="378" 
d="M210 -10q-66 0 -106.5 41.5t-40.5 122.5v194h-53v142h53v154l179 18v-172h106v-142h-106v-156q0 -49 32 -49q18 0 36 7l44 -124q-63 -36 -144 -36zM206 -48q45 0 74 -27.5t29 -69.5q0 -40 -29 -67.5t-74 -27.5t-73.5 27t-28.5 68q0 42 28.5 69.5t73.5 27.5z" />
    <glyph glyph-name="uni1E6E" unicode="&#x1e6e;" horiz-adv-x="584" 
d="M195 0v541h-177v169h549v-169h-177v-541h-195zM450 -227h-320v132h320v-132z" />
    <glyph glyph-name="uni1E6F" unicode="&#x1e6f;" horiz-adv-x="378" 
d="M210 -10q-66 0 -106.5 41.5t-40.5 122.5v194h-53v142h53v154l179 18v-172h106v-142h-106v-156q0 -49 32 -49q18 0 36 7l44 -124q-63 -36 -144 -36zM366 -227h-320v132h320v-132z" />
    <glyph glyph-name="Wgrave" unicode="&#x1e80;" horiz-adv-x="1020" 
d="M439 754l-126 143h177l106 -143h-157zM228 0l-221 710h203l103 -398h3l95 398h200l93 -397h3l103 397h203l-221 -710h-173l-105 432h-2l-111 -432h-173z" />
    <glyph glyph-name="wgrave" unicode="&#x1e81;" horiz-adv-x="763" 
d="M304 545l-123 152l177 -1l103 -151h-157zM169 0l-164 490h176l69 -236h1l62 236h136l62 -236h2l69 236h176l-165 -490h-138l-73 273h-1l-70 -273h-142z" />
    <glyph glyph-name="Wacute" unicode="&#x1e82;" horiz-adv-x="1020" 
d="M426 754l106 143h177l-126 -143h-157zM228 0l-221 710h203l103 -398h3l95 398h200l93 -397h3l103 397h203l-221 -710h-173l-105 432h-2l-111 -432h-173z" />
    <glyph glyph-name="wacute" unicode="&#x1e83;" horiz-adv-x="763" 
d="M300 545l109 152l175 1l-124 -153h-160zM169 0l-164 490h176l69 -236h1l62 236h136l62 -236h2l69 236h176l-165 -490h-138l-73 273h-1l-70 -273h-142z" />
    <glyph glyph-name="Wdieresis" unicode="&#x1e84;" horiz-adv-x="1020" 
d="M391 746q-45 0 -73.5 27.5t-28.5 69.5q0 40 29 67.5t73 27.5q45 0 74 -27t29 -68q0 -42 -29 -69.5t-74 -27.5zM627 746q-45 0 -73.5 27.5t-28.5 69.5q0 40 29 67.5t73 27.5q45 0 74 -27t29 -68q0 -42 -29 -69.5t-74 -27.5zM228 0l-221 710h203l103 -398h3l95 398h200
l93 -397h3l103 397h203l-221 -710h-173l-105 432h-2l-111 -432h-173z" />
    <glyph glyph-name="wdieresis" unicode="&#x1e85;" horiz-adv-x="763" 
d="M262 545q-45 0 -73.5 27.5t-28.5 69.5q0 40 29 67.5t73 27.5q45 0 74 -27t29 -68q0 -42 -29 -69.5t-74 -27.5zM498 545q-45 0 -73.5 27.5t-28.5 69.5q0 40 29 67.5t73 27.5q45 0 74 -27t29 -68q0 -42 -29 -69.5t-74 -27.5zM169 0l-164 490h176l69 -236h1l62 236h136
l62 -236h2l69 236h176l-165 -490h-138l-73 273h-1l-70 -273h-142z" />
    <glyph glyph-name="uni1E8E" unicode="&#x1e8e;" horiz-adv-x="641" 
d="M321 746q-45 0 -74 27.5t-29 69.5q0 40 29 67.5t74 27.5t73.5 -27t28.5 -68q0 -42 -28.5 -69.5t-73.5 -27.5zM223 0v307l-229 403h218l108 -216h2l105 216h220l-230 -403v-307h-194z" />
    <glyph glyph-name="uni1E8F" unicode="&#x1e8f;" horiz-adv-x="537" 
d="M272 545q-45 0 -74 27.5t-29 69.5q0 40 29 67.5t74 27.5t73.5 -27t28.5 -68q0 -42 -28.5 -69.5t-73.5 -27.5zM108 -198l83 234l-187 454h191l80 -231h3l78 231h177l-251 -688h-174z" />
    <glyph glyph-name="uni1E92" unicode="&#x1e92;" horiz-adv-x="607" 
d="M33 0v148l287 390l-2 3h-276v169h532v-143l-297 -395l2 -3h295v-169h-541zM300 -48q45 0 74 -27.5t29 -69.5q0 -40 -29 -67.5t-74 -27.5t-73.5 27t-28.5 68q0 42 28.5 69.5t73.5 27.5z" />
    <glyph glyph-name="uni1E93" unicode="&#x1e93;" horiz-adv-x="472" 
d="M24 0v117l194 232v3h-175v138h409v-116l-199 -233v-2h189v-139h-418zM238 -48q45 0 74 -27.5t29 -69.5q0 -40 -29 -67.5t-74 -27.5t-73.5 27t-28.5 68q0 42 28.5 69.5t73.5 27.5z" />
    <glyph glyph-name="uni1E97" unicode="&#x1e97;" horiz-adv-x="378" 
d="M74 694q-45 0 -73.5 27.5t-28.5 69.5q0 40 29 67.5t73 27.5q45 0 74 -27t29 -68q0 -42 -29 -69.5t-74 -27.5zM310 694q-45 0 -73.5 27.5t-28.5 69.5q0 40 29 67.5t73 27.5q45 0 74 -27t29 -68q0 -42 -29 -69.5t-74 -27.5zM210 -10q-66 0 -106.5 41.5t-40.5 122.5v194h-53
v142h53v154l179 18v-172h106v-142h-106v-156q0 -49 32 -49q18 0 36 7l44 -124q-63 -36 -144 -36z" />
    <glyph glyph-name="uni1E9E" unicode="&#x1e9e;" horiz-adv-x="786" 
d="M566 433q52 -20 80.5 -33.5t59.5 -37.5t44.5 -57t13.5 -80q0 -63 -24.5 -111t-63 -73.5t-79.5 -38t-81 -12.5q-126 0 -229 87l85 152q38 -36 78 -54t68 -18q23 0 34.5 13.5t11.5 32.5q0 23 -17.5 37.5t-72.5 32.5q-85 28 -138 69l115 206l-2 4q-60 5 -103 5
q-52 0 -85 -28.5t-33 -82.5l-1 -446h-185l1 452q0 147 76 208t219 61q185 0 357 -49z" />
    <glyph glyph-name="uni1EA0" unicode="&#x1ea0;" horiz-adv-x="693" 
d="M-2 0l258 710h182l257 -710h-198l-36 115h-228l-36 -115h-199zM282 274h130l-64 205h-2zM347 -48q45 0 74 -27.5t29 -69.5q0 -40 -29 -67.5t-74 -27.5t-73.5 27t-28.5 68q0 42 28.5 69.5t73.5 27.5z" />
    <glyph glyph-name="uni1EA1" unicode="&#x1ea1;" horiz-adv-x="588" 
d="M249 -10q-101 0 -164.5 71t-63.5 184q0 112 62 183.5t155 71.5q75 0 127 -58h2v48h179v-490h-170v44l-2 1q-45 -55 -125 -55zM289 146q36 0 61 27.5t25 71.5q0 43 -25 70.5t-61 27.5q-38 0 -62.5 -27.5t-24.5 -70.5q0 -45 24 -72t63 -27zM290 -48q45 0 74 -27.5t29 -69.5
q0 -40 -29 -67.5t-74 -27.5t-73.5 27t-28.5 68q0 42 28.5 69.5t73.5 27.5z" />
    <glyph glyph-name="uni1EA2" unicode="&#x1ea2;" horiz-adv-x="693" 
d="M304 754q48 28 48 53q0 19 -29 19q-35 0 -59 -13l-30 68q23 20 64.5 34t83.5 14q54 0 83 -20.5t29 -57.5q0 -29 -25 -55t-69 -42h-96zM-2 0l258 710h182l257 -710h-198l-36 115h-228l-36 -115h-199zM282 274h130l-64 205h-2z" />
    <glyph glyph-name="uni1EA3" unicode="&#x1ea3;" horiz-adv-x="588" 
d="M248 548q48 38 48 70q0 24 -29 24q-31 0 -58 -18l-30 68q24 24 65 40.5t82 16.5q55 0 83.5 -23t28.5 -66q0 -33 -25 -63t-69 -49h-96zM249 -10q-101 0 -164.5 71t-63.5 184q0 112 62 183.5t155 71.5q75 0 127 -58h2v48h179v-490h-170v44l-2 1q-45 -55 -125 -55zM289 146
q36 0 61 27.5t25 71.5q0 43 -25 70.5t-61 27.5q-38 0 -62.5 -27.5t-24.5 -70.5q0 -45 24 -72t63 -27z" />
    <glyph glyph-name="uni1EA4" unicode="&#x1ea4;" horiz-adv-x="693" 
d="M514 817l80 152l163 1l-114 -153h-129zM160 754l87 143h194l93 -143h-150l-39 62h-2l-39 -62h-144zM-2 0l258 710h182l257 -710h-198l-36 115h-228l-36 -115h-199zM282 274h130l-64 205h-2z" />
    <glyph glyph-name="uni1EA5" unicode="&#x1ea5;" horiz-adv-x="588" 
d="M435 656l70 152l163 1l-114 -153h-119zM103 545l87 151h194l93 -151h-150l-39 70h-2l-39 -70h-144zM249 -10q-101 0 -164.5 71t-63.5 184q0 112 62 183.5t155 71.5q75 0 127 -58h2v48h179v-490h-170v44l-2 1q-45 -55 -125 -55zM289 146q36 0 61 27.5t25 71.5
q0 43 -25 70.5t-61 27.5q-38 0 -62.5 -27.5t-24.5 -70.5q0 -45 24 -72t63 -27z" />
    <glyph glyph-name="uni1EA6" unicode="&#x1ea6;" horiz-adv-x="693" 
d="M547 817l-114 153l163 -1l80 -152h-129zM160 754l87 143h194l93 -143h-150l-39 62h-2l-39 -62h-144zM-2 0l258 710h182l257 -710h-198l-36 115h-228l-36 -115h-199zM282 274h130l-64 205h-2z" />
    <glyph glyph-name="uni1EA7" unicode="&#x1ea7;" horiz-adv-x="588" 
d="M469 656l-114 153l163 -1l70 -152h-119zM104 545l87 151h194l93 -151h-150l-39 70h-2l-39 -70h-144zM249 -10q-101 0 -164.5 71t-63.5 184q0 112 62 183.5t155 71.5q75 0 127 -58h2v48h179v-490h-170v44l-2 1q-45 -55 -125 -55zM289 146q36 0 61 27.5t25 71.5
q0 43 -25 70.5t-61 27.5q-38 0 -62.5 -27.5t-24.5 -70.5q0 -45 24 -72t63 -27z" />
    <glyph glyph-name="uni1EA8" unicode="&#x1ea8;" horiz-adv-x="693" 
d="M515 835q43 25 43 48q0 17 -26 17q-32 0 -53 -12l-27 62q21 18 58.5 30.5t74.5 12.5q49 0 75 -18.5t26 -51.5q0 -56 -84 -88h-87zM160 754l87 143h194l93 -143h-150l-39 62h-2l-39 -62h-144zM-2 0l258 710h182l257 -710h-198l-36 115h-228l-36 -115h-199zM282 274h130
l-64 205h-2z" />
    <glyph glyph-name="uni1EA9" unicode="&#x1ea9;" horiz-adv-x="588" 
d="M445 641q43 33 43 63q0 21 -26 21q-27 0 -52 -16l-27 61q21 21 58 36.5t74 15.5q49 0 75 -21t26 -59q0 -30 -22 -57t-62 -44h-87zM105 545l87 151h194l93 -151h-150l-39 70h-2l-39 -70h-144zM249 -10q-101 0 -164.5 71t-63.5 184q0 112 62 183.5t155 71.5q75 0 127 -58h2
v48h179v-490h-170v44l-2 1q-45 -55 -125 -55zM289 146q36 0 61 27.5t25 71.5q0 43 -25 70.5t-61 27.5q-38 0 -62.5 -27.5t-24.5 -70.5q0 -45 24 -72t63 -27z" />
    <glyph glyph-name="uni1EAA" unicode="&#x1eaa;" horiz-adv-x="693" 
d="M427 918q-36 0 -82 24q-32 16 -48 16q-30 0 -49 -40l-95 35q17 48 49.5 79.5t75.5 31.5q50 0 85 -23q23 -15 42 -15q29 0 52 40l93 -29q-16 -51 -48.5 -85t-74.5 -34zM160 754l87 143h194l93 -143h-150l-39 62h-2l-39 -62h-144zM-2 0l258 710h182l257 -710h-198l-36 115
h-228l-36 -115h-199zM282 274h130l-64 205h-2z" />
    <glyph glyph-name="uni1EAB" unicode="&#x1eab;" horiz-adv-x="588" 
d="M197 719l-102 39q46 112 132 112q14 0 27 -3t19 -5.5t19.5 -9.5t14.5 -8q23 -13 38 -13q25 0 47 41l100 -32q-18 -49 -51 -84t-78 -35q-31 0 -69 22q-29 18 -49 18q-27 0 -48 -42zM105 545l87 151h194l93 -151h-150l-39 70h-2l-39 -70h-144zM249 -10q-101 0 -164.5 71
t-63.5 184q0 112 62 183.5t155 71.5q75 0 127 -58h2v48h179v-490h-170v44l-2 1q-45 -55 -125 -55zM289 146q36 0 61 27.5t25 71.5q0 43 -25 70.5t-61 27.5q-38 0 -62.5 -27.5t-24.5 -70.5q0 -45 24 -72t63 -27z" />
    <glyph glyph-name="uni1EAC" unicode="&#x1eac;" horiz-adv-x="693" 
d="M160 754l87 143h194l93 -143h-150l-39 62h-2l-39 -62h-144zM-2 0l258 710h182l257 -710h-198l-36 115h-228l-36 -115h-199zM282 274h130l-64 205h-2zM347 -48q45 0 74 -27.5t29 -69.5q0 -40 -29 -67.5t-74 -27.5t-73.5 27t-28.5 68q0 42 28.5 69.5t73.5 27.5z" />
    <glyph glyph-name="uni1EAD" unicode="&#x1ead;" horiz-adv-x="588" 
d="M105 545l87 151h194l93 -151h-150l-39 70h-2l-39 -70h-144zM249 -10q-101 0 -164.5 71t-63.5 184q0 112 62 183.5t155 71.5q75 0 127 -58h2v48h179v-490h-170v44l-2 1q-45 -55 -125 -55zM289 146q36 0 61 27.5t25 71.5q0 43 -25 70.5t-61 27.5q-38 0 -62.5 -27.5
t-24.5 -70.5q0 -45 24 -72t63 -27zM290 -48q45 0 74 -27.5t29 -69.5q0 -40 -29 -67.5t-74 -27.5t-73.5 27t-28.5 68q0 42 28.5 69.5t73.5 27.5z" />
    <glyph glyph-name="uni1EAE" unicode="&#x1eae;" horiz-adv-x="693" 
d="M291 900l80 132l163 1l-118 -133h-125zM346 739q-82 0 -131 35t-56 106h132q2 -17 17.5 -28t37.5 -11q23 0 38.5 11t17.5 28h132q-6 -65 -52.5 -103t-135.5 -38zM-2 0l258 710h182l257 -710h-198l-36 115h-228l-36 -115h-199zM282 274h130l-64 205h-2z" />
    <glyph glyph-name="uni1EAF" unicode="&#x1eaf;" horiz-adv-x="588" 
d="M232 718l70 152l163 1l-114 -153h-119zM290 534q-72 0 -123 43t-57 119h127q2 -18 17 -30t36 -12q22 0 37 12t17 30h127q-5 -70 -53.5 -116t-127.5 -46zM249 -10q-101 0 -164.5 71t-63.5 184q0 112 62 183.5t155 71.5q75 0 127 -58h2v48h179v-490h-170v44l-2 1
q-45 -55 -125 -55zM289 146q36 0 61 27.5t25 71.5q0 43 -25 70.5t-61 27.5q-38 0 -62.5 -27.5t-24.5 -70.5q0 -45 24 -72t63 -27z" />
    <glyph glyph-name="uni1EB0" unicode="&#x1eb0;" horiz-adv-x="693" 
d="M293 905l-118 133l163 -1l80 -132h-125zM346 739q-82 0 -131 35t-56 106h132q2 -17 17.5 -28t37.5 -11q23 0 38.5 11t17.5 28h132q-6 -65 -52.5 -103t-135.5 -38zM-2 0l258 710h182l257 -710h-198l-36 115h-228l-36 -115h-199zM282 274h130l-64 205h-2z" />
    <glyph glyph-name="uni1EB1" unicode="&#x1eb1;" horiz-adv-x="588" 
d="M237 718l-114 153l163 -1l70 -152h-119zM290 534q-72 0 -123 43t-57 119h127q2 -18 17 -30t36 -12q22 0 37 12t17 30h127q-5 -70 -53.5 -116t-127.5 -46zM249 -10q-101 0 -164.5 71t-63.5 184q0 112 62 183.5t155 71.5q75 0 127 -58h2v48h179v-490h-170v44l-2 1
q-45 -55 -125 -55zM289 146q36 0 61 27.5t25 71.5q0 43 -25 70.5t-61 27.5q-38 0 -62.5 -27.5t-24.5 -70.5q0 -45 24 -72t63 -27z" />
    <glyph glyph-name="uni1EB2" unicode="&#x1eb2;" horiz-adv-x="693" 
d="M291 890q43 25 43 48q0 17 -26 17q-32 0 -53 -12l-27 62q21 18 58.5 30.5t74.5 12.5q49 0 75 -18.5t26 -51.5q0 -56 -84 -88h-87zM346 739q-82 0 -131 35t-56 106h132q2 -17 17.5 -28t37.5 -11q23 0 38.5 11t17.5 28h132q-6 -65 -52.5 -103t-135.5 -38zM-2 0l258 710h182
l257 -710h-198l-36 115h-228l-36 -115h-199zM282 274h130l-64 205h-2z" />
    <glyph glyph-name="uni1EB3" unicode="&#x1eb3;" horiz-adv-x="588" 
d="M237 701q43 33 43 63q0 21 -26 21q-27 0 -52 -16l-27 61q21 21 58 36.5t74 15.5q49 0 75 -21t26 -59q0 -30 -22 -57t-62 -44h-87zM289 532q-74 0 -125.5 41t-58.5 114h130q2 -18 17 -29t37 -11q23 0 38 11.5t17 28.5h130q-6 -67 -55.5 -111t-129.5 -44zM249 -10
q-101 0 -164.5 71t-63.5 184q0 112 62 183.5t155 71.5q75 0 127 -58h2v48h179v-490h-170v44l-2 1q-45 -55 -125 -55zM289 146q36 0 61 27.5t25 71.5q0 43 -25 70.5t-61 27.5q-38 0 -62.5 -27.5t-24.5 -70.5q0 -45 24 -72t63 -27z" />
    <glyph glyph-name="uni1EB4" unicode="&#x1eb4;" horiz-adv-x="693" 
d="M427 897q-36 0 -82 24q-32 16 -48 16q-30 0 -49 -40l-95 35q17 48 49.5 79.5t75.5 31.5q50 0 85 -23q23 -15 42 -15q29 0 52 40l93 -29q-16 -51 -48.5 -85t-74.5 -34zM346 739q-82 0 -131 35t-56 106h132q2 -17 17.5 -28t37.5 -11q23 0 38.5 11t17.5 28h132
q-6 -65 -52.5 -103t-135.5 -38zM-2 0l258 710h182l257 -710h-198l-36 115h-228l-36 -115h-199zM282 274h130l-64 205h-2z" />
    <glyph glyph-name="uni1EB5" unicode="&#x1eb5;" horiz-adv-x="588" 
d="M197 719l-102 39q46 112 132 112q14 0 27 -3t19 -5.5t19.5 -9.5t14.5 -8q23 -13 38 -13q25 0 47 41l100 -32q-18 -49 -51 -84t-78 -35q-31 0 -69 22q-29 18 -49 18q-27 0 -48 -42zM288 534q-72 0 -123 43t-57 119h127q2 -18 17 -30t36 -12q22 0 37 12t17 30h127
q-5 -70 -53.5 -116t-127.5 -46zM249 -10q-101 0 -164.5 71t-63.5 184q0 112 62 183.5t155 71.5q75 0 127 -58h2v48h179v-490h-170v44l-2 1q-45 -55 -125 -55zM289 146q36 0 61 27.5t25 71.5q0 43 -25 70.5t-61 27.5q-38 0 -62.5 -27.5t-24.5 -70.5q0 -45 24 -72t63 -27z" />
    <glyph glyph-name="uni1EB6" unicode="&#x1eb6;" horiz-adv-x="693" 
d="M346 747q-79 0 -126 37.5t-54 112.5h127q2 -18 17 -30t36 -12q22 0 37 12t17 30h127q-6 -69 -51 -109.5t-130 -40.5zM-2 0l258 710h182l257 -710h-198l-36 115h-228l-36 -115h-199zM282 274h130l-64 205h-2zM347 -48q45 0 74 -27.5t29 -69.5q0 -40 -29 -67.5t-74 -27.5
t-73.5 27t-28.5 68q0 42 28.5 69.5t73.5 27.5z" />
    <glyph glyph-name="uni1EB7" unicode="&#x1eb7;" horiz-adv-x="588" 
d="M290 534q-72 0 -123 43t-57 119h127q2 -18 17 -30t36 -12q22 0 37 12t17 30h127q-5 -70 -53.5 -116t-127.5 -46zM249 -10q-101 0 -164.5 71t-63.5 184q0 112 62 183.5t155 71.5q75 0 127 -58h2v48h179v-490h-170v44l-2 1q-45 -55 -125 -55zM289 146q36 0 61 27.5t25 71.5
q0 43 -25 70.5t-61 27.5q-38 0 -62.5 -27.5t-24.5 -70.5q0 -45 24 -72t63 -27zM290 -48q45 0 74 -27.5t29 -69.5q0 -40 -29 -67.5t-74 -27.5t-73.5 27t-28.5 68q0 42 28.5 69.5t73.5 27.5z" />
    <glyph glyph-name="uni1EB8" unicode="&#x1eb8;" horiz-adv-x="574" 
d="M52 0v710h472v-169h-288v-107h225v-162h-225v-103h309v-169h-493zM296 -48q45 0 74 -27.5t29 -69.5q0 -40 -29 -67.5t-74 -27.5t-73.5 27t-28.5 68q0 42 28.5 69.5t73.5 27.5z" />
    <glyph glyph-name="uni1EB9" unicode="&#x1eb9;" horiz-adv-x="545" 
d="M523 249q0 -24 -4 -48h-321q6 -34 33.5 -52t69.5 -18q63 0 110 51l96 -106q-71 -86 -227 -86q-111 0 -184 71.5t-73 183.5q0 111 71.5 183t182.5 72q106 0 176 -70.5t70 -180.5zM276 364q-30 0 -51 -17.5t-27 -48.5h152q-13 66 -74 66zM279 -48q45 0 74 -27.5t29 -69.5
q0 -40 -29 -67.5t-74 -27.5t-73.5 27t-28.5 68q0 42 28.5 69.5t73.5 27.5z" />
    <glyph glyph-name="uni1EBA" unicode="&#x1eba;" horiz-adv-x="574" 
d="M246 752q48 28 48 53q0 19 -29 19q-35 0 -59 -13l-30 68q23 20 64.5 34t83.5 14q54 0 83 -20.5t29 -57.5q0 -29 -25 -55t-69 -42h-96zM52 0v710h472v-169h-288v-107h225v-162h-225v-103h309v-169h-493z" />
    <glyph glyph-name="uni1EBB" unicode="&#x1ebb;" horiz-adv-x="545" 
d="M254 642q-31 0 -58 -18l-30 68q24 24 65 40.5t82 16.5q55 0 83.5 -23t28.5 -66q0 -33 -25 -63t-69 -49h-96q48 38 48 70q0 24 -29 24zM523 249q0 -24 -4 -48h-321q6 -34 33.5 -52t69.5 -18q63 0 110 51l96 -106q-71 -86 -227 -86q-111 0 -184 71.5t-73 183.5
q0 111 71.5 183t182.5 72q106 0 176 -70.5t70 -180.5zM276 364q-30 0 -51 -17.5t-27 -48.5h152q-13 66 -74 66z" />
    <glyph glyph-name="uni1EBC" unicode="&#x1ebc;" horiz-adv-x="574" 
d="M378 752q-38 0 -88 26q-34 18 -51 18q-32 0 -53 -43l-102 37q18 52 52.5 86t81.5 34q54 0 91 -25q24 -16 46 -16q33 0 55 43l100 -31q-17 -55 -51.5 -92t-80.5 -37zM52 0v710h472v-169h-288v-107h225v-162h-225v-103h309v-169h-493z" />
    <glyph glyph-name="uni1EBD" unicode="&#x1ebd;" horiz-adv-x="545" 
d="M228 590q-32 0 -53 -45l-102 41q18 57 53 93.5t82 36.5t90 -26q27 -16 46 -16q33 0 55 44l100 -33q-17 -60 -51.5 -99t-80.5 -39q-44 0 -88 25q-34 18 -51 18zM523 249q0 -24 -4 -48h-321q6 -34 33.5 -52t69.5 -18q63 0 110 51l96 -106q-71 -86 -227 -86
q-111 0 -184 71.5t-73 183.5q0 111 71.5 183t182.5 72q106 0 176 -70.5t70 -180.5zM276 364q-30 0 -51 -17.5t-27 -48.5h152q-13 66 -74 66z" />
    <glyph glyph-name="uni1EBE" unicode="&#x1ebe;" horiz-adv-x="574" 
d="M456 815l80 152l163 1l-114 -153h-129zM102 752l87 143h194l93 -143h-150l-39 62h-2l-39 -62h-144zM52 0v710h472v-169h-288v-107h225v-162h-225v-103h309v-169h-493z" />
    <glyph glyph-name="uni1EBF" unicode="&#x1ebf;" horiz-adv-x="545" 
d="M492 808l163 1l-114 -153h-119zM273 615l-39 -70h-144l87 151h194l93 -151h-150l-39 70h-2zM277 500q106 0 176 -70.5t70 -180.5q0 -24 -4 -48h-321q6 -34 33.5 -52t69.5 -18q63 0 110 51l96 -106q-71 -86 -227 -86q-111 0 -184 71.5t-73 183.5q0 111 71.5 183t182.5 72z
M276 364q-30 0 -51 -17.5t-27 -48.5h152q-13 66 -74 66z" />
    <glyph glyph-name="uni1EC0" unicode="&#x1ec0;" horiz-adv-x="574" 
d="M489 815l-114 153l163 -1l80 -152h-129zM102 752l87 143h194l93 -143h-150l-39 62h-2l-39 -62h-144zM52 0v710h472v-169h-288v-107h225v-162h-225v-103h309v-169h-493z" />
    <glyph glyph-name="uni1EC1" unicode="&#x1ec1;" horiz-adv-x="545" 
d="M575 656h-119l-114 153l163 -1zM274 615l-39 -70h-144l87 151h194l93 -151h-150l-39 70h-2zM277 500q106 0 176 -70.5t70 -180.5q0 -24 -4 -48h-321q6 -34 33.5 -52t69.5 -18q63 0 110 51l96 -106q-71 -86 -227 -86q-111 0 -184 71.5t-73 183.5q0 111 71.5 183t182.5 72z
M276 364q-30 0 -51 -17.5t-27 -48.5h152q-13 66 -74 66z" />
    <glyph glyph-name="uni1EC2" unicode="&#x1ec2;" horiz-adv-x="574" 
d="M457 833q43 25 43 48q0 17 -26 17q-32 0 -53 -12l-27 62q21 18 58.5 30.5t74.5 12.5q49 0 75 -18.5t26 -51.5q0 -56 -84 -88h-87zM102 752l87 143h194l93 -143h-150l-39 62h-2l-39 -62h-144zM52 0v710h472v-169h-288v-107h225v-162h-225v-103h309v-169h-493z" />
    <glyph glyph-name="uni1EC3" unicode="&#x1ec3;" horiz-adv-x="545" 
d="M502 822q49 0 75 -21t26 -59q0 -30 -22 -57t-62 -44h-87q43 33 43 63q0 21 -26 21q-27 0 -52 -16l-27 61q21 21 58 36.5t74 15.5zM275 615l-39 -70h-144l87 151h194l93 -151h-150l-39 70h-2zM277 500q106 0 176 -70.5t70 -180.5q0 -24 -4 -48h-321q6 -34 33.5 -52
t69.5 -18q63 0 110 51l96 -106q-71 -86 -227 -86q-111 0 -184 71.5t-73 183.5q0 111 71.5 183t182.5 72zM276 364q-30 0 -51 -17.5t-27 -48.5h152q-13 66 -74 66z" />
    <glyph glyph-name="uni1EC4" unicode="&#x1ec4;" horiz-adv-x="574" 
d="M369 916q-36 0 -82 24q-32 16 -48 16q-30 0 -49 -40l-95 35q17 48 49.5 79.5t75.5 31.5q50 0 85 -23q23 -15 42 -15q29 0 52 40l93 -29q-16 -51 -48.5 -85t-74.5 -34zM102 752l87 143h194l93 -143h-150l-39 62h-2l-39 -62h-144zM52 0v710h472v-169h-288v-107h225v-162
h-225v-103h309v-169h-493z" />
    <glyph glyph-name="uni1EC5" unicode="&#x1ec5;" horiz-adv-x="545" 
d="M232 761q-27 0 -48 -42l-102 39q46 112 132 112q14 0 27 -3t19 -5.5t19.5 -9.5t14.5 -8q23 -13 38 -13q25 0 47 41l100 -32q-18 -49 -51 -84t-78 -35q-30 0 -69 22q-29 18 -49 18zM179 696h194l93 -151h-150l-39 70h-2l-39 -70h-144zM523 249q0 -24 -4 -48h-321
q6 -34 33.5 -52t69.5 -18q63 0 110 51l96 -106q-71 -86 -227 -86q-111 0 -184 71.5t-73 183.5q0 111 71.5 183t182.5 72q106 0 176 -70.5t70 -180.5zM276 364q-30 0 -51 -17.5t-27 -48.5h152q-13 66 -74 66z" />
    <glyph glyph-name="uni1EC6" unicode="&#x1ec6;" horiz-adv-x="574" 
d="M102 752l87 143h194l93 -143h-150l-39 62h-2l-39 -62h-144zM52 0v710h472v-169h-288v-107h225v-162h-225v-103h309v-169h-493zM296 -48q45 0 74 -27.5t29 -69.5q0 -40 -29 -67.5t-74 -27.5t-73.5 27t-28.5 68q0 42 28.5 69.5t73.5 27.5z" />
    <glyph glyph-name="uni1EC7" unicode="&#x1ec7;" horiz-adv-x="545" 
d="M275 615l-39 -70h-144l87 151h194l93 -151h-150l-39 70h-2zM523 249q0 -24 -4 -48h-321q6 -34 33.5 -52t69.5 -18q63 0 110 51l96 -106q-71 -86 -227 -86q-111 0 -184 71.5t-73 183.5q0 111 71.5 183t182.5 72q106 0 176 -70.5t70 -180.5zM276 364q-30 0 -51 -17.5
t-27 -48.5h152q-13 66 -74 66zM279 -48q45 0 74 -27.5t29 -69.5q0 -40 -29 -67.5t-74 -27.5t-73.5 27t-28.5 68q0 42 28.5 69.5t73.5 27.5z" />
    <glyph glyph-name="uni1EC8" unicode="&#x1ec8;" horiz-adv-x="310" 
d="M113 752q48 28 48 53q0 19 -29 19q-35 0 -59 -13l-30 68q23 20 64.5 34t83.5 14q54 0 83 -20.5t29 -57.5q0 -29 -25 -55t-69 -42h-96zM57 0v710h196v-710h-196z" />
    <glyph glyph-name="uni1EC9" unicode="&#x1ec9;" horiz-adv-x="275" 
d="M95 548q48 38 48 70q0 24 -29 24q-31 0 -58 -18l-30 68q24 24 65 40.5t82 16.5q55 0 83.5 -23t28.5 -66q0 -33 -25 -63t-69 -49h-96zM48 0v490h179v-490h-179z" />
    <glyph glyph-name="uni1ECA" unicode="&#x1eca;" horiz-adv-x="310" 
d="M57 0v710h196v-710h-196zM155 -48q45 0 74 -27.5t29 -69.5q0 -40 -29 -67.5t-74 -27.5t-73.5 27t-28.5 68q0 42 28.5 69.5t73.5 27.5z" />
    <glyph glyph-name="uni1ECB" unicode="&#x1ecb;" horiz-adv-x="275" 
d="M139 545q-45 0 -74 27.5t-29 69.5q0 40 29 67.5t74 27.5t73.5 -27t28.5 -68q0 -42 -28.5 -69.5t-73.5 -27.5zM48 0v490h179v-490h-179zM138 -48q45 0 74 -27.5t29 -69.5q0 -40 -29 -67.5t-74 -27.5t-73.5 27t-28.5 68q0 42 28.5 69.5t73.5 27.5z" />
    <glyph glyph-name="uni1ECC" unicode="&#x1ecc;" horiz-adv-x="798" 
d="M399 -10q-164 0 -266.5 101.5t-102.5 263.5t103 264t266 102t266 -101.5t103 -264.5q0 -162 -103 -263.5t-266 -101.5zM399 167q74 0 121.5 54t47.5 134q0 79 -47.5 133.5t-121.5 54.5q-73 0 -121 -54t-48 -134t48 -134t121 -54zM399 -48q45 0 74 -27.5t29 -69.5
q0 -40 -29 -67.5t-74 -27.5t-73.5 27t-28.5 68q0 42 28.5 69.5t73.5 27.5z" />
    <glyph glyph-name="uni1ECD" unicode="&#x1ecd;" horiz-adv-x="583" 
d="M292 -10q-119 0 -194 71t-75 184t75 184t194 71q118 0 193 -71t75 -184t-75 -184t-193 -71zM292 147q38 0 63 27.5t25 70.5t-24.5 70t-63.5 27t-64 -27t-25 -70t25.5 -70.5t63.5 -27.5zM292 -48q45 0 74 -27.5t29 -69.5q0 -40 -29 -67.5t-74 -27.5t-73.5 27t-28.5 68
q0 42 28.5 69.5t73.5 27.5z" />
    <glyph glyph-name="uni1ECE" unicode="&#x1ece;" horiz-adv-x="798" 
d="M357 754q48 28 48 53q0 19 -29 19q-35 0 -59 -13l-30 68q23 20 64.5 34t83.5 14q54 0 83 -20.5t29 -57.5q0 -29 -25 -55t-69 -42h-96zM399 -10q-164 0 -266.5 101.5t-102.5 263.5t103 264t266 102t266 -101.5t103 -264.5q0 -162 -103 -263.5t-266 -101.5zM399 167
q74 0 121.5 54t47.5 134q0 79 -47.5 133.5t-121.5 54.5q-73 0 -121 -54t-48 -134t48 -134t121 -54z" />
    <glyph glyph-name="uni1ECF" unicode="&#x1ecf;" horiz-adv-x="583" 
d="M249 548q48 38 48 70q0 24 -29 24q-31 0 -58 -18l-30 68q24 24 65 40.5t82 16.5q55 0 83.5 -23t28.5 -66q0 -33 -25 -63t-69 -49h-96zM292 -10q-119 0 -194 71t-75 184t75 184t194 71q118 0 193 -71t75 -184t-75 -184t-193 -71zM292 147q38 0 63 27.5t25 70.5t-24.5 70
t-63.5 27t-64 -27t-25 -70t25.5 -70.5t63.5 -27.5z" />
    <glyph glyph-name="uni1ED0" unicode="&#x1ed0;" horiz-adv-x="798" 
d="M567 817l80 152l163 1l-114 -153h-129zM213 754l87 143h194l93 -143h-150l-39 62h-2l-39 -62h-144zM399 -10q-164 0 -266.5 101.5t-102.5 263.5t103 264t266 102t266 -101.5t103 -264.5q0 -162 -103 -263.5t-266 -101.5zM399 167q74 0 121.5 54t47.5 134
q0 79 -47.5 133.5t-121.5 54.5q-73 0 -121 -54t-48 -134t48 -134t121 -54z" />
    <glyph glyph-name="uni1ED1" unicode="&#x1ed1;" horiz-adv-x="583" 
d="M436 656l70 152l163 1l-114 -153h-119zM104 545l87 151h194l93 -151h-150l-39 70h-2l-39 -70h-144zM292 -10q-119 0 -194 71t-75 184t75 184t194 71q118 0 193 -71t75 -184t-75 -184t-193 -71zM292 147q38 0 63 27.5t25 70.5t-24.5 70t-63.5 27t-64 -27t-25 -70
t25.5 -70.5t63.5 -27.5z" />
    <glyph glyph-name="uni1ED2" unicode="&#x1ed2;" horiz-adv-x="798" 
d="M600 817l-114 153l163 -1l80 -152h-129zM213 754l87 143h194l93 -143h-150l-39 62h-2l-39 -62h-144zM399 -10q-164 0 -266.5 101.5t-102.5 263.5t103 264t266 102t266 -101.5t103 -264.5q0 -162 -103 -263.5t-266 -101.5zM399 167q74 0 121.5 54t47.5 134
q0 79 -47.5 133.5t-121.5 54.5q-73 0 -121 -54t-48 -134t48 -134t121 -54z" />
    <glyph glyph-name="uni1ED3" unicode="&#x1ed3;" horiz-adv-x="583" 
d="M470 656l-114 153l163 -1l70 -152h-119zM105 545l87 151h194l93 -151h-150l-39 70h-2l-39 -70h-144zM292 -10q-119 0 -194 71t-75 184t75 184t194 71q118 0 193 -71t75 -184t-75 -184t-193 -71zM292 147q38 0 63 27.5t25 70.5t-24.5 70t-63.5 27t-64 -27t-25 -70
t25.5 -70.5t63.5 -27.5z" />
    <glyph glyph-name="uni1ED4" unicode="&#x1ed4;" horiz-adv-x="798" 
d="M568 835q43 25 43 48q0 17 -26 17q-32 0 -53 -12l-27 62q21 18 58.5 30.5t74.5 12.5q49 0 75 -18.5t26 -51.5q0 -56 -84 -88h-87zM213 754l87 143h194l93 -143h-150l-39 62h-2l-39 -62h-144zM399 -10q-164 0 -266.5 101.5t-102.5 263.5t103 264t266 102t266 -101.5
t103 -264.5q0 -162 -103 -263.5t-266 -101.5zM399 167q74 0 121.5 54t47.5 134q0 79 -47.5 133.5t-121.5 54.5q-73 0 -121 -54t-48 -134t48 -134t121 -54z" />
    <glyph glyph-name="uni1ED5" unicode="&#x1ed5;" horiz-adv-x="583" 
d="M446 641q43 33 43 63q0 21 -26 21q-27 0 -52 -16l-27 61q21 21 58 36.5t74 15.5q49 0 75 -21t26 -59q0 -30 -22 -57t-62 -44h-87zM106 545l87 151h194l93 -151h-150l-39 70h-2l-39 -70h-144zM292 -10q-119 0 -194 71t-75 184t75 184t194 71q118 0 193 -71t75 -184
t-75 -184t-193 -71zM292 147q38 0 63 27.5t25 70.5t-24.5 70t-63.5 27t-64 -27t-25 -70t25.5 -70.5t63.5 -27.5z" />
    <glyph glyph-name="uni1ED6" unicode="&#x1ed6;" horiz-adv-x="798" 
d="M480 918q-36 0 -82 24q-32 16 -48 16q-30 0 -49 -40l-95 35q17 48 49.5 79.5t75.5 31.5q50 0 85 -23q23 -15 42 -15q29 0 52 40l93 -29q-16 -51 -48.5 -85t-74.5 -34zM213 754l87 143h194l93 -143h-150l-39 62h-2l-39 -62h-144zM399 -10q-164 0 -266.5 101.5
t-102.5 263.5t103 264t266 102t266 -101.5t103 -264.5q0 -162 -103 -263.5t-266 -101.5zM399 167q74 0 121.5 54t47.5 134q0 79 -47.5 133.5t-121.5 54.5q-73 0 -121 -54t-48 -134t48 -134t121 -54z" />
    <glyph glyph-name="uni1ED7" unicode="&#x1ed7;" horiz-adv-x="583" 
d="M198 719l-102 39q46 112 132 112q14 0 27 -3t19 -5.5t19.5 -9.5t14.5 -8q23 -13 38 -13q25 0 47 41l100 -32q-18 -49 -51 -84t-78 -35q-30 0 -69 22q-29 18 -49 18q-27 0 -48 -42zM106 545l87 151h194l93 -151h-150l-39 70h-2l-39 -70h-144zM292 -10q-119 0 -194 71
t-75 184t75 184t194 71q118 0 193 -71t75 -184t-75 -184t-193 -71zM292 147q38 0 63 27.5t25 70.5t-24.5 70t-63.5 27t-64 -27t-25 -70t25.5 -70.5t63.5 -27.5z" />
    <glyph glyph-name="uni1ED8" unicode="&#x1ed8;" horiz-adv-x="798" 
d="M213 754l87 143h194l93 -143h-150l-39 62h-2l-39 -62h-144zM399 -10q-164 0 -266.5 101.5t-102.5 263.5t103 264t266 102t266 -101.5t103 -264.5q0 -162 -103 -263.5t-266 -101.5zM399 167q74 0 121.5 54t47.5 134q0 79 -47.5 133.5t-121.5 54.5q-73 0 -121 -54t-48 -134
t48 -134t121 -54zM399 -48q45 0 74 -27.5t29 -69.5q0 -40 -29 -67.5t-74 -27.5t-73.5 27t-28.5 68q0 42 28.5 69.5t73.5 27.5z" />
    <glyph glyph-name="uni1ED9" unicode="&#x1ed9;" horiz-adv-x="583" 
d="M106 545l87 151h194l93 -151h-150l-39 70h-2l-39 -70h-144zM292 -10q-119 0 -194 71t-75 184t75 184t194 71q118 0 193 -71t75 -184t-75 -184t-193 -71zM292 147q38 0 63 27.5t25 70.5t-24.5 70t-63.5 27t-64 -27t-25 -70t25.5 -70.5t63.5 -27.5zM292 -48q45 0 74 -27.5
t29 -69.5q0 -40 -29 -67.5t-74 -27.5t-73.5 27t-28.5 68q0 42 28.5 69.5t73.5 27.5z" />
    <glyph glyph-name="uni1EDA" unicode="&#x1eda;" horiz-adv-x="827" 
d="M591 897l-126 -143h-157l106 143h177zM708 774h143v-78q0 -138 -120 -169q37 -77 37 -172q0 -162 -103 -263.5t-266 -101.5q-164 0 -266.5 101.5t-102.5 263.5t103 264t266 102q179 0 282 -119q27 18 27 85v87zM399 167q74 0 121.5 54t47.5 134q0 79 -47.5 133.5
t-121.5 54.5q-73 0 -121 -54t-48 -134t48 -134t121 -54z" />
    <glyph glyph-name="uni1EDB" unicode="&#x1edb;" horiz-adv-x="701" 
d="M499 698l-124 -153h-160l109 152zM535 565h143v-78q0 -142 -127 -170q9 -35 9 -72q0 -113 -75 -184t-193 -71q-119 0 -194 71t-75 184t75 184t194 71q71 0 128.5 -27t92.5 -76q22 20 22 81v87zM292 147q38 0 63 27.5t25 70.5t-24.5 70t-63.5 27t-64 -27t-25 -70
t25.5 -70.5t63.5 -27.5z" />
    <glyph glyph-name="uni1EDC" unicode="&#x1edc;" horiz-adv-x="827" 
d="M497 754h-157l-126 143h177zM708 774h143v-78q0 -138 -120 -169q37 -77 37 -172q0 -162 -103 -263.5t-266 -101.5q-164 0 -266.5 101.5t-102.5 263.5t103 264t266 102q179 0 282 -119q27 18 27 85v87zM399 167q74 0 121.5 54t47.5 134q0 79 -47.5 133.5t-121.5 54.5
q-73 0 -121 -54t-48 -134t48 -134t121 -54z" />
    <glyph glyph-name="uni1EDD" unicode="&#x1edd;" horiz-adv-x="701" 
d="M388 545h-157l-123 152l177 -1zM535 565h143v-78q0 -142 -127 -170q9 -35 9 -72q0 -113 -75 -184t-193 -71q-119 0 -194 71t-75 184t75 184t194 71q71 0 128.5 -27t92.5 -76q22 20 22 81v87zM292 147q38 0 63 27.5t25 70.5t-24.5 70t-63.5 27t-64 -27t-25 -70t25.5 -70.5
t63.5 -27.5z" />
    <glyph glyph-name="uni1EDE" unicode="&#x1ede;" horiz-adv-x="827" 
d="M376 826q-35 0 -59 -13l-30 68q23 20 64.5 34t83.5 14q54 0 83 -20.5t29 -57.5q0 -29 -25 -55t-69 -42h-96q48 28 48 53q0 19 -29 19zM708 774h143v-78q0 -138 -120 -169q37 -77 37 -172q0 -162 -103 -263.5t-266 -101.5q-164 0 -266.5 101.5t-102.5 263.5t103 264
t266 102q179 0 282 -119q27 18 27 85v87zM399 167q74 0 121.5 54t47.5 134q0 79 -47.5 133.5t-121.5 54.5q-73 0 -121 -54t-48 -134t48 -134t121 -54z" />
    <glyph glyph-name="uni1EDF" unicode="&#x1edf;" horiz-adv-x="701" 
d="M268 642q-31 0 -58 -18l-30 68q24 24 65 40.5t82 16.5q55 0 83.5 -23t28.5 -66q0 -33 -25 -63t-69 -49h-96q48 38 48 70q0 24 -29 24zM535 565h143v-78q0 -142 -127 -170q9 -35 9 -72q0 -113 -75 -184t-193 -71q-119 0 -194 71t-75 184t75 184t194 71q71 0 128.5 -27
t92.5 -76q22 20 22 81v87zM292 147q38 0 63 27.5t25 70.5t-24.5 70t-63.5 27t-64 -27t-25 -70t25.5 -70.5t63.5 -27.5z" />
    <glyph glyph-name="uni1EE0" unicode="&#x1ee0;" horiz-adv-x="827" 
d="M350 798q-32 0 -53 -43l-102 37q18 52 52.5 86t81.5 34q53 0 91 -25q24 -16 46 -16q33 0 55 43l100 -31q-17 -55 -51.5 -92t-80.5 -37q-38 0 -88 26q-34 18 -51 18zM708 774h143v-78q0 -138 -120 -169q37 -77 37 -172q0 -162 -103 -263.5t-266 -101.5
q-164 0 -266.5 101.5t-102.5 263.5t103 264t266 102q179 0 282 -119q27 18 27 85v87zM399 167q74 0 121.5 54t47.5 134q0 79 -47.5 133.5t-121.5 54.5q-73 0 -121 -54t-48 -134t48 -134t121 -54z" />
    <glyph glyph-name="uni1EE1" unicode="&#x1ee1;" horiz-adv-x="701" 
d="M242 590q-32 0 -53 -45l-102 41q18 57 53 93.5t82 36.5t90 -26q27 -16 46 -16q33 0 55 44l100 -33q-17 -60 -51.5 -99t-80.5 -39q-44 0 -88 25q-34 18 -51 18zM535 565h143v-78q0 -142 -127 -170q9 -35 9 -72q0 -113 -75 -184t-193 -71q-119 0 -194 71t-75 184t75 184
t194 71q71 0 128.5 -27t92.5 -76q22 20 22 81v87zM292 147q38 0 63 27.5t25 70.5t-24.5 70t-63.5 27t-64 -27t-25 -70t25.5 -70.5t63.5 -27.5z" />
    <glyph glyph-name="uni1EE2" unicode="&#x1ee2;" horiz-adv-x="827" 
d="M708 774h143v-78q0 -138 -120 -169q37 -77 37 -172q0 -162 -103 -263.5t-266 -101.5q-164 0 -266.5 101.5t-102.5 263.5t103 264t266 102q179 0 282 -119q27 18 27 85v87zM399 167q74 0 121.5 54t47.5 134q0 79 -47.5 133.5t-121.5 54.5q-73 0 -121 -54t-48 -134t48 -134
t121 -54zM399 -48q45 0 74 -27.5t29 -69.5q0 -40 -29 -67.5t-74 -27.5t-73.5 27t-28.5 68q0 42 28.5 69.5t73.5 27.5z" />
    <glyph glyph-name="uni1EE3" unicode="&#x1ee3;" horiz-adv-x="701" 
d="M535 565h143v-78q0 -142 -127 -170q9 -35 9 -72q0 -113 -75 -184t-193 -71q-119 0 -194 71t-75 184t75 184t194 71q71 0 128.5 -27t92.5 -76q22 20 22 81v87zM292 147q38 0 63 27.5t25 70.5t-24.5 70t-63.5 27t-64 -27t-25 -70t25.5 -70.5t63.5 -27.5zM292 -48
q45 0 74 -27.5t29 -69.5q0 -40 -29 -67.5t-74 -27.5t-73.5 27t-28.5 68q0 42 28.5 69.5t73.5 27.5z" />
    <glyph glyph-name="uni1EE4" unicode="&#x1ee4;" horiz-adv-x="691" 
d="M344 -10q-136 0 -217 80.5t-81 227.5v412h192v-401q0 -61 27 -101.5t79 -40.5q49 0 79.5 37.5t30.5 104.5v401h191v-412q0 -142 -78.5 -225t-222.5 -83zM344 -48q45 0 74 -27.5t29 -69.5q0 -40 -29 -67.5t-74 -27.5t-73.5 27t-28.5 68q0 42 28.5 69.5t73.5 27.5z" />
    <glyph glyph-name="uni1EE5" unicode="&#x1ee5;" horiz-adv-x="566" 
d="M210 -10q-173 0 -173 213v287h178v-244q0 -52 15 -75.5t49 -23.5q30 0 48.5 24.5t18.5 72.5v246h179v-490h-179v52l-2 1q-51 -63 -134 -63zM291 -48q45 0 74 -27.5t29 -69.5q0 -40 -29 -67.5t-74 -27.5t-73.5 27t-28.5 68q0 42 28.5 69.5t73.5 27.5z" />
    <glyph glyph-name="uni1EE6" unicode="&#x1ee6;" horiz-adv-x="691" 
d="M302 754q48 28 48 53q0 19 -29 19q-35 0 -59 -13l-30 68q23 20 64.5 34t83.5 14q54 0 83 -20.5t29 -57.5q0 -29 -25 -55t-69 -42h-96zM344 -10q-136 0 -217 80.5t-81 227.5v412h192v-401q0 -61 27 -101.5t79 -40.5q49 0 79.5 37.5t30.5 104.5v401h191v-412
q0 -142 -78.5 -225t-222.5 -83z" />
    <glyph glyph-name="uni1EE7" unicode="&#x1ee7;" horiz-adv-x="566" 
d="M242 548q48 38 48 70q0 24 -29 24q-31 0 -58 -18l-30 68q24 24 65 40.5t82 16.5q55 0 83.5 -23t28.5 -66q0 -33 -25 -63t-69 -49h-96zM210 -10q-173 0 -173 213v287h178v-244q0 -52 15 -75.5t49 -23.5q30 0 48.5 24.5t18.5 72.5v246h179v-490h-179v52l-2 1
q-51 -63 -134 -63z" />
    <glyph glyph-name="uni1EE8" unicode="&#x1ee8;" horiz-adv-x="828" 
d="M539 897l-126 -143h-157l106 143h177zM709 774h143v-78q0 -182 -207 -177v-221q0 -142 -78.5 -225t-222.5 -83q-136 0 -217 80.5t-81 227.5v412h192v-401q0 -61 27 -101.5t79 -40.5q49 0 79.5 37.5t30.5 104.5v401h191v-122q38 6 51 28.5t13 70.5v87z" />
    <glyph glyph-name="uni1EE9" unicode="&#x1ee9;" horiz-adv-x="728" 
d="M482 698l-124 -153h-160l109 152zM577 565h143v-78q0 -176 -195 -178v-309h-179v52l-2 1q-51 -63 -134 -63q-173 0 -173 213v287h178v-244q0 -52 15 -75.5t49 -23.5q30 0 48.5 24.5t18.5 72.5v246h179v-108q31 8 41.5 29.5t10.5 66.5v87z" />
    <glyph glyph-name="uni1EEA" unicode="&#x1eea;" horiz-adv-x="828" 
d="M424 754h-157l-126 143h177zM709 774h143v-78q0 -182 -207 -177v-221q0 -142 -78.5 -225t-222.5 -83q-136 0 -217 80.5t-81 227.5v412h192v-401q0 -61 27 -101.5t79 -40.5q49 0 79.5 37.5t30.5 104.5v401h191v-122q38 6 51 28.5t13 70.5v87z" />
    <glyph glyph-name="uni1EEB" unicode="&#x1eeb;" horiz-adv-x="728" 
d="M378 545h-157l-123 152l177 -1zM577 565h143v-78q0 -176 -195 -178v-309h-179v52l-2 1q-51 -63 -134 -63q-173 0 -173 213v287h178v-244q0 -52 15 -75.5t49 -23.5q30 0 48.5 24.5t18.5 72.5v246h179v-108q31 8 41.5 29.5t10.5 66.5v87z" />
    <glyph glyph-name="uni1EEC" unicode="&#x1eec;" horiz-adv-x="828" 
d="M321 826q-35 0 -59 -13l-30 68q23 20 64.5 34t83.5 14q54 0 83 -20.5t29 -57.5q0 -29 -25 -55t-69 -42h-96q48 28 48 53q0 19 -29 19zM709 774h143v-78q0 -182 -207 -177v-221q0 -142 -78.5 -225t-222.5 -83q-136 0 -217 80.5t-81 227.5v412h192v-401q0 -61 27 -101.5
t79 -40.5q49 0 79.5 37.5t30.5 104.5v401h191v-122q38 6 51 28.5t13 70.5v87z" />
    <glyph glyph-name="uni1EED" unicode="&#x1eed;" horiz-adv-x="728" 
d="M261 642q-31 0 -58 -18l-30 68q24 24 65 40.5t82 16.5q55 0 83.5 -23t28.5 -66q0 -33 -25 -63t-69 -49h-96q48 38 48 70q0 24 -29 24zM577 565h143v-78q0 -176 -195 -178v-309h-179v52l-2 1q-51 -63 -134 -63q-173 0 -173 213v287h178v-244q0 -52 15 -75.5t49 -23.5
q30 0 48.5 24.5t18.5 72.5v246h179v-108q31 8 41.5 29.5t10.5 66.5v87z" />
    <glyph glyph-name="uni1EEE" unicode="&#x1eee;" horiz-adv-x="828" 
d="M295 798q-32 0 -53 -43l-102 37q18 52 52.5 86t81.5 34q54 0 91 -25q24 -16 46 -16q33 0 55 43l100 -31q-17 -55 -51.5 -92t-80.5 -37q-38 0 -88 26q-34 18 -51 18zM709 774h143v-78q0 -182 -207 -177v-221q0 -142 -78.5 -225t-222.5 -83q-136 0 -217 80.5t-81 227.5v412
h192v-401q0 -61 27 -101.5t79 -40.5q49 0 79.5 37.5t30.5 104.5v401h191v-122q38 6 51 28.5t13 70.5v87z" />
    <glyph glyph-name="uni1EEF" unicode="&#x1eef;" horiz-adv-x="728" 
d="M235 590q-32 0 -53 -45l-102 41q18 57 53 93.5t82 36.5t90 -26q27 -16 46 -16q33 0 55 44l100 -33q-17 -60 -51.5 -99t-80.5 -39q-44 0 -88 25q-34 18 -51 18zM577 565h143v-78q0 -176 -195 -178v-309h-179v52l-2 1q-51 -63 -134 -63q-173 0 -173 213v287h178v-244
q0 -52 15 -75.5t49 -23.5q30 0 48.5 24.5t18.5 72.5v246h179v-108q31 8 41.5 29.5t10.5 66.5v87z" />
    <glyph glyph-name="uni1EF0" unicode="&#x1ef0;" horiz-adv-x="828" 
d="M709 774h143v-78q0 -182 -207 -177v-221q0 -142 -78.5 -225t-222.5 -83q-136 0 -217 80.5t-81 227.5v412h192v-401q0 -61 27 -101.5t79 -40.5q49 0 79.5 37.5t30.5 104.5v401h191v-122q38 6 51 28.5t13 70.5v87zM344 -48q45 0 74 -27.5t29 -69.5q0 -40 -29 -67.5
t-74 -27.5t-73.5 27t-28.5 68q0 42 28.5 69.5t73.5 27.5z" />
    <glyph glyph-name="uni1EF1" unicode="&#x1ef1;" horiz-adv-x="728" 
d="M577 565h143v-78q0 -176 -195 -178v-309h-179v52l-2 1q-51 -63 -134 -63q-173 0 -173 213v287h178v-244q0 -52 15 -75.5t49 -23.5q30 0 48.5 24.5t18.5 72.5v246h179v-108q31 8 41.5 29.5t10.5 66.5v87zM291 -48q45 0 74 -27.5t29 -69.5q0 -40 -29 -67.5t-74 -27.5
t-73.5 27t-28.5 68q0 42 28.5 69.5t73.5 27.5z" />
    <glyph glyph-name="Ygrave" unicode="&#x1ef2;" horiz-adv-x="641" 
d="M256 754l-126 143h177l106 -143h-157zM223 0v307l-229 403h218l108 -216h2l105 216h220l-230 -403v-307h-194z" />
    <glyph glyph-name="ygrave" unicode="&#x1ef3;" horiz-adv-x="537" 
d="M209 545l-123 152l177 -1l103 -151h-157zM108 -198l83 234l-187 454h191l80 -231h3l78 231h177l-251 -688h-174z" />
    <glyph glyph-name="uni1EF4" unicode="&#x1ef4;" horiz-adv-x="641" 
d="M223 0v307l-229 403h218l108 -216h2l105 216h220l-230 -403v-307h-194zM320 -48q45 0 74 -27.5t29 -69.5q0 -40 -29 -67.5t-74 -27.5t-73.5 27t-28.5 68q0 42 28.5 69.5t73.5 27.5z" />
    <glyph glyph-name="uni1EF5" unicode="&#x1ef5;" horiz-adv-x="537" 
d="M108 -198l83 234l-187 454h191l80 -231h3l78 231h177l-251 -688h-174zM446 -48q45 0 74 -27.5t29 -69.5q0 -40 -29 -67.5t-74 -27.5t-73.5 27t-28.5 68q0 42 28.5 69.5t73.5 27.5z" />
    <glyph glyph-name="uni1EF6" unicode="&#x1ef6;" horiz-adv-x="641" 
d="M278 754q48 28 48 53q0 19 -29 19q-35 0 -59 -13l-30 68q23 20 64.5 34t83.5 14q54 0 83 -20.5t29 -57.5q0 -29 -25 -55t-69 -42h-96zM223 0v307l-229 403h218l108 -216h2l105 216h220l-230 -403v-307h-194z" />
    <glyph glyph-name="uni1EF7" unicode="&#x1ef7;" horiz-adv-x="537" 
d="M228 548q48 38 48 70q0 24 -29 24q-31 0 -58 -18l-30 68q24 24 65 40.5t82 16.5q55 0 83.5 -23t28.5 -66q0 -33 -25 -63t-69 -49h-96zM108 -198l83 234l-187 454h191l80 -231h3l78 231h177l-251 -688h-174z" />
    <glyph glyph-name="uni1EF8" unicode="&#x1ef8;" horiz-adv-x="641" 
d="M410 754q-38 0 -88 26q-34 18 -51 18q-32 0 -53 -43l-102 37q18 52 52.5 86t81.5 34q54 0 91 -25q24 -16 46 -16q33 0 55 43l100 -31q-17 -55 -51.5 -92t-80.5 -37zM223 0v307l-229 403h218l108 -216h2l105 216h220l-230 -403v-307h-194z" />
    <glyph glyph-name="uni1EF9" unicode="&#x1ef9;" horiz-adv-x="537" 
d="M360 547q-44 0 -88 25q-34 18 -51 18q-32 0 -53 -45l-102 41q18 57 53 93.5t82 36.5t90 -26q27 -16 46 -16q33 0 55 44l100 -33q-17 -60 -51.5 -99t-80.5 -39zM108 -198l83 234l-187 454h191l80 -231h3l78 231h177l-251 -688h-174z" />
    <glyph glyph-name="uni2002" unicode="&#x2002;" horiz-adv-x="467" 
 />
    <glyph glyph-name="uni2003" unicode="&#x2003;" horiz-adv-x="934" 
 />
    <glyph glyph-name="uni2007" unicode="&#x2007;" horiz-adv-x="586" 
 />
    <glyph glyph-name="uni2009" unicode="&#x2009;" horiz-adv-x="14" 
 />
    <glyph glyph-name="uni2010" unicode="&#x2010;" horiz-adv-x="373" 
d="M32 230v159h309v-159h-309z" />
    <glyph glyph-name="figuredash" unicode="&#x2012;" horiz-adv-x="586" 
d="M32 226v146h522v-146h-522z" />
    <glyph glyph-name="endash" unicode="&#x2013;" horiz-adv-x="531" 
d="M32 226v146h467v-146h-467z" />
    <glyph glyph-name="emdash" unicode="&#x2014;" horiz-adv-x="998" 
d="M32 226v146h934v-146h-934z" />
    <glyph glyph-name="uni2015" unicode="&#x2015;" horiz-adv-x="1169" 
d="M32 226v146h1105v-146h-1105z" />
    <glyph glyph-name="quoteleft" unicode="&#x2018;" horiz-adv-x="243" 
d="M217 710l-29 -278h-172l73 278h128z" />
    <glyph glyph-name="quoteright" unicode="&#x2019;" horiz-adv-x="243" 
d="M26 432l29 278h172l-73 -278h-128z" />
    <glyph glyph-name="quotesinglbase" unicode="&#x201a;" horiz-adv-x="249" 
d="M14 -82l28 279h172l-73 -279h-127z" />
    <glyph glyph-name="quotedblleft" unicode="&#x201c;" horiz-adv-x="472" 
d="M218 710l-29 -278h-173l74 278h128zM446 710l-29 -278h-172l73 278h128z" />
    <glyph glyph-name="quotedblright" unicode="&#x201d;" horiz-adv-x="472" 
d="M26 432l29 278h172l-73 -278h-128zM254 432l29 278h173l-74 -278h-128z" />
    <glyph glyph-name="quotedblbase" unicode="&#x201e;" horiz-adv-x="479" 
d="M14 -80l29 278h172l-73 -278h-128zM242 -80l29 278h173l-74 -278h-128z" />
    <glyph glyph-name="dagger" unicode="&#x2020;" horiz-adv-x="364" 
d="M183 209l-47 77l5 121l-1 106h-18l-90 -6v92l90 -5h17l-3 93h93l-5 -93h19l89 7v-94l-89 6h-20v-106l6 -121z" />
    <glyph glyph-name="daggerdbl" unicode="&#x2021;" horiz-adv-x="364" 
d="M136 51l5 91h-19l-90 -6v92l89 -5h20v33l-5 110l5 110v37h-19l-90 -5v90l89 -5h19l-6 94h94l-5 -94h19l90 6v-91l-91 5h-18v-37l5 -110l-6 -110l1 -33h19l90 5v-91l-90 5h-19l5 -91h-92z" />
    <glyph glyph-name="bullet" unicode="&#x2022;" horiz-adv-x="412" 
d="M206 185q-54 0 -93 38.5t-39 92.5q0 55 39 93.5t93 38.5q55 0 93.5 -38.5t38.5 -93.5q0 -54 -38.5 -92.5t-93.5 -38.5z" />
    <glyph glyph-name="ellipsis" unicode="&#x2026;" horiz-adv-x="1000" 
d="M160 -10q-41 0 -69.5 28t-28.5 68q0 39 29 67t69 28t68.5 -28t28.5 -67q0 -40 -28.5 -68t-68.5 -28zM494 -10q-41 0 -69.5 28t-28.5 68q0 39 29 67t69 28t68.5 -28t28.5 -67q0 -40 -28.5 -68t-68.5 -28zM828 -10q-41 0 -69.5 28t-28.5 68q0 39 29 67t69 28t68.5 -28
t28.5 -67q0 -40 -28.5 -68t-68.5 -28z" />
    <glyph glyph-name="perthousand" unicode="&#x2030;" horiz-adv-x="1455" 
d="M405 -28l-122 52l318 704l121 -53zM222 318q-86 0 -144.5 56.5t-58.5 145.5q0 85 56.5 143t146.5 58q86 0 145 -56t59 -145q0 -85 -57 -143.5t-147 -58.5zM223 432q34 0 55 25t21 61q0 39 -22 63t-54 24q-33 0 -54.5 -25t-21.5 -62q0 -38 22 -62t54 -24zM782 -10
q-86 0 -144.5 56.5t-58.5 144.5q0 85 56.5 143t146.5 58q86 0 144.5 -56t58.5 -145q0 -84 -56.5 -142.5t-146.5 -58.5zM1232 -10q-85 0 -144 56.5t-59 144.5q0 85 56.5 143t146.5 58q86 0 145 -56t59 -145q0 -84 -57 -142.5t-147 -58.5zM783 104q34 0 55 25t21 61
q0 38 -22 61.5t-54 23.5q-34 0 -55 -24.5t-21 -60.5q0 -38 22 -62t54 -24zM1233 104q34 0 55.5 25t21.5 61q0 37 -22.5 61t-54.5 24q-33 0 -54.5 -24.5t-21.5 -60.5q0 -38 22 -62t54 -24z" />
    <glyph glyph-name="minute" unicode="&#x2032;" horiz-adv-x="292" 
d="M26 432l78 278h172l-122 -278h-128z" />
    <glyph glyph-name="second" unicode="&#x2033;" horiz-adv-x="514" 
d="M26 432l78 278h172l-122 -278h-128zM248 432l78 278h172l-122 -278h-128z" />
    <glyph glyph-name="guilsinglleft" unicode="&#x2039;" horiz-adv-x="301" 
d="M298 446l-114 -195l115 -198h-164l-112 198l111 195h164z" />
    <glyph glyph-name="guilsinglright" unicode="&#x203a;" horiz-adv-x="301" 
d="M3 53l114 195l-115 198h164l112 -198l-111 -195h-164z" />
    <glyph glyph-name="uni203D" unicode="&#x203d;" horiz-adv-x="469" 
d="M221 747q103 0 163.5 -51.5t60.5 -139.5q0 -59 -24 -99.5t-66 -78.5q-53 -47 -64 -65q-8 -13 -9 -25l-5 -38h-147l-29 276h146l2 -57l3 -1q34 37 34 83q0 54 -69 54q-62 0 -116 -40l-101 90q34 40 95.5 66t125.5 26zM201 181q40 0 68.5 -28t28.5 -67q0 -40 -28.5 -68
t-68.5 -28q-41 0 -69.5 28t-28.5 68q0 39 29 67t69 28z" />
    <glyph glyph-name="uni2042" unicode="&#x2042;" horiz-adv-x="813" 
d="M352 375l5 89l-74 -47l-51 86l78 39l-78 41l51 87l74 -48l-5 88h100l-6 -88l75 46l51 -85l-79 -40l79 -40l-51 -87l-72 48l3 -89h-100zM141 40l5 89l-74 -47l-51 86l78 39l-78 41l51 87l74 -48l-5 88h100l-6 -88l75 46l51 -85l-79 -40l79 -40l-51 -87l-72 48l3 -89h-100z
M572 40l5 89l-74 -47l-51 86l78 39l-78 41l51 87l74 -48l-5 88h100l-6 -88l75 46l51 -85l-79 -40l79 -40l-51 -87l-72 48l3 -89h-100z" />
    <glyph glyph-name="fraction" unicode="&#x2044;" horiz-adv-x="243" 
d="M38 -28l-122 52l317 704l122 -53z" />
    <glyph glyph-name="uni2051" unicode="&#x2051;" horiz-adv-x="382" 
d="M141 375l5 89l-74 -47l-51 86l78 39l-78 41l51 87l74 -48l-5 88h100l-6 -88l75 46l51 -85l-79 -40l79 -40l-51 -87l-72 48l3 -89h-100zM141 0l5 89l-74 -47l-51 86l78 39l-78 41l51 87l74 -48l-5 88h100l-6 -88l75 46l51 -85l-79 -40l79 -40l-51 -87l-72 48l3 -89h-100z
" />
    <glyph glyph-name="uni2070" unicode="&#x2070;" horiz-adv-x="399" 
d="M199 424q-87 0 -135.5 59.5t-48.5 157.5q0 103 51 159.5t133 56.5q87 0 136 -59.5t49 -156.5q0 -105 -51 -161t-134 -56zM199 540q26 0 41.5 25t15.5 75q0 100 -57 100q-25 0 -40.5 -25t-15.5 -75q0 -47 14.5 -73.5t41.5 -26.5z" />
    <glyph glyph-name="colonmonetary" unicode="&#x20a1;" horiz-adv-x="592" 
d="M366 159q65 0 107 28l102 -136q-85 -60 -209 -60q-42 0 -85 8l-33 -79l-61 24l31 74q-19 7 -40 19l-49 -117l-61 24l56 134q-94 92 -94 260q0 161 84.5 259t251.5 98h15l19 44l61 -23l-12 -30q24 -5 43 -12l27 65l61 -23l-28 -68l19 -12l-83 -141l-140 -335q6 -1 18 -1z
M250 210q14 -21 34 -33l142 340q-25 7 -45 8zM223 338v-22l85 202q-85 -28 -85 -180z" />
    <glyph glyph-name="lira" unicode="&#x20a4;" horiz-adv-x="560" 
d="M282 167h257v-167h-503v167h54v68h-48v85h48v46h-48v85h48q2 127 63.5 186t157.5 59q59 0 116 -25.5t95 -71.5l-91 -114q-48 48 -94 48q-53 0 -57 -82h133v-85h-133v-46h133v-85h-131v-68z" />
    <glyph glyph-name="uni20A6" unicode="&#x20a6;" horiz-adv-x="718" 
d="M688 367h-56v-46h56v-85h-56v-236h-184l-107 236h-74v-236h-183v236h-54v85h54v46h-54v85h54v235h178l105 -235h81v235h184v-235h56v-85zM267 424v-103h40l-38 103h-2zM448 259v108h-45l43 -109z" />
    <glyph glyph-name="peseta" unicode="&#x20a7;" horiz-adv-x="650" 
d="M635 491v-85h-54q-22 -183 -225 -183h-95v-223h-184v406h-62v85h62v196h261q221 0 243 -196h54zM257 537v-46h141q-14 46 -65 46h-76zM333 359q51 0 66 47h-142v-47h76z" />
    <glyph glyph-name="dong" unicode="&#x20ab;" horiz-adv-x="611" 
d="M604 637v-101h-53v-536h-170v45h-2q-45 -55 -129 -55q-101 0 -164.5 71t-63.5 184q0 112 62 183.5t155 71.5q80 0 131 -59l2 1v94h-155v101h155v99h179v-99h53zM289 146q39 0 64.5 27t25.5 72q0 43 -25.5 70.5t-64.5 27.5q-38 0 -62.5 -27.5t-24.5 -70.5
q0 -44 24.5 -71.5t62.5 -27.5zM71 -186v145h480v-145h-480z" />
    <glyph glyph-name="Euro" unicode="&#x20ac;" horiz-adv-x="600" 
d="M486 187l102 -136q-85 -60 -190 -60q-79 0 -143 24t-113 80.5t-67 140.5h-65v85h55v17q0 20 1 29h-56v85h67q27 116 110 179.5t211 63.5q99 0 186 -59l-108 -134q-35 24 -78 24q-84 0 -119 -74h180v-85h-200q-1 -9 -1 -29v-17h201v-85h-183q33 -77 122 -77q46 0 88 28z
" />
    <glyph glyph-name="uni20AE" unicode="&#x20ae;" horiz-adv-x="559" 
d="M534 518h-160v-96l104 40l35 -76l-139 -54v-52l98 38l36 -77l-134 -52v-189h-189v116l-100 -39l-35 76l135 53v53l-94 -37l-36 76l130 50v170h-160v169h509v-169z" />
    <glyph glyph-name="uni20B1" unicode="&#x20b1;" horiz-adv-x="649" 
d="M634 548v-85h-51v-13v-15h51v-85h-66q-43 -127 -212 -127h-95v-223h-184v350h-62v85h62v28h-62v85h62v139h261q186 0 231 -139h65zM333 557h-76v-29h139q-22 29 -63 29zM257 463v-28h160v13v15h-160zM333 339q43 0 65 31h-141v-31h76z" />
    <glyph glyph-name="uni20B2" unicode="&#x20b2;" horiz-adv-x="638" 
d="M602 395v-337q-63 -56 -188 -65v-107h-117v112q-115 21 -185 105t-70 235q0 139 66 231.5t189 117.5v91h117v-84q104 -7 181 -80l-108 -134q-31 38 -82 45v-130h197zM235 338q0 -128 77 -166v337q-77 -43 -77 -171zM453 173v74h-48v-86q30 5 48 12z" />
    <glyph glyph-name="uni20B4" unicode="&#x20b4;" horiz-adv-x="563" 
d="M440 209l99 -123q-102 -96 -266 -96q-104 0 -172 39t-68 109q0 63 58 97h-66v84h109l63 34h-172v84h248q44 36 44 63q0 31 -38 31q-59 0 -138 -58l-100 130q48 41 118 66t140 25q96 0 156.5 -43t60.5 -108t-65 -106h65v-84h-94q-2 -1 -65 -34h159v-84h-273
q-21 -19 -21 -43q0 -18 17 -30.5t54 -12.5q81 0 147 60z" />
    <glyph glyph-name="uni20B5" unicode="&#x20b5;" horiz-adv-x="587" 
d="M584 61q-67 -59 -168 -69v-106h-117v113q-117 22 -187 106t-70 233q0 140 67 232.5t190 116.5v91h117v-84q93 -8 164 -68l-108 -134q-24 28 -65 33v-365q46 6 75 37zM235 338q0 -126 79 -164v335q-79 -41 -79 -171z" />
    <glyph glyph-name="uni20B8" unicode="&#x20b8;" horiz-adv-x="559" 
d="M25 687h509v-124h-509v124zM25 384v124h509v-124h-160v-384h-189v384h-160z" />
    <glyph glyph-name="uni20B9" unicode="&#x20b9;" horiz-adv-x="558" 
d="M523 563h-138l-1 -2q16 -19 27 -41h112v-112h-91q-6 -66 -48.5 -112.5t-111.5 -64.5l-1 -3l230 -228h-225l-229 232v133h108q63 0 77 57h-185v93h185q-12 56 -77 56h-108v116h476v-124z" />
    <glyph glyph-name="uni20BA" unicode="&#x20ba;" horiz-adv-x="586" 
d="M424 305l140 -46q-31 -139 -100 -199t-178 -60h-211v185l-57 -27l-35 75l92 43v54l-57 -27l-35 75l92 43v266h192v-177l141 66l35 -75l-176 -82v-53l141 66l35 -76l-176 -82v-132h16q53 0 86 38t55 125z" />
    <glyph glyph-name="uni20BC" unicode="&#x20bc;" horiz-adv-x="719" 
d="M418 692q129 -15 195 -91t66 -204v-397h-175v376q0 60 -15.5 94t-56.5 48v-420h-145v420q-43 -15 -57 -50t-14 -92v-376h-176v397q0 133 68 207t193 88v86h117v-86z" />
    <glyph glyph-name="uni20BD" unicode="&#x20bd;" horiz-adv-x="600" 
d="M356 251h-95v-44h208v-90h-208v-117h-184v117h-62v90h62v44h-62v100h62v336h261q125 0 185 -60t60 -160q0 -112 -61 -164t-166 -52zM257 519v-144h58q71 0 71 77q0 31 -19 49t-52 18h-58z" />
    <glyph glyph-name="uni2113" unicode="&#x2113;" horiz-adv-x="454" 
d="M389 135l50 -33q-63 -113 -179 -113q-162 0 -186 137q-15 -11 -57 -44l-30 43q10 9 39.5 31.5t42.5 34.5l2 254q1 234 176 234q60 0 90.5 -41.5t30.5 -104.5q0 -80 -43 -153.5t-127 -153.5v-21q0 -139 89 -139q53 0 102 69zM265 597q-25 0 -46.5 -36.5t-21.5 -111.5
l1 -152q116 129 116 224q0 76 -49 76z" />
    <glyph glyph-name="uni2116" unicode="&#x2116;" horiz-adv-x="1110" 
d="M895 406q-74 0 -120 43t-46 112t46 111.5t120 42.5t120.5 -43t46.5 -111q0 -69 -46.5 -112t-120.5 -43zM53 0v710h181l251 -402l2 1v401h187v-710h-187l-246 389h-2v-389h-186zM895 517q19 0 31 12.5t12 31.5t-12 31.5t-31 12.5t-31 -12t-12 -32t12.5 -32t30.5 -12z
M737 246v117h317v-117h-317z" />
    <glyph glyph-name="uni2117" unicode="&#x2117;" horiz-adv-x="726" 
d="M362 -10q-137 0 -232.5 97t-95.5 233q0 135 96 232.5t234 97.5q137 0 232 -97t95 -233q0 -135 -95.5 -232.5t-233.5 -97.5zM362 94q94 0 158.5 66t64.5 160t-63.5 159.5t-158.5 65.5q-96 0 -159.5 -66t-63.5 -161q0 -94 63.5 -159t158.5 -65zM242 160v324h132
q59 0 89 -32t30 -85q0 -55 -33 -83.5t-91 -28.5h-37v-95h-90zM332 335h21q19 0 31.5 9t12.5 25q0 14 -12 23.5t-33 9.5h-20v-67z" />
    <glyph glyph-name="uni2120" unicode="&#x2120;" horiz-adv-x="694" 
d="M155 383q-80 0 -130 43l53 71q40 -34 80 -34q23 0 23 15q0 7 -8.5 12.5t-37.5 15.5q-22 8 -35.5 14t-30 17.5t-24.5 29.5t-8 41q0 47 30 75t87 29q68 1 124 -37l-55 -71q-39 25 -63 25q-19 0 -19 -10q0 -15 36 -27q51 -17 81 -39.5t30 -63.5q0 -106 -133 -106zM327 387
v323h102l70 -148l68 148h103v-323h-99v138l-41 -80h-64l-41 80v-138h-98z" />
    <glyph glyph-name="trademark" unicode="&#x2122;" horiz-adv-x="672" 
d="M89 387v234h-78v89h255v-89h-76v-234h-101zM305 387v323h102l70 -148l68 148h103v-323h-99v138l-41 -80h-64l-41 80v-138h-98z" />
    <glyph glyph-name="uni2126" unicode="&#x2126;" horiz-adv-x="731" 
d="M38 0v169h100l1 2q-109 88 -109 227q0 142 91.5 232.5t243.5 90.5q153 0 244.5 -90.5t91.5 -232.5q0 -139 -109 -227l1 -2h100v-169h-289v169q97 97 97 218q0 70 -37.5 116t-98.5 45q-61 0 -98.5 -45.5t-37.5 -115.5q0 -120 98 -218v-169h-289z" />
    <glyph glyph-name="estimated" unicode="&#x212e;" horiz-adv-x="781" 
d="M390 -10q-148 0 -252 94t-104 227t104 227t252 94t252.5 -94t104.5 -227v-9h-483v-244q62 -27 127 -27q134 0 212 84h69q-49 -58 -123 -91.5t-159 -33.5zM264 351h255v212q-62 27 -128 27q-65 0 -127 -27v-212z" />
    <glyph glyph-name="partialdiff" unicode="&#x2202;" horiz-adv-x="582" 
d="M274 695q58 0 104 -19t74 -53t47.5 -72.5t28.5 -86.5t12.5 -85.5t3.5 -78.5q0 -150 -72.5 -230t-182.5 -80q-104 0 -177 64.5t-73 168.5t60 163t142 59q67 0 123 -35l2 1q-19 140 -116 141q-15 0 -37.5 -4.5t-51.5 -12t-40 -9.5l-46 131q101 38 199 38zM292 150
q33 0 57 31t24 81v3q-35 43 -80 43q-37 0 -58.5 -22t-21.5 -56q0 -35 21 -57.5t58 -22.5z" />
    <glyph glyph-name="emptyset" unicode="&#x2205;" horiz-adv-x="734" 
d="M633 507q59 -86 59 -189q0 -134 -94.5 -230.5t-231.5 -96.5q-104 0 -189 61l-55 -55l-70 69l55 55q-65 87 -65 197q0 135 94.5 231t231.5 96q110 0 197 -66l50 50l70 -70zM181 316q0 -52 25 -96l258 258q-44 27 -97 27q-79 0 -132.5 -55t-53.5 -134zM366 130
q79 0 132.5 55t53.5 133q0 48 -21 88l-254 -254q41 -22 89 -22z" />
    <glyph glyph-name="uni2206" unicode="&#x2206;" horiz-adv-x="684" 
d="M24 0v145l224 565h188l224 -565v-145h-636zM235 169h212l-103 304h-2z" />
    <glyph glyph-name="product" unicode="&#x220f;" horiz-adv-x="670" 
d="M52 -107v817h566v-817h-192v648h-183v-648h-191z" />
    <glyph glyph-name="summation" unicode="&#x2211;" horiz-adv-x="608" 
d="M39 -68v131l214 258l-214 253v136h535v-169h-287l-1 -4l169 -216l-169 -217l1 -3h287v-169h-535z" />
    <glyph glyph-name="minus" unicode="&#x2212;" horiz-adv-x="553" 
d="M37 205v145h480v-145h-480z" />
    <glyph glyph-name="radical" unicode="&#x221a;" horiz-adv-x="764" 
d="M307 0l-167 500h-116v139h251l131 -414h2l291 597h118l-401 -822h-109z" />
    <glyph glyph-name="infinity" unicode="&#x221e;" horiz-adv-x="736" 
d="M530 462q74 0 123.5 -51.5t49.5 -129.5q0 -82 -50.5 -130.5t-122.5 -48.5q-86 0 -163 91q-74 -91 -161 -91q-74 0 -123 51t-49 128q0 83 50.5 132t121.5 49q85 0 161 -91q79 91 163 91zM225 229q6 0 11 1t9.5 2t9 3.5t7.5 4t7.5 5.5t7 5.5t7 7t6.5 7.5t7 8t7 8
q-16 20 -23.5 28t-22.5 16t-33 8q-51 0 -51 -52q0 -27 14.5 -39.5t36.5 -12.5zM511 229q51 0 51 52t-51 52q-17 0 -32.5 -8.5t-22 -15.5t-24.5 -28q2 -2 9 -10t9 -10t8 -8.5t9 -8.5l9 -6t10.5 -5t11 -2.5t13.5 -1.5z" />
    <glyph glyph-name="integral" unicode="&#x222b;" horiz-adv-x="465" 
d="M60 -177q-49 0 -91 10l22 134h8q47 0 59.5 19.5t23.5 89.5l72 472q12 78 64 119.5t121 41.5q84 0 126 -21l-20 -124q-10 0 -25.5 0.5t-21.5 0.5q-46 0 -58.5 -19t-23.5 -90l-71 -473q-11 -77 -63.5 -118.5t-121.5 -41.5z" />
    <glyph glyph-name="uni2236" unicode="&#x2236;" horiz-adv-x="283" 
d="M137 366q-41 0 -69.5 28t-28.5 68q0 39 29 67t69 28t68.5 -28t28.5 -67q0 -40 -28.5 -68t-68.5 -28zM137 48q-41 0 -69.5 28t-28.5 68q0 39 29 67t69 28t68.5 -28t28.5 -67q0 -40 -28.5 -68t-68.5 -28z" />
    <glyph glyph-name="approxequal" unicode="&#x2248;" horiz-adv-x="585" 
d="M408 298q-32 0 -96 25t-104 25q-52 0 -116 -39l-47 109q16 20 58.5 46t85.5 26q40 0 103.5 -25.5t95.5 -25.5q55 0 104 42l48 -112q-20 -27 -56 -49t-76 -22zM408 74q-32 0 -96 25t-104 25q-55 0 -116 -39l-47 110q17 21 59.5 46.5t84.5 25.5q40 0 103.5 -25.5
t95.5 -25.5q58 0 104 41l48 -112q-20 -27 -56 -49t-76 -22z" />
    <glyph glyph-name="notequal" unicode="&#x2260;" horiz-adv-x="578" 
d="M529 321h-150l-40 -87h190v-145h-258l-44 -94l-104 40l25 54h-99v145h167l40 87h-207v145h275l50 107l104 -41l-31 -66h82v-145z" />
    <glyph glyph-name="lessequal" unicode="&#x2264;" horiz-adv-x="572" 
d="M532 183l-476 196v121l476 201v-160l-262 -100l262 -102v-156zM532 0h-476v145h476v-145z" />
    <glyph glyph-name="greaterequal" unicode="&#x2265;" horiz-adv-x="572" 
d="M52 183v156l262 102l-262 100v160l476 -201v-121zM52 0v145h476v-145h-476z" />
    <glyph glyph-name="lozenge" unicode="&#x25ca;" horiz-adv-x="505" 
d="M247 0l-219 338l219 339l230 -339zM248 238l67 100l-67 106l-63 -106z" />
    <glyph glyph-name="uni2713" unicode="&#x2713;" horiz-adv-x="546" 
d="M198 115l-194 200l92 89l79 -81l296 485l109 -68z" />
    <glyph glyph-name="uni2715" unicode="&#x2715;" horiz-adv-x="351" 
d="M100 107l-97 97l75 74l-75 75l98 98l75 -75l74 75l98 -98l-74 -75l74 -74l-96 -97l-75 74z" />
    <glyph glyph-name="uni2E18" unicode="&#x2e18;" horiz-adv-x="446" 
d="M268 309q-40 0 -68.5 28t-28.5 67q0 40 28.5 68t68.5 28q41 0 69.5 -28t28.5 -68q0 -39 -29 -67t-69 -28zM368 -75l101 -90q-34 -40 -95.5 -66t-125.5 -26q-103 0 -163.5 51.5t-60.5 139.5q0 59 24 99.5t66 78.5q53 47 64 65q8 13 9 25l5 38h147l29 -276h-146l-2 57l-3 1
q-34 -37 -34 -83q0 -54 69 -54q62 0 116 40z" />
    <glyph glyph-name="uni00A40301" horiz-adv-x="499" 
d="M272 754l106 143h177l-126 -143h-157zM217 -10q-135 0 -213 98l111 128q37 -49 84 -49q57 0 57 85v458h194v-454q0 -126 -57 -196t-176 -70z" />
    <glyph glyph-name="Tdieresis" horiz-adv-x="584" 
d="M173 765q-45 0 -73.5 27.5t-28.5 69.5q0 40 29 67.5t73 27.5q45 0 74 -27t29 -68q0 -42 -29 -69.5t-74 -27.5zM409 765q-45 0 -73.5 27.5t-28.5 69.5q0 40 29 67.5t73 27.5q45 0 74 -27t29 -68q0 -42 -29 -69.5t-74 -27.5zM195 0v541h-177v169h549v-169h-177v-541h-195z
" />
    <glyph glyph-name="Q.alt" horiz-adv-x="798" 
d="M780 -24l-112 -139l-191 160q-35 -7 -77 -7q-164 0 -267 101.5t-103 263.5t103 264t267 102q163 0 265.5 -101.5t102.5 -264.5q0 -173 -116 -276zM229 355q0 -80 48.5 -134t122.5 -54q75 0 122.5 54t47.5 134q0 79 -47.5 133.5t-122.5 54.5q-74 0 -122.5 -54t-48.5 -134z
" />
    <glyph glyph-name="i.loclTRK" horiz-adv-x="275" 
d="M139 545q-45 0 -74 27.5t-29 69.5q0 40 29 67.5t74 27.5t73.5 -27t28.5 -68q0 -42 -28.5 -69.5t-73.5 -27.5zM48 0v490h179v-490h-179z" />
    <glyph glyph-name="uni006A0301" horiz-adv-x="267" 
d="M56 545l109 152l175 1l-124 -153h-160zM60 -208q-66 0 -120 19l29 137q23 -7 41 -7q22 0 28 13.5t6 45.5v490h179v-510q0 -188 -163 -188z" />
    <glyph glyph-name="a.alt" horiz-adv-x="504" 
d="M239 500q114 0 170 -44.5t56 -165.5v-290h-163l-7 36l-3 1q-57 -47 -121 -47q-78 0 -117.5 41.5t-39.5 110.5q0 151 203 152h73v2q0 35 -16.5 50.5t-53.5 15.5q-56 0 -115 -35l-70 120q33 20 92.5 36.5t111.5 16.5zM230 111q27 0 43.5 16.5t16.5 27.5v50l-53 -1
q-24 0 -39 -12t-15 -35q0 -46 47 -46z" />
    <glyph glyph-name="aacute.alt" horiz-adv-x="504" 
d="M444 698l-124 -153h-160l109 152zM239 500q114 0 170 -44.5t56 -165.5v-290h-163l-7 36l-3 1q-57 -47 -121 -47q-78 0 -117.5 41.5t-39.5 110.5q0 151 203 152h73v2q0 35 -16.5 50.5t-53.5 15.5q-56 0 -115 -35l-70 120q33 20 92.5 36.5t111.5 16.5zM230 111
q27 0 43.5 16.5t16.5 27.5v50l-53 -1q-24 0 -39 -12t-15 -35q0 -46 47 -46z" />
    <glyph glyph-name="abreve.alt" horiz-adv-x="504" 
d="M255 534q-72 0 -123 43t-57 119h127q2 -18 17 -30t36 -12q22 0 37 12t17 30h127q-5 -70 -53.5 -116t-127.5 -46zM239 500q114 0 170 -44.5t56 -165.5v-290h-163l-7 36l-3 1q-57 -47 -121 -47q-78 0 -117.5 41.5t-39.5 110.5q0 151 203 152h73v2q0 35 -16.5 50.5
t-53.5 15.5q-56 0 -115 -35l-70 120q33 20 92.5 36.5t111.5 16.5zM230 111q27 0 43.5 16.5t16.5 27.5v50l-53 -1q-24 0 -39 -12t-15 -35q0 -46 47 -46z" />
    <glyph glyph-name="uni1EAF.alt" horiz-adv-x="504" 
d="M430 871l-114 -153h-119l70 152zM255 534q-72 0 -123 43t-57 119h127q2 -18 17 -30t36 -12q22 0 37 12t17 30h127q-5 -70 -53.5 -116t-127.5 -46zM239 500q114 0 170 -44.5t56 -165.5v-290h-163l-7 36l-3 1q-57 -47 -121 -47q-78 0 -117.5 41.5t-39.5 110.5
q0 151 203 152h73v2q0 35 -16.5 50.5t-53.5 15.5q-56 0 -115 -35l-70 120q33 20 92.5 36.5t111.5 16.5zM230 111q27 0 43.5 16.5t16.5 27.5v50l-53 -1q-24 0 -39 -12t-15 -35q0 -46 47 -46z" />
    <glyph glyph-name="uni1EB7.alt" horiz-adv-x="504" 
d="M255 534q-72 0 -123 43t-57 119h127q2 -18 17 -30t36 -12q22 0 37 12t17 30h127q-5 -70 -53.5 -116t-127.5 -46zM239 500q114 0 170 -44.5t56 -165.5v-290h-163l-7 36l-3 1q-57 -47 -121 -47q-78 0 -117.5 41.5t-39.5 110.5q0 151 203 152h73v2q0 35 -16.5 50.5
t-53.5 15.5q-56 0 -115 -35l-70 120q33 20 92.5 36.5t111.5 16.5zM230 111q27 0 43.5 16.5t16.5 27.5v50l-53 -1q-24 0 -39 -12t-15 -35q0 -46 47 -46zM255 -48q45 0 74 -27.5t29 -69.5q0 -40 -29 -67.5t-74 -27.5t-73.5 27t-28.5 68q0 42 28.5 69.5t73.5 27.5z" />
    <glyph glyph-name="uni1EB1.alt" horiz-adv-x="504" 
d="M321 718h-119l-114 153l163 -1zM255 534q-72 0 -123 43t-57 119h127q2 -18 17 -30t36 -12q22 0 37 12t17 30h127q-5 -70 -53.5 -116t-127.5 -46zM239 500q114 0 170 -44.5t56 -165.5v-290h-163l-7 36l-3 1q-57 -47 -121 -47q-78 0 -117.5 41.5t-39.5 110.5q0 151 203 152
h73v2q0 35 -16.5 50.5t-53.5 15.5q-56 0 -115 -35l-70 120q33 20 92.5 36.5t111.5 16.5zM230 111q27 0 43.5 16.5t16.5 27.5v50l-53 -1q-24 0 -39 -12t-15 -35q0 -46 47 -46z" />
    <glyph glyph-name="uni1EB3.alt" horiz-adv-x="504" 
d="M219 785q-27 0 -52 -16l-27 61q21 21 58 36.5t74 15.5q49 0 75 -21t26 -59q0 -30 -22 -57t-62 -44h-87q43 33 43 63q0 21 -26 21zM254 532q-74 0 -125.5 41t-58.5 114h130q2 -18 17 -29t37 -11q23 0 38 11.5t17 28.5h130q-6 -67 -55.5 -111t-129.5 -44zM239 500
q114 0 170 -44.5t56 -165.5v-290h-163l-7 36l-3 1q-57 -47 -121 -47q-78 0 -117.5 41.5t-39.5 110.5q0 151 203 152h73v2q0 35 -16.5 50.5t-53.5 15.5q-56 0 -115 -35l-70 120q33 20 92.5 36.5t111.5 16.5zM230 111q27 0 43.5 16.5t16.5 27.5v50l-53 -1q-24 0 -39 -12
t-15 -35q0 -46 47 -46z" />
    <glyph glyph-name="uni1EB5.alt" horiz-adv-x="504" 
d="M210 761q-27 0 -48 -42l-102 39q46 112 132 112q14 0 27 -3t19 -5.5t19.5 -9.5t14.5 -8q23 -13 38 -13q25 0 47 41l100 -32q-18 -49 -51 -84t-78 -35q-30 0 -69 22q-29 18 -49 18zM253 654q22 0 37 12t17 30h127q-5 -70 -53.5 -116t-127.5 -46q-72 0 -123 43t-57 119h127
q2 -18 17 -30t36 -12zM239 500q114 0 170 -44.5t56 -165.5v-290h-163l-7 36l-3 1q-57 -47 -121 -47q-78 0 -117.5 41.5t-39.5 110.5q0 151 203 152h73v2q0 35 -16.5 50.5t-53.5 15.5q-56 0 -115 -35l-70 120q33 20 92.5 36.5t111.5 16.5zM230 111q27 0 43.5 16.5t16.5 27.5
v50l-53 -1q-24 0 -39 -12t-15 -35q0 -46 47 -46z" />
    <glyph glyph-name="uni01CE.alt" horiz-adv-x="504" 
d="M356 545h-194l-93 151h150l39 -70h2l39 70h144zM239 500q114 0 170 -44.5t56 -165.5v-290h-163l-7 36l-3 1q-57 -47 -121 -47q-78 0 -117.5 41.5t-39.5 110.5q0 151 203 152h73v2q0 35 -16.5 50.5t-53.5 15.5q-56 0 -115 -35l-70 120q33 20 92.5 36.5t111.5 16.5z
M230 111q27 0 43.5 16.5t16.5 27.5v50l-53 -1q-24 0 -39 -12t-15 -35q0 -46 47 -46z" />
    <glyph glyph-name="acircumflex.alt" horiz-adv-x="504" 
d="M253 615l-39 -70h-144l87 151h194l93 -151h-150l-39 70h-2zM239 500q114 0 170 -44.5t56 -165.5v-290h-163l-7 36l-3 1q-57 -47 -121 -47q-78 0 -117.5 41.5t-39.5 110.5q0 151 203 152h73v2q0 35 -16.5 50.5t-53.5 15.5q-56 0 -115 -35l-70 120q33 20 92.5 36.5
t111.5 16.5zM230 111q27 0 43.5 16.5t16.5 27.5v50l-53 -1q-24 0 -39 -12t-15 -35q0 -46 47 -46z" />
    <glyph glyph-name="uni1EA5.alt" horiz-adv-x="504" 
d="M470 808l163 1l-114 -153h-119zM251 615l-39 -70h-144l87 151h194l93 -151h-150l-39 70h-2zM239 500q114 0 170 -44.5t56 -165.5v-290h-163l-7 36l-3 1q-57 -47 -121 -47q-78 0 -117.5 41.5t-39.5 110.5q0 151 203 152h73v2q0 35 -16.5 50.5t-53.5 15.5q-56 0 -115 -35
l-70 120q33 20 92.5 36.5t111.5 16.5zM230 111q27 0 43.5 16.5t16.5 27.5v50l-53 -1q-24 0 -39 -12t-15 -35q0 -46 47 -46z" />
    <glyph glyph-name="uni1EAD.alt" horiz-adv-x="504" 
d="M253 615l-39 -70h-144l87 151h194l93 -151h-150l-39 70h-2zM239 500q114 0 170 -44.5t56 -165.5v-290h-163l-7 36l-3 1q-57 -47 -121 -47q-78 0 -117.5 41.5t-39.5 110.5q0 151 203 152h73v2q0 35 -16.5 50.5t-53.5 15.5q-56 0 -115 -35l-70 120q33 20 92.5 36.5
t111.5 16.5zM230 111q27 0 43.5 16.5t16.5 27.5v50l-53 -1q-24 0 -39 -12t-15 -35q0 -46 47 -46zM255 -48q45 0 74 -27.5t29 -69.5q0 -40 -29 -67.5t-74 -27.5t-73.5 27t-28.5 68q0 42 28.5 69.5t73.5 27.5z" />
    <glyph glyph-name="uni1EA7.alt" horiz-adv-x="504" 
d="M553 656h-119l-114 153l163 -1zM252 615l-39 -70h-144l87 151h194l93 -151h-150l-39 70h-2zM239 500q114 0 170 -44.5t56 -165.5v-290h-163l-7 36l-3 1q-57 -47 -121 -47q-78 0 -117.5 41.5t-39.5 110.5q0 151 203 152h73v2q0 35 -16.5 50.5t-53.5 15.5q-56 0 -115 -35
l-70 120q33 20 92.5 36.5t111.5 16.5zM230 111q27 0 43.5 16.5t16.5 27.5v50l-53 -1q-24 0 -39 -12t-15 -35q0 -46 47 -46z" />
    <glyph glyph-name="uni1EA9.alt" horiz-adv-x="504" 
d="M480 822q49 0 75 -21t26 -59q0 -30 -22 -57t-62 -44h-87q43 33 43 63q0 21 -26 21q-27 0 -52 -16l-27 61q21 21 58 36.5t74 15.5zM253 615l-39 -70h-144l87 151h194l93 -151h-150l-39 70h-2zM239 500q114 0 170 -44.5t56 -165.5v-290h-163l-7 36l-3 1q-57 -47 -121 -47
q-78 0 -117.5 41.5t-39.5 110.5q0 151 203 152h73v2q0 35 -16.5 50.5t-53.5 15.5q-56 0 -115 -35l-70 120q33 20 92.5 36.5t111.5 16.5zM230 111q27 0 43.5 16.5t16.5 27.5v50l-53 -1q-24 0 -39 -12t-15 -35q0 -46 47 -46z" />
    <glyph glyph-name="uni1EAB.alt" horiz-adv-x="504" 
d="M210 761q-27 0 -48 -42l-102 39q46 112 132 112q14 0 27 -3t19 -5.5t19.5 -9.5t14.5 -8q23 -13 38 -13q25 0 47 41l100 -32q-18 -49 -51 -84t-78 -35q-30 0 -69 22q-29 18 -49 18zM157 696h194l93 -151h-150l-39 70h-2l-39 -70h-144zM239 500q114 0 170 -44.5t56 -165.5
v-290h-163l-7 36l-3 1q-57 -47 -121 -47q-78 0 -117.5 41.5t-39.5 110.5q0 151 203 152h73v2q0 35 -16.5 50.5t-53.5 15.5q-56 0 -115 -35l-70 120q33 20 92.5 36.5t111.5 16.5zM230 111q27 0 43.5 16.5t16.5 27.5v50l-53 -1q-24 0 -39 -12t-15 -35q0 -46 47 -46z" />
    <glyph glyph-name="adieresis.alt" horiz-adv-x="504" 
d="M137 545q-45 0 -73.5 27.5t-28.5 69.5q0 40 29 67.5t73 27.5q45 0 74 -27t29 -68q0 -42 -29 -69.5t-74 -27.5zM373 545q-45 0 -73.5 27.5t-28.5 69.5q0 40 29 67.5t73 27.5q45 0 74 -27t29 -68q0 -42 -29 -69.5t-74 -27.5zM239 500q114 0 170 -44.5t56 -165.5v-290h-163
l-7 36l-3 1q-57 -47 -121 -47q-78 0 -117.5 41.5t-39.5 110.5q0 151 203 152h73v2q0 35 -16.5 50.5t-53.5 15.5q-56 0 -115 -35l-70 120q33 20 92.5 36.5t111.5 16.5zM230 111q27 0 43.5 16.5t16.5 27.5v50l-53 -1q-24 0 -39 -12t-15 -35q0 -46 47 -46z" />
    <glyph glyph-name="uni1EA1.alt" horiz-adv-x="504" 
d="M239 500q114 0 170 -44.5t56 -165.5v-290h-163l-7 36l-3 1q-57 -47 -121 -47q-78 0 -117.5 41.5t-39.5 110.5q0 151 203 152h73v2q0 35 -16.5 50.5t-53.5 15.5q-56 0 -115 -35l-70 120q33 20 92.5 36.5t111.5 16.5zM230 111q27 0 43.5 16.5t16.5 27.5v50l-53 -1
q-24 0 -39 -12t-15 -35q0 -46 47 -46zM255 -48q45 0 74 -27.5t29 -69.5q0 -40 -29 -67.5t-74 -27.5t-73.5 27t-28.5 68q0 42 28.5 69.5t73.5 27.5z" />
    <glyph glyph-name="agrave.alt" horiz-adv-x="504" 
d="M367 545h-157l-123 152l177 -1zM239 500q114 0 170 -44.5t56 -165.5v-290h-163l-7 36l-3 1q-57 -47 -121 -47q-78 0 -117.5 41.5t-39.5 110.5q0 151 203 152h73v2q0 35 -16.5 50.5t-53.5 15.5q-56 0 -115 -35l-70 120q33 20 92.5 36.5t111.5 16.5zM230 111
q27 0 43.5 16.5t16.5 27.5v50l-53 -1q-24 0 -39 -12t-15 -35q0 -46 47 -46z" />
    <glyph glyph-name="uni1EA3.alt" horiz-adv-x="504" 
d="M232 642q-31 0 -58 -18l-30 68q24 24 65 40.5t82 16.5q55 0 83.5 -23t28.5 -66q0 -33 -25 -63t-69 -49h-96q48 38 48 70q0 24 -29 24zM239 500q114 0 170 -44.5t56 -165.5v-290h-163l-7 36l-3 1q-57 -47 -121 -47q-78 0 -117.5 41.5t-39.5 110.5q0 151 203 152h73v2
q0 35 -16.5 50.5t-53.5 15.5q-56 0 -115 -35l-70 120q33 20 92.5 36.5t111.5 16.5zM230 111q27 0 43.5 16.5t16.5 27.5v50l-53 -1q-24 0 -39 -12t-15 -35q0 -46 47 -46z" />
    <glyph glyph-name="amacron.alt" horiz-adv-x="504" 
d="M415 700v-132h-320v132h320zM239 500q114 0 170 -44.5t56 -165.5v-290h-163l-7 36l-3 1q-57 -47 -121 -47q-78 0 -117.5 41.5t-39.5 110.5q0 151 203 152h73v2q0 35 -16.5 50.5t-53.5 15.5q-56 0 -115 -35l-70 120q33 20 92.5 36.5t111.5 16.5zM230 111q27 0 43.5 16.5
t16.5 27.5v50l-53 -1q-24 0 -39 -12t-15 -35q0 -46 47 -46z" />
    <glyph glyph-name="aogonek.alt" horiz-adv-x="504" 
d="M465 0q-44 0 -71.5 -20t-27.5 -46q0 -38 36 -38q9 0 15.5 0.5t11.5 2t8 1.5l7 -82q-29 -11 -77 -11q-58 0 -92 27.5t-34 70.5q0 63 60 100l-6 31l-3 1q-57 -47 -121 -47q-78 0 -117.5 41.5t-39.5 110.5q0 151 203 152h73v2q0 35 -16.5 50.5t-53.5 15.5q-56 0 -115 -35
l-70 120q33 20 92.5 36.5t111.5 16.5q114 0 170 -44.5t56 -165.5v-290zM230 111q27 0 43.5 16.5t16.5 27.5v50l-53 -1q-24 0 -39 -12t-15 -35q0 -46 47 -46z" />
    <glyph glyph-name="aring.alt" horiz-adv-x="504" 
d="M256 538q-47 0 -79 30t-32 76q0 45 31 75.5t80 30.5q47 0 79 -30t32 -76q0 -45 -31 -75.5t-80 -30.5zM256 680q-14 0 -24 -10.5t-10 -24.5t10 -24t24 -10t24 10.5t10 24.5t-10 24t-24 10zM239 500q114 0 170 -44.5t56 -165.5v-290h-163l-7 36l-3 1q-57 -47 -121 -47
q-78 0 -117.5 41.5t-39.5 110.5q0 151 203 152h73v2q0 35 -16.5 50.5t-53.5 15.5q-56 0 -115 -35l-70 120q33 20 92.5 36.5t111.5 16.5zM230 111q27 0 43.5 16.5t16.5 27.5v50l-53 -1q-24 0 -39 -12t-15 -35q0 -46 47 -46z" />
    </font>
</defs>
</svg>
