<?xml version="1.0" standalone="no"?>
<!DOCTYPE svg PUBLIC "-//W3C//DTD SVG 1.1//EN" "http://www.w3.org/Graphics/SVG/1.1/DTD/svg11.dtd" >
<svg xmlns="http://www.w3.org/2000/svg" xmlns:xlink="http://www.w3.org/1999/xlink" version="1.1">
<metadata>
Created by FontForge 20170731 at Sat Jul 15 13:38:14 2017
 By Aleksey,,,
Copyright (c) 2015 by Kostas Bartsokas. All rights reserved.
</metadata>
<defs>
<font id="AvertaStd-BlackItalic" horiz-adv-x="0" >
  <font-face 
    font-family="Averta Std Black"
    font-weight="900"
    font-style="italic"
    font-stretch="normal"
    units-per-em="1000"
    panose-1="0 0 10 0 0 0 0 0 0 0"
    ascent="800"
    descent="-200"
    x-height="490"
    cap-height="710"
    bbox="-763 -399 1385 1068"
    underline-thickness="63"
    underline-position="-227"
    slope="-7"
    unicode-range="U+000D-2E18"
  />
<missing-glyph horiz-adv-x="392" 
 />
    <glyph glyph-name=".notdef" horiz-adv-x="392" 
 />
    <glyph glyph-name=".null" 
 />
    <glyph glyph-name="nonmarkingreturn" horiz-adv-x="333" 
 />
    <glyph glyph-name="CR" unicode="&#xd;" 
 />
    <glyph glyph-name="space" unicode=" " horiz-adv-x="166" 
 />
    <glyph glyph-name="exclam" unicode="!" horiz-adv-x="301" 
d="M103 252l31 484h178l-88 -484h-121zM141 -12q-44 0 -69 26t-25 68t26 68.5t71 26.5q44 0 69 -25.5t25 -66.5q0 -43 -26 -70t-71 -27z" />
    <glyph glyph-name="quotedbl" unicode="&#x22;" horiz-adv-x="448" 
d="M51 435l59 275h165l-100 -275h-124zM264 435l59 275h166l-101 -275h-124z" />
    <glyph glyph-name="numbersign" unicode="#" horiz-adv-x="590" 
d="M43 -51l46 176h-80l15 123h99l31 122h-90l15 123h109l41 163h114l-42 -163h95l42 163h114l-42 -163h86l-16 -123h-104l-31 -122h95l-16 -123h-113l-45 -176h-114l45 176h-94l-46 -176h-114zM236 248h96l30 122h-94z" />
    <glyph glyph-name="dollar" unicode="$" horiz-adv-x="518" 
d="M305 412q13 -8 41 -24.5t39.5 -23.5t32.5 -21.5t29.5 -25.5t19.5 -27t15 -34t4 -40q0 -93 -54 -151t-148 -69l-14 -110h-107l15 113q-112 21 -173 116l123 106q49 -72 117 -72q29 0 44 11.5t15 27.5q0 15 -14.5 27.5t-59.5 38.5q-81 48 -108 74q-53 53 -53 128
q0 84 52.5 140.5t134.5 69.5l14 112h107l-15 -115q98 -22 147 -98l-122 -102q-43 52 -91 52q-19 0 -32 -11t-13 -28q0 -32 54 -64z" />
    <glyph glyph-name="percent" unicode="%" horiz-adv-x="980" 
d="M375 -27l-116 53l372 703l116 -53zM238 318q-80 0 -132 52.5t-52 136.5q0 88 60 149t146 61q80 0 133 -52t53 -135q0 -89 -61 -150.5t-147 -61.5zM243 429q33 0 57.5 28t24.5 69q0 36 -19.5 58t-50.5 22q-33 0 -56.5 -28t-23.5 -68q0 -38 19 -59.5t49 -21.5zM745 -10
q-80 0 -132 52.5t-52 136.5q0 88 60 149t146 61q80 0 133 -52t53 -135q0 -89 -61 -150.5t-147 -61.5zM750 101q33 0 57.5 28t24.5 69q0 36 -19.5 58t-50.5 22q-33 0 -56.5 -28t-23.5 -68q0 -38 19 -59.5t49 -21.5z" />
    <glyph glyph-name="ampersand" unicode="&#x26;" horiz-adv-x="708" 
d="M206 -10q-86 0 -141 52.5t-55 140.5q0 67 36 127t99 89q-41 43 -41 106q0 91 63.5 153t162.5 62q53 0 92 -13.5t60.5 -39t33 -50.5t18.5 -59l-137 -43q-7 64 -61 64q-28 0 -46.5 -21t-18.5 -51q0 -20 13.5 -31t33.5 -11h404l-19 -152h-136q-26 -152 -118.5 -237.5
t-242.5 -85.5zM235 139q63 0 112 51t68 123h-123q-50 0 -84 -35t-34 -78q0 -29 17.5 -45t43.5 -16z" />
    <glyph glyph-name="quotesingle" unicode="'" horiz-adv-x="235" 
d="M51 435l59 275h165l-100 -275h-124z" />
    <glyph glyph-name="parenleft" unicode="(" horiz-adv-x="303" 
d="M106 -166q-68 132 -68 322q0 161 47.5 320t136.5 274l111 -48q-69 -111 -107 -250t-38 -275q0 -152 48 -284z" />
    <glyph glyph-name="parenright" unicode=")" horiz-adv-x="303" 
d="M94 -161l-112 48q70 113 107.5 250.5t37.5 275.5q0 156 -47 283l130 59q67 -128 67 -320q0 -162 -47 -320.5t-136 -275.5z" />
    <glyph glyph-name="asterisk" unicode="*" horiz-adv-x="355" 
d="M147 376l16 92l-68 -49l-40 83l72 40l-63 42l58 84l59 -49l7 91h94l-16 -91l69 48l40 -83l-74 -41l64 -41l-57 -84l-57 50l-10 -92h-94z" />
    <glyph glyph-name="plus" unicode="+" horiz-adv-x="528" 
d="M168 39l20 168h-145l18 140h145l21 170h141l-21 -170h146l-17 -140h-146l-21 -168h-141z" />
    <glyph glyph-name="comma" unicode="," horiz-adv-x="240" 
d="M-32 -134l59 275h164l-104 -275h-119z" />
    <glyph glyph-name="hyphen" unicode="-" horiz-adv-x="346" 
d="M32 233l18 152h280l-19 -152h-279z" />
    <glyph glyph-name="period" unicode="." horiz-adv-x="265" 
d="M111 -12q-44 0 -69 26t-25 68t26 68.5t71 26.5q44 0 69 -25.5t25 -66.5q0 -43 -26 -70t-71 -27z" />
    <glyph glyph-name="slash" unicode="/" horiz-adv-x="402" 
d="M37 -111l-114 53l446 855l111 -54z" />
    <glyph glyph-name="zero" unicode="0" horiz-adv-x="568" 
d="M258 -10q-105 0 -161 70t-56 204q0 84 18 160t53 137.5t92.5 98t129.5 36.5q105 0 161.5 -71.5t56.5 -203.5q0 -83 -18.5 -159t-54 -137.5t-92.5 -98t-129 -36.5zM270 156q28 0 48.5 28.5t31 73t15.5 88.5t5 85q0 100 -47 100q-28 0 -48.5 -29t-31.5 -74.5t-16 -90.5
t-5 -87q0 -94 48 -94z" />
    <glyph glyph-name="one" unicode="1" horiz-adv-x="408" 
d="M254 687h143l-84 -687h-179l57 462l-87 -63l-69 134z" />
    <glyph glyph-name="two" unicode="2" horiz-adv-x="478" 
d="M-2 0l11 114l196 215q92 101 92 164q0 41 -38 41q-44 0 -87 -60l-114 96q36 56 96.5 91.5t136.5 35.5q78 0 132 -48t54 -129q0 -75 -32 -135t-99 -129l-93 -95v-2h184l-20 -159h-419z" />
    <glyph glyph-name="three" unicode="3" horiz-adv-x="476" 
d="M201 -10q-85 0 -141.5 46.5t-71.5 118.5l157 55q6 -66 55 -66q29 0 47 26.5t18 64.5q0 20 -12.5 33.5t-34.5 13.5h-44l16 136h39q31 0 49 23t18 57q0 20 -11 31.5t-27 11.5q-41 0 -65 -56l-130 81q28 62 86.5 96t128.5 34q86 0 135.5 -41.5t49.5 -118.5q0 -118 -93 -182
v-1q74 -43 74 -137q0 -103 -69 -164.5t-174 -61.5z" />
    <glyph glyph-name="four" unicode="4" horiz-adv-x="507" 
d="M413 250h74l-18 -145h-73l-14 -105h-170l13 105h-235l12 103l327 479h137zM179 229h81l24 186z" />
    <glyph glyph-name="five" unicode="5" horiz-adv-x="480" 
d="M452 528h-204l-16 -89q35 8 60 8q72 0 115.5 -48.5t43.5 -135.5q0 -122 -73 -197.5t-188 -75.5q-141 0 -209 110l132 97q10 -23 29 -36t40 -13q45 0 68 31t23 75q0 30 -13.5 44.5t-33.5 14.5q-45 0 -87 -35l-87 37l66 372h353z" />
    <glyph glyph-name="six" unicode="6" horiz-adv-x="523" 
d="M235 -10q-91 0 -146.5 59.5t-55.5 165.5q0 179 107 319t283 174l27 -138q-144 -60 -203 -150l1 -1q50 25 95 25q67 0 110 -44.5t43 -128.5q0 -124 -70.5 -202.5t-190.5 -78.5zM251 143q32 0 55 31.5t23 70.5q0 66 -58 66q-40 0 -73 -35q-4 -19 -4 -42q0 -39 14.5 -65
t42.5 -26z" />
    <glyph glyph-name="seven" unicode="7" horiz-adv-x="423" 
d="M67 687h388l-14 -113l-254 -591l-173 31l229 515h-195z" />
    <glyph glyph-name="eight" unicode="8" horiz-adv-x="509" 
d="M219 -10q-91 0 -148 45t-57 123q0 66 34.5 124t92.5 86v3q-23 12 -38.5 42t-15.5 70q0 92 63.5 152.5t166.5 60.5q73 0 121 -38.5t48 -110.5q0 -50 -25 -101t-64 -71v-1q39 -17 62 -54.5t23 -90.5q0 -113 -72.5 -176t-190.5 -63zM279 437q21 0 35 23t14 50q0 51 -35 51
q-21 0 -35 -23t-14 -50q0 -51 35 -51zM237 134q27 0 47.5 28.5t20.5 65.5q0 27 -11.5 46t-35.5 19q-28 0 -47.5 -29t-19.5 -64q0 -31 12 -48.5t34 -17.5z" />
    <glyph glyph-name="nine" unicode="9" horiz-adv-x="524" 
d="M116 -26l-27 134q140 43 206 152l-1 1q-42 -21 -89 -21q-67 0 -111.5 45t-44.5 128q0 122 75.5 202.5t191.5 80.5q89 0 142.5 -60t53.5 -168q0 -123 -49.5 -232t-141 -180t-205.5 -82zM281 374q35 0 64 32q3 26 3 54q0 42 -14.5 62t-36.5 20q-35 0 -58 -29t-23 -73
q0 -66 65 -66z" />
    <glyph glyph-name="colon" unicode=":" horiz-adv-x="272" 
d="M154 311q-44 0 -69 26t-25 68t26 68.5t71 26.5q44 0 69 -25.5t25 -66.5q0 -43 -26 -70t-71 -27zM114 -12q-44 0 -69 26t-25 68t26 68.5t71 26.5q44 0 69 -25.5t25 -66.5q0 -43 -26 -70t-71 -27z" />
    <glyph glyph-name="semicolon" unicode=";" horiz-adv-x="249" 
d="M138 311q-44 0 -69 26t-25 68t26 68.5t71 26.5q44 0 69 -25.5t25 -66.5q0 -43 -26 -70t-71 -27zM-31 -134l59 275h164l-104 -275h-119z" />
    <glyph glyph-name="less" unicode="&#x3c;" horiz-adv-x="528" 
d="M446 15l-407 197l13 116l456 202l-18 -155l-240 -103l213 -106z" />
    <glyph glyph-name="equal" unicode="=" horiz-adv-x="542" 
d="M74 323l18 140h432l-17 -140h-433zM42 91l18 140h432l-17 -140h-433z" />
    <glyph glyph-name="greater" unicode="&#x3e;" horiz-adv-x="529" 
d="M27 15l18 151l241 106l-214 103l17 155l408 -202l-14 -116z" />
    <glyph glyph-name="question" unicode="?" horiz-adv-x="429" 
d="M104 247l4 40q3 34 23.5 65t69.5 82q31 31 46.5 55.5t15.5 54.5q0 48 -41 48q-33 0 -71 -41l-100 101q31 42 87 68t120 26q82 0 133.5 -43.5t51.5 -121.5q0 -102 -105 -196q-35 -32 -53 -52.5t-23 -43.5l-10 -42h-148zM171 -12q-44 0 -69 26t-25 68t26 68.5t71 26.5
q44 0 69 -25.5t25 -66.5q0 -43 -26 -70t-71 -27z" />
    <glyph glyph-name="at" unicode="@" horiz-adv-x="882" 
d="M413 -154q-162 0 -268 103t-106 272q0 54 13.5 111t47 117.5t83 107.5t128 77t175.5 30q174 0 273 -104t99 -265q0 -31 -5.5 -62.5t-22 -67.5t-41.5 -63.5t-69 -45.5t-100 -18q-59 0 -91 18q-35 18 -44 62h-2q-51 -72 -125 -72q-56 0 -93.5 44t-37.5 126
q0 116 57.5 188.5t139.5 72.5q64 0 95 -36h3l3 27h152l-35 -279q-1 -7 -1 -20q0 -36 33 -36q23 0 42 18.5t29.5 45.5t16 52.5t5.5 45.5q0 123 -72 200.5t-209 77.5q-77 0 -139 -24t-101 -61.5t-65 -85.5t-36.5 -93.5t-10.5 -87.5q0 -130 80 -207t199 -77q105 0 203 60
l49 -71q-115 -80 -252 -80zM422 189q34 0 57.5 30.5t32.5 82.5l2 15q-24 19 -54 19q-35 0 -56 -30.5t-21 -71.5q0 -19 11 -32t28 -13z" />
    <glyph glyph-name="A" unicode="A" horiz-adv-x="629" 
d="M-33 0l318 710h170l144 -710h-188l-18 120h-192l-43 -120h-191zM256 270h115l-33 222h-2z" />
    <glyph glyph-name="B" unicode="B" horiz-adv-x="578" 
d="M26 0l87 710h260q187 0 187 -145q0 -54 -28 -104.5t-78 -76.5v-3q97 -40 97 -151q0 -230 -278 -230h-247zM254 428h43q36 0 58 23.5t22 57.5q0 43 -50 43h-57zM221 156h64q84 0 84 88q0 49 -60 49h-71z" />
    <glyph glyph-name="C" unicode="C" horiz-adv-x="644" 
d="M334 -10q-130 0 -211 78t-81 223q0 181 105.5 305t274.5 124q69 0 135 -35.5t112 -113.5l-141 -109q-47 84 -117 84q-79 0 -128.5 -75.5t-49.5 -170.5q0 -65 30.5 -100t83.5 -35q81 0 135 66l125 -118q-103 -123 -273 -123z" />
    <glyph glyph-name="D" unicode="D" horiz-adv-x="653" 
d="M26 0l87 710h230q145 0 219.5 -78.5t74.5 -217.5q0 -185 -104 -299.5t-285 -114.5h-222zM221 161h48q88 0 134 71t46 178q0 139 -128 139h-52z" />
    <glyph glyph-name="E" unicode="E" horiz-adv-x="533" 
d="M25 0l87 710h428l-20 -161h-252l-15 -118h196l-18 -155h-196l-15 -115h271l-20 -161h-446z" />
    <glyph glyph-name="F" unicode="F" horiz-adv-x="522" 
d="M26 0l87 710h442l-20 -161h-265l-18 -144h216l-18 -158h-218l-29 -247h-177z" />
    <glyph glyph-name="G" unicode="G" horiz-adv-x="666" 
d="M334 -10q-129 0 -210.5 76t-81.5 222q0 183 105 307.5t274 124.5q75 0 140.5 -34.5t102.5 -97.5l-137 -105q-44 67 -117 67q-79 0 -128.5 -75.5t-49.5 -174.5q0 -70 31 -106t84 -36q49 0 94 27l11 71h-102l18 148h273l-38 -329q-49 -37 -121.5 -61t-147.5 -24z" />
    <glyph glyph-name="H" unicode="H" horiz-adv-x="655" 
d="M26 0l87 710h183l-35 -287h176l35 287h184l-88 -710h-183l32 262h-176l-32 -262h-183z" />
    <glyph glyph-name="I" unicode="I" horiz-adv-x="306" 
d="M31 0l87 710h184l-87 -710h-184z" />
    <glyph glyph-name="J" unicode="J" horiz-adv-x="454" 
d="M165 -10q-56 0 -105 25.5t-75 74.5l117 121q8 -20 24 -33.5t35 -13.5q24 0 39 21.5t23 83.5l55 441h181l-55 -449q-17 -143 -72.5 -207t-166.5 -64z" />
    <glyph glyph-name="K" unicode="K" horiz-adv-x="615" 
d="M668 710l-249 -320l170 -390h-206l-104 261l-49 -59l-25 -202h-179l87 710h180l-32 -265l3 -1l190 266h214z" />
    <glyph glyph-name="L" unicode="L" horiz-adv-x="508" 
d="M26 0l87 710h182l-67 -549h246l-19 -161h-429z" />
    <glyph glyph-name="M" unicode="M" horiz-adv-x="781" 
d="M26 0l87 710h175l121 -366h3l193 366h177l-87 -710h-177l43 349l-2 1l-125 -221h-105l-80 227l-3 -1l-43 -355h-177z" />
    <glyph glyph-name="N" unicode="N" horiz-adv-x="668" 
d="M26 0l87 710h165l165 -404l3 1l49 403h175l-88 -710h-172l-158 392l-3 -1l-49 -391h-174z" />
    <glyph glyph-name="O" unicode="O" horiz-adv-x="726" 
d="M332 -10q-133 0 -211.5 80t-78.5 223q0 114 45.5 211t133 156.5t199.5 59.5q132 0 211.5 -79.5t79.5 -220.5q0 -120 -43.5 -216.5t-131 -155t-204.5 -58.5zM346 160q77 0 126.5 70.5t49.5 177.5q0 72 -32.5 107.5t-85.5 35.5q-73 0 -123.5 -73.5t-50.5 -171.5
q0 -72 32.5 -109t83.5 -37z" />
    <glyph glyph-name="P" unicode="P" horiz-adv-x="557" 
d="M26 0l87 710h252q103 0 153.5 -55t50.5 -144q0 -130 -75.5 -210t-208.5 -80h-56l-26 -221h-177zM249 379h39q41 0 67 31t26 74q0 35 -18 51t-45 16h-48z" />
    <glyph glyph-name="Q" unicode="Q" horiz-adv-x="729" 
d="M711 420q0 -158 -73 -271l54 -59l-101 -114l-60 67q-84 -53 -199 -53q-133 0 -211.5 80t-78.5 223q0 114 45.5 211t133.5 156.5t200 59.5q132 0 211 -79.5t79 -220.5zM346 160q35 0 67 16l-42 47l99 108l35 -38q18 51 18 115q0 71 -33 107t-86 36q-72 0 -123 -73.5
t-51 -171.5q0 -72 32.5 -109t83.5 -37z" />
    <glyph glyph-name="R" unicode="R" horiz-adv-x="594" 
d="M26 0l87 710h258q103 0 153.5 -55t50.5 -144q0 -179 -135 -255l115 -256h-193l-89 221h-44l-26 -221h-177zM249 379h45q41 0 67 31t26 74q0 35 -18.5 51t-44.5 16h-54z" />
    <glyph glyph-name="S" unicode="S" horiz-adv-x="536" 
d="M246 -10q-72 0 -139.5 31.5t-111.5 99.5l128 110q25 -39 59.5 -60t67.5 -21q34 0 52.5 14.5t18.5 36.5q0 18 -16 31.5t-68 43.5q-85 50 -113 77q-61 57 -61 139q0 103 71 165.5t177 62.5q67 0 127.5 -28.5t95.5 -83.5l-127 -106q-46 59 -101 59q-24 0 -39.5 -13.5
t-14.5 -34.5q0 -36 63 -73q13 -8 43.5 -25.5t42.5 -25t34.5 -23t32 -27.5t21.5 -29.5t16.5 -37t4.5 -43.5q0 -111 -72.5 -175t-191.5 -64z" />
    <glyph glyph-name="T" unicode="T" horiz-adv-x="535" 
d="M147 0l67 549h-158l20 161h497l-20 -161h-158l-67 -549h-181z" />
    <glyph glyph-name="U" unicode="U" horiz-adv-x="640" 
d="M292 -10q-276 0 -234 335l48 385h181l-49 -404q-4 -42 -2 -74.5t20.5 -52.5t52.5 -20q44 0 71.5 31.5t36.5 108.5l51 411h180l-51 -417q-20 -165 -94.5 -234t-210.5 -69z" />
    <glyph glyph-name="V" unicode="V" horiz-adv-x="623" 
d="M205 0l-146 710h195l60 -430h2l166 430h198l-319 -710h-156z" />
    <glyph glyph-name="W" unicode="W" horiz-adv-x="923" 
d="M177 0l-112 710h188l42 -412h2l138 412h178l30 -402h3l135 402h193l-286 -710h-161l-41 430h-2l-153 -430h-154z" />
    <glyph glyph-name="X" unicode="X" horiz-adv-x="633" 
d="M-33 0l245 361l-147 349h191l85 -215h5l129 215h207l-238 -353l158 -357h-196l-91 220h-4l-144 -220h-200z" />
    <glyph glyph-name="Y" unicode="Y" horiz-adv-x="581" 
d="M168 0l39 308l-155 402h199l66 -233h3l119 233h206l-255 -402l-38 -308h-184z" />
    <glyph glyph-name="Z" unicode="Z" horiz-adv-x="560" 
d="M5 0l16 141l314 404l-2 4h-253l19 161h484l-16 -137l-321 -408l2 -4h266l-19 -161h-490z" />
    <glyph glyph-name="bracketleft" unicode="[" horiz-adv-x="351" 
d="M13 -150l109 886h255l-15 -122h-114l-79 -642h115l-15 -122h-256z" />
    <glyph glyph-name="backslash" unicode="\" horiz-adv-x="401" 
d="M281 -111l-236 854l121 54l236 -855z" />
    <glyph glyph-name="bracketright" unicode="]" horiz-adv-x="349" 
d="M-15 -150l15 122h113l79 642h-113l15 122h254l-108 -886h-255z" />
    <glyph glyph-name="asciicircum" unicode="^" horiz-adv-x="420" 
d="M66 500l143 210h111l94 -210h-125l-33 111l-66 -111h-124z" />
    <glyph glyph-name="underscore" unicode="_" horiz-adv-x="472" 
d="M-56 -139l14 112h490l-14 -112h-490z" />
    <glyph glyph-name="grave" unicode="`" horiz-adv-x="431" 
d="M210 531l-92 152l164 -1l79 -151h-151z" />
    <glyph glyph-name="a" unicode="a" horiz-adv-x="548" 
d="M176 -10q-73 0 -114 56.5t-41 144.5q0 135 67 222t159 87q70 0 109 -42h3l4 32h171l-60 -490h-171l8 63l-3 1q-53 -74 -132 -74zM237 141q35 0 66.5 43.5t43.5 122.5l2 11q-28 31 -67 31t-64.5 -45t-25.5 -95q0 -30 12.5 -49t32.5 -19z" />
    <glyph glyph-name="b" unicode="b" horiz-adv-x="551" 
d="M239 -11q-122 0 -218 49l86 698h170l-37 -310l2 -1q53 75 133 75q73 0 114 -56.5t41 -145.5q0 -148 -74 -228.5t-217 -80.5zM240 141q56 0 87.5 40t31.5 99q0 31 -13 50t-33 19q-36 0 -68.5 -48t-43.5 -134l-3 -22q30 -4 42 -4z" />
    <glyph glyph-name="c" unicode="c" horiz-adv-x="474" 
d="M231 -10q-98 0 -153.5 56.5t-55.5 159.5q0 56 17 108t48.5 94t82 67t113.5 25q127 0 192 -95l-129 -97q-19 42 -56 42q-42 0 -69.5 -42t-27.5 -98q0 -30 13 -49.5t39 -19.5q39 0 72 45l132 -80q-75 -116 -218 -116z" />
    <glyph glyph-name="d" unicode="d" horiz-adv-x="536" 
d="M176 -10q-73 0 -114 56.5t-41 144.5q0 135 67 222t159 87q69 0 109 -42h3l34 278h171l-90 -736h-171l8 63l-3 1q-53 -74 -132 -74zM237 141q35 0 66.5 43.5t43.5 122.5l2 11q-28 31 -67 31t-64.5 -45t-25.5 -95q0 -30 12.5 -49t32.5 -19z" />
    <glyph glyph-name="e" unicode="e" horiz-adv-x="475" 
d="M467 363q-4 -157 -282 -185q6 -26 23 -39t37 -13q46 0 78 47l124 -67q-73 -116 -218 -116q-94 0 -151.5 56t-56.5 150q0 129 76 216.5t198 87.5q67 0 120 -35.5t52 -101.5zM307 334q2 28 -28 28q-29 0 -53.5 -25.5t-35.5 -67.5q115 13 117 65z" />
    <glyph glyph-name="f" unicode="f" horiz-adv-x="336" 
d="M27 0l43 354h-39l17 136h39l9 72q21 184 179 184q69 0 119 -40l-42 -119q-22 15 -45 15q-20 0 -29.5 -15t-15.5 -62l-4 -35h68l-17 -136h-68l-43 -354h-171z" />
    <glyph glyph-name="g" unicode="g" horiz-adv-x="543" 
d="M359 490h170l-52 -426q-34 -272 -288 -272q-105 0 -184 48l52 128q58 -35 121 -35q55 0 86 28.5t44 113.5l-3 1q-54 -71 -129 -71q-72 0 -113.5 54t-41.5 132q0 135 67 222t159 87q69 0 106 -39l3 1zM237 156q35 0 65 43.5t42 115.5l1 7q-27 27 -63 27q-39 0 -64.5 -44
t-25.5 -91q0 -58 45 -58z" />
    <glyph glyph-name="h" unicode="h" horiz-adv-x="542" 
d="M17 0l90 736h169l-38 -306l3 -2q64 72 156 72q135 0 109 -198l-39 -302h-169l34 255q6 49 2 71t-22 22q-33 0 -64 -43.5t-41 -129.5l-21 -175h-169z" />
    <glyph glyph-name="i" unicode="i" horiz-adv-x="273" 
d="M183 546q-45 0 -72.5 26.5t-27.5 67.5t28.5 68t74.5 27q44 0 71.5 -26t27.5 -66q0 -42 -28.5 -69.5t-73.5 -27.5zM21 0l61 490h169l-60 -490h-170z" />
    <glyph glyph-name="j" unicode="j" horiz-adv-x="256" 
d="M172 546q-45 0 -72.5 26.5t-27.5 67.5t28.5 68t74.5 27q44 0 71.5 -26t27.5 -66q0 -42 -28.5 -69.5t-73.5 -27.5zM2 -207q-60 0 -111 23l42 130q13 -11 35 -11q21 0 29 17.5t14 64.5l58 473h171l-61 -497q-13 -108 -58 -154t-119 -46z" />
    <glyph glyph-name="k" unicode="k" horiz-adv-x="512" 
d="M441 -8q-24 -2 -55 -2q-103 0 -140 136l-9 32q-22 -12 -38 -18l-16 -140h-166l90 736h170l-53 -429l2 -1q82 64 107 184h177q-27 -146 -135 -246l8 -30q13 -49 34 -64.5t59 -16.5z" />
    <glyph glyph-name="l" unicode="l" horiz-adv-x="274" 
d="M21 0l91 736h171l-91 -736h-171z" />
    <glyph glyph-name="m" unicode="m" horiz-adv-x="804" 
d="M17 0l60 490h170l-6 -52l4 -1q58 63 143 63q81 0 102 -67h5q61 67 160 67q72 0 99 -49.5t13 -157.5l-38 -293h-169l34 255q7 49 2.5 71t-24.5 22q-25 0 -53 -44t-39 -128l-23 -176h-169l33 255q8 49 4.5 71t-25.5 22q-23 0 -51.5 -39.5t-37.5 -112.5l-24 -196h-170z" />
    <glyph glyph-name="n" unicode="n" horiz-adv-x="542" 
d="M17 0l60 490h170l-8 -61l3 -1q63 72 155 72q135 0 109 -198l-39 -302h-169l34 255q6 49 2 71t-22 22q-32 0 -62.5 -42t-40.5 -126l-22 -180h-170z" />
    <glyph glyph-name="o" unicode="o" horiz-adv-x="529" 
d="M229 -10q-94 0 -150.5 56.5t-56.5 156.5q0 124 73.5 210.5t201.5 86.5q96 0 153 -56.5t57 -156.5q0 -60 -16 -112t-48.5 -94t-87.5 -66.5t-126 -24.5zM245 141q40 0 65 41t25 95q0 39 -16.5 55t-36.5 16q-40 0 -64 -43t-24 -97q0 -35 16.5 -51t34.5 -16z" />
    <glyph glyph-name="p" unicode="p" horiz-adv-x="551" 
d="M-8 -198l85 688h171l-8 -65l1 -1q54 76 134 76q73 0 114 -56.5t41 -145.5q0 -135 -68 -221.5t-163 -86.5q-63 0 -106 29l-4 -2l-26 -215h-171zM254 141q50 0 77.5 40.5t27.5 98.5q0 31 -13 50t-33 19q-36 0 -68 -46.5t-44 -133.5l-1 -7q21 -21 54 -21z" />
    <glyph glyph-name="q" unicode="q" horiz-adv-x="550" 
d="M279 -198l33 261l-3 2q-55 -75 -133 -75q-73 0 -114 56.5t-41 144.5q0 135 67 222t159 87q74 0 110 -43l2 1l4 32h171l-84 -688h-171zM237 141q35 0 66.5 43.5t43.5 122.5l2 11q-28 31 -67 31t-64.5 -45t-25.5 -95q0 -30 12.5 -49t32.5 -19z" />
    <glyph glyph-name="r" unicode="r" horiz-adv-x="351" 
d="M17 0l60 490h170l-7 -57h1q55 67 130 67l-24 -187q-46 23 -84.5 -9t-52.5 -113l-23 -191h-170z" />
    <glyph glyph-name="s" unicode="s" horiz-adv-x="417" 
d="M186 -10q-54 0 -108.5 22t-88.5 62l90 96q22 -25 53.5 -41.5t59.5 -16.5q29 0 29 16q0 9 -11 16.5t-59 33.5q-62 33 -90 66.5t-28 84.5q0 76 53.5 123.5t133.5 47.5q113 0 179 -83l-99 -92q-33 48 -77 50q-12 0 -21 -6t-9 -16q0 -14 63 -46q69 -34 98 -67.5t29 -89.5
q0 -70 -53 -115t-144 -45z" />
    <glyph glyph-name="t" unicode="t" horiz-adv-x="344" 
d="M170 -10q-62 0 -97 37.5t-25 125.5l24 201h-47l17 136h47l18 138l174 34l-21 -172h92l-17 -136h-92l-21 -181q-5 -32 17 -32q14 0 38 11l29 -127q-67 -35 -136 -35z" />
    <glyph glyph-name="u" unicode="u" horiz-adv-x="536" 
d="M158 -10q-152 0 -124 193l43 307h169l-36 -244q-6 -41 -6 -63t6.5 -32t21.5 -10q27 0 55 38t33 78l29 233h170l-60 -490h-166l4 64h-3q-58 -74 -136 -74z" />
    <glyph glyph-name="v" unicode="v" horiz-adv-x="501" 
d="M185 -10q-93 0 -131.5 58.5t-27.5 154.5l36 287h168l-30 -245q-7 -47 -4 -75.5t22 -28.5q12 0 25 8.5t28 28t28 60t20 96.5q10 76 -2 156h169q15 -87 3 -187q-10 -86 -39 -148.5t-71.5 -97.5t-90 -51t-103.5 -16z" />
    <glyph glyph-name="w" unicode="w" horiz-adv-x="747" 
d="M159 -10q-79 0 -113 57t-22 142l43 301h168l-37 -252q-14 -97 22 -97q22 0 45.5 35t32.5 107l26 207h162l-31 -256q-6 -50 -2 -71.5t21 -21.5q11 0 22.5 8.5t25 28t24.5 60t17 96.5q8 75 -1 156h171q14 -88 2 -187q-20 -166 -99.5 -239.5t-192.5 -73.5q-106 0 -132 86h-2
q-54 -86 -150 -86z" />
    <glyph glyph-name="x" unicode="x" horiz-adv-x="476" 
d="M-28 0l176 256l-111 234h185l34 -99h1l56 99h189l-173 -243l115 -247h-178l-42 104h-2l-69 -104h-181z" />
    <glyph glyph-name="y" unicode="y" horiz-adv-x="528" 
d="M344 490h170l-52 -421q-34 -277 -282 -277q-100 0 -180 48l52 122q52 -35 116 -35q51 0 80.5 27.5t42.5 108.5h-3q-56 -73 -136 -73q-151 0 -123 193l43 307h169l-35 -244q-9 -59 -5 -82t27 -23q26 0 54 38t33 75z" />
    <glyph glyph-name="z" unicode="z" horiz-adv-x="438" 
d="M363 -27q-130 27 -367 27l12 112l196 242v3h-146l16 133h369l-12 -112l-202 -243v-2q91 -5 172 -29z" />
    <glyph glyph-name="braceleft" unicode="{" horiz-adv-x="330" 
d="M172 -148q-48 0 -77.5 39.5t-22.5 100.5l21 165q2 22 2.5 38.5t-15.5 27t-51 10.5l9 121q35 0 55.5 14.5t25.5 29.5t7 37l21 166q8 58 43.5 96.5t84.5 38.5h90l-13 -107h-15q-46 0 -56 -66l-20 -159q-11 -86 -58 -112v-2q11 -7 16.5 -12t12 -18t5 -31t-3.5 -52l-19 -156
q-2 -20 -2 -34t8.5 -21.5t28.5 -7.5h21l-14 -106h-84z" />
    <glyph glyph-name="bar" unicode="|" horiz-adv-x="319" 
d="M50 -115l104 852h132l-104 -852h-132z" />
    <glyph glyph-name="braceright" unicode="}" horiz-adv-x="331" 
d="M-23 -148l13 106h15q29 0 41 17t16 51l19 157q5 41 13.5 64t17 31t27.5 18v2q-41 28 -31 111l20 160q0 11 1.5 24t-7.5 24.5t-29 11.5h-20l13 107h83q51 0 79.5 -41.5t21.5 -99.5l-21 -165q-1 -18 -2 -34.5t15 -29t51 -12.5l-9 -121q-51 -1 -67.5 -21.5t-21.5 -60.5
l-20 -165q-7 -60 -44.5 -97t-84.5 -37h-89z" />
    <glyph glyph-name="asciitilde" unicode="~" horiz-adv-x="524" 
d="M342 186q-15 0 -28.5 3t-19.5 5t-19 8l-13 6q-36 18 -55 18q-35 0 -63 -46l-107 51q25 62 65.5 100.5t88.5 38.5q24 0 84 -24q29 -14 49 -14q36 0 65 43l107 -42q-26 -65 -66 -106t-88 -41z" />
    <glyph glyph-name="uni00A0" unicode="&#xa0;" horiz-adv-x="166" 
 />
    <glyph glyph-name="exclamdown" unicode="&#xa1;" horiz-adv-x="297" 
d="M168 501q44 0 69 -26t25 -68t-26 -68.5t-71 -26.5q-44 0 -69 25.5t-25 66.5q0 43 26 70t71 27zM206 237l-31 -484h-178l88 484h121z" />
    <glyph glyph-name="cent" unicode="&#xa2;" horiz-adv-x="479" 
d="M253 194q39 0 73 45l132 -79q-61 -95 -167 -113l-11 -94h-105l11 95q-72 15 -113.5 70t-41.5 141q0 105 59 186.5t157 102.5l10 90h105l-10 -88q87 -15 131 -82l-129 -96q-20 31 -60 31q-38 -1 -65 -43.5t-27 -96.5q0 -39 16 -54t35 -15z" />
    <glyph glyph-name="sterling" unicode="&#xa3;" horiz-adv-x="518" 
d="M8 0l19 160h48l16 134h-42l14 121h42l5 36q16 129 78 187t150 58q57 0 105.5 -26t79.5 -73l-96 -105q-16 22 -36 35t-35 13q-55 0 -66 -100l-3 -25h121l-14 -121h-120l-17 -134h227l-19 -160h-457z" />
    <glyph glyph-name="currency" unicode="&#xa4;" horiz-adv-x="463" 
d="M417 412q0 -61 -31 -111l64 -81l-79 -75l-65 81q-40 -19 -82 -19q-40 0 -74 16l-77 -77l-66 74l78 79q-9 25 -9 56q0 67 34 124l-62 78l81 75l63 -79q36 17 76 17q42 0 77 -19l81 82l66 -76l-84 -84q9 -27 9 -61zM238 320q29 0 48 23t19 54q0 28 -14.5 44.5t-36.5 16.5
q-28 0 -47 -24t-19 -58q0 -25 13.5 -40.5t36.5 -15.5z" />
    <glyph glyph-name="yen" unicode="&#xa5;" horiz-adv-x="563" 
d="M623 687l-194 -322h73l-10 -84h-113l-6 -44h113l-10 -84h-113l-19 -153h-186l19 153h-119l10 84h120l6 44h-120l10 84h81l-114 322h205l50 -226h2l103 226h212z" />
    <glyph glyph-name="brokenbar" unicode="&#xa6;" horiz-adv-x="319" 
d="M111 384l43 353h132l-43 -353h-132zM50 -114l43 351h132l-43 -351h-132z" />
    <glyph glyph-name="section" unicode="&#xa7;" horiz-adv-x="498" 
d="M332 444q32 -16 44.5 -23t35.5 -22t32.5 -28t17.5 -33.5t8 -44.5q0 -97 -80 -148q31 -36 31 -90q0 -97 -60.5 -153t-157.5 -56q-133 0 -203 102l104 106q43 -61 103 -61q43 0 43 37q0 26 -79 66q-58 29 -92.5 64t-34.5 93q0 99 76 145q-34 39 -34 94q0 90 58.5 143.5
t150.5 53.5q60 0 114 -24t83 -62l-100 -110q-55 46 -96 46q-18 0 -28 -9.5t-10 -24.5q0 -24 74 -61zM201 284q0 -35 58 -61q3 -1 9 -3.5t9 -4.5q31 12 31 43q0 18 -13 31t-53 32l-12 6q-29 -9 -29 -43z" />
    <glyph glyph-name="dieresis" unicode="&#xa8;" horiz-adv-x="485" 
d="M172 520q-44 0 -71.5 26.5t-27.5 67.5t28.5 68t73.5 27q44 0 71.5 -26t27.5 -66q0 -42 -28.5 -69.5t-73.5 -27.5zM402 520q-44 0 -71.5 26.5t-27.5 67.5t28.5 68t74.5 27q44 0 71.5 -26t27.5 -66q0 -42 -28.5 -69.5t-74.5 -27.5z" />
    <glyph glyph-name="copyright" unicode="&#xa9;" horiz-adv-x="726" 
d="M362 -10q-137 0 -232.5 97t-95.5 233q0 135 96 232.5t234 97.5q137 0 232 -97t95 -233q0 -135 -95.5 -232.5t-233.5 -97.5zM362 94q94 0 158.5 66t64.5 160t-63.5 159.5t-158.5 65.5q-96 0 -159.5 -66t-63.5 -161q0 -94 63.5 -159t158.5 -65zM370 154q-71 0 -119.5 43
t-48.5 120q0 70 44.5 116.5t123.5 46.5t130 -62l-67 -57q-29 31 -63 31q-29 0 -49.5 -19.5t-20.5 -55.5q0 -31 19 -53t51 -22q37 0 63 31l67 -59q-51 -60 -130 -60z" />
    <glyph glyph-name="ordfeminine" unicode="&#xaa;" horiz-adv-x="333" 
d="M139 386q-39 0 -65.5 31.5t-26.5 89.5q0 82 41.5 134t100.5 52q37 0 57 -25h1l3 19h114l-36 -295h-115l5 39h-2q-33 -45 -77 -45zM188 488q15 0 30 21t21 58l2 12q-12 10 -32 10q-17 0 -31 -21t-14 -50q0 -30 24 -30z" />
    <glyph glyph-name="guillemotleft" unicode="&#xab;" horiz-adv-x="501" 
d="M315 53l-74 195l125 199h153l-124 -199l73 -195h-153zM100 53l-74 195l124 198h154l-124 -198l73 -195h-153z" />
    <glyph glyph-name="logicalnot" unicode="&#xac;" horiz-adv-x="495" 
d="M301 134l20 165h-275l17 139h416l-37 -304h-141z" />
    <glyph glyph-name="registered" unicode="&#xae;" horiz-adv-x="726" 
d="M364 650q137 0 232 -97t95 -233q0 -135 -95.5 -232.5t-233.5 -97.5q-137 0 -232.5 97t-95.5 233q0 135 96 232.5t234 97.5zM362 94q94 0 158.5 66t64.5 160t-63.5 159.5t-158.5 65.5q-96 0 -159.5 -66t-63.5 -161q0 -94 63.5 -159t158.5 -65zM493 367q0 -70 -54 -97
l70 -110h-105l-56 95h-16v-95h-90v324h132q59 0 89 -32t30 -85zM332 402v-67h21q19 0 31.5 9t12.5 25q0 14 -12 23.5t-33 9.5h-20z" />
    <glyph glyph-name="macron" unicode="&#xaf;" horiz-adv-x="387" 
d="M86 553l16 127h291l-16 -127h-291z" />
    <glyph glyph-name="degree" unicode="&#xb0;" horiz-adv-x="350" 
d="M198 439q-55 0 -86.5 31.5t-31.5 83.5q0 69 43 117t109 48q54 0 87 -33t33 -89q0 -65 -43 -111.5t-111 -46.5zM209 530q20 0 34 17t14 40q0 19 -10 30.5t-25 11.5q-20 0 -34 -17.5t-14 -44.5q0 -17 9.5 -27t25.5 -10z" />
    <glyph glyph-name="plusminus" unicode="&#xb1;" horiz-adv-x="538" 
d="M193 190l20 168h-145l18 140h145l21 170h141l-21 -170h146l-17 -140h-146l-21 -168h-141zM24 0l18 140h432l-17 -140h-433z" />
    <glyph glyph-name="uni00B2" unicode="&#xb2;" horiz-adv-x="297" 
d="M37 435l7 81l117 125q54 58 54 85q0 15 -15 15q-18 0 -44 -30l-85 68q54 76 146 76q54 0 88.5 -30t34.5 -79q0 -47 -18.5 -80.5t-59.5 -77.5l-38 -41l1 -2h95l-14 -110h-269z" />
    <glyph glyph-name="uni00B3" unicode="&#xb3;" horiz-adv-x="303" 
d="M178 427q-56 0 -94.5 31t-47.5 76l110 37q1 -38 25 -38q14 0 23 13t9 33t-25 20h-22l10 89h24q12 0 21.5 13t9.5 29q0 18 -14 18q-21 0 -30 -35l-97 59q16 35 54.5 59t82.5 24q55 0 88 -27t33 -77q0 -67 -56 -105v-1q46 -28 46 -83q0 -61 -42.5 -98t-107.5 -37z" />
    <glyph glyph-name="acute" unicode="&#xb4;" horiz-adv-x="431" 
d="M138 531l116 151l168 1l-130 -152h-154z" />
    <glyph glyph-name="uni00B5" unicode="&#xb5;" horiz-adv-x="574" 
d="M529 134l19 -115q-40 -29 -98 -29q-52 0 -81 20.5t-37 66.5h-2q-46 -87 -111 -87q-33 0 -55 22l-3 -1q14 -80 7 -139l-8 -70h-168l85 688h168l-33 -264q-11 -85 34 -85q24 0 45.5 27.5t28.5 83.5l28 238h171l-39 -315q-3 -25 1.5 -34.5t19.5 -9.5q16 0 28 3z" />
    <glyph glyph-name="paragraph" unicode="&#xb6;" horiz-adv-x="467" 
d="M306 687h159l-85 -687h-175l32 265q-88 0 -142.5 46t-54.5 128q0 103 71.5 175.5t194.5 72.5z" />
    <glyph glyph-name="periodcentered" unicode="&#xb7;" horiz-adv-x="278" 
d="M155 146q-44 0 -69 26t-25 68t26 68.5t71 26.5q44 0 69 -25.5t25 -66.5q0 -43 -26 -70t-71 -27z" />
    <glyph glyph-name="cedilla" unicode="&#xb8;" horiz-adv-x="280" 
d="M57 -193q-32 0 -58 6l2 65q16 -6 41 -6q49 0 49 31q0 23 -63 23l1 39l27 41h83l-27 -35l1 -1q75 -3 75 -67q0 -96 -131 -96z" />
    <glyph glyph-name="uni00B9" unicode="&#xb9;" horiz-adv-x="268" 
d="M203 847h95l-51 -412h-121l33 254l-46 -30l-50 93z" />
    <glyph glyph-name="ordmasculine" unicode="&#xba;" horiz-adv-x="320" 
d="M175 387q-57 0 -91 34t-34 94q0 75 45 126.5t125 51.5q56 0 89 -33.5t33 -94.5q0 -76 -42 -127t-125 -51zM187 490q19 0 32 19.5t13 44.5q0 36 -26 36q-20 0 -32.5 -20t-12.5 -46q0 -34 26 -34z" />
    <glyph glyph-name="guillemotright" unicode="&#xbb;" horiz-adv-x="505" 
d="M-18 53l124 195l-76 198h155l75 -198l-121 -195h-157zM202 53l124 195l-76 198h154l76 -198l-122 -195h-156z" />
    <glyph glyph-name="onequarter" unicode="&#xbc;" horiz-adv-x="760" 
d="M522 729l116 -53l-373 -703l-115 53zM235 298h-121l33 254l-46 -30l-50 93l140 95h95zM702 163h44l-13 -103h-44l-7 -60h-122l7 60h-132l8 72l193 280h96zM550 150h49l14 103z" />
    <glyph glyph-name="onehalf" unicode="&#xbd;" horiz-adv-x="797" 
d="M522 729l116 -53l-373 -703l-115 53zM235 298h-121l33 254l-46 -30l-50 93l140 95h95zM674 112l1 -2h95l-14 -110h-269l7 81l117 125q54 58 54 85q0 15 -15 15q-18 0 -44 -30l-85 68q54 76 146 76q54 0 88.5 -30t34.5 -79q0 -47 -18.5 -80.5t-59.5 -77.5z" />
    <glyph glyph-name="threequarters" unicode="&#xbe;" horiz-adv-x="774" 
d="M532 729l116 -53l-373 -703l-115 53zM317 425q0 -61 -42.5 -98t-107.5 -37q-56 0 -94.5 31t-47.5 76l110 37q1 -38 25 -38q14 0 23 13t9 33t-25 20h-22l10 89h24q12 0 21.5 13t9.5 29q0 18 -14 18q-21 0 -30 -35l-97 59q16 35 54.5 59t82.5 24q55 0 88 -27t33 -77
q0 -67 -56 -105v-1q46 -28 46 -83zM717 163h44l-13 -103h-44l-7 -60h-122l7 60h-132l8 72l193 280h96zM565 150h49l14 103z" />
    <glyph glyph-name="questiondown" unicode="&#xbf;" horiz-adv-x="413" 
d="M266 501q44 0 69 -26t25 -68t-26 -68.5t-71 -26.5q-44 0 -69 25.5t-25 66.5q0 43 26 70t71 27zM333 242l-4 -40q-3 -34 -23.5 -65t-69.5 -82q-31 -31 -46.5 -55.5t-15.5 -54.5q0 -48 41 -48q33 0 71 41l100 -101q-31 -42 -87 -68t-120 -26q-82 0 -133.5 43.5t-51.5 121.5
q0 102 105 196q35 32 53 52.5t23 43.5l10 42h148z" />
    <glyph glyph-name="Agrave" unicode="&#xc0;" horiz-adv-x="629" 
d="M305 754l-93 143l164 -1l80 -142h-151zM-33 0l318 710h170l144 -710h-188l-18 120h-192l-43 -120h-191zM256 270h115l-33 222h-2z" />
    <glyph glyph-name="Aacute" unicode="&#xc1;" horiz-adv-x="629" 
d="M302 754l115 142l165 1l-131 -143h-149zM-33 0l318 710h170l144 -710h-188l-18 120h-192l-43 -120h-191zM256 270h115l-33 222h-2z" />
    <glyph glyph-name="Acircumflex" unicode="&#xc2;" horiz-adv-x="629" 
d="M211 754l101 143h172l68 -143h-138l-26 61h-1l-42 -61h-134zM-33 0l318 710h170l144 -710h-188l-18 120h-192l-43 -120h-191zM256 270h115l-33 222h-2z" />
    <glyph glyph-name="Atilde" unicode="&#xc3;" horiz-adv-x="629" 
d="M467 756q-32 0 -76 28q-26 17 -43 17q-33 0 -58 -49l-92 45q25 51 59.5 83.5t75.5 32.5q37 0 75 -25q28 -18 42 -18q34 0 59 46l91 -36q-24 -55 -58 -89.5t-75 -34.5zM-33 0l318 710h170l144 -710h-188l-18 120h-192l-43 -120h-191zM256 270h115l-33 222h-2z" />
    <glyph glyph-name="Adieresis" unicode="&#xc4;" horiz-adv-x="629" 
d="M272 748q-44 0 -71.5 26.5t-27.5 67.5t28.5 68t73.5 27q44 0 71.5 -26t27.5 -66q0 -42 -28.5 -69.5t-73.5 -27.5zM502 748q-44 0 -71.5 26.5t-27.5 67.5t28.5 68t74.5 27q44 0 71.5 -26t27.5 -66q0 -42 -28.5 -69.5t-74.5 -27.5zM-33 0l318 710h170l144 -710h-188
l-18 120h-192l-43 -120h-191zM256 270h115l-33 222h-2z" />
    <glyph glyph-name="Aring" unicode="&#xc5;" horiz-adv-x="629" 
d="M381 740q-45 0 -75 30.5t-30 74.5q0 46 31 76.5t77 30.5q45 0 75 -29.5t30 -73.5q0 -47 -31 -78t-77 -31zM383 811q15 0 25 10t10 26q0 14 -10 24t-24 10q-16 0 -26.5 -10t-10.5 -25t10 -25t26 -10zM-33 0l318 710h170l144 -710h-188l-18 120h-192l-43 -120h-191z
M256 270h115l-33 222h-2z" />
    <glyph glyph-name="AE" unicode="&#xc6;" horiz-adv-x="861" 
d="M-33 0l381 710h520l-20 -161h-253l-15 -119h201l-20 -155h-200l-14 -114h272l-20 -161h-447l15 120h-148l-61 -120h-191zM295 272h91l28 231h-2z" />
    <glyph glyph-name="Ccedilla" unicode="&#xc7;" horiz-adv-x="644" 
d="M347 165q81 0 135 66l125 -118q-94 -114 -251 -122l-15 -20l1 -1q75 -3 75 -67q0 -96 -131 -96q-32 0 -58 6l2 65q16 -6 41 -6q49 0 49 31q0 23 -63 23l1 39l19 29q-107 16 -171 92.5t-64 204.5q0 181 105.5 305t274.5 124q69 0 135 -35.5t112 -113.5l-141 -109
q-47 84 -117 84q-79 0 -128.5 -75.5t-49.5 -170.5q0 -65 30.5 -100t83.5 -35z" />
    <glyph glyph-name="Egrave" unicode="&#xc8;" horiz-adv-x="533" 
d="M294 752l-93 143l164 -1l80 -142h-151zM25 0l87 710h428l-20 -161h-252l-15 -118h196l-18 -155h-196l-15 -115h271l-20 -161h-446z" />
    <glyph glyph-name="Eacute" unicode="&#xc9;" horiz-adv-x="533" 
d="M222 752l115 142l165 1l-131 -143h-149zM25 0l87 710h428l-20 -161h-252l-15 -118h196l-18 -155h-196l-15 -115h271l-20 -161h-446z" />
    <glyph glyph-name="Ecircumflex" unicode="&#xca;" horiz-adv-x="533" 
d="M167 752l101 143h172l68 -143h-138l-26 61h-1l-42 -61h-134zM25 0l87 710h428l-20 -161h-252l-15 -118h196l-18 -155h-196l-15 -115h271l-20 -161h-446z" />
    <glyph glyph-name="Edieresis" unicode="&#xcb;" horiz-adv-x="533" 
d="M228 746q-44 0 -71.5 26.5t-27.5 67.5t28.5 68t73.5 27q44 0 71.5 -26t27.5 -66q0 -42 -28.5 -69.5t-73.5 -27.5zM458 746q-44 0 -71.5 26.5t-27.5 67.5t28.5 68t74.5 27q44 0 71.5 -26t27.5 -66q0 -42 -28.5 -69.5t-74.5 -27.5zM25 0l87 710h428l-20 -161h-252l-15 -118
h196l-18 -155h-196l-15 -115h271l-20 -161h-446z" />
    <glyph glyph-name="Igrave" unicode="&#xcc;" horiz-adv-x="306" 
d="M145 752l-93 143l164 -1l80 -142h-151zM31 0l87 710h184l-87 -710h-184z" />
    <glyph glyph-name="Iacute" unicode="&#xcd;" horiz-adv-x="306" 
d="M133 754l115 142l165 1l-131 -143h-149zM31 0l87 710h184l-87 -710h-184z" />
    <glyph glyph-name="Icircumflex" unicode="&#xce;" horiz-adv-x="306" 
d="M44 752l101 143h172l68 -143h-138l-26 61h-1l-42 -61h-134zM31 0l87 710h184l-87 -710h-184z" />
    <glyph glyph-name="Idieresis" unicode="&#xcf;" horiz-adv-x="306" 
d="M105 746q-44 0 -71.5 26.5t-27.5 67.5t28.5 68t73.5 27q44 0 71.5 -26t27.5 -66q0 -42 -28.5 -69.5t-73.5 -27.5zM335 746q-44 0 -71.5 26.5t-27.5 67.5t28.5 68t74.5 27q44 0 71.5 -26t27.5 -66q0 -42 -28.5 -69.5t-74.5 -27.5zM31 0l87 710h184l-87 -710h-184z" />
    <glyph glyph-name="Eth" unicode="&#xd0;" horiz-adv-x="654" 
d="M344 710q145 0 219.5 -78.5t74.5 -217.5q0 -185 -104 -299.5t-285 -114.5h-222l33 271h-40l20 152h39l35 287h230zM270 161q88 0 134 71t46 178q0 139 -128 139h-52l-16 -126h98l-21 -152h-95l-14 -110h48z" />
    <glyph glyph-name="Ntilde" unicode="&#xd1;" horiz-adv-x="668" 
d="M489 756q-32 0 -76 28q-26 17 -43 17q-33 0 -58 -49l-92 45q25 51 59.5 83.5t75.5 32.5q37 0 75 -25q28 -18 42 -18q34 0 59 46l91 -36q-24 -55 -58 -89.5t-75 -34.5zM26 0l87 710h165l165 -404l3 1l49 403h175l-88 -710h-172l-158 392l-3 -1l-49 -391h-174z" />
    <glyph glyph-name="Ograve" unicode="&#xd2;" horiz-adv-x="726" 
d="M377 754l-93 143l164 -1l80 -142h-151zM332 -10q-133 0 -211.5 80t-78.5 223q0 114 45.5 211t133 156.5t199.5 59.5q132 0 211.5 -79.5t79.5 -220.5q0 -120 -43.5 -216.5t-131 -155t-204.5 -58.5zM346 160q77 0 126.5 70.5t49.5 177.5q0 72 -32.5 107.5t-85.5 35.5
q-73 0 -123.5 -73.5t-50.5 -171.5q0 -72 32.5 -109t83.5 -37z" />
    <glyph glyph-name="Oacute" unicode="&#xd3;" horiz-adv-x="726" 
d="M351 754l115 142l165 1l-131 -143h-149zM332 -10q-133 0 -211.5 80t-78.5 223q0 114 45.5 211t133 156.5t199.5 59.5q132 0 211.5 -79.5t79.5 -220.5q0 -120 -43.5 -216.5t-131 -155t-204.5 -58.5zM346 160q77 0 126.5 70.5t49.5 177.5q0 72 -32.5 107.5t-85.5 35.5
q-73 0 -123.5 -73.5t-50.5 -171.5q0 -72 32.5 -109t83.5 -37z" />
    <glyph glyph-name="Ocircumflex" unicode="&#xd4;" horiz-adv-x="726" 
d="M286 754l101 143h172l68 -143h-138l-26 61h-1l-42 -61h-134zM332 -10q-133 0 -211.5 80t-78.5 223q0 114 45.5 211t133 156.5t199.5 59.5q132 0 211.5 -79.5t79.5 -220.5q0 -120 -43.5 -216.5t-131 -155t-204.5 -58.5zM346 160q77 0 126.5 70.5t49.5 177.5
q0 72 -32.5 107.5t-85.5 35.5q-73 0 -123.5 -73.5t-50.5 -171.5q0 -72 32.5 -109t83.5 -37z" />
    <glyph glyph-name="Otilde" unicode="&#xd5;" horiz-adv-x="726" 
d="M542 756q-32 0 -76 28q-26 17 -43 17q-33 0 -58 -49l-92 45q25 51 59.5 83.5t75.5 32.5q38 0 75 -25q28 -18 42 -18q34 0 59 46l91 -36q-24 -55 -58 -89.5t-75 -34.5zM332 -10q-133 0 -211.5 80t-78.5 223q0 114 45.5 211t133 156.5t199.5 59.5q132 0 211.5 -79.5
t79.5 -220.5q0 -120 -43.5 -216.5t-131 -155t-204.5 -58.5zM346 160q77 0 126.5 70.5t49.5 177.5q0 72 -32.5 107.5t-85.5 35.5q-73 0 -123.5 -73.5t-50.5 -171.5q0 -72 32.5 -109t83.5 -37z" />
    <glyph glyph-name="Odieresis" unicode="&#xd6;" horiz-adv-x="726" 
d="M347 748q-44 0 -71.5 26.5t-27.5 67.5t28.5 68t73.5 27q44 0 71.5 -26t27.5 -66q0 -42 -28.5 -69.5t-73.5 -27.5zM577 748q-44 0 -71.5 26.5t-27.5 67.5t28.5 68t74.5 27q44 0 71.5 -26t27.5 -66q0 -42 -28.5 -69.5t-74.5 -27.5zM332 -10q-133 0 -211.5 80t-78.5 223
q0 114 45.5 211t133 156.5t199.5 59.5q132 0 211.5 -79.5t79.5 -220.5q0 -120 -43.5 -216.5t-131 -155t-204.5 -58.5zM346 160q77 0 126.5 70.5t49.5 177.5q0 72 -32.5 107.5t-85.5 35.5q-73 0 -123.5 -73.5t-50.5 -171.5q0 -72 32.5 -109t83.5 -37z" />
    <glyph glyph-name="multiply" unicode="&#xd7;" horiz-adv-x="489" 
d="M111 50l-89 100l128 128l-96 128l109 99l95 -128l128 129l89 -100l-129 -129l96 -129l-107 -99l-97 129z" />
    <glyph glyph-name="Oslash" unicode="&#xd8;" horiz-adv-x="727" 
d="M741 677l-75 -79q46 -72 46 -178q0 -120 -43.5 -216.5t-131 -155t-204.5 -58.5q-111 0 -185 57l-79 -84l-64 63l83 88q-45 73 -45 179q0 114 45.5 211t133 156.5t199.5 59.5q111 0 185 -56l70 75zM231 306q0 -20 3 -37l243 259q-29 23 -72 23q-73 0 -123.5 -73.5
t-50.5 -171.5zM523 408q0 13 -2 35l-244 -259q29 -24 70 -24q77 0 126.5 70.5t49.5 177.5z" />
    <glyph glyph-name="Ugrave" unicode="&#xd9;" horiz-adv-x="640" 
d="M311 754l-93 143l164 -1l80 -142h-151zM292 -10q-276 0 -234 335l48 385h181l-49 -404q-4 -42 -2 -74.5t20.5 -52.5t52.5 -20q44 0 71.5 31.5t36.5 108.5l51 411h180l-51 -417q-20 -165 -94.5 -234t-210.5 -69z" />
    <glyph glyph-name="Uacute" unicode="&#xda;" horiz-adv-x="640" 
d="M296 754l115 142l165 1l-131 -143h-149zM292 -10q-276 0 -234 335l48 385h181l-49 -404q-4 -42 -2 -74.5t20.5 -52.5t52.5 -20q44 0 71.5 31.5t36.5 108.5l51 411h180l-51 -417q-20 -165 -94.5 -234t-210.5 -69z" />
    <glyph glyph-name="Ucircumflex" unicode="&#xdb;" horiz-adv-x="640" 
d="M214 754l101 143h172l68 -143h-138l-26 61h-1l-42 -61h-134zM292 -10q-276 0 -234 335l48 385h181l-49 -404q-4 -42 -2 -74.5t20.5 -52.5t52.5 -20q44 0 71.5 31.5t36.5 108.5l51 411h180l-51 -417q-20 -165 -94.5 -234t-210.5 -69z" />
    <glyph glyph-name="Udieresis" unicode="&#xdc;" horiz-adv-x="640" 
d="M275 748q-44 0 -71.5 26.5t-27.5 67.5t28.5 68t73.5 27q44 0 71.5 -26t27.5 -66q0 -42 -28.5 -69.5t-73.5 -27.5zM505 748q-44 0 -71.5 26.5t-27.5 67.5t28.5 68t74.5 27q44 0 71.5 -26t27.5 -66q0 -42 -28.5 -69.5t-74.5 -27.5zM292 -10q-276 0 -234 335l48 385h181
l-49 -404q-4 -42 -2 -74.5t20.5 -52.5t52.5 -20q44 0 71.5 31.5t36.5 108.5l51 411h180l-51 -417q-20 -165 -94.5 -234t-210.5 -69z" />
    <glyph glyph-name="Yacute" unicode="&#xdd;" horiz-adv-x="581" 
d="M275 754l115 142l165 1l-131 -143h-149zM168 0l39 308l-155 402h199l66 -233h3l119 233h206l-255 -402l-38 -308h-184z" />
    <glyph glyph-name="Thorn" unicode="&#xde;" horiz-adv-x="582" 
d="M26 0l87 710h177l-14 -111h95q102 0 153 -55.5t51 -144.5q0 -129 -75.5 -209t-208.5 -80h-75l-13 -110h-177zM236 268h58q41 0 67 31t26 74q0 34 -18.5 50t-44.5 16h-67z" />
    <glyph glyph-name="germandbls" unicode="&#xdf;" horiz-adv-x="642" 
d="M436 -10q-50 0 -100.5 22t-84.5 62l90 95q49 -55 92 -55q29 0 29 20q0 9 -11.5 18t-51.5 31q-109 57 -109 142q0 27 12.5 54.5t23.5 41t35 40.5q47 54 50 92q4 51 -74 51q-36 0 -59 -24t-28 -69l-62 -511h-171l64 525q27 221 252 221q73 0 127.5 -18t87 -60t30.5 -105
q-2 -68 -55 -125q-8 -9 -23 -23t-22.5 -21.5t-13.5 -18t-6 -19.5q0 -25 39 -48q31 -18 44 -26t33 -23.5t28 -28t14.5 -31t6.5 -41.5q0 -81 -52.5 -124.5t-134.5 -43.5z" />
    <glyph glyph-name="agrave" unicode="&#xe0;" horiz-adv-x="548" 
d="M266 558l-92 152l164 -1l79 -151h-151zM176 -10q-73 0 -114 56.5t-41 144.5q0 135 67 222t159 87q70 0 109 -42h3l4 32h171l-60 -490h-171l8 63l-3 1q-53 -74 -132 -74zM237 141q35 0 66.5 43.5t43.5 122.5l2 11q-28 31 -67 31t-64.5 -45t-25.5 -95q0 -30 12.5 -49
t32.5 -19z" />
    <glyph glyph-name="aacute" unicode="&#xe1;" horiz-adv-x="548" 
d="M228 557l116 151l168 1l-130 -152h-154zM176 -10q-73 0 -114 56.5t-41 144.5q0 135 67 222t159 87q70 0 109 -42h3l4 32h171l-60 -490h-171l8 63l-3 1q-53 -74 -132 -74zM237 141q35 0 66.5 43.5t43.5 122.5l2 11q-28 31 -67 31t-64.5 -45t-25.5 -95q0 -30 12.5 -49
t32.5 -19z" />
    <glyph glyph-name="acircumflex" unicode="&#xe2;" horiz-adv-x="548" 
d="M145 554l113 155h145l82 -155h-141l-18 73h-1l-35 -73h-145zM176 -10q-73 0 -114 56.5t-41 144.5q0 135 67 222t159 87q70 0 109 -42h3l4 32h171l-60 -490h-171l8 63l-3 1q-53 -74 -132 -74zM237 141q35 0 66.5 43.5t43.5 122.5l2 11q-28 31 -67 31t-64.5 -45t-25.5 -95
q0 -30 12.5 -49t32.5 -19z" />
    <glyph glyph-name="atilde" unicode="&#xe3;" horiz-adv-x="548" 
d="M401 548q-36 0 -77 29q-21 16 -42 16q-33 0 -58 -49l-92 45q24 58 58.5 92.5t76.5 34.5q40 0 76 -26q25 -17 40 -17q34 0 60 48l91 -38q-23 -61 -57 -98t-76 -37zM176 -10q-73 0 -114 56.5t-41 144.5q0 135 67 222t159 87q70 0 109 -42h3l4 32h171l-60 -490h-171l8 63
l-3 1q-53 -74 -132 -74zM237 141q35 0 66.5 43.5t43.5 122.5l2 11q-28 31 -67 31t-64.5 -45t-25.5 -95q0 -30 12.5 -49t32.5 -19z" />
    <glyph glyph-name="adieresis" unicode="&#xe4;" horiz-adv-x="548" 
d="M210 546q-44 0 -71.5 26.5t-27.5 67.5t28.5 68t73.5 27q44 0 71.5 -26t27.5 -66q0 -42 -28.5 -69.5t-73.5 -27.5zM440 546q-44 0 -71.5 26.5t-27.5 67.5t28.5 68t74.5 27q44 0 71.5 -26t27.5 -66q0 -42 -28.5 -69.5t-74.5 -27.5zM176 -10q-73 0 -114 56.5t-41 144.5
q0 135 67 222t159 87q70 0 109 -42h3l4 32h171l-60 -490h-171l8 63l-3 1q-53 -74 -132 -74zM237 141q35 0 66.5 43.5t43.5 122.5l2 11q-28 31 -67 31t-64.5 -45t-25.5 -95q0 -30 12.5 -49t32.5 -19z" />
    <glyph glyph-name="aring" unicode="&#xe5;" horiz-adv-x="548" 
d="M327 537q-45 0 -75 30.5t-30 74.5q0 46 31 76.5t77 30.5q45 0 75 -29.5t30 -73.5q0 -47 -31 -78t-77 -31zM329 608q15 0 25 10t10 26q0 14 -10 24t-24 10q-16 0 -26.5 -10t-10.5 -25t10 -25t26 -10zM176 -10q-73 0 -114 56.5t-41 144.5q0 135 67 222t159 87q70 0 109 -42
h3l4 32h171l-60 -490h-171l8 63l-3 1q-53 -74 -132 -74zM237 141q35 0 66.5 43.5t43.5 122.5l2 11q-28 31 -67 31t-64.5 -45t-25.5 -95q0 -30 12.5 -49t32.5 -19z" />
    <glyph glyph-name="ae" unicode="&#xe6;" horiz-adv-x="684" 
d="M469 126q40 0 72 46l123 -68q-73 -114 -203 -114q-115 0 -154 78q-54 -79 -138 -79q-71 0 -115.5 48t-44.5 137q0 141 72.5 230t201.5 89q65 0 116 -21q50 28 116 28q69 0 120.5 -34.5t51.5 -104.5q0 -51 -40.5 -91.5t-101.5 -63t-135 -30.5q14 -50 59 -50zM501 362
q-27 0 -50.5 -26t-35.5 -68q112 20 112 72q0 22 -26 22zM209 132q24 0 42.5 47t28.5 103q8 45 23 77q-54 -4 -89 -51t-35 -120q0 -56 30 -56z" />
    <glyph glyph-name="ccedilla" unicode="&#xe7;" horiz-adv-x="474" 
d="M245 141q39 0 72 45l132 -80q-71 -109 -200 -116l-15 -19l1 -1q75 -3 75 -67q0 -96 -131 -96q-32 0 -58 6l2 65q16 -6 41 -6q49 0 49 31q0 23 -63 23l1 39l20 31q-71 16 -110 70t-39 140q0 56 17 108t48.5 94t82 67t113.5 25q127 0 192 -95l-129 -97q-19 42 -56 42
q-42 0 -69.5 -42t-27.5 -98q0 -30 13 -49.5t39 -19.5z" />
    <glyph glyph-name="egrave" unicode="&#xe8;" horiz-adv-x="475" 
d="M387 558h-151l-92 152l164 -1zM467 363q-4 -157 -282 -185q6 -26 23 -39t37 -13q46 0 78 47l124 -67q-73 -116 -218 -116q-94 0 -151.5 56t-56.5 150q0 129 76 216.5t198 87.5q67 0 120 -35.5t52 -101.5zM307 334q2 28 -28 28q-29 0 -53.5 -25.5t-35.5 -67.5
q115 13 117 65z" />
    <glyph glyph-name="eacute" unicode="&#xe9;" horiz-adv-x="475" 
d="M500 709l-130 -152h-154l116 151zM295 500q67 0 120 -35.5t52 -101.5q-4 -157 -282 -185q6 -26 23 -39t37 -13q46 0 78 47l124 -67q-73 -116 -218 -116q-94 0 -151.5 56t-56.5 150q0 129 76 216.5t198 87.5zM307 334q2 28 -28 28q-29 0 -53.5 -25.5t-35.5 -67.5
q115 13 117 65z" />
    <glyph glyph-name="ecircumflex" unicode="&#xea;" horiz-adv-x="475" 
d="M303 627l-35 -73h-145l113 155h145l82 -155h-141l-18 73h-1zM467 363q-4 -157 -282 -185q6 -26 23 -39t37 -13q46 0 78 47l124 -67q-73 -116 -218 -116q-94 0 -151.5 56t-56.5 150q0 129 76 216.5t198 87.5q67 0 120 -35.5t52 -101.5zM307 334q2 28 -28 28
q-29 0 -53.5 -25.5t-35.5 -67.5q115 13 117 65z" />
    <glyph glyph-name="edieresis" unicode="&#xeb;" horiz-adv-x="475" 
d="M188 546q-44 0 -71.5 26.5t-27.5 67.5t28.5 68t73.5 27q44 0 71.5 -26t27.5 -66q0 -42 -28.5 -69.5t-73.5 -27.5zM422 735q44 0 71.5 -26t27.5 -66q0 -42 -28.5 -69.5t-74.5 -27.5q-44 0 -71.5 26.5t-27.5 67.5t28.5 68t74.5 27zM295 500q67 0 120 -35.5t52 -101.5
q-4 -157 -282 -185q6 -26 23 -39t37 -13q46 0 78 47l124 -67q-73 -116 -218 -116q-94 0 -151.5 56t-56.5 150q0 129 76 216.5t198 87.5zM307 334q2 28 -28 28q-29 0 -53.5 -25.5t-35.5 -67.5q115 13 117 65z" />
    <glyph glyph-name="igrave" unicode="&#xec;" horiz-adv-x="272" 
d="M91 558l-54 152l165 -1l40 -151h-151zM20 0l61 490h169l-60 -490h-170z" />
    <glyph glyph-name="iacute" unicode="&#xed;" horiz-adv-x="273" 
d="M97 557l116 151l168 1l-130 -152h-154zM21 0l61 490h169l-60 -490h-170z" />
    <glyph glyph-name="icircumflex" unicode="&#xee;" horiz-adv-x="273" 
d="M6 554l113 155h145l82 -155h-141l-18 73h-1l-35 -73h-145zM21 0l61 490h169l-60 -490h-170z" />
    <glyph glyph-name="idieresis" unicode="&#xef;" horiz-adv-x="273" 
d="M90 547q-37 0 -62.5 27t-25.5 66q0 40 26.5 67t64.5 27t63.5 -26t25.5 -65q0 -41 -26 -68.5t-66 -27.5zM284 547q-37 0 -62.5 27t-25.5 66q0 40 26 67t66 27q37 0 62 -26t25 -65q0 -41 -26 -68.5t-65 -27.5zM21 0l61 490h169l-60 -490h-170z" />
    <glyph glyph-name="eth" unicode="&#xf0;" horiz-adv-x="525" 
d="M424 584q16 -21 30 -45q54 -95 53 -217q-2 -148 -68.5 -240t-201.5 -92q-103 0 -159 59.5t-56 160.5q0 112 68 189.5t159 77.5q36 0 66 -14l-3 7q-22 47 -61 80.5t-114 80.5l68 116q79 -36 134 -80l87 107l90 -81zM245 140q40 0 65.5 47.5t26.5 128.5q-25 19 -54 19
q-39 0 -64.5 -40t-25.5 -82q0 -39 16 -56t36 -17z" />
    <glyph glyph-name="ntilde" unicode="&#xf1;" horiz-adv-x="542" 
d="M411 548q-36 0 -77 29q-21 16 -42 16q-33 0 -58 -49l-92 45q24 58 58.5 92.5t76.5 34.5q40 0 76 -26q25 -17 40 -17q34 0 60 48l91 -38q-23 -61 -57 -98t-76 -37zM17 0l60 490h170l-8 -61l3 -1q63 72 155 72q135 0 109 -198l-39 -302h-169l34 255q6 49 2 71t-22 22
q-32 0 -62.5 -42t-40.5 -126l-22 -180h-170z" />
    <glyph glyph-name="ograve" unicode="&#xf2;" horiz-adv-x="529" 
d="M239 558l-92 152l164 -1l79 -151h-151zM229 -10q-94 0 -150.5 56.5t-56.5 156.5q0 124 73.5 210.5t201.5 86.5q96 0 153 -56.5t57 -156.5q0 -60 -16 -112t-48.5 -94t-87.5 -66.5t-126 -24.5zM245 141q40 0 65 41t25 95q0 39 -16.5 55t-36.5 16q-40 0 -64 -43t-24 -97
q0 -35 16.5 -51t34.5 -16z" />
    <glyph glyph-name="oacute" unicode="&#xf3;" horiz-adv-x="529" 
d="M233 557l116 151l168 1l-130 -152h-154zM229 -10q-94 0 -150.5 56.5t-56.5 156.5q0 124 73.5 210.5t201.5 86.5q96 0 153 -56.5t57 -156.5q0 -60 -16 -112t-48.5 -94t-87.5 -66.5t-126 -24.5zM245 141q40 0 65 41t25 95q0 39 -16.5 55t-36.5 16q-40 0 -64 -43t-24 -97
q0 -35 16.5 -51t34.5 -16z" />
    <glyph glyph-name="ocircumflex" unicode="&#xf4;" horiz-adv-x="529" 
d="M140 554l113 155h145l82 -155h-141l-18 73h-1l-35 -73h-145zM229 -10q-94 0 -150.5 56.5t-56.5 156.5q0 124 73.5 210.5t201.5 86.5q96 0 153 -56.5t57 -156.5q0 -60 -16 -112t-48.5 -94t-87.5 -66.5t-126 -24.5zM245 141q40 0 65 41t25 95q0 39 -16.5 55t-36.5 16
q-40 0 -64 -43t-24 -97q0 -35 16.5 -51t34.5 -16z" />
    <glyph glyph-name="otilde" unicode="&#xf5;" horiz-adv-x="529" 
d="M396 548q-36 0 -77 29q-21 16 -42 16q-33 0 -58 -49l-92 45q24 58 58.5 92.5t76.5 34.5q40 0 76 -26q25 -17 40 -17q34 0 60 48l91 -38q-23 -61 -57 -98t-76 -37zM229 -10q-94 0 -150.5 56.5t-56.5 156.5q0 124 73.5 210.5t201.5 86.5q96 0 153 -56.5t57 -156.5
q0 -60 -16 -112t-48.5 -94t-87.5 -66.5t-126 -24.5zM245 141q40 0 65 41t25 95q0 39 -16.5 55t-36.5 16q-40 0 -64 -43t-24 -97q0 -35 16.5 -51t34.5 -16z" />
    <glyph glyph-name="odieresis" unicode="&#xf6;" horiz-adv-x="529" 
d="M205 546q-44 0 -71.5 26.5t-27.5 67.5t28.5 68t73.5 27q44 0 71.5 -26t27.5 -66q0 -42 -28.5 -69.5t-73.5 -27.5zM435 546q-44 0 -71.5 26.5t-27.5 67.5t28.5 68t74.5 27q44 0 71.5 -26t27.5 -66q0 -42 -28.5 -69.5t-74.5 -27.5zM229 -10q-94 0 -150.5 56.5t-56.5 156.5
q0 124 73.5 210.5t201.5 86.5q96 0 153 -56.5t57 -156.5q0 -60 -16 -112t-48.5 -94t-87.5 -66.5t-126 -24.5zM245 141q40 0 65 41t25 95q0 39 -16.5 55t-36.5 16q-40 0 -64 -43t-24 -97q0 -35 16.5 -51t34.5 -16z" />
    <glyph glyph-name="divide" unicode="&#xf7;" horiz-adv-x="513" 
d="M283 396q-40 0 -65 24t-25 61t26 61.5t67 24.5q40 0 65 -24t25 -60q0 -38 -25.5 -62.5t-67.5 -24.5zM43 207l18 140h432l-17 -140h-433zM242 -11q-40 0 -65 24t-25 61t26 61.5t67 24.5q40 0 65 -24t25 -60q0 -38 -25.5 -62.5t-67.5 -24.5z" />
    <glyph glyph-name="oslash" unicode="&#xf8;" horiz-adv-x="528" 
d="M521 466l-48 -51q34 -51 34 -128q0 -60 -16 -112t-48.5 -94t-87.5 -66.5t-126 -24.5q-75 0 -125 35l-46 -48l-45 43l47 49q-38 54 -38 134q0 124 73.5 210.5t201.5 86.5q80 0 134 -40l46 48zM282 348q-39 0 -63 -42t-25 -96l120 127q-14 11 -32 11zM245 141q38 0 63 38
t27 90l-115 -120q12 -8 25 -8z" />
    <glyph glyph-name="ugrave" unicode="&#xf9;" horiz-adv-x="536" 
d="M227 558l-92 152l164 -1l79 -151h-151zM158 -10q-152 0 -124 193l43 307h169l-36 -244q-6 -41 -6 -63t6.5 -32t21.5 -10q27 0 55 38t33 78l29 233h170l-60 -490h-166l4 64h-3q-58 -74 -136 -74z" />
    <glyph glyph-name="uacute" unicode="&#xfa;" horiz-adv-x="536" 
d="M237 557l116 151l168 1l-130 -152h-154zM158 -10q-152 0 -124 193l43 307h169l-36 -244q-6 -41 -6 -63t6.5 -32t21.5 -10q27 0 55 38t33 78l29 233h170l-60 -490h-166l4 64h-3q-58 -74 -136 -74z" />
    <glyph glyph-name="ucircumflex" unicode="&#xfb;" horiz-adv-x="536" 
d="M138 554l113 155h145l82 -155h-141l-18 73h-1l-35 -73h-145zM158 -10q-152 0 -124 193l43 307h169l-36 -244q-6 -41 -6 -63t6.5 -32t21.5 -10q27 0 55 38t33 78l29 233h170l-60 -490h-166l4 64h-3q-58 -74 -136 -74z" />
    <glyph glyph-name="udieresis" unicode="&#xfc;" horiz-adv-x="536" 
d="M203 546q-44 0 -71.5 26.5t-27.5 67.5t28.5 68t73.5 27q44 0 71.5 -26t27.5 -66q0 -42 -28.5 -69.5t-73.5 -27.5zM433 546q-44 0 -71.5 26.5t-27.5 67.5t28.5 68t74.5 27q44 0 71.5 -26t27.5 -66q0 -42 -28.5 -69.5t-74.5 -27.5zM158 -10q-152 0 -124 193l43 307h169
l-36 -244q-6 -41 -6 -63t6.5 -32t21.5 -10q27 0 55 38t33 78l29 233h170l-60 -490h-166l4 64h-3q-58 -74 -136 -74z" />
    <glyph glyph-name="yacute" unicode="&#xfd;" horiz-adv-x="528" 
d="M502 709l-130 -152h-154l116 151zM344 490h170l-52 -421q-34 -277 -282 -277q-100 0 -180 48l52 122q52 -35 116 -35q51 0 80.5 27.5t42.5 108.5h-3q-56 -73 -136 -73q-151 0 -123 193l43 307h169l-35 -244q-9 -59 -5 -82t27 -23q26 0 54 38t33 75z" />
    <glyph glyph-name="thorn" unicode="&#xfe;" horiz-adv-x="551" 
d="M-8 -198l115 934h171l-38 -311l1 -1q54 76 134 76q73 0 114 -56.5t41 -145.5q0 -135 -68 -221.5t-163 -86.5q-63 0 -106 29l-4 -2l-26 -215h-171zM254 141q50 0 77.5 40.5t27.5 98.5q0 31 -13 50t-33 19q-36 0 -68 -46.5t-44 -133.5l-1 -7q21 -21 54 -21z" />
    <glyph glyph-name="ydieresis" unicode="&#xff;" horiz-adv-x="528" 
d="M190 546q-44 0 -71.5 26.5t-27.5 67.5t28.5 68t73.5 27q44 0 71.5 -26t27.5 -66q0 -42 -28.5 -69.5t-73.5 -27.5zM420 546q-44 0 -71.5 26.5t-27.5 67.5t28.5 68t74.5 27q44 0 71.5 -26t27.5 -66q0 -42 -28.5 -69.5t-74.5 -27.5zM315 254l29 236h170l-52 -421
q-34 -277 -282 -277q-100 0 -180 48l52 122q52 -35 116 -35q51 0 80.5 27.5t42.5 108.5h-3q-56 -73 -136 -73q-151 0 -123 193l43 307h169l-35 -244q-9 -59 -5 -82t27 -23q26 0 54 38t33 75z" />
    <glyph glyph-name="Amacron" unicode="&#x100;" horiz-adv-x="629" 
d="M236 776l16 122h291l-16 -122h-291zM-33 0l318 710h170l144 -710h-188l-18 120h-192l-43 -120h-191zM256 270h115l-33 222h-2z" />
    <glyph glyph-name="amacron" unicode="&#x101;" horiz-adv-x="548" 
d="M174 579l16 127h291l-16 -127h-291zM176 -10q-73 0 -114 56.5t-41 144.5q0 135 67 222t159 87q70 0 109 -42h3l4 32h171l-60 -490h-171l8 63l-3 1q-53 -74 -132 -74zM237 141q35 0 66.5 43.5t43.5 122.5l2 11q-28 31 -67 31t-64.5 -45t-25.5 -95q0 -30 12.5 -49t32.5 -19
z" />
    <glyph glyph-name="Abreve" unicode="&#x102;" horiz-adv-x="629" 
d="M377 747q-73 0 -109 40t-31 110h119q-2 -17 7 -28.5t27 -11.5q20 0 35 12t21 28h120q-14 -67 -60 -108.5t-129 -41.5zM-33 0l318 710h170l144 -710h-188l-18 120h-192l-43 -120h-191zM256 270h115l-33 222h-2z" />
    <glyph glyph-name="abreve" unicode="&#x103;" horiz-adv-x="548" 
d="M310 534q-70 0 -107 42.5t-33 118.5h119q-2 -17 7 -29t27 -12q20 0 35 12t21 29h120q-13 -72 -62 -116.5t-127 -44.5zM176 -10q-73 0 -114 56.5t-41 144.5q0 135 67 222t159 87q70 0 109 -42h3l4 32h171l-60 -490h-171l8 63l-3 1q-53 -74 -132 -74zM237 141
q35 0 66.5 43.5t43.5 122.5l2 11q-28 31 -67 31t-64.5 -45t-25.5 -95q0 -30 12.5 -49t32.5 -19z" />
    <glyph glyph-name="Aogonek" unicode="&#x104;" horiz-adv-x="629" 
d="M569 0q-38 -1 -68.5 -27.5t-30.5 -57.5q0 -21 23 -21q16 0 30 6l2 -82q-30 -10 -77 -10q-100 0 -100 80q0 66 63 114l-18 118h-192l-43 -120h-191l318 710h170l144 -710h-30zM256 270h115l-33 222h-2z" />
    <glyph glyph-name="aogonek" unicode="&#x105;" horiz-adv-x="548" 
d="M363 490h171l-60 -490h-15q-38 -1 -68.5 -27.5t-30.5 -57.5q0 -21 23 -21q16 0 30 6l2 -82q-30 -10 -77 -10q-100 0 -100 80q0 66 65 116l8 59l-3 1q-53 -74 -132 -74q-73 0 -114 56.5t-41 144.5q0 135 67 222t159 87q70 0 109 -42h3zM237 141q35 0 66.5 43.5t43.5 122.5
l2 11q-28 31 -67 31t-64.5 -45t-25.5 -95q0 -30 12.5 -49t32.5 -19z" />
    <glyph glyph-name="Cacute" unicode="&#x106;" horiz-adv-x="644" 
d="M336 754l115 142l165 1l-131 -143h-149zM334 -10q-130 0 -211 78t-81 223q0 181 105.5 305t274.5 124q69 0 135 -35.5t112 -113.5l-141 -109q-47 84 -117 84q-79 0 -128.5 -75.5t-49.5 -170.5q0 -65 30.5 -100t83.5 -35q81 0 135 66l125 -118q-103 -123 -273 -123z" />
    <glyph glyph-name="cacute" unicode="&#x107;" horiz-adv-x="474" 
d="M223 557l116 151l168 1l-130 -152h-154zM231 -10q-98 0 -153.5 56.5t-55.5 159.5q0 56 17 108t48.5 94t82 67t113.5 25q127 0 192 -95l-129 -97q-19 42 -56 42q-42 0 -69.5 -42t-27.5 -98q0 -30 13 -49.5t39 -19.5q39 0 72 45l132 -80q-75 -116 -218 -116z" />
    <glyph glyph-name="Ccircumflex" unicode="&#x108;" horiz-adv-x="644" 
d="M273 754l101 143h172l68 -143h-138l-26 61h-1l-42 -61h-134zM334 -10q-130 0 -211 78t-81 223q0 181 105.5 305t274.5 124q69 0 135 -35.5t112 -113.5l-141 -109q-47 84 -117 84q-79 0 -128.5 -75.5t-49.5 -170.5q0 -65 30.5 -100t83.5 -35q81 0 135 66l125 -118
q-103 -123 -273 -123z" />
    <glyph glyph-name="ccircumflex" unicode="&#x109;" horiz-adv-x="474" 
d="M134 554l113 155h145l82 -155h-141l-18 73h-1l-35 -73h-145zM231 -10q-98 0 -153.5 56.5t-55.5 159.5q0 56 17 108t48.5 94t82 67t113.5 25q127 0 192 -95l-129 -97q-19 42 -56 42q-42 0 -69.5 -42t-27.5 -98q0 -30 13 -49.5t39 -19.5q39 0 72 45l132 -80
q-75 -116 -218 -116z" />
    <glyph glyph-name="Cdotaccent" unicode="&#x10a;" horiz-adv-x="644" 
d="M450 748q-45 0 -72.5 26.5t-27.5 67.5t28.5 68t74.5 27q44 0 71.5 -26t27.5 -66q0 -42 -28.5 -69.5t-73.5 -27.5zM334 -10q-130 0 -211 78t-81 223q0 181 105.5 305t274.5 124q69 0 135 -35.5t112 -113.5l-141 -109q-47 84 -117 84q-79 0 -128.5 -75.5t-49.5 -170.5
q0 -65 30.5 -100t83.5 -35q81 0 135 66l125 -118q-103 -123 -273 -123z" />
    <glyph glyph-name="cdotaccent" unicode="&#x10b;" horiz-adv-x="474" 
d="M311 546q-45 0 -72.5 26.5t-27.5 67.5t28.5 68t74.5 27q44 0 71.5 -26t27.5 -66q0 -42 -28.5 -69.5t-73.5 -27.5zM231 -10q-98 0 -153.5 56.5t-55.5 159.5q0 56 17 108t48.5 94t82 67t113.5 25q127 0 192 -95l-129 -97q-19 42 -56 42q-42 0 -69.5 -42t-27.5 -98
q0 -30 13 -49.5t39 -19.5q39 0 72 45l132 -80q-75 -116 -218 -116z" />
    <glyph glyph-name="Ccaron" unicode="&#x10c;" horiz-adv-x="644" 
d="M358 754l-68 143h138l26 -61h1l42 61h134l-101 -143h-172zM334 -10q-130 0 -211 78t-81 223q0 181 105.5 305t274.5 124q69 0 135 -35.5t112 -113.5l-141 -109q-47 84 -117 84q-79 0 -128.5 -75.5t-49.5 -170.5q0 -65 30.5 -100t83.5 -35q81 0 135 66l125 -118
q-103 -123 -273 -123z" />
    <glyph glyph-name="ccaron" unicode="&#x10d;" horiz-adv-x="474" 
d="M222 544l-67 151h138l25 -69h1l41 69h135l-101 -151h-172zM231 -10q-98 0 -153.5 56.5t-55.5 159.5q0 56 17 108t48.5 94t82 67t113.5 25q127 0 192 -95l-129 -97q-19 42 -56 42q-42 0 -69.5 -42t-27.5 -98q0 -30 13 -49.5t39 -19.5q39 0 72 45l132 -80
q-75 -116 -218 -116z" />
    <glyph glyph-name="Dcaron" unicode="&#x10e;" horiz-adv-x="653" 
d="M291 752l-68 143h138l26 -61h1l42 61h134l-101 -143h-172zM26 0l87 710h230q145 0 219.5 -78.5t74.5 -217.5q0 -185 -104 -299.5t-285 -114.5h-222zM221 161h48q88 0 134 71t46 178q0 139 -128 139h-52z" />
    <glyph glyph-name="dcaron" unicode="&#x10f;" horiz-adv-x="594" 
d="M586 574l59 223h156l-99 -223h-116zM176 -10q-73 0 -114 56.5t-41 144.5q0 135 67 222t159 87q69 0 109 -42h3l34 278h171l-90 -736h-171l8 63l-3 1q-53 -74 -132 -74zM237 141q35 0 66.5 43.5t43.5 122.5l2 11q-28 31 -67 31t-64.5 -45t-25.5 -95q0 -30 12.5 -49
t32.5 -19z" />
    <glyph glyph-name="Dcroat" unicode="&#x110;" horiz-adv-x="654" 
d="M344 710q145 0 219.5 -78.5t74.5 -217.5q0 -185 -104 -299.5t-285 -114.5h-222l33 271h-40l20 152h39l35 287h230zM270 161q88 0 134 71t46 178q0 139 -128 139h-52l-16 -126h98l-21 -152h-95l-14 -110h48z" />
    <glyph glyph-name="dcroat" unicode="&#x111;" horiz-adv-x="533" 
d="M588 637l-12 -98h-36l-66 -539h-171l8 63l-3 1q-53 -74 -132 -74q-73 0 -114 56.5t-41 144.5q0 135 67 222t159 87q69 0 109 -42h3l10 81h-151l12 98h151l12 99h171l-12 -99h36zM347 307l2 11q-28 31 -67 31t-64.5 -45t-25.5 -95q0 -30 12.5 -49t32.5 -19q35 0 66.5 43.5
t43.5 122.5z" />
    <glyph glyph-name="Emacron" unicode="&#x112;" horiz-adv-x="533" 
d="M192 774l16 122h291l-16 -122h-291zM25 0l87 710h428l-20 -161h-252l-15 -118h196l-18 -155h-196l-15 -115h271l-20 -161h-446z" />
    <glyph glyph-name="emacron" unicode="&#x113;" horiz-adv-x="475" 
d="M459 706l-16 -127h-291l16 127h291zM467 363q-4 -157 -282 -185q6 -26 23 -39t37 -13q46 0 78 47l124 -67q-73 -116 -218 -116q-94 0 -151.5 56t-56.5 150q0 129 76 216.5t198 87.5q67 0 120 -35.5t52 -101.5zM307 334q2 28 -28 28q-29 0 -53.5 -25.5t-35.5 -67.5
q115 13 117 65z" />
    <glyph glyph-name="Ebreve" unicode="&#x114;" horiz-adv-x="533" 
d="M333 745q-73 0 -109 40t-31 110h119q-2 -17 7 -28.5t27 -11.5q20 0 35 12t21 28h120q-14 -67 -60 -108.5t-129 -41.5zM25 0l87 710h428l-20 -161h-252l-15 -118h196l-18 -155h-196l-15 -115h271l-20 -161h-446z" />
    <glyph glyph-name="ebreve" unicode="&#x115;" horiz-adv-x="475" 
d="M288 534q-70 0 -107 42.5t-33 118.5h119q-2 -17 7 -29t27 -12q20 0 35 12t21 29h120q-13 -72 -62 -116.5t-127 -44.5zM295 500q67 0 120 -35.5t52 -101.5q-4 -157 -282 -185q6 -26 23 -39t37 -13q46 0 78 47l124 -67q-73 -116 -218 -116q-94 0 -151.5 56t-56.5 150
q0 129 76 216.5t198 87.5zM307 334q2 28 -28 28q-29 0 -53.5 -25.5t-35.5 -67.5q115 13 117 65z" />
    <glyph glyph-name="Edotaccent" unicode="&#x116;" horiz-adv-x="533" 
d="M344 746q-45 0 -72.5 26.5t-27.5 67.5t28.5 68t74.5 27q44 0 71.5 -26t27.5 -66q0 -42 -28.5 -69.5t-73.5 -27.5zM25 0l87 710h428l-20 -161h-252l-15 -118h196l-18 -155h-196l-15 -115h271l-20 -161h-446z" />
    <glyph glyph-name="edotaccent" unicode="&#x117;" horiz-adv-x="475" 
d="M300 546q-45 0 -72.5 26.5t-27.5 67.5t28.5 68t74.5 27q44 0 71.5 -26t27.5 -66q0 -42 -28.5 -69.5t-73.5 -27.5zM467 363q-4 -157 -282 -185q6 -26 23 -39t37 -13q46 0 78 47l124 -67q-73 -116 -218 -116q-94 0 -151.5 56t-56.5 150q0 129 76 216.5t198 87.5
q67 0 120 -35.5t52 -101.5zM307 334q2 28 -28 28q-29 0 -53.5 -25.5t-35.5 -67.5q115 13 117 65z" />
    <glyph glyph-name="Eogonek" unicode="&#x118;" horiz-adv-x="533" 
d="M520 549h-252l-15 -118h196l-18 -155h-196l-15 -115h271l-20 -161h-1q-38 -1 -68.5 -27.5t-30.5 -57.5q0 -21 23 -21q16 0 30 6l2 -82q-30 -10 -77 -10q-100 0 -100 80q0 63 61 112h-285l87 710h428z" />
    <glyph glyph-name="eogonek" unicode="&#x119;" horiz-adv-x="475" 
d="M467 363q-4 -157 -282 -185q6 -26 23 -39t37 -13q46 0 78 47l124 -67q-49 -79 -131 -104q-38 -15 -64 -38t-26 -49q0 -21 24 -21q15 0 29 6l2 -82q-30 -10 -76 -10q-101 0 -101 80q0 59 56 108v3q-66 19 -103 70.5t-36 126.5q0 129 76 216.5t198 87.5q67 0 120 -35.5
t52 -101.5zM307 334q2 28 -28 28q-29 0 -53.5 -25.5t-35.5 -67.5q115 13 117 65z" />
    <glyph glyph-name="Ecaron" unicode="&#x11a;" horiz-adv-x="533" 
d="M252 752l-68 143h138l26 -61h1l42 61h134l-101 -143h-172zM25 0l87 710h428l-20 -161h-252l-15 -118h196l-18 -155h-196l-15 -115h271l-20 -161h-446z" />
    <glyph glyph-name="ecaron" unicode="&#x11b;" horiz-adv-x="475" 
d="M383 544h-172l-67 151h138l25 -69h1l41 69h135zM295 500q67 0 120 -35.5t52 -101.5q-4 -157 -282 -185q6 -26 23 -39t37 -13q46 0 78 47l124 -67q-73 -116 -218 -116q-94 0 -151.5 56t-56.5 150q0 129 76 216.5t198 87.5zM307 334q2 28 -28 28q-29 0 -53.5 -25.5
t-35.5 -67.5q115 13 117 65z" />
    <glyph glyph-name="Gcircumflex" unicode="&#x11c;" horiz-adv-x="666" 
d="M256 752l101 143h172l68 -143h-138l-26 61h-1l-42 -61h-134zM334 -10q-129 0 -210.5 76t-81.5 222q0 183 105 307.5t274 124.5q75 0 140.5 -34.5t102.5 -97.5l-137 -105q-44 67 -117 67q-79 0 -128.5 -75.5t-49.5 -174.5q0 -70 31 -106t84 -36q49 0 94 27l11 71h-102
l18 148h273l-38 -329q-49 -37 -121.5 -61t-147.5 -24z" />
    <glyph glyph-name="gcircumflex" unicode="&#x11d;" horiz-adv-x="543" 
d="M327 627l-35 -73h-145l113 155h145l82 -155h-141l-18 73h-1zM359 490h170l-52 -426q-34 -272 -288 -272q-105 0 -184 48l52 128q58 -35 121 -35q55 0 86 28.5t44 113.5l-3 1q-54 -71 -129 -71q-72 0 -113.5 54t-41.5 132q0 135 67 222t159 87q69 0 106 -39l3 1zM237 156
q35 0 65 43.5t42 115.5l1 7q-27 27 -63 27q-39 0 -64.5 -44t-25.5 -91q0 -58 45 -58z" />
    <glyph glyph-name="Gbreve" unicode="&#x11e;" horiz-adv-x="666" 
d="M422 745q-73 0 -109 40t-31 110h119q-2 -17 7 -28.5t27 -11.5q20 0 35 12t21 28h120q-14 -67 -60 -108.5t-129 -41.5zM334 -10q-129 0 -210.5 76t-81.5 222q0 183 105 307.5t274 124.5q75 0 140.5 -34.5t102.5 -97.5l-137 -105q-44 67 -117 67q-79 0 -128.5 -75.5
t-49.5 -174.5q0 -70 31 -106t84 -36q49 0 94 27l11 71h-102l18 148h273l-38 -329q-49 -37 -121.5 -61t-147.5 -24z" />
    <glyph glyph-name="gbreve" unicode="&#x11f;" horiz-adv-x="543" 
d="M312 534q-70 0 -107 42.5t-33 118.5h119q-2 -17 7 -29t27 -12q20 0 35 12t21 29h120q-13 -72 -62 -116.5t-127 -44.5zM359 490h170l-52 -426q-34 -272 -288 -272q-105 0 -184 48l52 128q58 -35 121 -35q55 0 86 28.5t44 113.5l-3 1q-54 -71 -129 -71q-72 0 -113.5 54
t-41.5 132q0 135 67 222t159 87q69 0 106 -39l3 1zM237 156q35 0 65 43.5t42 115.5l1 7q-27 27 -63 27q-39 0 -64.5 -44t-25.5 -91q0 -58 45 -58z" />
    <glyph glyph-name="Gdotaccent" unicode="&#x120;" horiz-adv-x="666" 
d="M433 746q-45 0 -72.5 26.5t-27.5 67.5t28.5 68t74.5 27q44 0 71.5 -26t27.5 -66q0 -42 -28.5 -69.5t-73.5 -27.5zM334 -10q-129 0 -210.5 76t-81.5 222q0 183 105 307.5t274 124.5q75 0 140.5 -34.5t102.5 -97.5l-137 -105q-44 67 -117 67q-79 0 -128.5 -75.5
t-49.5 -174.5q0 -70 31 -106t84 -36q49 0 94 27l11 71h-102l18 148h273l-38 -329q-49 -37 -121.5 -61t-147.5 -24z" />
    <glyph glyph-name="gdotaccent" unicode="&#x121;" horiz-adv-x="543" 
d="M324 546q-45 0 -72.5 26.5t-27.5 67.5t28.5 68t74.5 27q44 0 71.5 -26t27.5 -66q0 -42 -28.5 -69.5t-73.5 -27.5zM359 490h170l-52 -426q-34 -272 -288 -272q-105 0 -184 48l52 128q58 -35 121 -35q55 0 86 28.5t44 113.5l-3 1q-54 -71 -129 -71q-72 0 -113.5 54
t-41.5 132q0 135 67 222t159 87q69 0 106 -39l3 1zM237 156q35 0 65 43.5t42 115.5l1 7q-27 27 -63 27q-39 0 -64.5 -44t-25.5 -91q0 -58 45 -58z" />
    <glyph glyph-name="Gcommaaccent" unicode="&#x122;" horiz-adv-x="666" 
d="M334 -10q-129 0 -210.5 76t-81.5 222q0 183 105 307.5t274 124.5q75 0 140.5 -34.5t102.5 -97.5l-137 -105q-44 67 -117 67q-79 0 -128.5 -75.5t-49.5 -174.5q0 -70 31 -106t84 -36q49 0 94 27l11 71h-102l18 148h273l-38 -329q-49 -37 -121.5 -61t-147.5 -24zM221 -222
l-15 95q30 4 42.5 15t12.5 34q0 10 -3 25h132q2 -16 2 -24q0 -71 -45.5 -108t-125.5 -37z" />
    <glyph glyph-name="gcommaaccent" unicode="&#x123;" horiz-adv-x="543" 
d="M392 569h-132q-2 16 -2 24q0 71 45.5 108t125.5 37l15 -95q-30 -4 -42.5 -15t-12.5 -34q0 -10 3 -25zM359 490h170l-52 -426q-34 -272 -288 -272q-105 0 -184 48l52 128q58 -35 121 -35q55 0 86 28.5t44 113.5l-3 1q-54 -71 -129 -71q-72 0 -113.5 54t-41.5 132
q0 135 67 222t159 87q69 0 106 -39l3 1zM237 156q35 0 65 43.5t42 115.5l1 7q-27 27 -63 27q-39 0 -64.5 -44t-25.5 -91q0 -58 45 -58z" />
    <glyph glyph-name="Hcircumflex" unicode="&#x124;" horiz-adv-x="655" 
d="M220 754l101 143h172l68 -143h-138l-26 61h-1l-42 -61h-134zM26 0l87 710h183l-35 -287h176l35 287h184l-88 -710h-183l32 262h-176l-32 -262h-183z" />
    <glyph glyph-name="hcircumflex" unicode="&#x125;" horiz-adv-x="542" 
d="M174 767l101 143h172l68 -143h-138l-26 61h-1l-42 -61h-134zM17 0l90 736h169l-38 -306l3 -2q64 72 156 72q135 0 109 -198l-39 -302h-169l34 255q6 49 2 71t-22 22q-33 0 -64 -43.5t-41 -129.5l-21 -175h-169z" />
    <glyph glyph-name="Hbar" unicode="&#x126;" horiz-adv-x="655" 
d="M684 626l-14 -114h-39l-63 -512h-183l32 262h-176l-32 -262h-183l63 512h-36l14 114h36l10 84h183l-10 -84h176l10 84h184l-10 -84h38zM437 423l11 89h-176l-11 -89h176z" />
    <glyph glyph-name="hbar" unicode="&#x127;" horiz-adv-x="542" 
d="M397 500q135 0 109 -198l-39 -302h-169l34 255q6 49 2 71t-22 22q-33 0 -64 -43.5t-41 -129.5l-21 -175h-169l66 539h-41l11 98h42l12 99h169l-12 -99h148l-11 -98h-149l-14 -109l3 -2q64 72 156 72z" />
    <glyph glyph-name="Itilde" unicode="&#x128;" horiz-adv-x="306" 
d="M300 754q-32 0 -76 28q-26 17 -43 17q-33 0 -58 -49l-92 45q25 51 59.5 83.5t75.5 32.5q38 0 75 -25q28 -18 42 -18q34 0 59 46l91 -36q-24 -55 -58 -89.5t-75 -34.5zM31 0l87 710h184l-87 -710h-184z" />
    <glyph glyph-name="itilde" unicode="&#x129;" horiz-adv-x="273" 
d="M255 535q-8 0 -15 1.5t-12 3t-11.5 5.5t-9.5 6t-9 7t-8 6q-21 16 -38 16q-30 0 -55 -46l-88 42q54 113 129 113q35 0 67 -21q4 -2 12 -8t12 -8.5t10.5 -5t11.5 -2.5q28 0 53 50l87 -38q-23 -53 -58 -87t-78 -34zM21 0l61 490h169l-60 -490h-170z" />
    <glyph glyph-name="Imacron" unicode="&#x12a;" horiz-adv-x="306" 
d="M69 774l16 122h291l-16 -122h-291zM31 0l87 710h184l-87 -710h-184z" />
    <glyph glyph-name="imacron" unicode="&#x12b;" horiz-adv-x="273" 
d="M35 579l16 127h291l-16 -127h-291zM21 0l61 490h169l-60 -490h-170z" />
    <glyph glyph-name="Ibreve" unicode="&#x12c;" horiz-adv-x="306" 
d="M210 745q-73 0 -109 40t-31 110h119q-2 -17 7 -28.5t27 -11.5q20 0 35 12t21 28h120q-14 -67 -60 -108.5t-129 -41.5zM31 0l87 710h184l-87 -710h-184z" />
    <glyph glyph-name="ibreve" unicode="&#x12d;" horiz-adv-x="273" 
d="M184 549q-61 0 -98 42.5t-34 116.5h108q-2 -24 5.5 -38t23.5 -14q17 0 29.5 14.5t16.5 37.5h107q-12 -70 -53.5 -114.5t-104.5 -44.5zM21 0l61 490h169l-60 -490h-170z" />
    <glyph glyph-name="Iogonek" unicode="&#x12e;" horiz-adv-x="306" 
d="M118 710h184l-87 -710h-25q-38 -1 -68.5 -27.5t-30.5 -57.5q0 -21 23 -21q16 0 30 6l2 -82q-30 -10 -77 -10q-100 0 -100 80q0 66 62 113z" />
    <glyph glyph-name="iogonek" unicode="&#x12f;" horiz-adv-x="273" 
d="M186 735q44 0 71.5 -26t27.5 -66q0 -42 -28.5 -69.5t-73.5 -27.5t-72.5 26.5t-27.5 67.5t28.5 68t74.5 27zM21 3l61 487h169l-60 -490h-13q-38 -1 -68.5 -27.5t-30.5 -57.5q0 -21 23 -21q16 0 30 6l2 -82q-30 -10 -77 -10q-100 0 -100 80q0 66 64 115z" />
    <glyph glyph-name="Idotaccent" unicode="&#x130;" horiz-adv-x="306" 
d="M221 746q-45 0 -72.5 26.5t-27.5 67.5t28.5 68t74.5 27q44 0 71.5 -26t27.5 -66q0 -42 -28.5 -69.5t-73.5 -27.5zM31 0l87 710h184l-87 -710h-184z" />
    <glyph glyph-name="dotlessi" unicode="&#x131;" horiz-adv-x="273" 
d="M21 0l61 490h169l-60 -490h-170z" />
    <glyph glyph-name="IJ" unicode="&#x132;" horiz-adv-x="760" 
d="M31 0l87 710h184l-87 -710h-184zM471 -10q-56 0 -105 25.5t-75 74.5l117 121q8 -20 24 -33.5t35 -13.5q24 0 39 21.5t23 83.5l55 441h181l-55 -449q-17 -143 -72.5 -207t-166.5 -64z" />
    <glyph glyph-name="ij" unicode="&#x133;" horiz-adv-x="529" 
d="M183 546q-45 0 -72.5 26.5t-27.5 67.5t28.5 68t74.5 27q44 0 71.5 -26t27.5 -66q0 -42 -28.5 -69.5t-73.5 -27.5zM445 546q-45 0 -72.5 26.5t-27.5 67.5t28.5 68t74.5 27q44 0 71.5 -26t27.5 -66q0 -42 -28.5 -69.5t-73.5 -27.5zM21 0l61 490h169l-60 -490h-170z
M275 -207q-60 0 -111 23l42 130q13 -11 35 -11q21 0 29 17.5t14 64.5l58 473h171l-61 -497q-13 -108 -58 -154t-119 -46z" />
    <glyph glyph-name="Jcircumflex" unicode="&#x134;" horiz-adv-x="454" 
d="M202 754l101 143h172l68 -143h-138l-26 61h-1l-42 -61h-134zM165 -10q-56 0 -105 25.5t-75 74.5l117 121q8 -20 24 -33.5t35 -13.5q24 0 39 21.5t23 83.5l55 441h181l-55 -449q-17 -143 -72.5 -207t-166.5 -64z" />
    <glyph glyph-name="jcircumflex" unicode="&#x135;" horiz-adv-x="256" 
d="M-5 554l113 155h145l82 -155h-141l-18 73h-1l-35 -73h-145zM2 -207q-60 0 -111 23l42 130q13 -11 35 -11q21 0 29 17.5t14 64.5l58 473h171l-61 -497q-13 -108 -58 -154t-119 -46z" />
    <glyph glyph-name="Kcommaaccent" unicode="&#x136;" horiz-adv-x="615" 
d="M668 710l-249 -320l170 -390h-206l-104 261l-49 -59l-25 -202h-179l87 710h180l-32 -265l3 -1l190 266h214zM209 -53h132q2 -16 2 -24q0 -71 -45.5 -108t-125.5 -37l-15 95q30 4 42.5 15t12.5 34q0 10 -3 25z" />
    <glyph glyph-name="kcommaaccent" unicode="&#x137;" horiz-adv-x="512" 
d="M441 -8q-24 -2 -55 -2q-103 0 -140 136l-9 32q-22 -12 -38 -18l-16 -140h-166l90 736h170l-53 -429l2 -1q82 64 107 184h177q-27 -146 -135 -246l8 -30q13 -49 34 -64.5t59 -16.5zM119 -222l-15 95q30 4 42.5 15t12.5 34q0 10 -3 25h132q2 -16 2 -24q0 -71 -45.5 -108
t-125.5 -37z" />
    <glyph glyph-name="kgreenlandic" unicode="&#x138;" horiz-adv-x="509" 
d="M438 -8q-24 -2 -55 -2q-103 0 -140 136l-6 24q-17 -9 -35 -16l-15 -134h-170l60 490h170l-20 -165l4 -1q75 56 99 166h177q-26 -145 -135 -247l8 -29q14 -49 34.5 -64.5t58.5 -16.5z" />
    <glyph glyph-name="Lacute" unicode="&#x139;" horiz-adv-x="508" 
d="M244 754l115 142l165 1l-131 -143h-149zM26 0l87 710h182l-67 -549h246l-19 -161h-429z" />
    <glyph glyph-name="lacute" unicode="&#x13a;" horiz-adv-x="274" 
d="M127 767l115 142l165 1l-131 -143h-149zM21 0l91 736h171l-91 -736h-171z" />
    <glyph glyph-name="Lcommaaccent" unicode="&#x13b;" horiz-adv-x="508" 
d="M26 0l87 710h182l-67 -549h246l-19 -161h-429zM129 -222l-15 95q30 4 42.5 15t12.5 34q0 10 -3 25h132q2 -16 2 -24q0 -71 -45.5 -108t-125.5 -37z" />
    <glyph glyph-name="lcommaaccent" unicode="&#x13c;" horiz-adv-x="274" 
d="M21 0l91 736h171l-91 -736h-171zM-5 -222l-15 95q30 4 42.5 15t12.5 34q0 10 -3 25h132q2 -16 2 -24q0 -71 -45.5 -108t-125.5 -37z" />
    <glyph glyph-name="Lcaron" unicode="&#x13d;" horiz-adv-x="523" 
d="M353 574l58 223h157l-99 -223h-116zM26 0l87 710h182l-67 -549h246l-19 -161h-429z" />
    <glyph glyph-name="lcaron" unicode="&#x13e;" horiz-adv-x="318" 
d="M308 574l58 223h157l-100 -223h-115zM21 0l91 736h171l-91 -736h-171z" />
    <glyph glyph-name="Ldot" unicode="&#x13f;" horiz-adv-x="510" 
d="M26 0l87 710h182l-67 -549h246l-19 -161h-429zM411 248q-44 0 -69 26t-25 68t26 68.5t71 26.5q44 0 69 -25.5t25 -66.5q0 -43 -26 -70t-71 -27z" />
    <glyph glyph-name="ldot" unicode="&#x140;" horiz-adv-x="463" 
d="M21 0l91 736h171l-91 -736h-171zM365 182q-44 0 -69 26t-25 68t26 68.5t71 26.5q44 0 69 -25.5t25 -66.5q0 -43 -26 -70t-71 -27z" />
    <glyph glyph-name="Lslash" unicode="&#x141;" horiz-adv-x="509" 
d="M229 161h246l-19 -161h-429l31 249l-62 -27l16 133l62 28l40 327h182l-29 -242l93 42l-17 -134l-93 -41z" />
    <glyph glyph-name="lslash" unicode="&#x142;" horiz-adv-x="308" 
d="M321 459l-14 -115l-57 -27l-39 -317h-171l29 232l-59 -27l14 114l59 28l48 389h171l-38 -304z" />
    <glyph glyph-name="Nacute" unicode="&#x143;" horiz-adv-x="668" 
d="M288 754l115 142l165 1l-131 -143h-149zM26 0l87 710h165l165 -404l3 1l49 403h175l-88 -710h-172l-158 392l-3 -1l-49 -391h-174z" />
    <glyph glyph-name="nacute" unicode="&#x144;" horiz-adv-x="542" 
d="M217 557l116 151l168 1l-130 -152h-154zM17 0l60 490h170l-8 -61l3 -1q63 72 155 72q135 0 109 -198l-39 -302h-169l34 255q6 49 2 71t-22 22q-32 0 -62.5 -42t-40.5 -126l-22 -180h-170z" />
    <glyph glyph-name="Ncommaaccent" unicode="&#x145;" horiz-adv-x="668" 
d="M26 0l87 710h165l165 -404l3 1l49 403h175l-88 -710h-172l-158 392l-3 -1l-49 -391h-174zM201 -222l-15 95q30 4 42.5 15t12.5 34q0 10 -3 25h132q2 -16 2 -24q0 -71 -45.5 -108t-125.5 -37z" />
    <glyph glyph-name="ncommaaccent" unicode="&#x146;" horiz-adv-x="542" 
d="M17 0l60 490h170l-8 -61l3 -1q63 72 155 72q135 0 109 -198l-39 -302h-169l34 255q6 49 2 71t-22 22q-32 0 -62.5 -42t-40.5 -126l-22 -180h-170zM131 -222l-15 95q30 4 42.5 15t12.5 34q0 10 -3 25h132q2 -16 2 -24q0 -71 -45.5 -108t-125.5 -37z" />
    <glyph glyph-name="Ncaron" unicode="&#x147;" horiz-adv-x="668" 
d="M318 754l-68 143h138l26 -61h1l42 61h134l-101 -143h-172zM26 0l87 710h165l165 -404l3 1l49 403h175l-88 -710h-172l-158 392l-3 -1l-49 -391h-174z" />
    <glyph glyph-name="ncaron" unicode="&#x148;" horiz-adv-x="542" 
d="M243 544l-67 151h138l25 -69h1l41 69h135l-101 -151h-172zM17 0l60 490h170l-8 -61l3 -1q63 72 155 72q135 0 109 -198l-39 -302h-169l34 255q6 49 2 71t-22 22q-32 0 -62.5 -42t-40.5 -126l-22 -180h-170z" />
    <glyph glyph-name="napostrophe" unicode="&#x149;" horiz-adv-x="673" 
d="M-9 478l58 232h157l-100 -232h-115zM148 0l60 490h170l-8 -61l3 -1q63 72 155 72q135 0 109 -198l-39 -302h-169l34 255q6 49 2 71t-22 22q-32 0 -62.5 -42t-40.5 -126l-22 -180h-170z" />
    <glyph glyph-name="Eng" unicode="&#x14a;" horiz-adv-x="668" 
d="M495 710h175l-88 -710q-14 -111 -73 -158t-167 -47q-38 0 -67 6l23 135q20 -2 28 -2q69 0 78 66l2 12l-154 380l-3 -1l-49 -391h-174l87 710h165l165 -404l3 1z" />
    <glyph glyph-name="eng" unicode="&#x14b;" horiz-adv-x="537" 
d="M243 -205q-43 0 -82 8l30 129q15 -4 30 -4q60 0 75 101l31 226q13 93 -20 93q-32 0 -60 -41.5t-38 -126.5l-22 -180h-170l60 490h170l-8 -61l3 -1q55 72 150 72q135 0 109 -198l-38 -302q-13 -98 -71 -151.5t-149 -53.5z" />
    <glyph glyph-name="Omacron" unicode="&#x14c;" horiz-adv-x="726" 
d="M311 776l16 122h291l-16 -122h-291zM332 -10q-133 0 -211.5 80t-78.5 223q0 114 45.5 211t133 156.5t199.5 59.5q132 0 211.5 -79.5t79.5 -220.5q0 -120 -43.5 -216.5t-131 -155t-204.5 -58.5zM346 160q77 0 126.5 70.5t49.5 177.5q0 72 -32.5 107.5t-85.5 35.5
q-73 0 -123.5 -73.5t-50.5 -171.5q0 -72 32.5 -109t83.5 -37z" />
    <glyph glyph-name="omacron" unicode="&#x14d;" horiz-adv-x="529" 
d="M169 579l16 127h291l-16 -127h-291zM229 -10q-94 0 -150.5 56.5t-56.5 156.5q0 124 73.5 210.5t201.5 86.5q96 0 153 -56.5t57 -156.5q0 -60 -16 -112t-48.5 -94t-87.5 -66.5t-126 -24.5zM245 141q40 0 65 41t25 95q0 39 -16.5 55t-36.5 16q-40 0 -64 -43t-24 -97
q0 -35 16.5 -51t34.5 -16z" />
    <glyph glyph-name="Obreve" unicode="&#x14e;" horiz-adv-x="726" 
d="M452 747q-73 0 -109 40t-31 110h119q-2 -17 7 -28.5t27 -11.5q20 0 35 12t21 28h120q-14 -67 -60 -108.5t-129 -41.5zM332 -10q-133 0 -211.5 80t-78.5 223q0 114 45.5 211t133 156.5t199.5 59.5q132 0 211.5 -79.5t79.5 -220.5q0 -120 -43.5 -216.5t-131 -155
t-204.5 -58.5zM346 160q77 0 126.5 70.5t49.5 177.5q0 72 -32.5 107.5t-85.5 35.5q-73 0 -123.5 -73.5t-50.5 -171.5q0 -72 32.5 -109t83.5 -37z" />
    <glyph glyph-name="obreve" unicode="&#x14f;" horiz-adv-x="529" 
d="M305 534q-70 0 -107 42.5t-33 118.5h119q-2 -17 7 -29t27 -12q20 0 35 12t21 29h120q-13 -72 -62 -116.5t-127 -44.5zM229 -10q-94 0 -150.5 56.5t-56.5 156.5q0 124 73.5 210.5t201.5 86.5q96 0 153 -56.5t57 -156.5q0 -60 -16 -112t-48.5 -94t-87.5 -66.5t-126 -24.5z
M245 141q40 0 65 41t25 95q0 39 -16.5 55t-36.5 16q-40 0 -64 -43t-24 -97q0 -35 16.5 -51t34.5 -16z" />
    <glyph glyph-name="Ohungarumlaut" unicode="&#x150;" horiz-adv-x="726" 
d="M255 752l116 151l164 1l-130 -152h-150zM474 752l115 151l164 1l-129 -152h-150zM332 -10q-133 0 -211.5 80t-78.5 223q0 114 45.5 211t133 156.5t199.5 59.5q132 0 211.5 -79.5t79.5 -220.5q0 -120 -43.5 -216.5t-131 -155t-204.5 -58.5zM346 160q77 0 126.5 70.5
t49.5 177.5q0 72 -32.5 107.5t-85.5 35.5q-73 0 -123.5 -73.5t-50.5 -171.5q0 -72 32.5 -109t83.5 -37z" />
    <glyph glyph-name="ohungarumlaut" unicode="&#x151;" horiz-adv-x="529" 
d="M130 557l116 151l164 1l-130 -152h-150zM349 557l115 151l164 1l-129 -152h-150zM229 -10q-94 0 -150.5 56.5t-56.5 156.5q0 124 73.5 210.5t201.5 86.5q96 0 153 -56.5t57 -156.5q0 -60 -16 -112t-48.5 -94t-87.5 -66.5t-126 -24.5zM245 141q40 0 65 41t25 95
q0 39 -16.5 55t-36.5 16q-40 0 -64 -43t-24 -97q0 -35 16.5 -51t34.5 -16z" />
    <glyph glyph-name="OE" unicode="&#x152;" horiz-adv-x="858" 
d="M845 549h-247l-15 -118h191l-20 -158h-190l-14 -112h266l-20 -161h-465q-132 0 -210.5 78t-78.5 213q0 179 104 299t272 120h447zM346 169h29l46 372h-17q-72 0 -123 -69t-51 -165q0 -67 32.5 -102.5t83.5 -35.5z" />
    <glyph glyph-name="oe" unicode="&#x153;" horiz-adv-x="731" 
d="M515 126q41 0 72 46l123 -68q-73 -114 -212 -114q-94 0 -143 63h-5q-60 -63 -150 -63q-83 0 -135 57t-52 155q0 127 70.5 212.5t177.5 85.5q86 0 134 -63h5q65 63 161 63q69 0 120.5 -34.5t51.5 -104.5q0 -130 -272 -198q16 -37 54 -37zM547 362q-28 0 -52.5 -28
t-35.5 -74q55 17 84.5 35t29.5 45q0 22 -26 22zM221 141q30 0 54.5 39.5t24.5 101.5q0 67 -45 67q-31 0 -52.5 -41.5t-21.5 -98.5q0 -68 40 -68z" />
    <glyph glyph-name="Racute" unicode="&#x154;" horiz-adv-x="594" 
d="M238 754l115 142l165 1l-131 -143h-149zM26 0l87 710h258q103 0 153.5 -55t50.5 -144q0 -179 -135 -255l115 -256h-193l-89 221h-44l-26 -221h-177zM249 379h45q41 0 67 31t26 74q0 35 -18.5 51t-44.5 16h-54z" />
    <glyph glyph-name="racute" unicode="&#x155;" horiz-adv-x="351" 
d="M102 557l116 151l168 1l-130 -152h-154zM17 0l60 490h170l-7 -57h1q55 67 130 67l-24 -187q-46 23 -84.5 -9t-52.5 -113l-23 -191h-170z" />
    <glyph glyph-name="Rcommaaccent" unicode="&#x156;" horiz-adv-x="594" 
d="M26 0l87 710h258q103 0 153.5 -55t50.5 -144q0 -179 -135 -255l115 -256h-193l-89 221h-44l-26 -221h-177zM249 379h45q41 0 67 31t26 74q0 35 -18.5 51t-44.5 16h-54zM162 -222l-15 95q30 4 42.5 15t12.5 34q0 10 -3 25h132q2 -16 2 -24q0 -71 -45.5 -108t-125.5 -37z
" />
    <glyph glyph-name="rcommaaccent" unicode="&#x157;" horiz-adv-x="351" 
d="M17 0l60 490h170l-7 -57h1q55 67 130 67l-24 -187q-46 23 -84.5 -9t-52.5 -113l-23 -191h-170zM-12 -222l-15 95q30 4 42.5 15t12.5 34q0 10 -3 25h132q2 -16 2 -24q0 -71 -45.5 -108t-125.5 -37z" />
    <glyph glyph-name="Rcaron" unicode="&#x158;" horiz-adv-x="594" 
d="M268 754l-68 143h138l26 -61h1l42 61h134l-101 -143h-172zM26 0l87 710h258q103 0 153.5 -55t50.5 -144q0 -179 -135 -255l115 -256h-193l-89 221h-44l-26 -221h-177zM249 379h45q41 0 67 31t26 74q0 35 -18.5 51t-44.5 16h-54z" />
    <glyph glyph-name="rcaron" unicode="&#x159;" horiz-adv-x="351" 
d="M171 544l-67 151h138l25 -69h1l41 69h135l-101 -151h-172zM17 0l60 490h170l-7 -57h1q55 67 130 67l-24 -187q-46 23 -84.5 -9t-52.5 -113l-23 -191h-170z" />
    <glyph glyph-name="Sacute" unicode="&#x15a;" horiz-adv-x="536" 
d="M238 754l115 142l165 1l-131 -143h-149zM246 -10q-72 0 -139.5 31.5t-111.5 99.5l128 110q25 -39 59.5 -60t67.5 -21q34 0 52.5 14.5t18.5 36.5q0 18 -16 31.5t-68 43.5q-85 50 -113 77q-61 57 -61 139q0 103 71 165.5t177 62.5q67 0 127.5 -28.5t95.5 -83.5l-127 -106
q-46 59 -101 59q-24 0 -39.5 -13.5t-14.5 -34.5q0 -36 63 -73q13 -8 43.5 -25.5t42.5 -25t34.5 -23t32 -27.5t21.5 -29.5t16.5 -37t4.5 -43.5q0 -111 -72.5 -175t-191.5 -64z" />
    <glyph glyph-name="sacute" unicode="&#x15b;" horiz-adv-x="417" 
d="M139 557l116 151l168 1l-130 -152h-154zM186 -10q-54 0 -108.5 22t-88.5 62l90 96q22 -25 53.5 -41.5t59.5 -16.5q29 0 29 16q0 9 -11 16.5t-59 33.5q-62 33 -90 66.5t-28 84.5q0 76 53.5 123.5t133.5 47.5q113 0 179 -83l-99 -92q-33 48 -77 50q-12 0 -21 -6t-9 -16
q0 -14 63 -46q69 -34 98 -67.5t29 -89.5q0 -70 -53 -115t-144 -45z" />
    <glyph glyph-name="Scircumflex" unicode="&#x15c;" horiz-adv-x="536" 
d="M157 754l101 143h172l68 -143h-138l-26 61h-1l-42 -61h-134zM246 -10q-72 0 -139.5 31.5t-111.5 99.5l128 110q25 -39 59.5 -60t67.5 -21q34 0 52.5 14.5t18.5 36.5q0 18 -16 31.5t-68 43.5q-85 50 -113 77q-61 57 -61 139q0 103 71 165.5t177 62.5q67 0 127.5 -28.5
t95.5 -83.5l-127 -106q-46 59 -101 59q-24 0 -39.5 -13.5t-14.5 -34.5q0 -36 63 -73q13 -8 43.5 -25.5t42.5 -25t34.5 -23t32 -27.5t21.5 -29.5t16.5 -37t4.5 -43.5q0 -111 -72.5 -175t-191.5 -64z" />
    <glyph glyph-name="scircumflex" unicode="&#x15d;" horiz-adv-x="417" 
d="M69 555l113 155h145l82 -155h-141l-18 73h-1l-35 -73h-145zM186 -10q-54 0 -108.5 22t-88.5 62l90 96q22 -25 53.5 -41.5t59.5 -16.5q29 0 29 16q0 9 -11 16.5t-59 33.5q-62 33 -90 66.5t-28 84.5q0 76 53.5 123.5t133.5 47.5q113 0 179 -83l-99 -92q-33 48 -77 50
q-12 0 -21 -6t-9 -16q0 -14 63 -46q69 -34 98 -67.5t29 -89.5q0 -70 -53 -115t-144 -45z" />
    <glyph glyph-name="Scedilla" unicode="&#x15e;" horiz-adv-x="536" 
d="M315 440q13 -8 43.5 -25.5t42.5 -25t34.5 -23t32 -27.5t21.5 -29.5t16.5 -37t4.5 -43.5q0 -109 -70 -173t-186 -66l-15 -19l1 -1q75 -3 75 -67q0 -96 -131 -96q-32 0 -58 6l2 65q16 -6 41 -6q49 0 49 31q0 23 -63 23l1 39l21 32q-118 25 -182 124l128 110
q25 -39 59.5 -60t67.5 -21q34 0 52.5 14.5t18.5 36.5q0 18 -16 31.5t-68 43.5q-85 50 -113 77q-61 57 -61 139q0 103 71 165.5t177 62.5q67 0 127.5 -28.5t95.5 -83.5l-127 -106q-46 59 -101 59q-24 0 -39.5 -13.5t-14.5 -34.5q0 -36 63 -73z" />
    <glyph glyph-name="scedilla" unicode="&#x15f;" horiz-adv-x="417" 
d="M256 307q69 -34 98 -67.5t29 -89.5q0 -70 -53 -115t-144 -45h-1l-15 -19l1 -1q75 -3 75 -67q0 -96 -131 -96q-32 0 -58 6l2 65q17 -6 41 -6q49 0 49 31q0 23 -63 23l1 39l24 36q-79 22 -122 73l90 96q22 -25 53.5 -41.5t59.5 -16.5q29 0 29 16q0 9 -11 16.5t-59 33.5
q-62 33 -90 66.5t-28 84.5q0 76 53.5 123.5t133.5 47.5q113 0 179 -83l-99 -92q-33 48 -77 50q-12 0 -21 -6t-9 -16q0 -14 63 -46z" />
    <glyph glyph-name="Scaron" unicode="&#x160;" horiz-adv-x="536" 
d="M242 754l-68 143h138l26 -61h1l42 61h134l-101 -143h-172zM246 -10q-72 0 -139.5 31.5t-111.5 99.5l128 110q25 -39 59.5 -60t67.5 -21q34 0 52.5 14.5t18.5 36.5q0 18 -16 31.5t-68 43.5q-85 50 -113 77q-61 57 -61 139q0 103 71 165.5t177 62.5q67 0 127.5 -28.5
t95.5 -83.5l-127 -106q-46 59 -101 59q-24 0 -39.5 -13.5t-14.5 -34.5q0 -36 63 -73q13 -8 43.5 -25.5t42.5 -25t34.5 -23t32 -27.5t21.5 -29.5t16.5 -37t4.5 -43.5q0 -111 -72.5 -175t-191.5 -64z" />
    <glyph glyph-name="scaron" unicode="&#x161;" horiz-adv-x="417" 
d="M157 545l-67 151h138l25 -69h1l41 69h135l-101 -151h-172zM186 -10q-54 0 -108.5 22t-88.5 62l90 96q22 -25 53.5 -41.5t59.5 -16.5q29 0 29 16q0 9 -11 16.5t-59 33.5q-62 33 -90 66.5t-28 84.5q0 76 53.5 123.5t133.5 47.5q113 0 179 -83l-99 -92q-33 48 -77 50
q-12 0 -21 -6t-9 -16q0 -14 63 -46q69 -34 98 -67.5t29 -89.5q0 -70 -53 -115t-144 -45z" />
    <glyph glyph-name="uni0162" unicode="&#x162;" horiz-adv-x="535" 
d="M76 710h497l-20 -161h-158l-67 -549h-73l-22 -29l1 -1q75 -3 75 -67q0 -96 -131 -96q-32 0 -58 6l2 65q17 -6 41 -6q49 0 49 31q0 23 -63 23l1 39l23 35h-26l67 549h-158z" />
    <glyph glyph-name="uni0163" unicode="&#x163;" horiz-adv-x="344" 
d="M243 354l-21 -181q-5 -32 17 -32q14 0 38 11l29 -127q-61 -32 -124 -35l-15 -19l1 -1q75 -3 75 -67q0 -96 -131 -96q-32 0 -58 6l2 65q16 -6 41 -6q49 0 49 31q0 23 -63 23l1 39l24 37q-74 32 -60 151l24 201h-47l17 136h47l18 138l174 34l-21 -172h92l-17 -136h-92z" />
    <glyph glyph-name="Tcaron" unicode="&#x164;" horiz-adv-x="535" 
d="M241 754l-68 143h138l26 -61h1l42 61h134l-101 -143h-172zM147 0l67 549h-158l20 161h497l-20 -161h-158l-67 -549h-181z" />
    <glyph glyph-name="tcaron" unicode="&#x165;" horiz-adv-x="368" 
d="M312 574l59 223h155l-98 -223h-116zM170 -10q-62 0 -97 37.5t-25 125.5l24 201h-47l17 136h47l18 138l174 34l-21 -172h92l-17 -136h-92l-21 -181q-5 -32 17 -32q14 0 38 11l29 -127q-67 -35 -136 -35z" />
    <glyph glyph-name="Tbar" unicode="&#x166;" horiz-adv-x="535" 
d="M553 549h-158l-20 -163h98l-15 -124h-98l-32 -262h-181l32 262h-95l16 124h94l20 163h-158l20 161h497z" />
    <glyph glyph-name="tbar" unicode="&#x167;" horiz-adv-x="344" 
d="M335 354h-92l-6 -48h69l-12 -98h-68l-4 -35q-5 -32 17 -32q14 0 38 11l29 -127q-67 -35 -136 -35q-62 0 -97 37.5t-25 125.5l7 55h-38l11 98h38l6 48h-47l17 136h47l18 138l174 34l-21 -172h92z" />
    <glyph glyph-name="Utilde" unicode="&#x168;" horiz-adv-x="640" 
d="M470 756q-32 0 -76 28q-26 17 -43 17q-33 0 -58 -49l-92 45q25 51 59.5 83.5t75.5 32.5q38 0 75 -25q28 -18 42 -18q34 0 59 46l91 -36q-24 -55 -58 -89.5t-75 -34.5zM292 -10q-276 0 -234 335l48 385h181l-49 -404q-4 -42 -2 -74.5t20.5 -52.5t52.5 -20q44 0 71.5 31.5
t36.5 108.5l51 411h180l-51 -417q-20 -165 -94.5 -234t-210.5 -69z" />
    <glyph glyph-name="utilde" unicode="&#x169;" horiz-adv-x="536" 
d="M394 548q-36 0 -77 29q-21 16 -42 16q-33 0 -58 -49l-92 45q24 58 58.5 92.5t76.5 34.5q40 0 76 -26q26 -17 40 -17q34 0 60 48l91 -38q-23 -61 -57 -98t-76 -37zM158 -10q-152 0 -124 193l43 307h169l-36 -244q-6 -41 -6 -63t6.5 -32t21.5 -10q27 0 55 38t33 78l29 233
h170l-60 -490h-166l4 64h-3q-58 -74 -136 -74z" />
    <glyph glyph-name="Umacron" unicode="&#x16a;" horiz-adv-x="640" 
d="M239 776l16 122h291l-16 -122h-291zM292 -10q-276 0 -234 335l48 385h181l-49 -404q-4 -42 -2 -74.5t20.5 -52.5t52.5 -20q44 0 71.5 31.5t36.5 108.5l51 411h180l-51 -417q-20 -165 -94.5 -234t-210.5 -69z" />
    <glyph glyph-name="umacron" unicode="&#x16b;" horiz-adv-x="536" 
d="M167 579l16 127h291l-16 -127h-291zM158 -10q-152 0 -124 193l43 307h169l-36 -244q-6 -41 -6 -63t6.5 -32t21.5 -10q27 0 55 38t33 78l29 233h170l-60 -490h-166l4 64h-3q-58 -74 -136 -74z" />
    <glyph glyph-name="Ubreve" unicode="&#x16c;" horiz-adv-x="640" 
d="M380 747q-73 0 -109 40t-31 110h119q-2 -17 7 -28.5t27 -11.5q20 0 35 12t21 28h120q-14 -67 -60 -108.5t-129 -41.5zM292 -10q-276 0 -234 335l48 385h181l-49 -404q-4 -42 -2 -74.5t20.5 -52.5t52.5 -20q44 0 71.5 31.5t36.5 108.5l51 411h180l-51 -417
q-20 -165 -94.5 -234t-210.5 -69z" />
    <glyph glyph-name="ubreve" unicode="&#x16d;" horiz-adv-x="536" 
d="M303 534q-70 0 -107 42.5t-33 118.5h119q-2 -17 7 -29t27 -12q20 0 35 12t21 29h120q-13 -72 -62 -116.5t-127 -44.5zM158 -10q-152 0 -124 193l43 307h169l-36 -244q-6 -41 -6 -63t6.5 -32t21.5 -10q27 0 55 38t33 78l29 233h170l-60 -490h-166l4 64h-3
q-58 -74 -136 -74z" />
    <glyph glyph-name="Uring" unicode="&#x16e;" horiz-adv-x="640" 
d="M384 740q-45 0 -75 30.5t-30 74.5q0 46 31 76.5t77 30.5q45 0 75 -29.5t30 -73.5q0 -47 -31 -78t-77 -31zM386 811q15 0 25 10t10 26q0 14 -10 24t-24 10q-16 0 -26.5 -10t-10.5 -25t10 -25t26 -10zM292 -10q-276 0 -234 335l48 385h181l-49 -404q-4 -42 -2 -74.5
t20.5 -52.5t52.5 -20q44 0 71.5 31.5t36.5 108.5l51 411h180l-51 -417q-20 -165 -94.5 -234t-210.5 -69z" />
    <glyph glyph-name="uring" unicode="&#x16f;" horiz-adv-x="536" 
d="M320 537q-45 0 -75 30.5t-30 74.5q0 46 31 76.5t77 30.5q45 0 75 -29.5t30 -73.5q0 -47 -31 -78t-77 -31zM322 608q15 0 25 10t10 26q0 14 -10 24t-24 10q-16 0 -26.5 -10t-10.5 -25t10 -25t26 -10zM158 -10q-152 0 -124 193l43 307h169l-36 -244q-6 -41 -6 -63t6.5 -32
t21.5 -10q27 0 55 38t33 78l29 233h170l-60 -490h-166l4 64h-3q-58 -74 -136 -74z" />
    <glyph glyph-name="Uhungarumlaut" unicode="&#x170;" horiz-adv-x="640" 
d="M183 752l116 151l164 1l-130 -152h-150zM402 752l115 151l164 1l-129 -152h-150zM292 -10q-276 0 -234 335l48 385h181l-49 -404q-4 -42 -2 -74.5t20.5 -52.5t52.5 -20q44 0 71.5 31.5t36.5 108.5l51 411h180l-51 -417q-20 -165 -94.5 -234t-210.5 -69z" />
    <glyph glyph-name="uhungarumlaut" unicode="&#x171;" horiz-adv-x="536" 
d="M128 557l116 151l164 1l-130 -152h-150zM347 557l115 151l164 1l-129 -152h-150zM158 -10q-152 0 -124 193l43 307h169l-36 -244q-6 -41 -6 -63t6.5 -32t21.5 -10q27 0 55 38t33 78l29 233h170l-60 -490h-166l4 64h-3q-58 -74 -136 -74z" />
    <glyph glyph-name="Uogonek" unicode="&#x172;" horiz-adv-x="640" 
d="M468 710h180l-51 -417q-15 -127 -62.5 -196t-129.5 -93q-40 -13 -67.5 -37.5t-27.5 -51.5q0 -21 23 -21q13 0 30 6l2 -82q-30 -10 -77 -10q-100 0 -100 80q0 53 56 102l-1 3q-224 28 -185 332l48 385h181l-49 -404q-4 -42 -2 -74.5t20.5 -52.5t52.5 -20q44 0 71.5 31.5
t36.5 108.5z" />
    <glyph glyph-name="uogonek" unicode="&#x173;" horiz-adv-x="536" 
d="M349 490h170l-60 -490h-13q-38 -1 -68.5 -27.5t-30.5 -57.5q0 -21 23 -21q16 0 30 6l2 -82q-30 -10 -77 -10q-100 0 -100 80q0 32 18.5 64t49.5 54l4 58h-3q-58 -74 -136 -74q-152 0 -124 193l43 307h169l-36 -244q-6 -41 -6 -63t6.5 -32t21.5 -10q27 0 55 38t33 78z" />
    <glyph glyph-name="Wcircumflex" unicode="&#x174;" horiz-adv-x="923" 
d="M347 754l101 143h172l68 -143h-138l-26 61h-1l-42 -61h-134zM177 0l-112 710h188l42 -412h2l138 412h178l30 -402h3l135 402h193l-286 -710h-161l-41 430h-2l-153 -430h-154z" />
    <glyph glyph-name="wcircumflex" unicode="&#x175;" horiz-adv-x="747" 
d="M241 554l113 155h145l82 -155h-141l-18 73h-1l-35 -73h-145zM159 -10q-79 0 -113 57t-22 142l43 301h168l-37 -252q-14 -97 22 -97q22 0 45.5 35t32.5 107l26 207h162l-31 -256q-6 -50 -2 -71.5t21 -21.5q11 0 22.5 8.5t25 28t24.5 60t17 96.5q8 75 -1 156h171
q14 -88 2 -187q-20 -166 -99.5 -239.5t-192.5 -73.5q-106 0 -132 86h-2q-54 -86 -150 -86z" />
    <glyph glyph-name="Ycircumflex" unicode="&#x176;" horiz-adv-x="581" 
d="M185 754l101 143h172l68 -143h-138l-26 61h-1l-42 -61h-134zM168 0l39 308l-155 402h199l66 -233h3l119 233h206l-255 -402l-38 -308h-184z" />
    <glyph glyph-name="ycircumflex" unicode="&#x177;" horiz-adv-x="528" 
d="M305 627l-35 -73h-145l113 155h145l82 -155h-141l-18 73h-1zM344 490h170l-52 -421q-34 -277 -282 -277q-100 0 -180 48l52 122q52 -35 116 -35q51 0 80.5 27.5t42.5 108.5h-3q-56 -73 -136 -73q-151 0 -123 193l43 307h169l-35 -244q-9 -59 -5 -82t27 -23q26 0 54 38
t33 75z" />
    <glyph glyph-name="Ydieresis" unicode="&#x178;" horiz-adv-x="581" 
d="M246 748q-44 0 -71.5 26.5t-27.5 67.5t28.5 68t73.5 27q44 0 71.5 -26t27.5 -66q0 -42 -28.5 -69.5t-73.5 -27.5zM476 748q-44 0 -71.5 26.5t-27.5 67.5t28.5 68t74.5 27q44 0 71.5 -26t27.5 -66q0 -42 -28.5 -69.5t-74.5 -27.5zM168 0l39 308l-155 402h199l66 -233h3
l119 233h206l-255 -402l-38 -308h-184z" />
    <glyph glyph-name="Zacute" unicode="&#x179;" horiz-adv-x="560" 
d="M236 754l115 142l165 1l-131 -143h-149zM5 0l16 141l314 404l-2 4h-253l19 161h484l-16 -137l-321 -408l2 -4h266l-19 -161h-490z" />
    <glyph glyph-name="zacute" unicode="&#x17a;" horiz-adv-x="438" 
d="M151 557l116 151l168 1l-130 -152h-154zM363 -27q-130 27 -367 27l12 112l196 242v3h-146l16 133h369l-12 -112l-202 -243v-2q91 -5 172 -29z" />
    <glyph glyph-name="Zdotaccent" unicode="&#x17b;" horiz-adv-x="560" 
d="M358 748q-45 0 -72.5 26.5t-27.5 67.5t28.5 68t74.5 27q44 0 71.5 -26t27.5 -66q0 -42 -28.5 -69.5t-73.5 -27.5zM5 0l16 141l314 404l-2 4h-253l19 161h484l-16 -137l-321 -408l2 -4h266l-19 -161h-490z" />
    <glyph glyph-name="zdotaccent" unicode="&#x17c;" horiz-adv-x="438" 
d="M269 546q-45 0 -72.5 26.5t-27.5 67.5t28.5 68t74.5 27q44 0 71.5 -26t27.5 -66q0 -42 -28.5 -69.5t-73.5 -27.5zM363 -27q-130 27 -367 27l12 112l196 242v3h-146l16 133h369l-12 -112l-202 -243v-2q91 -5 172 -29z" />
    <glyph glyph-name="Zcaron" unicode="&#x17d;" horiz-adv-x="560" 
d="M266 754l-68 143h138l26 -61h1l42 61h134l-101 -143h-172zM5 0l16 141l314 404l-2 4h-253l19 161h484l-16 -137l-321 -408l2 -4h266l-19 -161h-490z" />
    <glyph glyph-name="zcaron" unicode="&#x17e;" horiz-adv-x="438" 
d="M180 544l-67 151h138l25 -69h1l41 69h135l-101 -151h-172zM363 -27q-130 27 -367 27l12 112l196 242v3h-146l16 133h369l-12 -112l-202 -243v-2q91 -5 172 -29z" />
    <glyph glyph-name="longs" unicode="&#x17f;" horiz-adv-x="336" 
d="M27 0l43 354h-39l17 136h39l9 72q21 184 179 184q69 0 119 -40l-42 -119q-22 15 -45 15q-20 0 -29.5 -15t-15.5 -62l-64 -525h-171z" />
    <glyph glyph-name="uni018F" unicode="&#x18f;" horiz-adv-x="697" 
d="M389 720q133 0 213 -79.5t80 -220.5q0 -183 -98.5 -306.5t-262.5 -123.5q-133 0 -209.5 79.5t-76.5 223.5q0 60 19 117h445q-1 68 -35 105.5t-86 37.5q-72 0 -129 -56l-107 134q47 39 116.5 64t130.5 25zM328 150q104 0 144 109h-263q3 -53 37 -81t82 -28z" />
    <glyph glyph-name="florin" unicode="&#x192;" horiz-adv-x="478" 
d="M32 -176q-61 0 -98 15t-48 31l65 108q35 -10 54 -10q27 0 44.5 19t27.5 62l66 284h-67l36 138h66l23 97q43 178 203 178q60 0 97.5 -15.5t48.5 -30.5l-65 -108q-40 9 -55 9q-48 0 -66 -81l-10 -49h100l-36 -138h-101l-77 -331q-22 -89 -72.5 -133.5t-135.5 -44.5z" />
    <glyph glyph-name="uni019D" unicode="&#x19d;" horiz-adv-x="664" 
d="M-6 -206q-44 0 -71 7l25 135q16 -2 23 -2q26 0 38.5 16t17.5 60l86 700h165l158 -404l3 1l52 403h175l-91 -710h-172l-151 392l-3 -1l-49 -391q-15 -121 -65.5 -163.5t-140.5 -42.5z" />
    <glyph glyph-name="Ohorn" unicode="&#x1a0;" horiz-adv-x="789" 
d="M712 774h131l-10 -84q-9 -81 -44.5 -125.5t-87.5 -52.5q10 -47 10 -92q0 -120 -43.5 -216.5t-131 -155t-204.5 -58.5q-133 0 -211.5 80t-78.5 223q0 114 45.5 211t133 156.5t199.5 59.5q176 0 251 -132q19 17 30 105zM346 160q77 0 126.5 70.5t49.5 177.5
q0 72 -32.5 107.5t-85.5 35.5q-73 0 -123.5 -73.5t-50.5 -171.5q0 -72 32.5 -109t83.5 -37z" />
    <glyph glyph-name="ohorn" unicode="&#x1a1;" horiz-adv-x="631" 
d="M531 565h131l-10 -84q-10 -86 -49 -131t-96 -49v-14q0 -60 -16 -112t-48.5 -94t-87.5 -66.5t-126 -24.5q-94 0 -150.5 56.5t-56.5 156.5q0 124 73.5 210.5t201.5 86.5q71 0 121.5 -31.5t72.5 -89.5q18 19 29 105zM245 141q40 0 65 41t25 95q0 39 -16.5 55t-36.5 16
q-40 0 -64 -43t-24 -97q0 -35 16.5 -51t34.5 -16z" />
    <glyph glyph-name="Uhorn" unicode="&#x1af;" horiz-adv-x="772" 
d="M707 774h131l-10 -84q-11 -90 -52.5 -135t-102.5 -45q-27 0 -49 6l-27 -223q-20 -165 -94.5 -234t-210.5 -69q-276 0 -234 335l48 385h181l-49 -404q-4 -42 -2 -74.5t20.5 -52.5t52.5 -20q44 0 71.5 31.5t36.5 108.5l51 411h180l-16 -129q10 -2 13 -2q17 0 27.5 17
t14.5 37.5t9 59.5z" />
    <glyph glyph-name="uhorn" unicode="&#x1b0;" horiz-adv-x="668" 
d="M576 565h131l-10 -84q-11 -90 -52.5 -135t-102.5 -45q-23 0 -45 5l-38 -306h-166l4 64h-3q-58 -74 -136 -74q-152 0 -124 193l43 307h169l-36 -244q-6 -41 -6 -63t6.5 -32t21.5 -10q27 0 55 38t33 78l29 233h170l-15 -119q2 0 5.5 -0.5t4.5 -0.5q17 0 27.5 17t14.5 37.5
t9 59.5z" />
    <glyph glyph-name="uni01CD" unicode="&#x1cd;" horiz-adv-x="629" 
d="M296 754l-68 143h138l26 -61h1l42 61h134l-101 -143h-172zM-33 0l318 710h170l144 -710h-188l-18 120h-192l-43 -120h-191zM256 270h115l-33 222h-2z" />
    <glyph glyph-name="uni01CE" unicode="&#x1ce;" horiz-adv-x="548" 
d="M233 544l-67 151h138l25 -69h1l41 69h135l-101 -151h-172zM176 -10q-73 0 -114 56.5t-41 144.5q0 135 67 222t159 87q70 0 109 -42h3l4 32h171l-60 -490h-171l8 63l-3 1q-53 -74 -132 -74zM237 141q35 0 66.5 43.5t43.5 122.5l2 11q-28 31 -67 31t-64.5 -45t-25.5 -95
q0 -30 12.5 -49t32.5 -19z" />
    <glyph glyph-name="uni01CF" unicode="&#x1cf;" horiz-adv-x="306" 
d="M129 752l-68 143h138l26 -61h1l42 61h134l-101 -143h-172zM31 0l87 710h184l-87 -710h-184z" />
    <glyph glyph-name="uni01D0" unicode="&#x1d0;" horiz-adv-x="273" 
d="M94 544l-67 151h138l25 -69h1l41 69h135l-101 -151h-172zM21 0l61 490h169l-60 -490h-170z" />
    <glyph glyph-name="uni01D1" unicode="&#x1d1;" horiz-adv-x="726" 
d="M371 754l-68 143h138l26 -61h1l42 61h134l-101 -143h-172zM332 -10q-133 0 -211.5 80t-78.5 223q0 114 45.5 211t133 156.5t199.5 59.5q132 0 211.5 -79.5t79.5 -220.5q0 -120 -43.5 -216.5t-131 -155t-204.5 -58.5zM346 160q77 0 126.5 70.5t49.5 177.5
q0 72 -32.5 107.5t-85.5 35.5q-73 0 -123.5 -73.5t-50.5 -171.5q0 -72 32.5 -109t83.5 -37z" />
    <glyph glyph-name="uni01D2" unicode="&#x1d2;" horiz-adv-x="529" 
d="M228 544l-67 151h138l25 -69h1l41 69h135l-101 -151h-172zM229 -10q-94 0 -150.5 56.5t-56.5 156.5q0 124 73.5 210.5t201.5 86.5q96 0 153 -56.5t57 -156.5q0 -60 -16 -112t-48.5 -94t-87.5 -66.5t-126 -24.5zM245 141q40 0 65 41t25 95q0 39 -16.5 55t-36.5 16
q-40 0 -64 -43t-24 -97q0 -35 16.5 -51t34.5 -16z" />
    <glyph glyph-name="uni01D3" unicode="&#x1d3;" horiz-adv-x="640" 
d="M299 754l-68 143h138l26 -61h1l42 61h134l-101 -143h-172zM292 -10q-276 0 -234 335l48 385h181l-49 -404q-4 -42 -2 -74.5t20.5 -52.5t52.5 -20q44 0 71.5 31.5t36.5 108.5l51 411h180l-51 -417q-20 -165 -94.5 -234t-210.5 -69z" />
    <glyph glyph-name="uni01D4" unicode="&#x1d4;" horiz-adv-x="536" 
d="M226 544l-67 151h138l25 -69h1l41 69h135l-101 -151h-172zM158 -10q-152 0 -124 193l43 307h169l-36 -244q-6 -41 -6 -63t6.5 -32t21.5 -10q27 0 55 38t33 78l29 233h170l-60 -490h-166l4 64h-3q-58 -74 -136 -74z" />
    <glyph glyph-name="uni01D5" unicode="&#x1d5;" horiz-adv-x="640" 
d="M253 927l10 82h291l-10 -82h-291zM275 748q-36 0 -58 21t-22 54t23 54.5t59 21.5t58 -20.5t22 -52.5q0 -34 -23 -56t-59 -22zM503 748q-36 0 -58 21t-22 54t23 54.5t59 21.5t58 -20.5t22 -52.5q0 -34 -23 -56t-59 -22zM292 -10q-276 0 -234 335l48 385h181l-49 -404
q-4 -42 -2 -74.5t20.5 -52.5t52.5 -20q44 0 71.5 31.5t36.5 108.5l51 411h180l-51 -417q-20 -165 -94.5 -234t-210.5 -69z" />
    <glyph glyph-name="uni01D6" unicode="&#x1d6;" horiz-adv-x="536" 
d="M178 736l11 89h291l-11 -89h-291zM211 538q-38 0 -63 24t-25 60q0 35 25 58.5t63 23.5q39 0 64.5 -23.5t25.5 -58.5q0 -37 -25.5 -60.5t-64.5 -23.5zM416 538q-38 0 -63 24t-25 60q0 35 25 58.5t63 23.5q39 0 64.5 -23.5t25.5 -58.5q0 -37 -25.5 -60.5t-64.5 -23.5z
M158 -10q-152 0 -124 193l43 307h169l-36 -244q-6 -41 -6 -63t6.5 -32t21.5 -10q27 0 55 38t33 78l29 233h170l-60 -490h-166l4 64h-3q-58 -74 -136 -74z" />
    <glyph glyph-name="uni01D7" unicode="&#x1d7;" horiz-adv-x="640" 
d="M342 906l97 134l155 1l-154 -135h-98zM275 748q-36 0 -58 21t-22 54t23 54.5t59 21.5t58 -20.5t22 -52.5q0 -34 -23 -56t-59 -22zM503 748q-36 0 -58 21t-22 54t23 54.5t59 21.5t58 -20.5t22 -52.5q0 -34 -23 -56t-59 -22zM292 -10q-276 0 -234 335l48 385h181l-49 -404
q-4 -42 -2 -74.5t20.5 -52.5t52.5 -20q44 0 71.5 31.5t36.5 108.5l51 411h180l-51 -417q-20 -165 -94.5 -234t-210.5 -69z" />
    <glyph glyph-name="uni01D8" unicode="&#x1d8;" horiz-adv-x="536" 
d="M260 724l109 133l155 1l-138 -134h-126zM211 538q-38 0 -63 24t-25 60q0 35 25 58.5t63 23.5q39 0 64.5 -23.5t25.5 -58.5q0 -37 -25.5 -60.5t-64.5 -23.5zM416 538q-38 0 -63 24t-25 60q0 35 25 58.5t63 23.5q39 0 64.5 -23.5t25.5 -58.5q0 -37 -25.5 -60.5t-64.5 -23.5
zM158 -10q-152 0 -124 193l43 307h169l-36 -244q-6 -41 -6 -63t6.5 -32t21.5 -10q27 0 55 38t33 78l29 233h170l-60 -490h-166l4 64h-3q-58 -74 -136 -74z" />
    <glyph glyph-name="uni01D9" unicode="&#x1d9;" horiz-adv-x="640" 
d="M308 914l-68 129h138l26 -55h1l42 55h134l-101 -129h-172zM275 748q-36 0 -58 21t-22 54t23 54.5t59 21.5t58 -20.5t22 -52.5q0 -34 -23 -56t-59 -22zM503 748q-36 0 -58 21t-22 54t23 54.5t59 21.5t58 -20.5t22 -52.5q0 -34 -23 -56t-59 -22zM292 -10q-276 0 -234 335
l48 385h181l-49 -404q-4 -42 -2 -74.5t20.5 -52.5t52.5 -20q44 0 71.5 31.5t36.5 108.5l51 411h180l-51 -417q-20 -165 -94.5 -234t-210.5 -69z" />
    <glyph glyph-name="uni01DA" unicode="&#x1da;" horiz-adv-x="536" 
d="M235 719l-67 136h138l25 -62h1l41 62h135l-101 -136h-172zM211 538q-38 0 -63 24t-25 60q0 35 25 58.5t63 23.5q39 0 64.5 -23.5t25.5 -58.5q0 -37 -25.5 -60.5t-64.5 -23.5zM416 538q-38 0 -63 24t-25 60q0 35 25 58.5t63 23.5q39 0 64.5 -23.5t25.5 -58.5
q0 -37 -25.5 -60.5t-64.5 -23.5zM158 -10q-152 0 -124 193l43 307h169l-36 -244q-6 -41 -6 -63t6.5 -32t21.5 -10q27 0 55 38t33 78l29 233h170l-60 -490h-166l4 64h-3q-58 -74 -136 -74z" />
    <glyph glyph-name="uni01DB" unicode="&#x1db;" horiz-adv-x="640" 
d="M337 905l-126 135h123l86 -135h-83zM275 748q-36 0 -58 21t-22 54t23 54.5t59 21.5t58 -20.5t22 -52.5q0 -34 -23 -56t-59 -22zM503 748q-36 0 -58 21t-22 54t23 54.5t59 21.5t58 -20.5t22 -52.5q0 -34 -23 -56t-59 -22zM292 -10q-276 0 -234 335l48 385h181l-49 -404
q-4 -42 -2 -74.5t20.5 -52.5t52.5 -20q44 0 71.5 31.5t36.5 108.5l51 411h180l-51 -417q-20 -165 -94.5 -234t-210.5 -69z" />
    <glyph glyph-name="uni01DC" unicode="&#x1dc;" horiz-adv-x="536" 
d="M257 725l-95 133l147 -1l66 -132h-118zM211 538q-38 0 -63 24t-25 60q0 35 25 58.5t63 23.5q39 0 64.5 -23.5t25.5 -58.5q0 -37 -25.5 -60.5t-64.5 -23.5zM416 538q-38 0 -63 24t-25 60q0 35 25 58.5t63 23.5q39 0 64.5 -23.5t25.5 -58.5q0 -37 -25.5 -60.5t-64.5 -23.5z
M158 -10q-152 0 -124 193l43 307h169l-36 -244q-6 -41 -6 -63t6.5 -32t21.5 -10q27 0 55 38t33 78l29 233h170l-60 -490h-166l4 64h-3q-58 -74 -136 -74z" />
    <glyph glyph-name="Gcaron" unicode="&#x1e6;" horiz-adv-x="666" 
d="M341 752l-68 143h138l26 -61h1l42 61h134l-101 -143h-172zM334 -10q-129 0 -210.5 76t-81.5 222q0 183 105 307.5t274 124.5q75 0 140.5 -34.5t102.5 -97.5l-137 -105q-44 67 -117 67q-79 0 -128.5 -75.5t-49.5 -174.5q0 -70 31 -106t84 -36q49 0 94 27l11 71h-102
l18 148h273l-38 -329q-49 -37 -121.5 -61t-147.5 -24z" />
    <glyph glyph-name="gcaron" unicode="&#x1e7;" horiz-adv-x="543" 
d="M407 544h-172l-67 151h138l25 -69h1l41 69h135zM359 490h170l-52 -426q-34 -272 -288 -272q-105 0 -184 48l52 128q58 -35 121 -35q55 0 86 28.5t44 113.5l-3 1q-54 -71 -129 -71q-72 0 -113.5 54t-41.5 132q0 135 67 222t159 87q69 0 106 -39l3 1zM237 156q35 0 65 43.5
t42 115.5l1 7q-27 27 -63 27q-39 0 -64.5 -44t-25.5 -91q0 -58 45 -58z" />
    <glyph glyph-name="uni01EA" unicode="&#x1ea;" horiz-adv-x="726" 
d="M382 -7q-27 -11 -45.5 -33t-18.5 -45q0 -21 23 -21q16 0 30 6l2 -82q-30 -10 -77 -10q-100 0 -100 80q0 60 56 108v3q-98 22 -154 98t-56 196q0 114 45.5 211t133 156.5t199.5 59.5q132 0 211.5 -79.5t79.5 -220.5q0 -170 -87.5 -289.5t-241.5 -137.5zM404 551
q-73 0 -123.5 -73.5t-50.5 -171.5q0 -72 32.5 -109t83.5 -37q77 0 126.5 70.5t49.5 177.5q0 72 -32.5 107.5t-85.5 35.5z" />
    <glyph glyph-name="uni01EB" unicode="&#x1eb;" horiz-adv-x="529" 
d="M278 -7q-28 -11 -46.5 -33t-18.5 -45q0 -21 23 -21q16 0 30 6l2 -82q-30 -10 -77 -10q-100 0 -100 80q0 64 60 112v2q-61 21 -95 72.5t-34 128.5q0 124 73.5 210.5t201.5 86.5q96 0 153 -56.5t57 -156.5q0 -115 -57.5 -196.5t-171.5 -97.5zM282 348q-40 0 -64 -43
t-24 -97q0 -35 16.5 -51t34.5 -16q40 0 65 41t25 95q0 39 -16.5 55t-36.5 16z" />
    <glyph glyph-name="Aringacute" unicode="&#x1fa;" horiz-adv-x="629" 
d="M382 740q-45 0 -75 30.5t-30 74.5q0 46 31 76.5t77 30.5q36 0 65 -21l64 49l158 1l-182 -138q-2 -44 -32.5 -73.5t-75.5 -29.5zM385 881q-16 0 -26.5 -10t-10.5 -25t10 -25t26 -10q15 0 25 10t10 26q0 14 -10 24t-24 10zM285 710h170l144 -710h-188l-18 120h-192
l-43 -120h-191zM256 270h115l-33 222h-2z" />
    <glyph glyph-name="aringacute" unicode="&#x1fb;" horiz-adv-x="548" 
d="M327 537q-45 0 -75 30.5t-30 74.5q0 46 31 76.5t77 30.5q38 0 65 -21l64 50h166l-191 -150q-6 -40 -35.5 -65.5t-71.5 -25.5zM330 678q-16 0 -26.5 -10t-10.5 -25t10 -25t26 -10q15 0 25 10t10 26q0 14 -10 24t-24 10zM359 458l4 32h171l-60 -490h-171l8 63l-3 1
q-53 -74 -132 -74q-73 0 -114 56.5t-41 144.5q0 135 67 222t159 87q70 0 109 -42h3zM347 307l2 11q-28 31 -67 31t-64.5 -45t-25.5 -95q0 -30 12.5 -49t32.5 -19q35 0 66.5 43.5t43.5 122.5z" />
    <glyph glyph-name="AEacute" unicode="&#x1fc;" horiz-adv-x="861" 
d="M382 754l115 142l165 1l-131 -143h-149zM-33 0l381 710h520l-20 -161h-253l-15 -119h201l-20 -155h-200l-14 -114h272l-20 -161h-447l15 120h-148l-61 -120h-191zM295 272h91l28 231h-2z" />
    <glyph glyph-name="aeacute" unicode="&#x1fd;" horiz-adv-x="684" 
d="M613 709l-130 -152h-154l116 151zM469 126q40 0 72 46l123 -68q-73 -114 -203 -114q-115 0 -154 78q-54 -79 -138 -79q-71 0 -115.5 48t-44.5 137q0 141 72.5 230t201.5 89q65 0 116 -21q50 28 116 28q69 0 120.5 -34.5t51.5 -104.5q0 -51 -40.5 -91.5t-101.5 -63
t-135 -30.5q14 -50 59 -50zM501 362q-27 0 -50.5 -26t-35.5 -68q112 20 112 72q0 22 -26 22zM209 132q24 0 42.5 47t28.5 103q8 45 23 77q-54 -4 -89 -51t-35 -120q0 -56 30 -56z" />
    <glyph glyph-name="Oslashacute" unicode="&#x1fe;" horiz-adv-x="727" 
d="M622 895l-131 -143h-149l115 142zM741 677l-75 -79q46 -72 46 -178q0 -120 -43.5 -216.5t-131 -155t-204.5 -58.5q-111 0 -185 57l-79 -84l-64 63l83 88q-45 73 -45 179q0 114 45.5 211t133 156.5t199.5 59.5q111 0 185 -56l70 75zM231 306q0 -20 3 -37l243 259
q-29 23 -72 23q-73 0 -123.5 -73.5t-50.5 -171.5zM523 408q0 13 -2 35l-244 -259q29 -24 70 -24q77 0 126.5 70.5t49.5 177.5z" />
    <glyph glyph-name="oslashacute" unicode="&#x1ff;" horiz-adv-x="528" 
d="M517 709l-130 -152h-154l116 151zM521 466l-48 -51q34 -51 34 -128q0 -60 -16 -112t-48.5 -94t-87.5 -66.5t-126 -24.5q-75 0 -125 35l-46 -48l-45 43l47 49q-38 54 -38 134q0 124 73.5 210.5t201.5 86.5q80 0 134 -40l46 48zM282 348q-39 0 -63 -42t-25 -96l120 127
q-14 11 -32 11zM245 141q38 0 63 38t27 90l-115 -120q12 -8 25 -8z" />
    <glyph glyph-name="Scommaaccent" unicode="&#x218;" horiz-adv-x="536" 
d="M246 -10q-72 0 -139.5 31.5t-111.5 99.5l128 110q25 -39 59.5 -60t67.5 -21q34 0 52.5 14.5t18.5 36.5q0 18 -16 31.5t-68 43.5q-85 50 -113 77q-61 57 -61 139q0 103 71 165.5t177 62.5q67 0 127.5 -28.5t95.5 -83.5l-127 -106q-46 59 -101 59q-24 0 -39.5 -13.5
t-14.5 -34.5q0 -36 63 -73q13 -8 43.5 -25.5t42.5 -25t34.5 -23t32 -27.5t21.5 -29.5t16.5 -37t4.5 -43.5q0 -111 -72.5 -175t-191.5 -64zM128 -222l-15 95q30 4 42.5 15t12.5 34q0 10 -3 25h132q2 -16 2 -24q0 -71 -45.5 -108t-125.5 -37z" />
    <glyph glyph-name="scommaaccent" unicode="&#x219;" horiz-adv-x="417" 
d="M186 -10q-54 0 -108.5 22t-88.5 62l90 96q22 -25 53.5 -41.5t59.5 -16.5q29 0 29 16q0 9 -11 16.5t-59 33.5q-62 33 -90 66.5t-28 84.5q0 76 53.5 123.5t133.5 47.5q113 0 179 -83l-99 -92q-33 48 -77 50q-12 0 -21 -6t-9 -16q0 -14 63 -46q69 -34 98 -67.5t29 -89.5
q0 -70 -53 -115t-144 -45zM59 -222l-15 95q30 4 42.5 15t12.5 34q0 10 -3 25h132q2 -16 2 -24q0 -71 -45.5 -108t-125.5 -37z" />
    <glyph glyph-name="uni021A" unicode="&#x21a;" horiz-adv-x="535" 
d="M147 0l67 549h-158l20 161h497l-20 -161h-158l-67 -549h-181zM122 -222l-15 95q30 4 42.5 15t12.5 34q0 10 -3 25h132q2 -16 2 -24q0 -71 -45.5 -108t-125.5 -37z" />
    <glyph glyph-name="uni021B" unicode="&#x21b;" horiz-adv-x="344" 
d="M170 -10q-62 0 -97 37.5t-25 125.5l24 201h-47l17 136h47l18 138l174 34l-21 -172h92l-17 -136h-92l-21 -181q-5 -32 17 -32q14 0 38 11l29 -127q-67 -35 -136 -35zM56 -222l-15 95q30 4 42.5 15t12.5 34q0 10 -3 25h132q2 -16 2 -24q0 -71 -45.5 -108t-125.5 -37z" />
    <glyph glyph-name="uni0232" unicode="&#x232;" horiz-adv-x="581" 
d="M210 776l16 122h291l-16 -122h-291zM168 0l39 308l-155 402h199l66 -233h3l119 233h206l-255 -402l-38 -308h-184z" />
    <glyph glyph-name="uni0233" unicode="&#x233;" horiz-adv-x="528" 
d="M461 706l-16 -127h-291l16 127h291zM344 490h170l-52 -421q-34 -277 -282 -277q-100 0 -180 48l52 122q52 -35 116 -35q51 0 80.5 27.5t42.5 108.5h-3q-56 -73 -136 -73q-151 0 -123 193l43 307h169l-35 -244q-9 -59 -5 -82t27 -23q26 0 54 38t33 75z" />
    <glyph glyph-name="uni0237" unicode="&#x237;" horiz-adv-x="256" 
d="M2 -207q-60 0 -111 23l42 130q13 -11 35 -11q21 0 29 17.5t14 64.5l58 473h171l-61 -497q-13 -108 -58 -154t-119 -46z" />
    <glyph glyph-name="uni0251" unicode="&#x251;" horiz-adv-x="548" 
d="M176 -10q-73 0 -114 56.5t-41 144.5q0 135 67 222t159 87q70 0 109 -42h3l4 32h171l-60 -490h-171l8 63l-3 1q-53 -74 -132 -74zM237 141q35 0 66.5 43.5t43.5 122.5l2 11q-28 31 -67 31t-64.5 -45t-25.5 -95q0 -30 12.5 -49t32.5 -19z" />
    <glyph glyph-name="uni0259" unicode="&#x259;" horiz-adv-x="470" 
d="M241 500q99 0 155 -55.5t56 -154.5q0 -128 -75 -214t-204 -86q-70 0 -119 35.5t-49 102.5q0 55 41.5 96.5t101.5 63t138 32.5q-12 45 -62 45q-41 0 -85 -39l-87 105q32 29 84 49t105 20zM192 127q32 0 56 26.5t35 70.5q-117 -20 -117 -73q0 -24 26 -24z" />
    <glyph glyph-name="uni0261" unicode="&#x261;" horiz-adv-x="543" 
d="M359 490h170l-52 -426q-34 -272 -288 -272q-105 0 -184 48l52 128q58 -35 121 -35q55 0 86 28.5t44 113.5l-3 1q-54 -71 -129 -71q-72 0 -113.5 54t-41.5 132q0 135 67 222t159 87q69 0 106 -39l3 1zM237 156q35 0 65 43.5t42 115.5l1 7q-27 27 -63 27q-39 0 -64.5 -44
t-25.5 -91q0 -58 45 -58z" />
    <glyph glyph-name="uni0272" unicode="&#x272;" horiz-adv-x="542" 
d="M397 500q135 0 109 -198l-39 -302h-169l34 255q6 49 2 71t-22 22q-31 0 -61 -40.5t-41 -121.5l-23 -186q-13 -107 -58 -156t-140 -49q-43 0 -82 8l30 129q18 -4 24 -4q29 0 40.5 24t18.5 77l57 461h170l-7 -61l2 -1q63 72 155 72z" />
    <glyph glyph-name="uni02BB" unicode="&#x2bb;" horiz-adv-x="239" 
d="M67 409l55 278h116l-15 -278h-156z" />
    <glyph glyph-name="uni02BC" unicode="&#x2bc;" horiz-adv-x="245" 
d="M72 474l58 232h157l-100 -232h-115z" />
    <glyph glyph-name="uni02BE" unicode="&#x2be;" horiz-adv-x="235" 
d="M90 778q84 0 131 -41t47 -115q0 -95 -57 -149.5t-156 -54.5l-2 114q34 2 56 24t22 57q0 47 -59 51z" />
    <glyph glyph-name="uni02BF" unicode="&#x2bf;" horiz-adv-x="260" 
d="M257 418q-84 0 -131 41t-47 115q0 95 57 149.5t156 54.5l2 -114q-34 -2 -56 -24t-22 -57q0 -47 59 -51z" />
    <glyph glyph-name="circumflex" unicode="&#x2c6;" horiz-adv-x="396" 
d="M61 528l113 155h145l82 -155h-141l-18 73h-1l-35 -73h-145z" />
    <glyph glyph-name="caron" unicode="&#x2c7;" horiz-adv-x="395" 
d="M149 518l-67 151h138l25 -69h1l41 69h135l-101 -151h-172z" />
    <glyph glyph-name="uni02C8" unicode="&#x2c8;" horiz-adv-x="209" 
d="M64 369l33 291h111l-35 -290z" />
    <glyph glyph-name="uni02C9" unicode="&#x2c9;" horiz-adv-x="323" 
d="M57 580l16 127h291l-16 -127h-291z" />
    <glyph glyph-name="uni02CA" unicode="&#x2ca;" horiz-adv-x="294" 
d="M52 558l116 151l168 1l-130 -152h-154z" />
    <glyph glyph-name="uni02CB" unicode="&#x2cb;" horiz-adv-x="288" 
d="M164 558l-92 152l164 -1l79 -151h-151z" />
    <glyph glyph-name="uni02CC" unicode="&#x2cc;" horiz-adv-x="209" 
d="M-2 -197l33 291h111l-35 -290z" />
    <glyph glyph-name="breve" unicode="&#x2d8;" horiz-adv-x="404" 
d="M231 508q-70 0 -107 42.5t-33 118.5h119q-2 -17 7 -29t27 -12q20 0 35 12t21 29h120q-13 -72 -62 -116.5t-127 -44.5z" />
    <glyph glyph-name="dotaccent" unicode="&#x2d9;" horiz-adv-x="462" 
d="M270 520q-45 0 -72.5 26.5t-27.5 67.5t28.5 68t74.5 27q44 0 71.5 -26t27.5 -66q0 -42 -28.5 -69.5t-73.5 -27.5z" />
    <glyph glyph-name="ring" unicode="&#x2da;" horiz-adv-x="406" 
d="M247 512q-45 0 -75 30.5t-30 74.5q0 46 31 76.5t77 30.5q45 0 75 -29.5t30 -73.5q0 -47 -31 -78t-77 -31zM249 583q15 0 25 10t10 26q0 14 -10 24t-24 10q-16 0 -26.5 -10t-10.5 -25t10 -25t26 -10z" />
    <glyph glyph-name="ogonek" unicode="&#x2db;" horiz-adv-x="435" 
d="M190 -192q-100 0 -100 80q0 36 23.5 71t59.5 56l138 -15q-38 -1 -68.5 -27.5t-30.5 -57.5q0 -21 23 -21q16 0 30 6l2 -82q-30 -10 -77 -10z" />
    <glyph glyph-name="tilde" unicode="&#x2dc;" horiz-adv-x="441" 
d="M333 522q-36 0 -77 29q-21 16 -42 16q-33 0 -58 -49l-92 45q24 58 58.5 92.5t76.5 34.5q40 0 76 -26q25 -17 40 -17q34 0 60 48l91 -38q-23 -61 -57 -98t-76 -37z" />
    <glyph glyph-name="hungarumlaut" unicode="&#x2dd;" horiz-adv-x="499" 
d="M51 531l116 151l164 1l-130 -152h-150zM270 531l115 151l164 1l-129 -152h-150z" />
    <glyph glyph-name="gravecomb" unicode="&#x300;" 
d="M-508 531l-92 152l164 -1l79 -151h-151z" />
    <glyph glyph-name="acutecomb" unicode="&#x301;" 
d="M-577 531l116 151l168 1l-130 -152h-154z" />
    <glyph glyph-name="uni0302" unicode="&#x302;" 
d="M-636 528l113 155h145l82 -155h-141l-18 73h-1l-35 -73h-145z" />
    <glyph glyph-name="tildecomb" unicode="&#x303;" 
d="M-381 522q-36 0 -77 29q-21 16 -42 16q-33 0 -58 -49l-92 45q24 58 58.5 92.5t76.5 34.5q40 0 76 -26q26 -17 40 -17q34 0 60 48l91 -38q-23 -61 -57 -98t-76 -37z" />
    <glyph glyph-name="uni0304" unicode="&#x304;" 
d="M-609 553l16 127h291l-16 -127h-291z" />
    <glyph glyph-name="uni0306" unicode="&#x306;" 
d="M-472 508q-70 0 -107 42.5t-33 118.5h119q-2 -17 7 -29t27 -12q20 0 35 12t21 29h120q-13 -72 -62 -116.5t-127 -44.5z" />
    <glyph glyph-name="uni0307" unicode="&#x307;" 
d="M-460 520q-45 0 -72.5 26.5t-27.5 67.5t28.5 68t74.5 27q44 0 71.5 -26t27.5 -66q0 -42 -28.5 -69.5t-73.5 -27.5z" />
    <glyph glyph-name="uni0308" unicode="&#x308;" 
d="M-572 520q-44 0 -71.5 26.5t-27.5 67.5t28.5 68t73.5 27q44 0 71.5 -26t27.5 -66q0 -42 -28.5 -69.5t-73.5 -27.5zM-342 520q-44 0 -71.5 26.5t-27.5 67.5t28.5 68t74.5 27q44 0 71.5 -26t27.5 -66q0 -42 -28.5 -69.5t-74.5 -27.5z" />
    <glyph glyph-name="hookabovecomb" unicode="&#x309;" 
d="M-439 515l-85 1q47 37 52 71q3 24 -23 24q-28 0 -55 -18l-19 67q25 22 64 38.5t75 16.5q44 0 68 -18.5t24 -52.5q0 -38 -27 -73t-74 -56z" />
    <glyph glyph-name="uni030A" unicode="&#x30a;" 
d="M-455 512q-45 0 -75 30.5t-30 74.5q0 46 31 76.5t77 30.5q45 0 75 -29.5t30 -73.5q0 -47 -31 -78t-77 -31zM-453 583q15 0 25 10t10 26q0 14 -10 24t-24 10q-16 0 -26.5 -10t-10.5 -25t10 -25t26 -10z" />
    <glyph glyph-name="uni030B" unicode="&#x30b;" 
d="M-647 531l116 151l164 1l-130 -152h-150zM-428 531l115 151l164 1l-129 -152h-150z" />
    <glyph glyph-name="uni030C" unicode="&#x30c;" 
d="M-549 518l-67 151h138l25 -69h1l41 69h135l-101 -151h-172z" />
    <glyph glyph-name="uni0312" unicode="&#x312;" 
d="M-523 543q-3 12 -3 23q0 71 46 108.5t125 37.5l15 -95q-30 -5 -42 -15.5t-12 -33.5q0 -7 2 -25h-131z" />
    <glyph glyph-name="uni0313" unicode="&#x313;" 
d="M-471 702q3 -12 3 -23q0 -71 -46 -108.5t-125 -37.5l-15 95q30 5 42 15.5t12 33.5q0 7 -2 25h131z" />
    <glyph glyph-name="uni031B" unicode="&#x31b;" 
d="M-427 446q-39 0 -72 15l18 62q16 -8 26 -8q17 0 27.5 17t14.5 37.5t9 59.5l11 81h131l-10 -84q-11 -90 -52.5 -135t-102.5 -45z" />
    <glyph glyph-name="dotbelowcomb" unicode="&#x323;" 
d="M-543 -50q45 0 72.5 -26.5t27.5 -67.5t-28.5 -68t-74.5 -27q-44 0 -71.5 26t-27.5 66q0 42 28.5 69.5t73.5 27.5z" />
    <glyph glyph-name="uni0324" unicode="&#x324;" 
d="M-660 -50q44 0 71.5 -26.5t27.5 -67.5t-28.5 -68t-74.5 -27q-44 0 -71.5 26t-27.5 66q0 42 28.5 69.5t74.5 27.5zM-430 -50q44 0 71.5 -26.5t27.5 -67.5t-28.5 -68t-73.5 -27q-44 0 -71.5 26t-27.5 66q0 42 28.5 69.5t73.5 27.5z" />
    <glyph glyph-name="uni0326" unicode="&#x326;" 
d="M-645 -222l-15 95q30 4 42.5 15t12.5 34q0 10 -3 25h132q2 -16 2 -24q0 -71 -45.5 -108t-125.5 -37z" />
    <glyph glyph-name="uni0327" unicode="&#x327;" 
d="M-589 -193q-32 0 -58 6l2 65q17 -6 41 -6q49 0 49 31q0 23 -63 23l1 39l27 41h83l-27 -35l1 -1q75 -3 75 -67q0 -96 -131 -96z" />
    <glyph glyph-name="uni0328" unicode="&#x328;" 
d="M-652 -192q-100 0 -100 80q0 36 23.5 71t59.5 56l138 -15q-38 -1 -68.5 -27.5t-30.5 -57.5q0 -21 23 -21q16 0 30 6l2 -82q-30 -10 -77 -10z" />
    <glyph glyph-name="uni032E" unicode="&#x32e;" 
d="M-560 -237q-70 0 -107 42.5t-33 118.5h119q-2 -17 7 -29t27 -12q20 0 35 12t21 29h120q-13 -72 -62 -116.5t-127 -44.5z" />
    <glyph glyph-name="uni0331" unicode="&#x331;" 
d="M-700 -215l16 127h291l-16 -127h-291z" />
    <glyph glyph-name="uni0335" unicode="&#x335;" 
d="M-639 208l12 98h278l-12 -98h-278z" />
    <glyph glyph-name="uni0374" unicode="&#x374;" horiz-adv-x="277" 
d="M60 465l69 268h164l-101 -268h-132z" />
    <glyph glyph-name="uni0375" unicode="&#x375;" horiz-adv-x="286" 
d="M-3 -162l69 269h164l-101 -269h-132z" />
    <glyph glyph-name="uni037E" unicode="&#x37e;" horiz-adv-x="249" 
d="M139 311q-44 0 -69 26t-25 68t26 68.5t71 26.5q44 0 69 -25.5t25 -66.5q0 -43 -26 -70t-71 -27zM-30 -134l59 275h164l-104 -275h-119z" />
    <glyph glyph-name="tonos" unicode="&#x384;" horiz-adv-x="409" 
d="M135 531l76 179h182l-112 -179h-146z" />
    <glyph glyph-name="dieresistonos" unicode="&#x385;" horiz-adv-x="585" 
d="M263 531l33 179h137l-64 -179h-106zM161 520q-44 0 -71.5 26.5t-27.5 67.5t28.5 68t73.5 27q44 0 71.5 -26t27.5 -66q0 -42 -28.5 -69.5t-73.5 -27.5zM525 520q-44 0 -71.5 26.5t-27.5 67.5t28.5 68t73.5 27q44 0 71.5 -26t27.5 -66q0 -42 -28.5 -69.5t-73.5 -27.5z" />
    <glyph glyph-name="Alphatonos" unicode="&#x386;" horiz-adv-x="629" 
d="M-60 531l83 179h180l-117 -179h-146zM-33 0l318 710h170l144 -710h-188l-18 120h-192l-43 -120h-191zM256 270h115l-33 222h-2z" />
    <glyph glyph-name="anoteleia" unicode="&#x387;" horiz-adv-x="261" 
d="M153 311q-44 0 -69 26t-25 68t26 68.5t71 26.5q44 0 69 -25.5t25 -66.5q0 -43 -26 -70t-71 -27z" />
    <glyph glyph-name="Epsilontonos" unicode="&#x388;" horiz-adv-x="533" 
d="M-197 531l83 179h180l-117 -179h-146zM25 0l87 710h428l-20 -161h-252l-15 -118h196l-18 -155h-196l-15 -115h271l-20 -161h-446z" />
    <glyph glyph-name="Etatonos" unicode="&#x389;" horiz-adv-x="655" 
d="M-197 531l83 179h180l-117 -179h-146zM26 0l87 710h183l-35 -287h176l35 287h184l-88 -710h-183l32 262h-176l-32 -262h-183z" />
    <glyph glyph-name="Iotatonos" unicode="&#x38a;" horiz-adv-x="306" 
d="M-192 531l83 179h180l-117 -179h-146zM31 0l87 710h184l-87 -710h-184z" />
    <glyph glyph-name="Omicrontonos" unicode="&#x38c;" horiz-adv-x="726" 
d="M332 -10q-133 0 -211.5 80t-78.5 223q0 114 45.5 211t133 156.5t199.5 59.5q132 0 211.5 -79.5t79.5 -220.5q0 -120 -43.5 -216.5t-131 -155t-204.5 -58.5zM-125 531l83 179h180l-117 -179h-146zM346 160q77 0 126.5 70.5t49.5 177.5q0 72 -32.5 107.5t-85.5 35.5
q-73 0 -123.5 -73.5t-50.5 -171.5q0 -72 32.5 -109t83.5 -37z" />
    <glyph glyph-name="Upsilontonos" unicode="&#x38e;" horiz-adv-x="581" 
d="M-240 531l83 179h180l-117 -179h-146zM168 0l39 308l-155 402h199l66 -233h3l119 233h206l-255 -402l-38 -308h-184z" />
    <glyph glyph-name="Omegatonos" unicode="&#x38f;" horiz-adv-x="669" 
d="M9 0l20 161h88l1 4q-67 80 -67 211q0 145 96 244.5t241 99.5q126 0 198.5 -82.5t72.5 -205.5q0 -163 -128 -269v-2h88l-20 -161h-261l20 161q111 118 111 250q0 72 -25 108.5t-66 36.5q-66 -1 -104.5 -64t-38.5 -148q0 -99 55 -183l-19 -161h-262zM-142 531l83 179h180
l-117 -179h-146z" />
    <glyph glyph-name="iotadieresistonos" unicode="&#x390;" horiz-adv-x="322" 
d="M116 557l33 179h137l-64 -179h-106zM14 546q-44 0 -71.5 26.5t-27.5 67.5t28.5 68t73.5 27q44 0 71.5 -26t27.5 -66q0 -42 -28.5 -69.5t-73.5 -27.5zM378 546q-44 0 -71.5 26.5t-27.5 67.5t28.5 68t73.5 27q44 0 71.5 -26t27.5 -66q0 -42 -28.5 -69.5t-73.5 -27.5z
M166 -10q-149 0 -127 175l40 325h171l-39 -315q-4 -42 29 -42q9 0 26 5l28 -115q-57 -33 -128 -33z" />
    <glyph glyph-name="Alpha" unicode="&#x391;" horiz-adv-x="629" 
d="M-33 0l318 710h170l144 -710h-188l-18 120h-192l-43 -120h-191zM256 270h115l-33 222h-2z" />
    <glyph glyph-name="Beta" unicode="&#x392;" horiz-adv-x="578" 
d="M26 0l87 710h260q187 0 187 -145q0 -54 -28 -104.5t-78 -76.5v-3q97 -40 97 -151q0 -230 -278 -230h-247zM254 428h43q36 0 58 23.5t22 57.5q0 43 -50 43h-57zM221 156h64q84 0 84 88q0 49 -60 49h-71z" />
    <glyph glyph-name="Gamma" unicode="&#x393;" horiz-adv-x="514" 
d="M26 0l87 710h441l-20 -161h-258l-68 -549h-182z" />
    <glyph glyph-name="uni0394" unicode="&#x394;" horiz-adv-x="620" 
d="M-5 0l16 138l270 572h170l129 -572l-16 -138h-569zM204 161h190l-53 319h-2z" />
    <glyph glyph-name="Epsilon" unicode="&#x395;" horiz-adv-x="533" 
d="M25 0l87 710h428l-20 -161h-252l-15 -118h196l-18 -155h-196l-15 -115h271l-20 -161h-446z" />
    <glyph glyph-name="Zeta" unicode="&#x396;" horiz-adv-x="560" 
d="M5 0l16 141l314 404l-2 4h-253l19 161h484l-16 -137l-321 -408l2 -4h266l-19 -161h-490z" />
    <glyph glyph-name="Eta" unicode="&#x397;" horiz-adv-x="655" 
d="M26 0l87 710h183l-35 -287h176l35 287h184l-88 -710h-183l32 262h-176l-32 -262h-183z" />
    <glyph glyph-name="Theta" unicode="&#x398;" horiz-adv-x="726" 
d="M334 -10q-133 0 -211.5 80t-78.5 223q0 114 45.5 211t133 156.5t199.5 59.5q132 0 211.5 -79.5t79.5 -220.5q0 -120 -43.5 -216.5t-131 -155t-204.5 -58.5zM348 160q77 0 126.5 70.5t49.5 177.5q0 72 -32.5 107.5t-85.5 35.5q-73 0 -123.5 -73.5t-50.5 -171.5
q0 -72 32.5 -109t83.5 -37zM285 275l19 152h167l-19 -152h-167z" />
    <glyph glyph-name="Iota" unicode="&#x399;" horiz-adv-x="306" 
d="M31 0l87 710h184l-87 -710h-184z" />
    <glyph glyph-name="Kappa" unicode="&#x39a;" horiz-adv-x="615" 
d="M668 710l-249 -320l170 -390h-206l-104 261l-49 -59l-25 -202h-179l87 710h180l-32 -265l3 -1l190 266h214z" />
    <glyph glyph-name="Lambda" unicode="&#x39b;" horiz-adv-x="601" 
d="M-33 0l304 710h170l130 -710h-187l-62 452h-2l-164 -452h-189z" />
    <glyph glyph-name="Mu" unicode="&#x39c;" horiz-adv-x="781" 
d="M26 0l87 710h175l121 -366h3l193 366h177l-87 -710h-177l43 349l-2 1l-125 -221h-105l-80 227l-3 -1l-43 -355h-177z" />
    <glyph glyph-name="Nu" unicode="&#x39d;" horiz-adv-x="668" 
d="M26 0l87 710h165l165 -404l3 1l49 403h175l-88 -710h-172l-158 392l-3 -1l-49 -391h-174z" />
    <glyph glyph-name="Xi" unicode="&#x39e;" horiz-adv-x="566" 
d="M75 546l20 164h490l-20 -164h-490zM101 275l19 155h368l-19 -155h-368zM2 0l20 165h503l-21 -165h-502z" />
    <glyph glyph-name="Omicron" unicode="&#x39f;" horiz-adv-x="726" 
d="M332 -10q-133 0 -211.5 80t-78.5 223q0 114 45.5 211t133 156.5t199.5 59.5q132 0 211.5 -79.5t79.5 -220.5q0 -120 -43.5 -216.5t-131 -155t-204.5 -58.5zM346 160q77 0 126.5 70.5t49.5 177.5q0 72 -32.5 107.5t-85.5 35.5q-73 0 -123.5 -73.5t-50.5 -171.5
q0 -72 32.5 -109t83.5 -37z" />
    <glyph glyph-name="Pi" unicode="&#x3a0;" horiz-adv-x="625" 
d="M26 0l87 710h513l-87 -710h-182l67 549h-149l-67 -549h-182z" />
    <glyph glyph-name="Rho" unicode="&#x3a1;" horiz-adv-x="557" 
d="M26 0l87 710h252q103 0 153.5 -55t50.5 -144q0 -130 -75.5 -210t-208.5 -80h-56l-26 -221h-177zM249 379h39q41 0 67 31t26 74q0 35 -18 51t-45 16h-48z" />
    <glyph glyph-name="Sigma" unicode="&#x3a3;" horiz-adv-x="535" 
d="M1 0l15 125l191 222l-133 233l14 130h476l-19 -161h-253v-2l107 -192l-159 -193v-1h257l-19 -161h-477z" />
    <glyph glyph-name="Tau" unicode="&#x3a4;" horiz-adv-x="535" 
d="M147 0l67 549h-158l20 161h497l-20 -161h-158l-67 -549h-181z" />
    <glyph glyph-name="Upsilon" unicode="&#x3a5;" horiz-adv-x="581" 
d="M168 0l39 308l-155 402h199l66 -233h3l119 233h206l-255 -402l-38 -308h-184z" />
    <glyph glyph-name="Phi" unicode="&#x3a6;" horiz-adv-x="809" 
d="M798 403q0 -91 -33.5 -163t-108 -120t-182.5 -52l-8 -68h-179l8 67q-114 3 -185 72t-71 179q0 89 36 165.5t113 128t181 52.5l7 58h179l-7 -59q112 -6 181 -76.5t69 -183.5zM220 341q0 -116 101 -128l38 306q-64 -5 -101.5 -56.5t-37.5 -121.5zM485 215q63 10 97.5 55
t34.5 115q0 55 -25.5 89.5t-69.5 42.5z" />
    <glyph glyph-name="Chi" unicode="&#x3a7;" horiz-adv-x="633" 
d="M-33 0l245 361l-147 349h191l85 -215h5l129 215h207l-238 -353l158 -357h-196l-91 220h-4l-144 -220h-200z" />
    <glyph glyph-name="Psi" unicode="&#x3a8;" horiz-adv-x="729" 
d="M575 710h172l-33 -267q-37 -296 -274 -296l-18 -147h-177l18 147q-111 4 -163.5 83t-35.5 224l32 256h172l-30 -240q-10 -84 0.5 -121t44.5 -42l49 403h177l-49 -403q68 13 86 168z" />
    <glyph glyph-name="uni03A9" unicode="&#x3a9;" horiz-adv-x="669" 
d="M9 0l20 161h88l1 4q-67 80 -67 211q0 145 96 244.5t241 99.5q126 0 198.5 -82.5t72.5 -205.5q0 -163 -128 -269v-2h88l-20 -161h-261l20 161q111 118 111 250q0 72 -25 108.5t-66 36.5q-66 -1 -104.5 -64t-38.5 -148q0 -99 55 -183l-19 -161h-262z" />
    <glyph glyph-name="Iotadieresis" unicode="&#x3aa;" horiz-adv-x="306" 
d="M111 747q-44 0 -71.5 26.5t-27.5 67.5t28.5 68t73.5 27q44 0 71.5 -26t27.5 -66q0 -42 -28.5 -69.5t-73.5 -27.5zM341 747q-44 0 -71.5 26.5t-27.5 67.5t28.5 68t74.5 27q44 0 71.5 -26t27.5 -66q0 -42 -28.5 -69.5t-74.5 -27.5zM31 0l87 710h184l-87 -710h-184z" />
    <glyph glyph-name="Upsilondieresis" unicode="&#x3ab;" horiz-adv-x="581" 
d="M244 747q-44 0 -71.5 26.5t-27.5 67.5t28.5 68t73.5 27q44 0 71.5 -26t27.5 -66q0 -42 -28.5 -69.5t-73.5 -27.5zM474 747q-44 0 -71.5 26.5t-27.5 67.5t28.5 68t74.5 27q44 0 71.5 -26t27.5 -66q0 -42 -28.5 -69.5t-74.5 -27.5zM168 0l39 308l-155 402h199l66 -233h3
l119 233h206l-255 -402l-38 -308h-184z" />
    <glyph glyph-name="alphatonos" unicode="&#x3ac;" horiz-adv-x="565" 
d="M490 736l-112 -179h-146l76 179h182zM488 128q13 0 26 4l24 -112q-51 -33 -112 -30q-35 1 -66 21t-43 63h-3q-50 -84 -138 -84q-66 0 -112.5 52.5t-46.5 139.5q0 131 65 224.5t160 93.5q100 0 137 -86h2l40 97l152 -62l-117 -199l-3 -74q-1 -48 35 -48zM231 139
q41 0 92 115q2 39 -12.5 67t-42.5 28q-36 0 -58 -45t-22 -97q0 -68 43 -68z" />
    <glyph glyph-name="epsilontonos" unicode="&#x3ad;" horiz-adv-x="452" 
d="M200 557l76 179h182l-112 -179h-146zM187 -10q-83 0 -130.5 35t-47.5 98q0 43 27.5 79t70.5 55v2q-63 36 -63 96q0 61 57 103t140 42q135 0 209 -53l-60 -110q-60 24 -124 24q-62 0 -62 -33q0 -13 13 -21.5t35 -8.5h61l-13 -102h-71q-22 0 -37 -9.5t-15 -24.5
q0 -32 61 -33q23 -1 63.5 9t70.5 28l52 -125q-60 -32 -112 -41.5t-125 -9.5z" />
    <glyph glyph-name="etatonos" unicode="&#x3ae;" horiz-adv-x="564" 
d="M497 736l-112 -179h-146l76 179h182zM404 500q79 0 110 -50t16 -163l-65 -485h-169l60 468q11 78 -23 78q-28 0 -57 -44t-39 -128l-21 -176h-169l40 324q6 44 -24 44q-9 0 -21 -3l-7 117q37 18 90 18t83 -20.5t37 -69.5h3q58 90 156 90z" />
    <glyph glyph-name="iotatonos" unicode="&#x3af;" horiz-adv-x="322" 
d="M100 557l76 179h182l-112 -179h-146zM166 -10q-149 0 -127 175l40 325h171l-39 -315q-4 -42 29 -42q9 0 26 5l28 -115q-57 -33 -128 -33z" />
    <glyph glyph-name="upsilondieresistonos" unicode="&#x3b0;" horiz-adv-x="528" 
d="M249 557l33 179h137l-64 -179h-106zM147 546q-44 0 -71.5 26.5t-27.5 67.5t28.5 68t73.5 27q44 0 71.5 -26t27.5 -66q0 -42 -28.5 -69.5t-73.5 -27.5zM511 546q-44 0 -71.5 26.5t-27.5 67.5t28.5 68t73.5 27q44 0 71.5 -26t27.5 -66q0 -42 -28.5 -69.5t-73.5 -27.5z
M224 -10q-88 0 -135 46.5t-45 124.5q1 38 14 101.5t14 82.5q3 29 -27 29q-4 0 -6.5 -0.5t-5.5 -1.5t-5 -1l-5 111q61 18 113 18q48 0 76.5 -28t25.5 -84q-2 -39 -13.5 -105t-11.5 -97q-1 -45 34 -45q15 0 29 10.5t28.5 34t24.5 70t12 109.5q2 58 -6 116l161 16
q18 -58 16 -139q-3 -98 -28 -171.5t-67 -115t-90 -61.5t-103 -20z" />
    <glyph glyph-name="alpha" unicode="&#x3b1;" horiz-adv-x="565" 
d="M488 128q13 0 26 4l24 -112q-51 -33 -112 -30q-35 1 -66 21t-43 63h-3q-50 -84 -138 -84q-66 0 -112.5 52.5t-46.5 139.5q0 131 65 224.5t160 93.5q100 0 137 -86h2l40 97l152 -62l-117 -199l-3 -74q-1 -48 35 -48zM231 139q41 0 92 115q2 39 -12.5 67t-42.5 28
q-36 0 -58 -45t-22 -97q0 -68 43 -68z" />
    <glyph glyph-name="beta" unicode="&#x3b2;" horiz-adv-x="525" 
d="M421 374q35 -14 58 -48.5t23 -88.5q0 -107 -69.5 -177t-175.5 -70q-118 0 -172.5 73t-54.5 195q0 126 37 235t113.5 181t178.5 72q87 0 136 -38.5t49 -116.5q0 -135 -123 -215v-2zM349 603q-30 -2 -69 -50.5t-66 -152.5q72 23 117.5 65.5t44.5 96.5q0 43 -27 41zM260 144
q35 0 53 26.5t18 61.5q0 45 -24 67q-50 -17 -110 -24q-1 -5 -1 -14q0 -50 15 -83.5t49 -33.5z" />
    <glyph glyph-name="gamma" unicode="&#x3b3;" horiz-adv-x="525" 
d="M119 -198q23 203 11 327q-12 129 -30 187t-53 58q-5 0 -17 -3l-7 116q42 13 88 13q68 0 95.5 -31.5t45.5 -111.5q11 -49 19 -167h1q16 32 28.5 63t22 69t14 55t13 63t9.5 50h167q-44 -285 -222 -493q2 -61 -16 -195h-169z" />
    <glyph glyph-name="delta" unicode="&#x3b4;" horiz-adv-x="520" 
d="M382 490q117 -62 117 -203q0 -134 -73.5 -215.5t-196.5 -81.5q-98 0 -153.5 57.5t-55.5 151.5q0 74 37 139.5t101 105.5q-58 53 -58 117q0 84 58 134.5t157 50.5q128 0 218 -65l-80 -118q-73 47 -121 47q-64 0 -64 -38q0 -26 48 -49zM244 141q34 0 58.5 36.5t24.5 79.5
q0 71 -58 108q-35 -25 -56.5 -66.5t-21.5 -85.5q0 -72 53 -72z" />
    <glyph glyph-name="epsilon" unicode="&#x3b5;" horiz-adv-x="452" 
d="M187 -10q-83 0 -130.5 35t-47.5 98q0 43 27.5 79t70.5 55v2q-63 36 -63 96q0 61 57 103t140 42q135 0 209 -53l-60 -110q-60 24 -124 24q-62 0 -62 -33q0 -13 13 -21.5t35 -8.5h61l-13 -102h-71q-22 0 -37 -9.5t-15 -24.5q0 -32 61 -33q23 -1 63.5 9t70.5 28l52 -125
q-60 -32 -112 -41.5t-125 -9.5z" />
    <glyph glyph-name="zeta" unicode="&#x3b6;" horiz-adv-x="422" 
d="M299 -221l-134 74q59 79 59 107q0 13 -11 24.5t-45 25.5q-29 12 -43 19t-38.5 23t-36.5 33t-22 45.5t-10 63.5q0 179 237 398l-1 2h-158l17 142h362l-14 -126q-103 -90 -187 -204.5t-84 -193.5q0 -28 17.5 -43.5t68.5 -42.5q70 -36 95 -66.5t25 -74.5q0 -104 -97 -206z
" />
    <glyph glyph-name="eta" unicode="&#x3b7;" horiz-adv-x="564" 
d="M404 500q79 0 110 -50t16 -163l-65 -485h-169l60 468q11 78 -23 78q-28 0 -57 -44t-39 -128l-21 -176h-169l40 324q6 44 -24 44q-9 0 -21 -3l-7 117q37 18 90 18t83 -20.5t37 -69.5h3q58 90 156 90z" />
    <glyph glyph-name="theta" unicode="&#x3b8;" horiz-adv-x="539" 
d="M329 746q93 0 148.5 -62.5t55.5 -205.5q0 -99 -16 -183.5t-49 -154.5t-92 -110t-137 -40q-91 0 -147 65t-56 208q0 97 16.5 181t50.5 153t92 109t134 40zM312 600q-56 0 -86 -164h134q1 15 1 42q0 122 -49 122zM260 136q56 0 86 165h-137q-1 -16 -1 -45q0 -59 10.5 -89.5
t41.5 -30.5z" />
    <glyph glyph-name="iota" unicode="&#x3b9;" horiz-adv-x="322" 
d="M166 -10q-149 0 -127 175l40 325h171l-39 -315q-4 -42 29 -42q9 0 26 5l28 -115q-57 -33 -128 -33z" />
    <glyph glyph-name="kappa" unicode="&#x3ba;" horiz-adv-x="549" 
d="M459 130q16 0 32 4l29 -111q-57 -33 -124 -33q-114 0 -124 127q0 8 -1.5 25.5t-2.5 26.5q-47 -47 -78 -84l-10 -85h-166l60 490h168l-17 -137q-4 -33 -25 -107h1q136 195 218 266l124 -111q-130 -102 -150 -119q7 -52 13 -82q8 -41 19 -55.5t34 -14.5z" />
    <glyph glyph-name="lambda" unicode="&#x3bb;" horiz-adv-x="491" 
d="M-27 0l236 491l-8 49q-7 39 -20 52.5t-35 13.5q-19 0 -56 -11l-10 127q49 25 118 25q122 0 161 -163q67 -284 100 -584h-175q-7 123 -23 260h-1l-105 -260h-182z" />
    <glyph glyph-name="uni03BC" unicode="&#x3bc;" horiz-adv-x="574" 
d="M529 134l19 -115q-40 -29 -98 -29q-52 0 -81 20.5t-37 66.5h-2q-46 -87 -111 -87q-33 0 -55 22l-3 -1q14 -80 7 -139l-8 -70h-168l85 688h168l-33 -264q-11 -85 34 -85q24 0 45.5 27.5t28.5 83.5l28 238h171l-39 -315q-3 -25 1.5 -34.5t19.5 -9.5q16 0 28 3z" />
    <glyph glyph-name="nu" unicode="&#x3bd;" horiz-adv-x="523" 
d="M127 0l-93 490h175l36 -323l2 -1q91 142 105 324h173q-19 -162 -80.5 -286.5t-151.5 -203.5h-166z" />
    <glyph glyph-name="xi" unicode="&#x3be;" horiz-adv-x="455" 
d="M319 -221l-135 73q21 26 29.5 37.5t19.5 33t11 37.5t-12 25t-45 24q-38 16 -62.5 30t-52 35.5t-41 51t-13.5 66.5q0 62 34 109t91 75l1 5q-50 34 -50 88q0 76 101 131l-1 2l-102 -7l19 141h370l-16 -127q-202 -32 -202 -105q0 -59 129 -59h37l-18 -143h-73
q-64 0 -106 -21t-42 -65q0 -27 24 -44t87 -43t89 -59.5t26 -78.5q0 -110 -97 -212z" />
    <glyph glyph-name="omicron" unicode="&#x3bf;" horiz-adv-x="522" 
d="M225 -10q-92 0 -148 56t-56 156q0 125 73.5 211.5t206.5 86.5q92 0 146 -56.5t54 -156.5q0 -60 -16 -112t-48.5 -94t-86.5 -66.5t-125 -24.5zM242 141q38 0 63.5 41.5t25.5 94.5q0 72 -52 72q-39 0 -63.5 -43t-24.5 -98q0 -38 16 -52.5t35 -14.5z" />
    <glyph glyph-name="pi" unicode="&#x3c0;" horiz-adv-x="590" 
d="M499 347l-21 -172q-5 -44 22 -44q5 0 19 2l26 -114q-45 -29 -109 -29q-147 0 -125 170l22 187h-80l-42 -347h-166l43 347h-71l17 133q48 10 107 10h459l-27 -143h-74z" />
    <glyph glyph-name="rho" unicode="&#x3c1;" horiz-adv-x="531" 
d="M-20 -198l56 446q14 120 81.5 186t181.5 66q99 0 156 -58t57 -156q0 -126 -70.5 -211t-171.5 -85q-55 0 -90 28l-3 -1l-26 -215h-171zM237 141q44 0 73 39.5t29 98.5q0 69 -52 69q-32 0 -55 -29.5t-28 -76.5l-10 -86q15 -15 43 -15z" />
    <glyph glyph-name="uni03C2" unicode="&#x3c2;" horiz-adv-x="447" 
d="M299 -221l-133 74q59 77 59 106q0 14 -12 25.5t-48 27.5q-31 15 -49.5 25.5t-45 33t-39.5 55t-13 74.5q0 126 74.5 213t191.5 87q129 0 185 -88l-131 -95q-20 32 -58 32q-37 0 -64 -41t-27 -95q0 -25 18 -43.5t64 -41.5q73 -36 99 -66.5t26 -75.5q0 -104 -97 -207z" />
    <glyph glyph-name="sigma" unicode="&#x3c3;" horiz-adv-x="530" 
d="M223 -10q-94 0 -149.5 55.5t-55.5 153.5q0 127 69.5 209t195.5 82h273l-18 -139h-78v-2q29 -40 29 -93q0 -109 -70.5 -187.5t-195.5 -78.5zM238 141q31 0 55.5 39.5t24.5 101.5q0 44 -23 69h-19q-36 0 -61.5 -46t-25.5 -101q0 -36 15.5 -49.5t33.5 -13.5z" />
    <glyph glyph-name="tau" unicode="&#x3c4;" horiz-adv-x="438" 
d="M228 -10q-63 0 -100 38t-26 125l23 198h-105l16 139h407l-16 -139h-131l-21 -178q-4 -33 32 -33q16 0 34 5l29 -120q-67 -35 -142 -35z" />
    <glyph glyph-name="upsilon" unicode="&#x3c5;" horiz-adv-x="528" 
d="M224 -10q-88 0 -135 46.5t-45 124.5q1 38 14 101.5t14 82.5q3 29 -27 29q-4 0 -6.5 -0.5t-5.5 -1.5t-5 -1l-5 111q61 18 113 18q48 0 76.5 -28t25.5 -84q-2 -39 -13.5 -105t-11.5 -97q-1 -45 34 -45q15 0 29 10.5t28.5 34t24.5 70t12 109.5q2 58 -6 116l161 16
q18 -58 16 -139q-3 -98 -28 -171.5t-67 -115t-90 -61.5t-103 -20z" />
    <glyph glyph-name="phi" unicode="&#x3c6;" horiz-adv-x="670" 
d="M460 500q90 0 144.5 -52t51.5 -153q-4 -128 -80 -212.5t-187 -91.5l-23 -189h-163l23 190q-103 11 -154 76t-51 161q0 79 31.5 155.5t86.5 128.5l134 -37q-39 -56 -62 -123t-23 -125q0 -83 55 -102l23 188q11 91 65 138.5t129 47.5zM492 293q2 66 -33 66q-32 0 -39 -72
l-18 -159q87 30 90 165z" />
    <glyph glyph-name="chi" unicode="&#x3c7;" horiz-adv-x="500" 
d="M361 -208q-66 0 -93.5 31.5t-42.5 111.5l-10 53h-2l-98 -186h-183l224 362l-46 140q-12 36 -26 52t-37 16q-2 0 -6 -0.5t-7 -0.5l-7 116q42 13 88 13q64 0 91 -31.5t44 -111.5l4 -18h1l81 151h185l-211 -332l56 -170q12 -36 26 -52t36 -16q6 0 14 2l7 -117
q-38 -13 -88 -13z" />
    <glyph glyph-name="psi" unicode="&#x3c8;" horiz-adv-x="704" 
d="M672 497q18 -58 16 -139q-5 -187 -83.5 -276t-193.5 -92l-23 -188h-168l23 188h-19q-88 0 -134.5 46.5t-45.5 124.5q1 40 14 105t14 79q3 29 -27 29q-4 0 -6.5 -0.5t-5.5 -1.5t-5 -1l-5 111q61 18 113 18q48 0 76 -28t26 -84q-1 -32 -16 -99t-15 -99q0 -59 50 -59h6
l63 505l162 7l-63 -512q43 1 67.5 64t29.5 170q2 52 -7 116z" />
    <glyph glyph-name="omega" unicode="&#x3c9;" horiz-adv-x="678" 
d="M179 -10q-73 0 -116.5 49.5t-43.5 147.5q0 177 107 320l142 -34q-79 -132 -79 -276q0 -56 30 -56q37 0 52 112l15 114h139l-17 -138q-11 -88 27 -88q27 0 41 42.5t14 108.5q0 95 -26 176l158 30q1 -4 8 -26t9 -29.5t7.5 -28.5t7 -36.5t3.5 -39.5t2 -50q0 -126 -58.5 -212
t-154.5 -86q-100 0 -130 72h-1q-47 -72 -136 -72z" />
    <glyph glyph-name="iotadieresis" unicode="&#x3ca;" horiz-adv-x="322" 
d="M65 546q-44 0 -71.5 26.5t-27.5 67.5t28.5 68t73.5 27q44 0 71.5 -26t27.5 -66q0 -42 -28.5 -69.5t-73.5 -27.5zM295 546q-44 0 -71.5 26.5t-27.5 67.5t28.5 68t74.5 27q44 0 71.5 -26t27.5 -66q0 -42 -28.5 -69.5t-74.5 -27.5zM166 -10q-149 0 -127 175l40 325h171
l-39 -315q-4 -42 29 -42q9 0 26 5l28 -115q-57 -33 -128 -33z" />
    <glyph glyph-name="upsilondieresis" unicode="&#x3cb;" horiz-adv-x="528" 
d="M198 546q-44 0 -71.5 26.5t-27.5 67.5t28.5 68t73.5 27q44 0 71.5 -26t27.5 -66q0 -42 -28.5 -69.5t-73.5 -27.5zM428 546q-44 0 -71.5 26.5t-27.5 67.5t28.5 68t74.5 27q44 0 71.5 -26t27.5 -66q0 -42 -28.5 -69.5t-74.5 -27.5zM224 -10q-88 0 -135 46.5t-45 124.5
q1 38 14 101.5t14 82.5q3 29 -27 29q-4 0 -6.5 -0.5t-5.5 -1.5t-5 -1l-5 111q61 18 113 18q48 0 76.5 -28t25.5 -84q-2 -39 -13.5 -105t-11.5 -97q-1 -45 34 -45q15 0 29 10.5t28.5 34t24.5 70t12 109.5q2 58 -6 116l161 16q18 -58 16 -139q-3 -98 -28 -171.5t-67 -115
t-90 -61.5t-103 -20z" />
    <glyph glyph-name="omicrontonos" unicode="&#x3cc;" horiz-adv-x="522" 
d="M230 557l76 179h182l-112 -179h-146zM225 -10q-92 0 -148 56t-56 156q0 125 73.5 211.5t206.5 86.5q92 0 146 -56.5t54 -156.5q0 -60 -16 -112t-48.5 -94t-86.5 -66.5t-125 -24.5zM242 141q38 0 63.5 41.5t25.5 94.5q0 72 -52 72q-39 0 -63.5 -43t-24.5 -98
q0 -38 16 -52.5t35 -14.5z" />
    <glyph glyph-name="upsilontonos" unicode="&#x3cd;" horiz-adv-x="528" 
d="M233 557l76 179h182l-112 -179h-146zM224 -10q-88 0 -135 46.5t-45 124.5q1 38 14 101.5t14 82.5q3 29 -27 29q-4 0 -6.5 -0.5t-5.5 -1.5t-5 -1l-5 111q61 18 113 18q48 0 76.5 -28t25.5 -84q-2 -39 -13.5 -105t-11.5 -97q-1 -45 34 -45q15 0 29 10.5t28.5 34t24.5 70
t12 109.5q2 58 -6 116l161 16q18 -58 16 -139q-3 -98 -28 -171.5t-67 -115t-90 -61.5t-103 -20z" />
    <glyph glyph-name="omegatonos" unicode="&#x3ce;" horiz-adv-x="678" 
d="M308 557l76 179h182l-112 -179h-146zM179 -10q-73 0 -116.5 49.5t-43.5 147.5q0 177 107 320l142 -34q-79 -132 -79 -276q0 -56 30 -56q37 0 52 112l15 114h139l-17 -138q-11 -88 27 -88q27 0 41 42.5t14 108.5q0 95 -26 176l158 30q1 -4 8 -26t9 -29.5t7.5 -28.5
t7 -36.5t3.5 -39.5t2 -50q0 -126 -58.5 -212t-154.5 -86q-100 0 -130 72h-1q-47 -72 -136 -72z" />
    <glyph glyph-name="uni03D7" unicode="&#x3d7;" horiz-adv-x="605" 
d="M472 138q28 -7 90 -8l-11 -132q-110 -119 -202.5 -166.5t-201.5 -47.5q-71 0 -133.5 18.5t-97.5 50.5l76 94q66 -36 146 -36q63 0 120.5 24t98.5 66v3q-63 33 -75 122l-6 49q-27 -27 -85 -93l-9 -82h-165l60 490h167l-16 -137q-4 -37 -26 -106l2 -1q126 190 212 264
l129 -98q-107 -83 -144 -118l14 -80q12 -66 57 -76z" />
    <glyph glyph-name="uni1E0C" unicode="&#x1e0c;" horiz-adv-x="653" 
d="M26 0l87 710h230q145 0 219.5 -78.5t74.5 -217.5q0 -185 -104 -299.5t-285 -114.5h-222zM221 161h48q88 0 134 71t46 178q0 139 -128 139h-52zM258 -50q45 0 72.5 -26.5t27.5 -67.5t-28.5 -68t-74.5 -27q-44 0 -71.5 26t-27.5 66q0 42 28.5 69.5t73.5 27.5z" />
    <glyph glyph-name="uni1E0D" unicode="&#x1e0d;" horiz-adv-x="536" 
d="M176 -10q-73 0 -114 56.5t-41 144.5q0 135 67 222t159 87q69 0 109 -42h3l34 278h171l-90 -736h-171l8 63l-3 1q-53 -74 -132 -74zM237 141q35 0 66.5 43.5t43.5 122.5l2 11q-28 31 -67 31t-64.5 -45t-25.5 -95q0 -30 12.5 -49t32.5 -19zM228 -50q45 0 72.5 -26.5
t27.5 -67.5t-28.5 -68t-74.5 -27q-44 0 -71.5 26t-27.5 66q0 42 28.5 69.5t73.5 27.5z" />
    <glyph glyph-name="uni1E0E" unicode="&#x1e0e;" horiz-adv-x="653" 
d="M26 0l87 710h230q145 0 219.5 -78.5t74.5 -217.5q0 -185 -104 -299.5t-285 -114.5h-222zM221 161h48q88 0 134 71t46 178q0 139 -128 139h-52zM101 -215l16 127h291l-16 -127h-291z" />
    <glyph glyph-name="uni1E0F" unicode="&#x1e0f;" horiz-adv-x="536" 
d="M176 -10q-73 0 -114 56.5t-41 144.5q0 135 67 222t159 87q69 0 109 -42h3l34 278h171l-90 -736h-171l8 63l-3 1q-53 -74 -132 -74zM237 141q35 0 66.5 43.5t43.5 122.5l2 11q-28 31 -67 31t-64.5 -45t-25.5 -95q0 -30 12.5 -49t32.5 -19zM71 -215l16 127h291l-16 -127
h-291z" />
    <glyph glyph-name="uni1E20" unicode="&#x1e20;" horiz-adv-x="666" 
d="M281 774l16 122h291l-16 -122h-291zM334 -10q-129 0 -210.5 76t-81.5 222q0 183 105 307.5t274 124.5q75 0 140.5 -34.5t102.5 -97.5l-137 -105q-44 67 -117 67q-79 0 -128.5 -75.5t-49.5 -174.5q0 -70 31 -106t84 -36q49 0 94 27l11 71h-102l18 148h273l-38 -329
q-49 -37 -121.5 -61t-147.5 -24z" />
    <glyph glyph-name="uni1E21" unicode="&#x1e21;" horiz-adv-x="543" 
d="M483 706l-16 -127h-291l16 127h291zM359 490h170l-52 -426q-34 -272 -288 -272q-105 0 -184 48l52 128q58 -35 121 -35q55 0 86 28.5t44 113.5l-3 1q-54 -71 -129 -71q-72 0 -113.5 54t-41.5 132q0 135 67 222t159 87q69 0 106 -39l3 1zM237 156q35 0 65 43.5t42 115.5
l1 7q-27 27 -63 27q-39 0 -64.5 -44t-25.5 -91q0 -58 45 -58z" />
    <glyph glyph-name="uni1E24" unicode="&#x1e24;" horiz-adv-x="655" 
d="M26 0l87 710h183l-35 -287h176l35 287h184l-88 -710h-183l32 262h-176l-32 -262h-183zM285 -50q45 0 72.5 -26.5t27.5 -67.5t-28.5 -68t-74.5 -27q-44 0 -71.5 26t-27.5 66q0 42 28.5 69.5t73.5 27.5z" />
    <glyph glyph-name="uni1E25" unicode="&#x1e25;" horiz-adv-x="542" 
d="M17 0l90 736h169l-38 -306l3 -2q64 72 156 72q135 0 109 -198l-39 -302h-169l34 255q6 49 2 71t-22 22q-33 0 -64 -43.5t-41 -129.5l-21 -175h-169zM233 -50q45 0 72.5 -26.5t27.5 -67.5t-28.5 -68t-74.5 -27q-44 0 -71.5 26t-27.5 66q0 42 28.5 69.5t73.5 27.5z" />
    <glyph glyph-name="uni1E2A" unicode="&#x1e2a;" horiz-adv-x="655" 
d="M26 0l87 710h183l-35 -287h176l35 287h184l-88 -710h-183l32 262h-176l-32 -262h-183zM268 -237q-70 0 -107 42.5t-33 118.5h119q-2 -17 7 -29t27 -12q20 0 35 12t21 29h120q-13 -72 -62 -116.5t-127 -44.5z" />
    <glyph glyph-name="uni1E2B" unicode="&#x1e2b;" horiz-adv-x="542" 
d="M17 0l90 736h169l-38 -306l3 -2q64 72 156 72q135 0 109 -198l-39 -302h-169l34 255q6 49 2 71t-22 22q-33 0 -64 -43.5t-41 -129.5l-21 -175h-169zM216 -237q-70 0 -107 42.5t-33 118.5h119q-2 -17 7 -29t27 -12q20 0 35 12t21 29h120q-13 -72 -62 -116.5t-127 -44.5z
" />
    <glyph glyph-name="uni1E30" unicode="&#x1e30;" horiz-adv-x="615" 
d="M539 897l-131 -143h-149l115 142zM668 710l-249 -320l170 -390h-206l-104 261l-49 -59l-25 -202h-179l87 710h180l-32 -265l3 -1l190 266h214z" />
    <glyph glyph-name="uni1E31" unicode="&#x1e31;" horiz-adv-x="512" 
d="M441 -8q-24 -2 -55 -2q-103 0 -140 136l-9 32q-22 -12 -38 -18l-16 -140h-166l90 736h170l-53 -429l2 -1q82 64 107 184h177q-27 -146 -135 -246l8 -30q13 -49 34 -64.5t59 -16.5zM268 557l116 151l168 1l-130 -152h-154z" />
    <glyph glyph-name="uni1E36" unicode="&#x1e36;" horiz-adv-x="508" 
d="M26 0l87 710h182l-67 -549h246l-19 -161h-429zM231 -50q45 0 72.5 -26.5t27.5 -67.5t-28.5 -68t-74.5 -27q-44 0 -71.5 26t-27.5 66q0 42 28.5 69.5t73.5 27.5z" />
    <glyph glyph-name="uni1E37" unicode="&#x1e37;" horiz-adv-x="274" 
d="M21 0l91 736h171l-91 -736h-171zM97 -50q45 0 72.5 -26.5t27.5 -67.5t-28.5 -68t-74.5 -27q-44 0 -71.5 26t-27.5 66q0 42 28.5 69.5t73.5 27.5z" />
    <glyph glyph-name="uni1E38" unicode="&#x1e38;" horiz-adv-x="508" 
d="M214 776l16 122h291l-16 -122h-291zM26 0l87 710h182l-67 -549h246l-19 -161h-429zM231 -50q45 0 72.5 -26.5t27.5 -67.5t-28.5 -68t-74.5 -27q-44 0 -71.5 26t-27.5 66q0 42 28.5 69.5t73.5 27.5z" />
    <glyph glyph-name="uni1E39" unicode="&#x1e39;" horiz-adv-x="274" 
d="M59 789l16 122h291l-16 -122h-291zM21 0l91 736h171l-91 -736h-171zM88 -50q45 0 72.5 -26.5t27.5 -67.5t-28.5 -68t-74.5 -27q-44 0 -71.5 26t-27.5 66q0 42 28.5 69.5t73.5 27.5z" />
    <glyph glyph-name="uni1E3A" unicode="&#x1e3a;" horiz-adv-x="508" 
d="M26 0l87 710h182l-67 -549h246l-19 -161h-429zM74 -215l16 127h291l-16 -127h-291z" />
    <glyph glyph-name="uni1E3B" unicode="&#x1e3b;" horiz-adv-x="274" 
d="M21 0l91 736h171l-91 -736h-171zM-60 -215l16 127h291l-16 -127h-291z" />
    <glyph glyph-name="uni1E42" unicode="&#x1e42;" horiz-adv-x="781" 
d="M26 0l87 710h175l121 -366h3l193 366h177l-87 -710h-177l43 349l-2 1l-125 -221h-105l-80 227l-3 -1l-43 -355h-177zM354 -50q45 0 72.5 -26.5t27.5 -67.5t-28.5 -68t-74.5 -27q-44 0 -71.5 26t-27.5 66q0 42 28.5 69.5t73.5 27.5z" />
    <glyph glyph-name="uni1E43" unicode="&#x1e43;" horiz-adv-x="804" 
d="M17 0l60 490h170l-6 -52l4 -1q58 63 143 63q81 0 102 -67h5q61 67 160 67q72 0 99 -49.5t13 -157.5l-38 -293h-169l34 255q7 49 2.5 71t-24.5 22q-25 0 -53 -44t-39 -128l-23 -176h-169l33 255q8 49 4.5 71t-25.5 22q-23 0 -51.5 -39.5t-37.5 -112.5l-24 -196h-170z
M354 -50q45 0 72.5 -26.5t27.5 -67.5t-28.5 -68t-74.5 -27q-44 0 -71.5 26t-27.5 66q0 42 28.5 69.5t73.5 27.5z" />
    <glyph glyph-name="uni1E44" unicode="&#x1e44;" horiz-adv-x="668" 
d="M410 767q-45 0 -72.5 26.5t-27.5 67.5t28.5 68t74.5 27q44 0 71.5 -26t27.5 -66q0 -42 -28.5 -69.5t-73.5 -27.5zM26 0l87 710h165l165 -404l3 1l49 403h175l-88 -710h-172l-158 392l-3 -1l-49 -391h-174z" />
    <glyph glyph-name="uni1E45" unicode="&#x1e45;" horiz-adv-x="542" 
d="M332 546q-45 0 -72.5 26.5t-27.5 67.5t28.5 68t74.5 27q44 0 71.5 -26t27.5 -66q0 -42 -28.5 -69.5t-73.5 -27.5zM17 0l60 490h170l-8 -61l3 -1q63 72 155 72q135 0 109 -198l-39 -302h-169l34 255q6 49 2 71t-22 22q-32 0 -62.5 -42t-40.5 -126l-22 -180h-170z" />
    <glyph glyph-name="uni1E46" unicode="&#x1e46;" horiz-adv-x="668" 
d="M26 0l87 710h165l165 -404l3 1l49 403h175l-88 -710h-172l-158 392l-3 -1l-49 -391h-174zM303 -50q45 0 72.5 -26.5t27.5 -67.5t-28.5 -68t-74.5 -27q-44 0 -71.5 26t-27.5 66q0 42 28.5 69.5t73.5 27.5z" />
    <glyph glyph-name="uni1E47" unicode="&#x1e47;" horiz-adv-x="542" 
d="M17 0l60 490h170l-8 -61l3 -1q63 72 155 72q135 0 109 -198l-39 -302h-169l34 255q6 49 2 71t-22 22q-32 0 -62.5 -42t-40.5 -126l-22 -180h-170zM233 -50q45 0 72.5 -26.5t27.5 -67.5t-28.5 -68t-74.5 -27q-44 0 -71.5 26t-27.5 66q0 42 28.5 69.5t73.5 27.5z" />
    <glyph glyph-name="uni1E48" unicode="&#x1e48;" horiz-adv-x="668" 
d="M26 0l87 710h165l165 -404l3 1l49 403h175l-88 -710h-172l-158 392l-3 -1l-49 -391h-174zM146 -215l16 127h291l-16 -127h-291z" />
    <glyph glyph-name="uni1E49" unicode="&#x1e49;" horiz-adv-x="542" 
d="M17 0l60 490h170l-8 -61l3 -1q63 72 155 72q135 0 109 -198l-39 -302h-169l34 255q6 49 2 71t-22 22q-32 0 -62.5 -42t-40.5 -126l-22 -180h-170zM76 -215l16 127h291l-16 -127h-291z" />
    <glyph glyph-name="uni1E5A" unicode="&#x1e5a;" horiz-adv-x="594" 
d="M26 0l87 710h258q103 0 153.5 -55t50.5 -144q0 -179 -135 -255l115 -256h-193l-89 221h-44l-26 -221h-177zM249 379h45q41 0 67 31t26 74q0 35 -18.5 51t-44.5 16h-54zM264 -50q45 0 72.5 -26.5t27.5 -67.5t-28.5 -68t-74.5 -27q-44 0 -71.5 26t-27.5 66q0 42 28.5 69.5
t73.5 27.5z" />
    <glyph glyph-name="uni1E5B" unicode="&#x1e5b;" horiz-adv-x="351" 
d="M17 0l60 490h170l-7 -57h1q55 67 130 67l-24 -187q-46 23 -84.5 -9t-52.5 -113l-23 -191h-170zM90 -50q45 0 72.5 -26.5t27.5 -67.5t-28.5 -68t-74.5 -27q-44 0 -71.5 26t-27.5 66q0 42 28.5 69.5t73.5 27.5z" />
    <glyph glyph-name="uni1E5C" unicode="&#x1e5c;" horiz-adv-x="594" 
d="M208 776l16 122h291l-16 -122h-291zM26 0l87 710h258q103 0 153.5 -55t50.5 -144q0 -179 -135 -255l115 -256h-193l-89 221h-44l-26 -221h-177zM249 379h45q41 0 67 31t26 74q0 35 -18.5 51t-44.5 16h-54zM264 -50q45 0 72.5 -26.5t27.5 -67.5t-28.5 -68t-74.5 -27
q-44 0 -71.5 26t-27.5 66q0 42 28.5 69.5t73.5 27.5z" />
    <glyph glyph-name="uni1E5D" unicode="&#x1e5d;" horiz-adv-x="351" 
d="M112 579l16 127h291l-16 -127h-291zM17 0l60 490h170l-7 -57h1q55 67 130 67l-24 -187q-46 23 -84.5 -9t-52.5 -113l-23 -191h-170zM90 -50q45 0 72.5 -26.5t27.5 -67.5t-28.5 -68t-74.5 -27q-44 0 -71.5 26t-27.5 66q0 42 28.5 69.5t73.5 27.5z" />
    <glyph glyph-name="uni1E5E" unicode="&#x1e5e;" horiz-adv-x="594" 
d="M26 0l87 710h258q103 0 153.5 -55t50.5 -144q0 -179 -135 -255l115 -256h-193l-89 221h-44l-26 -221h-177zM249 379h45q41 0 67 31t26 74q0 35 -18.5 51t-44.5 16h-54zM107 -215l16 127h291l-16 -127h-291z" />
    <glyph glyph-name="uni1E5F" unicode="&#x1e5f;" horiz-adv-x="351" 
d="M17 0l60 490h170l-7 -57h1q55 67 130 67l-24 -187q-46 23 -84.5 -9t-52.5 -113l-23 -191h-170zM-67 -215l16 127h291l-16 -127h-291z" />
    <glyph glyph-name="uni1E60" unicode="&#x1e60;" horiz-adv-x="536" 
d="M334 767q-45 0 -72.5 26.5t-27.5 67.5t28.5 68t74.5 27q44 0 71.5 -26t27.5 -66q0 -42 -28.5 -69.5t-73.5 -27.5zM246 -10q-72 0 -139.5 31.5t-111.5 99.5l128 110q25 -39 59.5 -60t67.5 -21q34 0 52.5 14.5t18.5 36.5q0 18 -16 31.5t-68 43.5q-85 50 -113 77
q-61 57 -61 139q0 103 71 165.5t177 62.5q67 0 127.5 -28.5t95.5 -83.5l-127 -106q-46 59 -101 59q-24 0 -39.5 -13.5t-14.5 -34.5q0 -36 63 -73q13 -8 43.5 -25.5t42.5 -25t34.5 -23t32 -27.5t21.5 -29.5t16.5 -37t4.5 -43.5q0 -111 -72.5 -175t-191.5 -64z" />
    <glyph glyph-name="uni1E61" unicode="&#x1e61;" horiz-adv-x="417" 
d="M246 547q-45 0 -72.5 26.5t-27.5 67.5t28.5 68t74.5 27q44 0 71.5 -26t27.5 -66q0 -42 -28.5 -69.5t-73.5 -27.5zM186 -10q-54 0 -108.5 22t-88.5 62l90 96q22 -25 53.5 -41.5t59.5 -16.5q29 0 29 16q0 9 -11 16.5t-59 33.5q-62 33 -90 66.5t-28 84.5q0 76 53.5 123.5
t133.5 47.5q113 0 179 -83l-99 -92q-33 48 -77 50q-12 0 -21 -6t-9 -16q0 -14 63 -46q69 -34 98 -67.5t29 -89.5q0 -70 -53 -115t-144 -45z" />
    <glyph glyph-name="uni1E62" unicode="&#x1e62;" horiz-adv-x="536" 
d="M246 -10q-72 0 -139.5 31.5t-111.5 99.5l128 110q25 -39 59.5 -60t67.5 -21q34 0 52.5 14.5t18.5 36.5q0 18 -16 31.5t-68 43.5q-85 50 -113 77q-61 57 -61 139q0 103 71 165.5t177 62.5q67 0 127.5 -28.5t95.5 -83.5l-127 -106q-46 59 -101 59q-24 0 -39.5 -13.5
t-14.5 -34.5q0 -36 63 -73q13 -8 43.5 -25.5t42.5 -25t34.5 -23t32 -27.5t21.5 -29.5t16.5 -37t4.5 -43.5q0 -111 -72.5 -175t-191.5 -64zM230 -50q45 0 72.5 -26.5t27.5 -67.5t-28.5 -68t-74.5 -27q-44 0 -71.5 26t-27.5 66q0 42 28.5 69.5t73.5 27.5z" />
    <glyph glyph-name="uni1E63" unicode="&#x1e63;" horiz-adv-x="417" 
d="M186 -10q-54 0 -108.5 22t-88.5 62l90 96q22 -25 53.5 -41.5t59.5 -16.5q29 0 29 16q0 9 -11 16.5t-59 33.5q-62 33 -90 66.5t-28 84.5q0 76 53.5 123.5t133.5 47.5q113 0 179 -83l-99 -92q-33 48 -77 50q-12 0 -21 -6t-9 -16q0 -14 63 -46q69 -34 98 -67.5t29 -89.5
q0 -70 -53 -115t-144 -45zM161 -50q45 0 72.5 -26.5t27.5 -67.5t-28.5 -68t-74.5 -27q-44 0 -71.5 26t-27.5 66q0 42 28.5 69.5t73.5 27.5z" />
    <glyph glyph-name="uni1E6C" unicode="&#x1e6c;" horiz-adv-x="535" 
d="M147 0l67 549h-158l20 161h497l-20 -161h-158l-67 -549h-181zM224 -50q45 0 72.5 -26.5t27.5 -67.5t-28.5 -68t-74.5 -27q-44 0 -71.5 26t-27.5 66q0 42 28.5 69.5t73.5 27.5z" />
    <glyph glyph-name="uni1E6D" unicode="&#x1e6d;" horiz-adv-x="344" 
d="M170 -10q-62 0 -97 37.5t-25 125.5l24 201h-47l17 136h47l18 138l174 34l-21 -172h92l-17 -136h-92l-21 -181q-5 -32 17 -32q14 0 38 11l29 -127q-67 -35 -136 -35zM158 -50q45 0 72.5 -26.5t27.5 -67.5t-28.5 -68t-74.5 -27q-44 0 -71.5 26t-27.5 66q0 42 28.5 69.5
t73.5 27.5z" />
    <glyph glyph-name="uni1E6E" unicode="&#x1e6e;" horiz-adv-x="535" 
d="M147 0l67 549h-158l20 161h497l-20 -161h-158l-67 -549h-181zM67 -215l16 127h291l-16 -127h-291z" />
    <glyph glyph-name="uni1E6F" unicode="&#x1e6f;" horiz-adv-x="344" 
d="M170 -10q-62 0 -97 37.5t-25 125.5l24 201h-47l17 136h47l18 138l174 34l-21 -172h92l-17 -136h-92l-21 -181q-5 -32 17 -32q14 0 38 11l29 -127q-67 -35 -136 -35zM1 -215l16 127h291l-16 -127h-291z" />
    <glyph glyph-name="Wgrave" unicode="&#x1e80;" horiz-adv-x="923" 
d="M456 754l-93 143l164 -1l80 -142h-151zM177 0l-112 710h188l42 -412h2l138 412h178l30 -402h3l135 402h193l-286 -710h-161l-41 430h-2l-153 -430h-154z" />
    <glyph glyph-name="wgrave" unicode="&#x1e81;" horiz-adv-x="747" 
d="M337 558l-92 152l164 -1l79 -151h-151zM159 -10q-79 0 -113 57t-22 142l43 301h168l-37 -252q-14 -97 22 -97q22 0 45.5 35t32.5 107l26 207h162l-31 -256q-6 -50 -2 -71.5t21 -21.5q11 0 22.5 8.5t25 28t24.5 60t17 96.5q8 75 -1 156h171q14 -88 2 -187
q-20 -166 -99.5 -239.5t-192.5 -73.5q-106 0 -132 86h-2q-54 -86 -150 -86z" />
    <glyph glyph-name="Wacute" unicode="&#x1e82;" horiz-adv-x="923" 
d="M447 754l115 142l165 1l-131 -143h-149zM177 0l-112 710h188l42 -412h2l138 412h178l30 -402h3l135 402h193l-286 -710h-161l-41 430h-2l-153 -430h-154z" />
    <glyph glyph-name="wacute" unicode="&#x1e83;" horiz-adv-x="747" 
d="M333 557l116 151l168 1l-130 -152h-154zM159 -10q-79 0 -113 57t-22 142l43 301h168l-37 -252q-14 -97 22 -97q22 0 45.5 35t32.5 107l26 207h162l-31 -256q-6 -50 -2 -71.5t21 -21.5q11 0 22.5 8.5t25 28t24.5 60t17 96.5q8 75 -1 156h171q14 -88 2 -187
q-20 -166 -99.5 -239.5t-192.5 -73.5q-106 0 -132 86h-2q-54 -86 -150 -86z" />
    <glyph glyph-name="Wdieresis" unicode="&#x1e84;" horiz-adv-x="923" 
d="M408 748q-44 0 -71.5 26.5t-27.5 67.5t28.5 68t73.5 27q44 0 71.5 -26t27.5 -66q0 -42 -28.5 -69.5t-73.5 -27.5zM638 748q-44 0 -71.5 26.5t-27.5 67.5t28.5 68t74.5 27q44 0 71.5 -26t27.5 -66q0 -42 -28.5 -69.5t-74.5 -27.5zM177 0l-112 710h188l42 -412h2l138 412
h178l30 -402h3l135 402h193l-286 -710h-161l-41 430h-2l-153 -430h-154z" />
    <glyph glyph-name="wdieresis" unicode="&#x1e85;" horiz-adv-x="747" 
d="M306 546q-44 0 -71.5 26.5t-27.5 67.5t28.5 68t73.5 27q44 0 71.5 -26t27.5 -66q0 -42 -28.5 -69.5t-73.5 -27.5zM536 546q-44 0 -71.5 26.5t-27.5 67.5t28.5 68t74.5 27q44 0 71.5 -26t27.5 -66q0 -42 -28.5 -69.5t-74.5 -27.5zM159 -10q-79 0 -113 57t-22 142l43 301
h168l-37 -252q-14 -97 22 -97q22 0 45.5 35t32.5 107l26 207h162l-31 -256q-6 -50 -2 -71.5t21 -21.5q11 0 22.5 8.5t25 28t24.5 60t17 96.5q8 75 -1 156h171q14 -88 2 -187q-20 -166 -99.5 -239.5t-192.5 -73.5q-106 0 -132 86h-2q-54 -86 -150 -86z" />
    <glyph glyph-name="uni1E8E" unicode="&#x1e8e;" horiz-adv-x="581" 
d="M362 767q-45 0 -72.5 26.5t-27.5 67.5t28.5 68t74.5 27q44 0 71.5 -26t27.5 -66q0 -42 -28.5 -69.5t-73.5 -27.5zM168 0l39 308l-155 402h199l66 -233h3l119 233h206l-255 -402l-38 -308h-184z" />
    <glyph glyph-name="uni1E8F" unicode="&#x1e8f;" horiz-adv-x="528" 
d="M302 546q-45 0 -72.5 26.5t-27.5 67.5t28.5 68t74.5 27q44 0 71.5 -26t27.5 -66q0 -42 -28.5 -69.5t-73.5 -27.5zM344 490h170l-52 -421q-34 -277 -282 -277q-100 0 -180 48l52 122q52 -35 116 -35q51 0 80.5 27.5t42.5 108.5h-3q-56 -73 -136 -73q-151 0 -123 193
l43 307h169l-35 -244q-9 -59 -5 -82t27 -23q26 0 54 38t33 75z" />
    <glyph glyph-name="uni1E92" unicode="&#x1e92;" horiz-adv-x="560" 
d="M5 0l16 141l314 404l-2 4h-253l19 161h484l-16 -137l-321 -408l2 -4h266l-19 -161h-490zM244 -50q45 0 72.5 -26.5t27.5 -67.5t-28.5 -68t-74.5 -27q-44 0 -71.5 26t-27.5 66q0 42 28.5 69.5t73.5 27.5z" />
    <glyph glyph-name="uni1E93" unicode="&#x1e93;" horiz-adv-x="438" 
d="M363 -27q-130 27 -367 27l12 112l196 242v3h-146l16 133h369l-12 -112l-202 -243v-2q91 -5 172 -29zM175 -50q45 0 72.5 -26.5t27.5 -67.5t-28.5 -68t-74.5 -27q-44 0 -71.5 26t-27.5 66q0 42 28.5 69.5t73.5 27.5z" />
    <glyph glyph-name="uni1E97" unicode="&#x1e97;" horiz-adv-x="344" 
d="M121 693q-44 0 -71.5 26.5t-27.5 67.5t28.5 68t73.5 27q44 0 71.5 -26t27.5 -66q0 -42 -28.5 -69.5t-73.5 -27.5zM351 693q-44 0 -71.5 26.5t-27.5 67.5t28.5 68t74.5 27q44 0 71.5 -26t27.5 -66q0 -42 -28.5 -69.5t-74.5 -27.5zM170 -10q-62 0 -97 37.5t-25 125.5
l24 201h-47l17 136h47l18 138l174 34l-21 -172h92l-17 -136h-92l-21 -181q-5 -32 17 -32q14 0 38 11l29 -127q-67 -35 -136 -35z" />
    <glyph glyph-name="uni1E9E" unicode="&#x1e9e;" horiz-adv-x="768" 
d="M567 436q11 -6 37.5 -21.5t36.5 -21.5t31 -20t29.5 -22.5t21.5 -23t18.5 -28t10 -32t4.5 -38.5q0 -112 -70 -175.5t-189 -63.5q-129 0 -213 84l92 154q25 -39 59.5 -59t68.5 -20q63 0 63 52q0 18 -15.5 31t-68.5 44q-3 2 -17 10t-20.5 12l-19.5 12t-21 14t-18.5 14.5
t-18.5 16.5t-14 16l119 191l-1 4q-51 6 -86 6q-50 0 -85.5 -31t-43.5 -95l-55 -446h-176l56 452q18 146 98.5 207.5t215.5 61.5q156 0 317 -49z" />
    <glyph glyph-name="uni1EA0" unicode="&#x1ea0;" horiz-adv-x="629" 
d="M-33 0l318 710h170l144 -710h-188l-18 120h-192l-43 -120h-191zM256 270h115l-33 222h-2zM276 -50q45 0 72.5 -26.5t27.5 -67.5t-28.5 -68t-74.5 -27q-44 0 -71.5 26t-27.5 66q0 42 28.5 69.5t73.5 27.5z" />
    <glyph glyph-name="uni1EA1" unicode="&#x1ea1;" horiz-adv-x="548" 
d="M176 -10q-73 0 -114 56.5t-41 144.5q0 135 67 222t159 87q70 0 109 -42h3l4 32h171l-60 -490h-171l8 63l-3 1q-53 -74 -132 -74zM237 141q35 0 66.5 43.5t43.5 122.5l2 11q-28 31 -67 31t-64.5 -45t-25.5 -95q0 -30 12.5 -49t32.5 -19zM228 -50q45 0 72.5 -26.5
t27.5 -67.5t-28.5 -68t-74.5 -27q-44 0 -71.5 26t-27.5 66q0 42 28.5 69.5t73.5 27.5z" />
    <glyph glyph-name="uni1EA2" unicode="&#x1ea2;" horiz-adv-x="629" 
d="M410 762l-85 1q47 37 52 71q3 24 -23 24q-28 0 -55 -18l-19 67q25 22 64 38.5t75 16.5q44 0 68 -18.5t24 -52.5q0 -38 -27 -73t-74 -56zM-33 0l318 710h170l144 -710h-188l-18 120h-192l-43 -120h-191zM256 270h115l-33 222h-2z" />
    <glyph glyph-name="uni1EA3" unicode="&#x1ea3;" horiz-adv-x="548" 
d="M344 541l-85 1q47 37 52 71q3 24 -23 24q-28 0 -55 -18l-19 67q25 22 64 38.5t75 16.5q44 0 68 -18.5t24 -52.5q0 -38 -27 -73t-74 -56zM176 -10q-73 0 -114 56.5t-41 144.5q0 135 67 222t159 87q70 0 109 -42h3l4 32h171l-60 -490h-171l8 63l-3 1q-53 -74 -132 -74z
M237 141q35 0 66.5 43.5t43.5 122.5l2 11q-28 31 -67 31t-64.5 -45t-25.5 -95q0 -30 12.5 -49t32.5 -19z" />
    <glyph glyph-name="uni1EA4" unicode="&#x1ea4;" horiz-adv-x="629" 
d="M545 819l104 150l148 1l-135 -151h-117zM213 754l101 143h172l68 -143h-138l-26 61h-1l-42 -61h-134zM-33 0l318 710h170l144 -710h-188l-18 120h-192l-43 -120h-191zM256 270h115l-33 222h-2z" />
    <glyph glyph-name="uni1EA5" unicode="&#x1ea5;" horiz-adv-x="548" 
d="M462 655l92 152l149 1l-133 -153h-108zM146 554l113 155h145l82 -155h-141l-18 73h-1l-35 -73h-145zM176 -10q-73 0 -114 56.5t-41 144.5q0 135 67 222t159 87q70 0 109 -42h3l4 32h171l-60 -490h-171l8 63l-3 1q-53 -74 -132 -74zM237 141q35 0 66.5 43.5t43.5 122.5
l2 11q-28 31 -67 31t-64.5 -45t-25.5 -95q0 -30 12.5 -49t32.5 -19z" />
    <glyph glyph-name="uni1EA6" unicode="&#x1ea6;" horiz-adv-x="629" 
d="M571 818l-91 153h147l62 -153h-118zM213 752l101 143h172l68 -143h-138l-26 61h-1l-42 -61h-134zM-33 0l318 710h170l144 -710h-188l-18 120h-192l-43 -120h-191zM256 270h115l-33 222h-2z" />
    <glyph glyph-name="uni1EA7" unicode="&#x1ea7;" horiz-adv-x="548" 
d="M479 655l-85 153l148 -1l45 -152h-108zM147 554l113 155h145l82 -155h-141l-18 73h-1l-35 -73h-145zM176 -10q-73 0 -114 56.5t-41 144.5q0 135 67 222t159 87q70 0 109 -42h3l4 32h171l-60 -490h-171l8 63l-3 1q-53 -74 -132 -74zM237 141q35 0 66.5 43.5t43.5 122.5
l2 11q-28 31 -67 31t-64.5 -45t-25.5 -95q0 -30 12.5 -49t32.5 -19z" />
    <glyph glyph-name="uni1EA8" unicode="&#x1ea8;" horiz-adv-x="629" 
d="M610 835l-76 1q42 32 45 49q2 7 -3 11.5t-17 4.5q-26 0 -49 -13l-17 60q22 18 57.5 31t67.5 13q79 0 79 -56q0 -29 -23.5 -56.5t-63.5 -44.5zM212 754l101 143h172l68 -143h-138l-26 61h-1l-42 -61h-134zM-33 0l318 710h170l144 -710h-188l-18 120h-192l-43 -120h-191z
M256 270h115l-33 222h-2z" />
    <glyph glyph-name="uni1EA9" unicode="&#x1ea9;" horiz-adv-x="548" 
d="M533 634l-77 1q43 33 47 64q3 22 -21 22t-49 -16l-17 60q22 20 57.5 34.5t67.5 14.5q40 0 61.5 -16.5t21.5 -46.5q0 -34 -24.5 -65.5t-66.5 -51.5zM145 554l113 155h145l82 -155h-141l-18 73h-1l-35 -73h-145zM176 -10q-73 0 -114 56.5t-41 144.5q0 135 67 222t159 87
q70 0 109 -42h3l4 32h171l-60 -490h-171l8 63l-3 1q-53 -74 -132 -74zM237 141q35 0 66.5 43.5t43.5 122.5l2 11q-28 31 -67 31t-64.5 -45t-25.5 -95q0 -30 12.5 -49t32.5 -19z" />
    <glyph glyph-name="uni1EAA" unicode="&#x1eaa;" horiz-adv-x="629" 
d="M476 919q-8 0 -16 1.5t-13 2.5t-12.5 5t-10 5.5t-10.5 6t-9 5.5q-23 16 -40 16q-31 0 -54 -45l-86 42q53 107 126 107q34 0 70 -23q28 -17 39 -17q32 0 55 43l84 -33q-51 -116 -123 -116zM213 754l101 143h172l68 -143h-138l-26 61h-1l-42 -61h-134zM-33 0l318 710h170
l144 -710h-188l-18 120h-192l-43 -120h-191zM256 270h115l-33 222h-2z" />
    <glyph glyph-name="uni1EAB" unicode="&#x1eab;" horiz-adv-x="548" 
d="M405 723q-9 0 -17 1.5t-16 5.5l-11 5.5t-11.5 8t-9.5 6.5q-20 15 -38 15q-30 0 -55 -43l-88 39q53 108 129 108q33 0 67 -20q36 -23 46 -23q28 0 53 48l87 -37q-23 -49 -58 -81.5t-78 -32.5zM146 554l113 155h145l82 -155h-141l-18 73h-1l-35 -73h-145zM176 -10
q-73 0 -114 56.5t-41 144.5q0 135 67 222t159 87q70 0 109 -42h3l4 32h171l-60 -490h-171l8 63l-3 1q-53 -74 -132 -74zM237 141q35 0 66.5 43.5t43.5 122.5l2 11q-28 31 -67 31t-64.5 -45t-25.5 -95q0 -30 12.5 -49t32.5 -19z" />
    <glyph glyph-name="uni1EAC" unicode="&#x1eac;" horiz-adv-x="629" 
d="M211 754l101 143h172l68 -143h-138l-26 61h-1l-42 -61h-134zM-33 0l318 710h170l144 -710h-188l-18 120h-192l-43 -120h-191zM256 270h115l-33 222h-2zM276 -50q45 0 72.5 -26.5t27.5 -67.5t-28.5 -68t-74.5 -27q-44 0 -71.5 26t-27.5 66q0 42 28.5 69.5t73.5 27.5z" />
    <glyph glyph-name="uni1EAD" unicode="&#x1ead;" horiz-adv-x="548" 
d="M145 554l113 155h145l82 -155h-141l-18 73h-1l-35 -73h-145zM176 -10q-73 0 -114 56.5t-41 144.5q0 135 67 222t159 87q70 0 109 -42h3l4 32h171l-60 -490h-171l8 63l-3 1q-53 -74 -132 -74zM237 141q35 0 66.5 43.5t43.5 122.5l2 11q-28 31 -67 31t-64.5 -45t-25.5 -95
q0 -30 12.5 -49t32.5 -19zM228 -50q45 0 72.5 -26.5t27.5 -67.5t-28.5 -68t-74.5 -27q-44 0 -71.5 26t-27.5 66q0 42 28.5 69.5t73.5 27.5z" />
    <glyph glyph-name="uni1EAE" unicode="&#x1eae;" horiz-adv-x="629" 
d="M350 900l97 133l148 1l-132 -134h-113zM378 739q-76 0 -113 37.5t-32 103.5h123q-2 -16 7.5 -27t28.5 -11q21 0 36.5 11.5t21.5 26.5h125q-15 -63 -63 -102t-134 -39zM-33 0l318 710h170l144 -710h-188l-18 120h-192l-43 -120h-191zM256 270h115l-33 222h-2z" />
    <glyph glyph-name="uni1EAF" unicode="&#x1eaf;" horiz-adv-x="548" 
d="M270 717l104 150l148 1l-135 -151h-117zM309 534q-70 0 -107 42.5t-33 118.5h119q-2 -17 7 -29t27 -12q20 0 35 12t21 29h120q-13 -72 -62 -116.5t-127 -44.5zM176 -10q-73 0 -114 56.5t-41 144.5q0 135 67 222t159 87q70 0 109 -42h3l4 32h171l-60 -490h-171l8 63l-3 1
q-53 -74 -132 -74zM237 141q35 0 66.5 43.5t43.5 122.5l2 11q-28 31 -67 31t-64.5 -45t-25.5 -95q0 -30 12.5 -49t32.5 -19z" />
    <glyph glyph-name="uni1EB0" unicode="&#x1eb0;" horiz-adv-x="629" 
d="M353 905l-92 133l148 -1l57 -132h-113zM379 739q-76 0 -113 37.5t-32 103.5h123q-2 -16 7.5 -27t28.5 -11q21 0 36.5 11.5t21.5 26.5h125q-15 -63 -63 -102t-134 -39zM-33 0l318 710h170l144 -710h-188l-18 120h-192l-43 -120h-191zM256 270h115l-33 222h-2z" />
    <glyph glyph-name="uni1EB1" unicode="&#x1eb1;" horiz-adv-x="548" 
d="M281 717l-85 153l148 -1l45 -152h-108zM310 534q-70 0 -107 42.5t-33 118.5h119q-2 -17 7 -29t27 -12q20 0 35 12t21 29h120q-13 -72 -62 -116.5t-127 -44.5zM176 -10q-73 0 -114 56.5t-41 144.5q0 135 67 222t159 87q70 0 109 -42h3l4 32h171l-60 -490h-171l8 63l-3 1
q-53 -74 -132 -74zM237 141q35 0 66.5 43.5t43.5 122.5l2 11q-28 31 -67 31t-64.5 -45t-25.5 -95q0 -30 12.5 -49t32.5 -19z" />
    <glyph glyph-name="uni1EB2" unicode="&#x1eb2;" horiz-adv-x="629" 
d="M438 890l-76 1q42 32 45 49q2 7 -3 11.5t-17 4.5q-26 0 -49 -13l-17 60q22 18 57.5 31t67.5 13q79 0 79 -56q0 -29 -23.5 -56.5t-63.5 -44.5zM379 739q-76 0 -113 37.5t-32 103.5h123q-2 -16 7.5 -27t28.5 -11q21 0 36.5 11.5t21.5 26.5h125q-15 -63 -63 -102t-134 -39z
M-33 0l318 710h170l144 -710h-188l-18 120h-192l-43 -120h-191zM256 270h115l-33 222h-2z" />
    <glyph glyph-name="uni1EB3" unicode="&#x1eb3;" horiz-adv-x="548" 
d="M375 694l-77 1q43 33 47 64q3 22 -21 22t-49 -16l-17 60q22 20 57.5 34.5t67.5 14.5q40 0 61.5 -16.5t21.5 -46.5q0 -34 -24.5 -65.5t-66.5 -51.5zM311 532q-72 0 -109.5 40.5t-33.5 113.5h121q-2 -16 7 -27.5t28 -11.5q20 0 35.5 11.5t21.5 27.5h122q-13 -69 -63 -111.5
t-129 -42.5zM176 -10q-73 0 -114 56.5t-41 144.5q0 135 67 222t159 87q70 0 109 -42h3l4 32h171l-60 -490h-171l8 63l-3 1q-53 -74 -132 -74zM237 141q35 0 66.5 43.5t43.5 122.5l2 11q-28 31 -67 31t-64.5 -45t-25.5 -95q0 -30 12.5 -49t32.5 -19z" />
    <glyph glyph-name="uni1EB4" unicode="&#x1eb4;" horiz-adv-x="629" 
d="M477 898q-8 0 -16 1.5t-13 2.5t-12.5 5t-10 5.5t-10.5 6t-9 5.5q-23 16 -40 16q-31 0 -54 -45l-86 42q53 107 126 107q34 0 70 -23q28 -17 39 -17q32 0 55 43l84 -33q-51 -116 -123 -116zM379 739q-76 0 -113 37.5t-32 103.5h123q-2 -16 7.5 -27t28.5 -11q21 0 36.5 11.5
t21.5 26.5h125q-15 -63 -63 -102t-134 -39zM-33 0l318 710h170l144 -710h-188l-18 120h-192l-43 -120h-191zM256 270h115l-33 222h-2z" />
    <glyph glyph-name="uni1EB5" unicode="&#x1eb5;" horiz-adv-x="548" 
d="M407 720q-9 0 -17 1.5t-16 5.5l-11 5.5t-11.5 8t-9.5 6.5q-20 15 -38 15q-30 0 -55 -43l-88 39q53 108 129 108q33 0 67 -20q36 -23 46 -23q28 0 53 48l87 -37q-23 -49 -58 -81.5t-78 -32.5zM309 534q-70 0 -107 42.5t-33 118.5h119q-2 -17 7 -29t27 -12q20 0 35 12
t21 29h120q-13 -72 -62 -116.5t-127 -44.5zM176 -10q-73 0 -114 56.5t-41 144.5q0 135 67 222t159 87q70 0 109 -42h3l4 32h171l-60 -490h-171l8 63l-3 1q-53 -74 -132 -74zM237 141q35 0 66.5 43.5t43.5 122.5l2 11q-28 31 -67 31t-64.5 -45t-25.5 -95q0 -30 12.5 -49
t32.5 -19z" />
    <glyph glyph-name="uni1EB6" unicode="&#x1eb6;" horiz-adv-x="629" 
d="M377 747q-73 0 -109 40t-31 110h119q-2 -17 7 -28.5t27 -11.5q20 0 35 12t21 28h120q-14 -67 -60 -108.5t-129 -41.5zM-33 0l318 710h170l144 -710h-188l-18 120h-192l-43 -120h-191zM256 270h115l-33 222h-2zM276 -50q45 0 72.5 -26.5t27.5 -67.5t-28.5 -68t-74.5 -27
q-44 0 -71.5 26t-27.5 66q0 42 28.5 69.5t73.5 27.5z" />
    <glyph glyph-name="uni1EB7" unicode="&#x1eb7;" horiz-adv-x="548" 
d="M310 534q-70 0 -107 42.5t-33 118.5h119q-2 -17 7 -29t27 -12q20 0 35 12t21 29h120q-13 -72 -62 -116.5t-127 -44.5zM176 -10q-73 0 -114 56.5t-41 144.5q0 135 67 222t159 87q70 0 109 -42h3l4 32h171l-60 -490h-171l8 63l-3 1q-53 -74 -132 -74zM237 141
q35 0 66.5 43.5t43.5 122.5l2 11q-28 31 -67 31t-64.5 -45t-25.5 -95q0 -30 12.5 -49t32.5 -19zM228 -50q45 0 72.5 -26.5t27.5 -67.5t-28.5 -68t-74.5 -27q-44 0 -71.5 26t-27.5 66q0 42 28.5 69.5t73.5 27.5z" />
    <glyph glyph-name="uni1EB8" unicode="&#x1eb8;" horiz-adv-x="533" 
d="M25 0l87 710h428l-20 -161h-252l-15 -118h196l-18 -155h-196l-15 -115h271l-20 -161h-446zM247 -50q45 0 72.5 -26.5t27.5 -67.5t-28.5 -68t-74.5 -27q-44 0 -71.5 26t-27.5 66q0 42 28.5 69.5t73.5 27.5z" />
    <glyph glyph-name="uni1EB9" unicode="&#x1eb9;" horiz-adv-x="475" 
d="M467 363q-4 -157 -282 -185q6 -26 23 -39t37 -13q46 0 78 47l124 -67q-73 -116 -218 -116q-94 0 -151.5 56t-56.5 150q0 129 76 216.5t198 87.5q67 0 120 -35.5t52 -101.5zM307 334q2 28 -28 28q-29 0 -53.5 -25.5t-35.5 -67.5q115 13 117 65zM206 -50q45 0 72.5 -26.5
t27.5 -67.5t-28.5 -68t-74.5 -27q-44 0 -71.5 26t-27.5 66q0 42 28.5 69.5t73.5 27.5z" />
    <glyph glyph-name="uni1EBA" unicode="&#x1eba;" horiz-adv-x="533" 
d="M365 752l-85 1q47 32 51 54q2 8 -4 13t-19 5q-28 0 -54 -14l-19 66q24 20 63.5 34.5t75.5 14.5q42 0 65 -16t23 -46q0 -32 -26 -62.5t-71 -49.5zM25 0l87 710h428l-20 -161h-252l-15 -118h196l-18 -155h-196l-15 -115h271l-20 -161h-446z" />
    <glyph glyph-name="uni1EBB" unicode="&#x1ebb;" horiz-adv-x="475" 
d="M266 637q-28 0 -55 -18l-19 67q25 22 64 38.5t75 16.5q44 0 68 -18.5t24 -52.5q0 -38 -27 -73t-74 -56l-85 1q47 37 52 71q3 24 -23 24zM467 363q-4 -157 -282 -185q6 -26 23 -39t37 -13q46 0 78 47l124 -67q-73 -116 -218 -116q-94 0 -151.5 56t-56.5 150
q0 129 76 216.5t198 87.5q67 0 120 -35.5t52 -101.5zM307 334q2 28 -28 28q-29 0 -53.5 -25.5t-35.5 -67.5q115 13 117 65z" />
    <glyph glyph-name="uni1EBC" unicode="&#x1ebc;" horiz-adv-x="533" 
d="M423 754q-32 0 -76 28q-26 17 -43 17q-33 0 -58 -49l-92 45q25 51 59.5 83.5t75.5 32.5q37 0 75 -25q28 -18 42 -18q34 0 59 46l91 -36q-24 -55 -58 -89.5t-75 -34.5zM25 0l87 710h428l-20 -161h-252l-15 -118h196l-18 -155h-196l-15 -115h271l-20 -161h-446z" />
    <glyph glyph-name="uni1EBD" unicode="&#x1ebd;" horiz-adv-x="475" 
d="M260 593q-33 0 -58 -49l-92 45q24 58 58.5 92.5t76.5 34.5q40 0 76 -26q25 -17 40 -17q34 0 60 48l91 -38q-23 -61 -57 -98t-76 -37q-36 0 -77 29q-21 16 -42 16zM295 500q67 0 120 -35.5t52 -101.5q-4 -157 -282 -185q6 -26 23 -39t37 -13q46 0 78 47l124 -67
q-73 -116 -218 -116q-94 0 -151.5 56t-56.5 150q0 129 76 216.5t198 87.5zM307 334q2 28 -28 28q-29 0 -53.5 -25.5t-35.5 -67.5q115 13 117 65z" />
    <glyph glyph-name="uni1EBE" unicode="&#x1ebe;" horiz-adv-x="533" 
d="M501 817l104 150l148 1l-135 -151h-117zM169 752l101 143h172l68 -143h-138l-26 61h-1l-42 -61h-134zM25 0l87 710h428l-20 -161h-252l-15 -118h196l-18 -155h-196l-15 -115h271l-20 -161h-446z" />
    <glyph glyph-name="uni1EBF" unicode="&#x1ebf;" horiz-adv-x="475" 
d="M532 807l149 1l-133 -153h-108zM304 627l-35 -73h-145l113 155h145l82 -155h-141l-18 73h-1zM295 500q67 0 120 -35.5t52 -101.5q-4 -157 -282 -185q6 -26 23 -39t37 -13q46 0 78 47l124 -67q-73 -116 -218 -116q-94 0 -151.5 56t-56.5 150q0 129 76 216.5t198 87.5z
M307 334q2 28 -28 28q-29 0 -53.5 -25.5t-35.5 -67.5q115 13 117 65z" />
    <glyph glyph-name="uni1EC0" unicode="&#x1ec0;" horiz-adv-x="533" 
d="M527 816l-91 153h147l62 -153h-118zM169 750l101 143h172l68 -143h-138l-26 61h-1l-42 -61h-134zM25 0l87 710h428l-20 -161h-252l-15 -118h196l-18 -155h-196l-15 -115h271l-20 -161h-446z" />
    <glyph glyph-name="uni1EC1" unicode="&#x1ec1;" horiz-adv-x="475" 
d="M565 655h-108l-85 153l148 -1zM305 627l-35 -73h-145l113 155h145l82 -155h-141l-18 73h-1zM295 500q67 0 120 -35.5t52 -101.5q-4 -157 -282 -185q6 -26 23 -39t37 -13q46 0 78 47l124 -67q-73 -116 -218 -116q-94 0 -151.5 56t-56.5 150q0 129 76 216.5t198 87.5z
M307 334q2 28 -28 28q-29 0 -53.5 -25.5t-35.5 -67.5q115 13 117 65z" />
    <glyph glyph-name="uni1EC2" unicode="&#x1ec2;" horiz-adv-x="533" 
d="M566 833l-76 1q42 32 45 49q2 7 -3 11.5t-17 4.5q-26 0 -49 -13l-17 60q22 18 57.5 31t67.5 13q79 0 79 -56q0 -29 -23.5 -56.5t-63.5 -44.5zM168 752l101 143h172l68 -143h-138l-26 61h-1l-42 -61h-134zM25 0l87 710h428l-20 -161h-252l-15 -118h196l-18 -155h-196
l-15 -115h271l-20 -161h-446z" />
    <glyph glyph-name="uni1EC3" unicode="&#x1ec3;" horiz-adv-x="475" 
d="M519 814q40 0 61.5 -16.5t21.5 -46.5q0 -34 -24.5 -65.5t-66.5 -51.5l-77 1q43 33 47 64q3 22 -21 22t-49 -16l-17 60q22 20 57.5 34.5t67.5 14.5zM303 627l-35 -73h-145l113 155h145l82 -155h-141l-18 73h-1zM295 500q67 0 120 -35.5t52 -101.5q-4 -157 -282 -185
q6 -26 23 -39t37 -13q46 0 78 47l124 -67q-73 -116 -218 -116q-94 0 -151.5 56t-56.5 150q0 129 76 216.5t198 87.5zM307 334q2 28 -28 28q-29 0 -53.5 -25.5t-35.5 -67.5q115 13 117 65z" />
    <glyph glyph-name="uni1EC4" unicode="&#x1ec4;" horiz-adv-x="533" 
d="M432 917q-8 0 -16 1.5t-13 2.5t-12.5 5t-10 5.5t-10.5 6t-9 5.5q-23 16 -40 16q-31 0 -54 -45l-86 42q53 107 126 107q34 0 70 -23q28 -17 39 -17q32 0 55 43l84 -33q-51 -116 -123 -116zM169 752l101 143h172l68 -143h-138l-26 61h-1l-42 -61h-134zM25 0l87 710h428
l-20 -161h-252l-15 -118h196l-18 -155h-196l-15 -115h271l-20 -161h-446z" />
    <glyph glyph-name="uni1EC5" unicode="&#x1ec5;" horiz-adv-x="475" 
d="M432 874l87 -37q-23 -49 -58 -81.5t-78 -32.5q-9 0 -17 1.5t-16 5.5l-11 5.5t-11.5 8t-9.5 6.5q-20 15 -38 15q-30 0 -55 -43l-88 39q53 108 129 108q33 0 67 -20q36 -23 46 -23q28 0 53 48zM305 627h-1l-35 -73h-145l113 155h145l82 -155h-141zM295 500q67 0 120 -35.5
t52 -101.5q-4 -157 -282 -185q6 -26 23 -39t37 -13q46 0 78 47l124 -67q-73 -116 -218 -116q-94 0 -151.5 56t-56.5 150q0 129 76 216.5t198 87.5zM307 334q2 28 -28 28q-29 0 -53.5 -25.5t-35.5 -67.5q115 13 117 65z" />
    <glyph glyph-name="uni1EC6" unicode="&#x1ec6;" horiz-adv-x="533" 
d="M167 752l101 143h172l68 -143h-138l-26 61h-1l-42 -61h-134zM25 0l87 710h428l-20 -161h-252l-15 -118h196l-18 -155h-196l-15 -115h271l-20 -161h-446zM247 -50q45 0 72.5 -26.5t27.5 -67.5t-28.5 -68t-74.5 -27q-44 0 -71.5 26t-27.5 66q0 42 28.5 69.5t73.5 27.5z" />
    <glyph glyph-name="uni1EC7" unicode="&#x1ec7;" horiz-adv-x="475" 
d="M303 627l-35 -73h-145l113 155h145l82 -155h-141l-18 73h-1zM467 363q-4 -157 -282 -185q6 -26 23 -39t37 -13q46 0 78 47l124 -67q-73 -116 -218 -116q-94 0 -151.5 56t-56.5 150q0 129 76 216.5t198 87.5q67 0 120 -35.5t52 -101.5zM307 334q2 28 -28 28
q-29 0 -53.5 -25.5t-35.5 -67.5q115 13 117 65zM206 -50q45 0 72.5 -26.5t27.5 -67.5t-28.5 -68t-74.5 -27q-44 0 -71.5 26t-27.5 66q0 42 28.5 69.5t73.5 27.5z" />
    <glyph glyph-name="uni1EC8" unicode="&#x1ec8;" horiz-adv-x="306" 
d="M242 752l-85 1q47 32 51 54q2 8 -4 13t-19 5q-28 0 -54 -14l-19 66q24 20 63.5 34.5t75.5 14.5q42 0 65 -16t23 -46q0 -32 -26 -62.5t-71 -49.5zM31 0l87 710h184l-87 -710h-184z" />
    <glyph glyph-name="uni1EC9" unicode="&#x1ec9;" horiz-adv-x="273" 
d="M205 541l-85 1q47 37 52 71q3 24 -23 24q-28 0 -55 -18l-19 67q25 22 64 38.5t75 16.5q44 0 68 -18.5t24 -52.5q0 -38 -27 -73t-74 -56zM21 0l61 490h169l-60 -490h-170z" />
    <glyph glyph-name="uni1ECA" unicode="&#x1eca;" horiz-adv-x="306" 
d="M31 0l87 710h184l-87 -710h-184zM109 -50q45 0 72.5 -26.5t27.5 -67.5t-28.5 -68t-74.5 -27q-44 0 -71.5 26t-27.5 66q0 42 28.5 69.5t73.5 27.5z" />
    <glyph glyph-name="uni1ECB" unicode="&#x1ecb;" horiz-adv-x="273" 
d="M183 546q-45 0 -72.5 26.5t-27.5 67.5t28.5 68t74.5 27q44 0 71.5 -26t27.5 -66q0 -42 -28.5 -69.5t-73.5 -27.5zM21 0l61 490h169l-60 -490h-170zM91 -50q45 0 72.5 -26.5t27.5 -67.5t-28.5 -68t-74.5 -27q-44 0 -71.5 26t-27.5 66q0 42 28.5 69.5t73.5 27.5z" />
    <glyph glyph-name="uni1ECC" unicode="&#x1ecc;" horiz-adv-x="726" 
d="M332 -10q-133 0 -211.5 80t-78.5 223q0 114 45.5 211t133 156.5t199.5 59.5q132 0 211.5 -79.5t79.5 -220.5q0 -120 -43.5 -216.5t-131 -155t-204.5 -58.5zM346 160q77 0 126.5 70.5t49.5 177.5q0 72 -32.5 107.5t-85.5 35.5q-73 0 -123.5 -73.5t-50.5 -171.5
q0 -72 32.5 -109t83.5 -37zM321 -50q45 0 72.5 -26.5t27.5 -67.5t-28.5 -68t-74.5 -27q-44 0 -71.5 26t-27.5 66q0 42 28.5 69.5t73.5 27.5z" />
    <glyph glyph-name="uni1ECD" unicode="&#x1ecd;" horiz-adv-x="529" 
d="M229 -10q-94 0 -150.5 56.5t-56.5 156.5q0 124 73.5 210.5t201.5 86.5q96 0 153 -56.5t57 -156.5q0 -60 -16 -112t-48.5 -94t-87.5 -66.5t-126 -24.5zM245 141q40 0 65 41t25 95q0 39 -16.5 55t-36.5 16q-40 0 -64 -43t-24 -97q0 -35 16.5 -51t34.5 -16zM217 -50
q45 0 72.5 -26.5t27.5 -67.5t-28.5 -68t-74.5 -27q-44 0 -71.5 26t-27.5 66q0 42 28.5 69.5t73.5 27.5z" />
    <glyph glyph-name="uni1ECE" unicode="&#x1ece;" horiz-adv-x="726" 
d="M484 754l-85 1q47 32 51 54q2 8 -4 13t-19 5q-28 0 -54 -14l-19 66q24 20 63.5 34.5t75.5 14.5q42 0 65 -16t23 -46q0 -32 -26 -62.5t-71 -49.5zM332 -10q-133 0 -211.5 80t-78.5 223q0 114 45.5 211t133 156.5t199.5 59.5q132 0 211.5 -79.5t79.5 -220.5
q0 -120 -43.5 -216.5t-131 -155t-204.5 -58.5zM346 160q77 0 126.5 70.5t49.5 177.5q0 72 -32.5 107.5t-85.5 35.5q-73 0 -123.5 -73.5t-50.5 -171.5q0 -72 32.5 -109t83.5 -37z" />
    <glyph glyph-name="uni1ECF" unicode="&#x1ecf;" horiz-adv-x="529" 
d="M339 541l-85 1q47 37 52 71q3 24 -23 24q-28 0 -55 -18l-19 67q25 22 64 38.5t75 16.5q44 0 68 -18.5t24 -52.5q0 -38 -27 -73t-74 -56zM229 -10q-94 0 -150.5 56.5t-56.5 156.5q0 124 73.5 210.5t201.5 86.5q96 0 153 -56.5t57 -156.5q0 -60 -16 -112t-48.5 -94
t-87.5 -66.5t-126 -24.5zM245 141q40 0 65 41t25 95q0 39 -16.5 55t-36.5 16q-40 0 -64 -43t-24 -97q0 -35 16.5 -51t34.5 -16z" />
    <glyph glyph-name="uni1ED0" unicode="&#x1ed0;" horiz-adv-x="726" 
d="M620 819l104 150l148 1l-135 -151h-117zM288 754l101 143h172l68 -143h-138l-26 61h-1l-42 -61h-134zM332 -10q-133 0 -211.5 80t-78.5 223q0 114 45.5 211t133 156.5t199.5 59.5q132 0 211.5 -79.5t79.5 -220.5q0 -120 -43.5 -216.5t-131 -155t-204.5 -58.5zM346 160
q77 0 126.5 70.5t49.5 177.5q0 72 -32.5 107.5t-85.5 35.5q-73 0 -123.5 -73.5t-50.5 -171.5q0 -72 32.5 -109t83.5 -37z" />
    <glyph glyph-name="uni1ED1" unicode="&#x1ed1;" horiz-adv-x="529" 
d="M457 655l92 152l149 1l-133 -153h-108zM141 554l113 155h145l82 -155h-141l-18 73h-1l-35 -73h-145zM229 -10q-94 0 -150.5 56.5t-56.5 156.5q0 124 73.5 210.5t201.5 86.5q96 0 153 -56.5t57 -156.5q0 -60 -16 -112t-48.5 -94t-87.5 -66.5t-126 -24.5zM245 141
q40 0 65 41t25 95q0 39 -16.5 55t-36.5 16q-40 0 -64 -43t-24 -97q0 -35 16.5 -51t34.5 -16z" />
    <glyph glyph-name="uni1ED2" unicode="&#x1ed2;" horiz-adv-x="726" 
d="M646 818l-91 153h147l62 -153h-118zM288 752l101 143h172l68 -143h-138l-26 61h-1l-42 -61h-134zM332 -10q-133 0 -211.5 80t-78.5 223q0 114 45.5 211t133 156.5t199.5 59.5q132 0 211.5 -79.5t79.5 -220.5q0 -120 -43.5 -216.5t-131 -155t-204.5 -58.5zM346 160
q77 0 126.5 70.5t49.5 177.5q0 72 -32.5 107.5t-85.5 35.5q-73 0 -123.5 -73.5t-50.5 -171.5q0 -72 32.5 -109t83.5 -37z" />
    <glyph glyph-name="uni1ED3" unicode="&#x1ed3;" horiz-adv-x="529" 
d="M474 655l-85 153l148 -1l45 -152h-108zM142 554l113 155h145l82 -155h-141l-18 73h-1l-35 -73h-145zM229 -10q-94 0 -150.5 56.5t-56.5 156.5q0 124 73.5 210.5t201.5 86.5q96 0 153 -56.5t57 -156.5q0 -60 -16 -112t-48.5 -94t-87.5 -66.5t-126 -24.5zM245 141
q40 0 65 41t25 95q0 39 -16.5 55t-36.5 16q-40 0 -64 -43t-24 -97q0 -35 16.5 -51t34.5 -16z" />
    <glyph glyph-name="uni1ED4" unicode="&#x1ed4;" horiz-adv-x="726" 
d="M685 835l-76 1q42 32 45 49q2 7 -3 11.5t-17 4.5q-26 0 -49 -13l-17 60q22 18 57.5 31t67.5 13q79 0 79 -56q0 -29 -23.5 -56.5t-63.5 -44.5zM287 754l101 143h172l68 -143h-138l-26 61h-1l-42 -61h-134zM332 -10q-133 0 -211.5 80t-78.5 223q0 114 45.5 211t133 156.5
t199.5 59.5q132 0 211.5 -79.5t79.5 -220.5q0 -120 -43.5 -216.5t-131 -155t-204.5 -58.5zM346 160q77 0 126.5 70.5t49.5 177.5q0 72 -32.5 107.5t-85.5 35.5q-73 0 -123.5 -73.5t-50.5 -171.5q0 -72 32.5 -109t83.5 -37z" />
    <glyph glyph-name="uni1ED5" unicode="&#x1ed5;" horiz-adv-x="529" 
d="M528 634l-77 1q43 33 47 64q3 22 -21 22t-49 -16l-17 60q22 20 57.5 34.5t67.5 14.5q40 0 61.5 -16.5t21.5 -46.5q0 -34 -24.5 -65.5t-66.5 -51.5zM140 554l113 155h145l82 -155h-141l-18 73h-1l-35 -73h-145zM229 -10q-94 0 -150.5 56.5t-56.5 156.5q0 124 73.5 210.5
t201.5 86.5q96 0 153 -56.5t57 -156.5q0 -60 -16 -112t-48.5 -94t-87.5 -66.5t-126 -24.5zM245 141q40 0 65 41t25 95q0 39 -16.5 55t-36.5 16q-40 0 -64 -43t-24 -97q0 -35 16.5 -51t34.5 -16z" />
    <glyph glyph-name="uni1ED6" unicode="&#x1ed6;" horiz-adv-x="726" 
d="M551 919q-8 0 -16 1.5t-13 2.5t-12.5 5t-10 5.5t-10.5 6t-9 5.5q-23 16 -40 16q-31 0 -54 -45l-86 42q53 107 126 107q34 0 70 -23q28 -17 39 -17q32 0 55 43l84 -33q-51 -116 -123 -116zM288 754l101 143h172l68 -143h-138l-26 61h-1l-42 -61h-134zM332 -10
q-133 0 -211.5 80t-78.5 223q0 114 45.5 211t133 156.5t199.5 59.5q132 0 211.5 -79.5t79.5 -220.5q0 -120 -43.5 -216.5t-131 -155t-204.5 -58.5zM346 160q77 0 126.5 70.5t49.5 177.5q0 72 -32.5 107.5t-85.5 35.5q-73 0 -123.5 -73.5t-50.5 -171.5q0 -72 32.5 -109
t83.5 -37z" />
    <glyph glyph-name="uni1ED7" unicode="&#x1ed7;" horiz-adv-x="529" 
d="M400 723q-9 0 -17 1.5t-16 5.5l-11 5.5t-11.5 8t-9.5 6.5q-20 15 -38 15q-30 0 -55 -43l-88 39q53 108 129 108q33 0 67 -20q36 -23 46 -23q28 0 53 48l87 -37q-23 -49 -58 -81.5t-78 -32.5zM141 554l113 155h145l82 -155h-141l-18 73h-1l-35 -73h-145zM229 -10
q-94 0 -150.5 56.5t-56.5 156.5q0 124 73.5 210.5t201.5 86.5q96 0 153 -56.5t57 -156.5q0 -60 -16 -112t-48.5 -94t-87.5 -66.5t-126 -24.5zM245 141q40 0 65 41t25 95q0 39 -16.5 55t-36.5 16q-40 0 -64 -43t-24 -97q0 -35 16.5 -51t34.5 -16z" />
    <glyph glyph-name="uni1ED8" unicode="&#x1ed8;" horiz-adv-x="726" 
d="M286 754l101 143h172l68 -143h-138l-26 61h-1l-42 -61h-134zM332 -10q-133 0 -211.5 80t-78.5 223q0 114 45.5 211t133 156.5t199.5 59.5q132 0 211.5 -79.5t79.5 -220.5q0 -120 -43.5 -216.5t-131 -155t-204.5 -58.5zM346 160q77 0 126.5 70.5t49.5 177.5
q0 72 -32.5 107.5t-85.5 35.5q-73 0 -123.5 -73.5t-50.5 -171.5q0 -72 32.5 -109t83.5 -37zM321 -50q45 0 72.5 -26.5t27.5 -67.5t-28.5 -68t-74.5 -27q-44 0 -71.5 26t-27.5 66q0 42 28.5 69.5t73.5 27.5z" />
    <glyph glyph-name="uni1ED9" unicode="&#x1ed9;" horiz-adv-x="529" 
d="M140 554l113 155h145l82 -155h-141l-18 73h-1l-35 -73h-145zM229 -10q-94 0 -150.5 56.5t-56.5 156.5q0 124 73.5 210.5t201.5 86.5q96 0 153 -56.5t57 -156.5q0 -60 -16 -112t-48.5 -94t-87.5 -66.5t-126 -24.5zM245 141q40 0 65 41t25 95q0 39 -16.5 55t-36.5 16
q-40 0 -64 -43t-24 -97q0 -35 16.5 -51t34.5 -16zM217 -50q45 0 72.5 -26.5t27.5 -67.5t-28.5 -68t-74.5 -27q-44 0 -71.5 26t-27.5 66q0 42 28.5 69.5t73.5 27.5z" />
    <glyph glyph-name="uni1EDA" unicode="&#x1eda;" horiz-adv-x="789" 
d="M621 897l-131 -143h-149l115 142zM712 774h131l-10 -84q-9 -81 -44.5 -125.5t-87.5 -52.5q10 -47 10 -92q0 -120 -43.5 -216.5t-131 -155t-204.5 -58.5q-133 0 -211.5 80t-78.5 223q0 114 45.5 211t133 156.5t199.5 59.5q176 0 251 -132q19 17 30 105zM346 160
q77 0 126.5 70.5t49.5 177.5q0 72 -32.5 107.5t-85.5 35.5q-73 0 -123.5 -73.5t-50.5 -171.5q0 -72 32.5 -109t83.5 -37z" />
    <glyph glyph-name="uni1EDB" unicode="&#x1edb;" horiz-adv-x="631" 
d="M517 709l-130 -152h-154l116 151zM531 565h131l-10 -84q-10 -86 -49 -131t-96 -49v-14q0 -60 -16 -112t-48.5 -94t-87.5 -66.5t-126 -24.5q-94 0 -150.5 56.5t-56.5 156.5q0 124 73.5 210.5t201.5 86.5q71 0 121.5 -31.5t72.5 -89.5q18 19 29 105zM245 141q40 0 65 41
t25 95q0 39 -16.5 55t-36.5 16q-40 0 -64 -43t-24 -97q0 -35 16.5 -51t34.5 -16z" />
    <glyph glyph-name="uni1EDC" unicode="&#x1edc;" horiz-adv-x="789" 
d="M528 754h-151l-93 143l164 -1zM712 774h131l-10 -84q-9 -81 -44.5 -125.5t-87.5 -52.5q10 -47 10 -92q0 -120 -43.5 -216.5t-131 -155t-204.5 -58.5q-133 0 -211.5 80t-78.5 223q0 114 45.5 211t133 156.5t199.5 59.5q176 0 251 -132q19 17 30 105zM346 160
q77 0 126.5 70.5t49.5 177.5q0 72 -32.5 107.5t-85.5 35.5q-73 0 -123.5 -73.5t-50.5 -171.5q0 -72 32.5 -109t83.5 -37z" />
    <glyph glyph-name="uni1EDD" unicode="&#x1edd;" horiz-adv-x="631" 
d="M390 558h-151l-92 152l164 -1zM531 565h131l-10 -84q-10 -86 -49 -131t-96 -49v-14q0 -60 -16 -112t-48.5 -94t-87.5 -66.5t-126 -24.5q-94 0 -150.5 56.5t-56.5 156.5q0 124 73.5 210.5t201.5 86.5q71 0 121.5 -31.5t72.5 -89.5q18 19 29 105zM245 141q40 0 65 41t25 95
q0 39 -16.5 55t-36.5 16q-40 0 -64 -43t-24 -97q0 -35 16.5 -51t34.5 -16z" />
    <glyph glyph-name="uni1EDE" unicode="&#x1ede;" horiz-adv-x="789" 
d="M427 827q-28 0 -54 -14l-19 66q24 20 63.5 34.5t75.5 14.5q42 0 65 -16t23 -46q0 -32 -26 -62.5t-71 -49.5l-85 1q47 32 51 54q2 8 -4 13t-19 5zM712 774h131l-10 -84q-9 -81 -44.5 -125.5t-87.5 -52.5q10 -47 10 -92q0 -120 -43.5 -216.5t-131 -155t-204.5 -58.5
q-133 0 -211.5 80t-78.5 223q0 114 45.5 211t133 156.5t199.5 59.5q176 0 251 -132q19 17 30 105zM346 160q77 0 126.5 70.5t49.5 177.5q0 72 -32.5 107.5t-85.5 35.5q-73 0 -123.5 -73.5t-50.5 -171.5q0 -72 32.5 -109t83.5 -37z" />
    <glyph glyph-name="uni1EDF" unicode="&#x1edf;" horiz-adv-x="631" 
d="M283 637q-28 0 -55 -18l-19 67q25 22 64 38.5t75 16.5q44 0 68 -18.5t24 -52.5q0 -38 -27 -73t-74 -56l-85 1q47 37 52 71q3 24 -23 24zM531 565h131l-10 -84q-10 -86 -49 -131t-96 -49v-14q0 -60 -16 -112t-48.5 -94t-87.5 -66.5t-126 -24.5q-94 0 -150.5 56.5
t-56.5 156.5q0 124 73.5 210.5t201.5 86.5q71 0 121.5 -31.5t72.5 -89.5q18 19 29 105zM245 141q40 0 65 41t25 95q0 39 -16.5 55t-36.5 16q-40 0 -64 -43t-24 -97q0 -35 16.5 -51t34.5 -16z" />
    <glyph glyph-name="uni1EE0" unicode="&#x1ee0;" horiz-adv-x="789" 
d="M423 801q-33 0 -58 -49l-92 45q25 51 59.5 83.5t75.5 32.5q38 0 75 -25q28 -18 42 -18q34 0 59 46l91 -36q-24 -55 -58 -89.5t-75 -34.5q-32 0 -76 28q-26 17 -43 17zM712 774h131l-10 -84q-9 -81 -44.5 -125.5t-87.5 -52.5q10 -47 10 -92q0 -120 -43.5 -216.5t-131 -155
t-204.5 -58.5q-133 0 -211.5 80t-78.5 223q0 114 45.5 211t133 156.5t199.5 59.5q176 0 251 -132q19 17 30 105zM346 160q77 0 126.5 70.5t49.5 177.5q0 72 -32.5 107.5t-85.5 35.5q-73 0 -123.5 -73.5t-50.5 -171.5q0 -72 32.5 -109t83.5 -37z" />
    <glyph glyph-name="uni1EE1" unicode="&#x1ee1;" horiz-adv-x="631" 
d="M277 593q-33 0 -58 -49l-92 45q24 58 58.5 92.5t76.5 34.5q40 0 76 -26q25 -17 40 -17q34 0 60 48l91 -38q-23 -61 -57 -98t-76 -37q-36 0 -77 29q-21 16 -42 16zM531 565h131l-10 -84q-10 -86 -49 -131t-96 -49v-14q0 -60 -16 -112t-48.5 -94t-87.5 -66.5t-126 -24.5
q-94 0 -150.5 56.5t-56.5 156.5q0 124 73.5 210.5t201.5 86.5q71 0 121.5 -31.5t72.5 -89.5q18 19 29 105zM245 141q40 0 65 41t25 95q0 39 -16.5 55t-36.5 16q-40 0 -64 -43t-24 -97q0 -35 16.5 -51t34.5 -16z" />
    <glyph glyph-name="uni1EE2" unicode="&#x1ee2;" horiz-adv-x="789" 
d="M712 774h131l-10 -84q-9 -81 -44.5 -125.5t-87.5 -52.5q10 -47 10 -92q0 -120 -43.5 -216.5t-131 -155t-204.5 -58.5q-133 0 -211.5 80t-78.5 223q0 114 45.5 211t133 156.5t199.5 59.5q176 0 251 -132q19 17 30 105zM346 160q77 0 126.5 70.5t49.5 177.5
q0 72 -32.5 107.5t-85.5 35.5q-73 0 -123.5 -73.5t-50.5 -171.5q0 -72 32.5 -109t83.5 -37zM321 -50q45 0 72.5 -26.5t27.5 -67.5t-28.5 -68t-74.5 -27q-44 0 -71.5 26t-27.5 66q0 42 28.5 69.5t73.5 27.5z" />
    <glyph glyph-name="uni1EE3" unicode="&#x1ee3;" horiz-adv-x="631" 
d="M531 565h131l-10 -84q-10 -86 -49 -131t-96 -49v-14q0 -60 -16 -112t-48.5 -94t-87.5 -66.5t-126 -24.5q-94 0 -150.5 56.5t-56.5 156.5q0 124 73.5 210.5t201.5 86.5q71 0 121.5 -31.5t72.5 -89.5q18 19 29 105zM245 141q40 0 65 41t25 95q0 39 -16.5 55t-36.5 16
q-40 0 -64 -43t-24 -97q0 -35 16.5 -51t34.5 -16zM217 -50q45 0 72.5 -26.5t27.5 -67.5t-28.5 -68t-74.5 -27q-44 0 -71.5 26t-27.5 66q0 42 28.5 69.5t73.5 27.5z" />
    <glyph glyph-name="uni1EE4" unicode="&#x1ee4;" horiz-adv-x="640" 
d="M292 -10q-276 0 -234 335l48 385h181l-49 -404q-4 -42 -2 -74.5t20.5 -52.5t52.5 -20q44 0 71.5 31.5t36.5 108.5l51 411h180l-51 -417q-20 -165 -94.5 -234t-210.5 -69zM281 -50q45 0 72.5 -26.5t27.5 -67.5t-28.5 -68t-74.5 -27q-44 0 -71.5 26t-27.5 66
q0 42 28.5 69.5t73.5 27.5z" />
    <glyph glyph-name="uni1EE5" unicode="&#x1ee5;" horiz-adv-x="536" 
d="M158 -10q-152 0 -124 193l43 307h169l-36 -244q-6 -41 -6 -63t6.5 -32t21.5 -10q27 0 55 38t33 78l29 233h170l-60 -490h-166l4 64h-3q-58 -74 -136 -74zM220 -50q45 0 72.5 -26.5t27.5 -67.5t-28.5 -68t-74.5 -27q-44 0 -71.5 26t-27.5 66q0 42 28.5 69.5t73.5 27.5z
" />
    <glyph glyph-name="uni1EE6" unicode="&#x1ee6;" horiz-adv-x="640" 
d="M412 754l-85 1q47 32 51 54q2 8 -4 13t-19 5q-28 0 -54 -14l-19 66q24 20 63.5 34.5t75.5 14.5q42 0 65 -16t23 -46q0 -32 -26 -62.5t-71 -49.5zM292 -10q-276 0 -234 335l48 385h181l-49 -404q-4 -42 -2 -74.5t20.5 -52.5t52.5 -20q44 0 71.5 31.5t36.5 108.5l51 411
h180l-51 -417q-20 -165 -94.5 -234t-210.5 -69z" />
    <glyph glyph-name="uni1EE7" unicode="&#x1ee7;" horiz-adv-x="536" 
d="M337 541l-85 1q47 37 52 71q3 24 -23 24q-28 0 -55 -18l-19 67q25 22 64 38.5t75 16.5q44 0 68 -18.5t24 -52.5q0 -38 -27 -73t-74 -56zM158 -10q-152 0 -124 193l43 307h169l-36 -244q-6 -41 -6 -63t6.5 -32t21.5 -10q27 0 55 38t33 78l29 233h170l-60 -490h-166l4 64
h-3q-58 -74 -136 -74z" />
    <glyph glyph-name="uni1EE8" unicode="&#x1ee8;" horiz-adv-x="772" 
d="M576 897l-131 -143h-149l115 142zM707 774h131l-10 -84q-11 -90 -52.5 -135t-102.5 -45q-27 0 -49 6l-27 -223q-20 -165 -94.5 -234t-210.5 -69q-276 0 -234 335l48 385h181l-49 -404q-4 -42 -2 -74.5t20.5 -52.5t52.5 -20q44 0 71.5 31.5t36.5 108.5l51 411h180
l-16 -129q10 -2 13 -2q17 0 27.5 17t14.5 37.5t9 59.5z" />
    <glyph glyph-name="uni1EE9" unicode="&#x1ee9;" horiz-adv-x="668" 
d="M521 709l-130 -152h-154l116 151zM576 565h131l-10 -84q-11 -90 -52.5 -135t-102.5 -45q-23 0 -45 5l-38 -306h-166l4 64h-3q-58 -74 -136 -74q-152 0 -124 193l43 307h169l-36 -244q-6 -41 -6 -63t6.5 -32t21.5 -10q27 0 55 38t33 78l29 233h170l-15 -119q2 0 5.5 -0.5
t4.5 -0.5q17 0 27.5 17t14.5 37.5t9 59.5z" />
    <glyph glyph-name="uni1EEA" unicode="&#x1eea;" horiz-adv-x="772" 
d="M462 754h-151l-93 143l164 -1zM707 774h131l-10 -84q-11 -90 -52.5 -135t-102.5 -45q-27 0 -49 6l-27 -223q-20 -165 -94.5 -234t-210.5 -69q-276 0 -234 335l48 385h181l-49 -404q-4 -42 -2 -74.5t20.5 -52.5t52.5 -20q44 0 71.5 31.5t36.5 108.5l51 411h180l-16 -129
q10 -2 13 -2q17 0 27.5 17t14.5 37.5t9 59.5z" />
    <glyph glyph-name="uni1EEB" unicode="&#x1eeb;" horiz-adv-x="668" 
d="M378 558h-151l-92 152l164 -1zM576 565h131l-10 -84q-11 -90 -52.5 -135t-102.5 -45q-23 0 -45 5l-38 -306h-166l4 64h-3q-58 -74 -136 -74q-152 0 -124 193l43 307h169l-36 -244q-6 -41 -6 -63t6.5 -32t21.5 -10q27 0 55 38t33 78l29 233h170l-15 -119q2 0 5.5 -0.5
t4.5 -0.5q17 0 27.5 17t14.5 37.5t9 59.5z" />
    <glyph glyph-name="uni1EEC" unicode="&#x1eec;" horiz-adv-x="772" 
d="M355 827q-28 0 -54 -14l-19 66q24 20 63.5 34.5t75.5 14.5q42 0 65 -16t23 -46q0 -32 -26 -62.5t-71 -49.5l-85 1q47 32 51 54q2 8 -4 13t-19 5zM707 774h131l-10 -84q-11 -90 -52.5 -135t-102.5 -45q-27 0 -49 6l-27 -223q-20 -165 -94.5 -234t-210.5 -69
q-276 0 -234 335l48 385h181l-49 -404q-4 -42 -2 -74.5t20.5 -52.5t52.5 -20q44 0 71.5 31.5t36.5 108.5l51 411h180l-16 -129q10 -2 13 -2q17 0 27.5 17t14.5 37.5t9 59.5z" />
    <glyph glyph-name="uni1EED" unicode="&#x1eed;" horiz-adv-x="668" 
d="M281 637q-28 0 -55 -18l-19 67q25 22 64 38.5t75 16.5q44 0 68 -18.5t24 -52.5q0 -38 -27 -73t-74 -56l-85 1q47 37 52 71q3 24 -23 24zM576 565h131l-10 -84q-11 -90 -52.5 -135t-102.5 -45q-23 0 -45 5l-38 -306h-166l4 64h-3q-58 -74 -136 -74q-152 0 -124 193l43 307
h169l-36 -244q-6 -41 -6 -63t6.5 -32t21.5 -10q27 0 55 38t33 78l29 233h170l-15 -119q2 0 5.5 -0.5t4.5 -0.5q17 0 27.5 17t14.5 37.5t9 59.5z" />
    <glyph glyph-name="uni1EEE" unicode="&#x1eee;" horiz-adv-x="772" 
d="M351 801q-33 0 -58 -49l-92 45q25 51 59.5 83.5t75.5 32.5q38 0 75 -25q28 -18 42 -18q34 0 59 46l91 -36q-24 -55 -58 -89.5t-75 -34.5q-32 0 -76 28q-26 17 -43 17zM707 774h131l-10 -84q-11 -90 -52.5 -135t-102.5 -45q-27 0 -49 6l-27 -223q-20 -165 -94.5 -234
t-210.5 -69q-276 0 -234 335l48 385h181l-49 -404q-4 -42 -2 -74.5t20.5 -52.5t52.5 -20q44 0 71.5 31.5t36.5 108.5l51 411h180l-16 -129q10 -2 13 -2q17 0 27.5 17t14.5 37.5t9 59.5z" />
    <glyph glyph-name="uni1EEF" unicode="&#x1eef;" horiz-adv-x="668" 
d="M275 593q-33 0 -58 -49l-92 45q24 58 58.5 92.5t76.5 34.5q40 0 76 -26q26 -17 40 -17q34 0 60 48l91 -38q-23 -61 -57 -98t-76 -37q-36 0 -77 29q-21 16 -42 16zM576 565h131l-10 -84q-11 -90 -52.5 -135t-102.5 -45q-23 0 -45 5l-38 -306h-166l4 64h-3
q-58 -74 -136 -74q-152 0 -124 193l43 307h169l-36 -244q-6 -41 -6 -63t6.5 -32t21.5 -10q27 0 55 38t33 78l29 233h170l-15 -119q2 0 5.5 -0.5t4.5 -0.5q17 0 27.5 17t14.5 37.5t9 59.5z" />
    <glyph glyph-name="uni1EF0" unicode="&#x1ef0;" horiz-adv-x="772" 
d="M707 774h131l-10 -84q-11 -90 -52.5 -135t-102.5 -45q-27 0 -49 6l-27 -223q-20 -165 -94.5 -234t-210.5 -69q-276 0 -234 335l48 385h181l-49 -404q-4 -42 -2 -74.5t20.5 -52.5t52.5 -20q44 0 71.5 31.5t36.5 108.5l51 411h180l-16 -129q10 -2 13 -2q17 0 27.5 17
t14.5 37.5t9 59.5zM281 -50q45 0 72.5 -26.5t27.5 -67.5t-28.5 -68t-74.5 -27q-44 0 -71.5 26t-27.5 66q0 42 28.5 69.5t73.5 27.5z" />
    <glyph glyph-name="uni1EF1" unicode="&#x1ef1;" horiz-adv-x="668" 
d="M576 565h131l-10 -84q-11 -90 -52.5 -135t-102.5 -45q-23 0 -45 5l-38 -306h-166l4 64h-3q-58 -74 -136 -74q-152 0 -124 193l43 307h169l-36 -244q-6 -41 -6 -63t6.5 -32t21.5 -10q27 0 55 38t33 78l29 233h170l-15 -119q2 0 5.5 -0.5t4.5 -0.5q17 0 27.5 17t14.5 37.5
t9 59.5zM220 -50q45 0 72.5 -26.5t27.5 -67.5t-28.5 -68t-74.5 -27q-44 0 -71.5 26t-27.5 66q0 42 28.5 69.5t73.5 27.5z" />
    <glyph glyph-name="Ygrave" unicode="&#x1ef2;" horiz-adv-x="581" 
d="M285 754l-93 143l164 -1l80 -142h-151zM168 0l39 308l-155 402h199l66 -233h3l119 233h206l-255 -402l-38 -308h-184z" />
    <glyph glyph-name="ygrave" unicode="&#x1ef3;" horiz-adv-x="528" 
d="M393 558h-151l-92 152l164 -1zM344 490h170l-52 -421q-34 -277 -282 -277q-100 0 -180 48l52 122q52 -35 116 -35q51 0 80.5 27.5t42.5 108.5h-3q-56 -73 -136 -73q-151 0 -123 193l43 307h169l-35 -244q-9 -59 -5 -82t27 -23q26 0 54 38t33 75z" />
    <glyph glyph-name="uni1EF4" unicode="&#x1ef4;" horiz-adv-x="581" 
d="M168 0l39 308l-155 402h199l66 -233h3l119 233h206l-255 -402l-38 -308h-184zM244 -50q45 0 72.5 -26.5t27.5 -67.5t-28.5 -68t-74.5 -27q-44 0 -71.5 26t-27.5 66q0 42 28.5 69.5t73.5 27.5z" />
    <glyph glyph-name="uni1EF5" unicode="&#x1ef5;" horiz-adv-x="528" 
d="M344 490h170l-52 -421q-34 -277 -282 -277q-100 0 -180 48l52 122q52 -35 116 -35q51 0 80.5 27.5t42.5 108.5h-3q-56 -73 -136 -73q-151 0 -123 193l43 307h169l-35 -244q-9 -59 -5 -82t27 -23q26 0 54 38t33 75zM204 -210q45 0 72.5 -26.5t27.5 -67.5t-28.5 -68
t-74.5 -27q-44 0 -71.5 26t-27.5 66q0 42 28.5 69.5t73.5 27.5z" />
    <glyph glyph-name="uni1EF6" unicode="&#x1ef6;" horiz-adv-x="581" 
d="M383 754l-85 1q47 32 51 54q2 8 -4 13t-19 5q-28 0 -54 -14l-19 66q24 20 63.5 34.5t75.5 14.5q42 0 65 -16t23 -46q0 -32 -26 -62.5t-71 -49.5zM168 0l39 308l-155 402h199l66 -233h3l119 233h206l-255 -402l-38 -308h-184z" />
    <glyph glyph-name="uni1EF7" unicode="&#x1ef7;" horiz-adv-x="528" 
d="M268 637q-28 0 -55 -18l-19 67q25 22 64 38.5t75 16.5q44 0 68 -18.5t24 -52.5q0 -38 -27 -73t-74 -56l-85 1q47 37 52 71q3 24 -23 24zM344 490h170l-52 -421q-34 -277 -282 -277q-100 0 -180 48l52 122q52 -35 116 -35q51 0 80.5 27.5t42.5 108.5h-3q-56 -73 -136 -73
q-151 0 -123 193l43 307h169l-35 -244q-9 -59 -5 -82t27 -23q26 0 54 38t33 75z" />
    <glyph glyph-name="uni1EF8" unicode="&#x1ef8;" horiz-adv-x="581" 
d="M441 756q-32 0 -76 28q-26 17 -43 17q-33 0 -58 -49l-92 45q25 51 59.5 83.5t75.5 32.5q37 0 75 -25q28 -18 42 -18q34 0 59 46l91 -36q-24 -55 -58 -89.5t-75 -34.5zM168 0l39 308l-155 402h199l66 -233h3l119 233h206l-255 -402l-38 -308h-184z" />
    <glyph glyph-name="uni1EF9" unicode="&#x1ef9;" horiz-adv-x="528" 
d="M262 593q-33 0 -58 -49l-92 45q24 58 58.5 92.5t76.5 34.5q40 0 76 -26q25 -17 40 -17q34 0 60 48l91 -38q-23 -61 -57 -98t-76 -37q-36 0 -77 29q-21 16 -42 16zM315 254l29 236h170l-52 -421q-34 -277 -282 -277q-100 0 -180 48l52 122q52 -35 116 -35q51 0 80.5 27.5
t42.5 108.5h-3q-56 -73 -136 -73q-151 0 -123 193l43 307h169l-35 -244q-9 -59 -5 -82t27 -23q26 0 54 38t33 75z" />
    <glyph glyph-name="uni2002" unicode="&#x2002;" horiz-adv-x="467" 
 />
    <glyph glyph-name="uni2003" unicode="&#x2003;" horiz-adv-x="934" 
 />
    <glyph glyph-name="uni2007" unicode="&#x2007;" horiz-adv-x="586" 
 />
    <glyph glyph-name="uni2009" unicode="&#x2009;" horiz-adv-x="11" 
 />
    <glyph glyph-name="uni2010" unicode="&#x2010;" horiz-adv-x="346" 
d="M32 233l18 152h280l-19 -152h-279z" />
    <glyph glyph-name="figuredash" unicode="&#x2012;" horiz-adv-x="586" 
d="M30 229l17 140h523l-17 -140h-523z" />
    <glyph glyph-name="endash" unicode="&#x2013;" horiz-adv-x="533" 
d="M31 229l17 140h467l-17 -140h-467z" />
    <glyph glyph-name="emdash" unicode="&#x2014;" horiz-adv-x="1000" 
d="M31 229l17 140h934l-17 -140h-934z" />
    <glyph glyph-name="uni2015" unicode="&#x2015;" horiz-adv-x="1170" 
d="M31 229l17 140h1104l-17 -140h-1104z" />
    <glyph glyph-name="quoteleft" unicode="&#x2018;" horiz-adv-x="235" 
d="M276 710l-59 -275h-165l100 275h124z" />
    <glyph glyph-name="quoteright" unicode="&#x2019;" horiz-adv-x="235" 
d="M51 435l59 275h165l-100 -275h-124z" />
    <glyph glyph-name="quotesinglbase" unicode="&#x201a;" horiz-adv-x="240" 
d="M-32 -134l59 275h164l-104 -275h-119z" />
    <glyph glyph-name="quotedblleft" unicode="&#x201c;" horiz-adv-x="449" 
d="M276 710l-59 -275h-166l101 275h124zM489 710l-59 -275h-165l100 275h124z" />
    <glyph glyph-name="quotedblright" unicode="&#x201d;" horiz-adv-x="448" 
d="M52 435l59 275h165l-100 -275h-124zM265 435l59 275h166l-101 -275h-124z" />
    <glyph glyph-name="quotedblbase" unicode="&#x201e;" horiz-adv-x="454" 
d="M-24 -80l59 275h165l-100 -275h-124zM189 -80l59 275h166l-101 -275h-124z" />
    <glyph glyph-name="dagger" unicode="&#x2020;" horiz-adv-x="339" 
d="M168 212l-37 75l19 122l12 106h-15l-80 -5l11 88l79 -4h14l9 93h89l-16 -93h16l79 6l-11 -90l-78 5h-17l-13 -106l-8 -122z" />
    <glyph glyph-name="daggerdbl" unicode="&#x2021;" horiz-adv-x="340" 
d="M101 51l16 92h-15l-81 -6l11 89l79 -4h16l4 37l9 108l18 107l5 41h-16l-80 -5l11 88l78 -5h16l6 94h91l-17 -94h16l81 5l-12 -87l-80 4h-14l-5 -41l-9 -107l-19 -108l-3 -37h16l80 4l-11 -88l-79 5h-17l-6 -92h-89z" />
    <glyph glyph-name="bullet" unicode="&#x2022;" horiz-adv-x="415" 
d="M214 188q-54 0 -90.5 36t-36.5 91t38 92t94 37q54 0 90 -36t36 -89q0 -56 -37.5 -93.5t-93.5 -37.5z" />
    <glyph glyph-name="ellipsis" unicode="&#x2026;" horiz-adv-x="1000" 
d="M137 -12q-44 0 -69 26t-25 68t26 68.5t71 26.5q44 0 69 -25.5t25 -66.5q0 -43 -26 -70t-71 -27zM471 -12q-44 0 -69 26t-25 68t26 68.5t71 26.5q44 0 69 -25.5t25 -66.5q0 -43 -26 -70t-71 -27zM805 -12q-44 0 -69 26t-25 68t26 68.5t71 26.5q44 0 69 -25.5t25 -66.5
q0 -43 -26 -70t-71 -27z" />
    <glyph glyph-name="perthousand" unicode="&#x2030;" horiz-adv-x="1412" 
d="M375 -27l-116 53l372 703l116 -53zM238 318q-80 0 -132 52.5t-52 136.5q0 88 60 149t146 61q80 0 133 -52t53 -135q0 -89 -61 -150.5t-147 -61.5zM243 429q33 0 57.5 28t24.5 69q0 36 -19.5 58t-50.5 22q-33 0 -56.5 -28t-23.5 -68q0 -38 19 -59.5t49 -21.5zM745 -10
q-80 0 -132 52.5t-52 136.5q0 88 60 149t146 61q80 0 133 -52t53 -135q0 -89 -61 -150.5t-147 -61.5zM1177 -10q-80 0 -132 52.5t-52 136.5q0 88 60 149t146 61q80 0 133 -52t53 -135q0 -89 -61 -150.5t-147 -61.5zM750 101q33 0 57.5 28t24.5 69q0 36 -19.5 58t-50.5 22
q-33 0 -56.5 -28t-23.5 -68q0 -38 19 -59.5t49 -21.5zM1182 101q33 0 57.5 28t24.5 69q0 36 -19.5 58t-50.5 22q-33 0 -56.5 -28t-23.5 -68q0 -38 19 -59.5t49 -21.5z" />
    <glyph glyph-name="minute" unicode="&#x2032;" horiz-adv-x="292" 
d="M48 435l107 275h165l-148 -275h-124z" />
    <glyph glyph-name="second" unicode="&#x2033;" horiz-adv-x="501" 
d="M48 435l107 275h165l-148 -275h-124zM257 435l107 275h165l-148 -275h-124z" />
    <glyph glyph-name="guilsinglleft" unicode="&#x2039;" horiz-adv-x="286" 
d="M100 53l-74 195l124 198h154l-124 -198l73 -195h-153z" />
    <glyph glyph-name="guilsinglright" unicode="&#x203a;" horiz-adv-x="285" 
d="M-18 53l124 195l-76 198h155l75 -198l-121 -195h-157z" />
    <glyph glyph-name="uni203D" unicode="&#x203d;" horiz-adv-x="431" 
d="M262 746q77 0 130 -42.5t53 -119.5q0 -115 -108 -200q-64 -50 -75 -95l-10 -42h-136l5 266h156q6 13 6 29q0 50 -56 50q-40 0 -76 -41l-100 101q79 94 211 94zM170 177q44 0 69 -25.5t25 -66.5q0 -43 -26 -70t-71 -27q-44 0 -69 26t-25 68t26 68.5t71 26.5z" />
    <glyph glyph-name="uni2042" unicode="&#x2042;" horiz-adv-x="744" 
d="M317 376l16 92l-68 -49l-40 83l72 40l-63 42l58 84l59 -49l7 91h94l-16 -91l69 48l40 -83l-74 -41l64 -41l-57 -84l-57 50l-10 -92h-94zM106 41l16 92l-68 -49l-40 83l72 40l-63 42l58 84l59 -49l7 91h94l-16 -91l69 48l40 -83l-74 -41l64 -41l-57 -84l-57 50l-10 -92
h-94zM494 41l16 92l-68 -49l-40 83l72 40l-63 42l58 84l59 -49l7 91h94l-16 -91l69 48l40 -83l-74 -41l64 -41l-57 -84l-57 50l-10 -92h-94z" />
    <glyph glyph-name="fraction" unicode="&#x2044;" horiz-adv-x="202" 
d="M0 -27l-115 53l372 703l116 -53z" />
    <glyph glyph-name="uni2051" unicode="&#x2051;" horiz-adv-x="356" 
d="M147 376l16 92l-68 -49l-40 83l72 40l-63 42l58 84l59 -49l7 91h94l-16 -91l69 48l40 -83l-74 -41l64 -41l-57 -84l-57 50l-9 -92h-95zM102 4l15 91l-68 -48l-39 83l72 40l-63 42l57 84l59 -49l8 91h94l-17 -91l70 47l39 -82l-73 -41l63 -41l-57 -84l-56 49l-10 -91h-94z
" />
    <glyph glyph-name="uni2070" unicode="&#x2070;" horiz-adv-x="367" 
d="M210 424q-70 0 -109 46t-39 127q0 107 51 183t139 76q70 0 109.5 -46t39.5 -126q0 -109 -50 -184.5t-141 -75.5zM216 537q32 0 48 48t16 101q0 27 -8.5 42.5t-22.5 15.5q-32 0 -48.5 -48.5t-16.5 -100.5q0 -58 32 -58z" />
    <glyph glyph-name="colonmonetary" unicode="&#x20a1;" horiz-adv-x="559" 
d="M575 608l-90 -126l-167 -333h5q56 0 98 52l103 -119q-82 -91 -208 -91q-38 0 -73 9l-40 -80l-50 24l38 75q-19 9 -34 20l-60 -119l-50 24l68 135q-67 80 -67 213q0 176 91.5 289.5t240.5 113.5q22 0 43 -3l24 47l49 -23l-18 -37q20 -7 36 -17l39 77l49 -23l-44 -88
q10 -9 17 -20zM237 199q13 -21 28 -32l174 346q-16 11 -36 17zM216 287v-7l125 249q-53 -18 -89 -87.5t-36 -154.5z" />
    <glyph glyph-name="lira" unicode="&#x20a4;" horiz-adv-x="518" 
d="M266 240l-9 -80h227l-19 -160h-457l19 160h48l10 80h-44l10 82h43l6 47h-42l10 82h42q16 129 78 187t150 58q57 0 105.5 -26t79.5 -73l-96 -105q-16 22 -36 35t-35 13q-52 0 -65 -89h124l-11 -82h-122l-6 -47h122l-11 -82h-121z" />
    <glyph glyph-name="uni20A6" unicode="&#x20a6;" horiz-adv-x="638" 
d="M634 369h-52l-6 -47h52l-11 -82h-51l-29 -240h-167l-70 240h-66l-29 -240h-166l29 240h-50l10 82h50l6 47h-49l10 82h49l29 236h162l67 -236h73l29 236h167l-29 -236h53zM257 424l-13 -102h36l-21 102h-2zM402 259l13 110h-41l26 -111z" />
    <glyph glyph-name="peseta" unicode="&#x20a7;" horiz-adv-x="591" 
d="M609 498l-11 -85h-45q-20 -89 -84 -140t-172 -51h-57l-26 -222h-177l51 413h-54l10 85h54l24 191h243q99 0 148 -52.5t49 -138.5h47zM277 547l-6 -49h112q-10 49 -58 49h-48zM298 362q65 0 81 51h-118l-6 -51h43z" />
    <glyph glyph-name="dong" unicode="&#x20ab;" horiz-adv-x="533" 
d="M588 637l-12 -98h-36l-66 -539h-171l8 63l-3 1q-53 -74 -132 -74q-73 0 -114 56.5t-41 144.5q0 135 67 222t159 87q69 0 109 -42h3l10 81h-151l12 98h151l12 99h171l-12 -99h36zM347 307l2 11q-28 31 -67 31t-64.5 -45t-25.5 -95q0 -30 12.5 -49t32.5 -19q35 0 66.5 43.5
t43.5 122.5zM18 -181l18 140h432l-17 -140h-433z" />
    <glyph glyph-name="Euro" unicode="&#x20ac;" horiz-adv-x="546" 
d="M349 151q50 0 78 32l84 -134q-83 -58 -175 -58q-107 0 -179.5 63.5t-85.5 185.5h-60l10 82h48q2 32 4 47h-45l10 82h53q35 112 116.5 178t192.5 66q98 0 173 -60l-113 -125q-25 24 -59 24q-77 0 -119 -83h167l-11 -82h-181q-3 -15 -5 -47h180l-11 -82h-162
q10 -43 33.5 -66t56.5 -23z" />
    <glyph glyph-name="uni20AE" unicode="&#x20ae;" horiz-adv-x="505" 
d="M517 526h-142l-13 -106l105 42l21 -72l-137 -54l-6 -57l96 39l23 -73l-130 -52l-24 -193h-175l15 121l-100 -40l-21 72l131 53l7 56l-91 -36l-22 72l124 49l22 179h-143l20 161h460z" />
    <glyph glyph-name="uni20B1" unicode="&#x20b1;" horiz-adv-x="590" 
d="M603 462h-43q-2 -18 -4 -28h44l-10 -85h-60q-64 -127 -234 -127h-57l-26 -222h-177l43 349h-53l10 85h54l3 28h-53l10 85h53l18 142h243q83 0 131 -38.5t61 -103.5h58zM326 556h-54l-4 -33h127q-17 33 -69 33zM260 462l-3 -28h146q2 18 2 28h-145zM299 338q56 0 82 35
h-132l-4 -35h54z" />
    <glyph glyph-name="uni20B2" unicode="&#x20b2;" horiz-adv-x="584" 
d="M403 531l-16 -137h183l-42 -345q-66 -49 -178 -57l-13 -106h-107l14 112q-92 19 -144 91.5t-52 202.5q0 159 75.5 268t201.5 131l11 87h107l-11 -88q95 -17 155 -95l-123 -111q-28 37 -61 47zM315 515q-40 -25 -63 -80.5t-23 -128.5q0 -105 46 -139zM411 246h-41l-11 -95
q19 3 41 11z" />
    <glyph glyph-name="uni20B4" unicode="&#x20b4;" horiz-adv-x="511" 
d="M507 549q0 -67 -61 -110h52l-10 -77h-80q-26 -15 -76 -47h150l-10 -77h-214q-51 -29 -51 -58q0 -15 15 -24.5t41 -9.5q58 0 115 54l94 -117q-95 -94 -260 -94q-89 0 -139.5 35t-50.5 99q0 36 19 66.5t48 48.5h-60l9 77h84l77 47h-154l9 77h221q47 32 47 62q0 34 -42 34
q-38 0 -108 -63l-97 114q47 52 113.5 79t136.5 27q89 0 135.5 -39.5t46.5 -103.5z" />
    <glyph glyph-name="uni20B5" unicode="&#x20b5;" horiz-adv-x="559" 
d="M365 156q29 13 56 45l103 -119q-69 -75 -168 -89l-14 -107h-107l14 111q-94 18 -147.5 91t-53.5 204q0 161 77 270.5t205 128.5l11 87h107l-11 -88q88 -15 138 -82l-123 -111q-17 23 -44 33zM321 518q-43 -24 -67.5 -80.5t-24.5 -131.5q0 -110 50 -143z" />
    <glyph glyph-name="uni20B8" unicode="&#x20b8;" horiz-adv-x="507" 
d="M76 687h461l-14 -120h-461zM42 394l14 120h461l-14 -120h-143l-48 -394h-179l49 394h-140z" />
    <glyph glyph-name="uni20B9" unicode="&#x20b9;" horiz-adv-x="483" 
d="M501 568h-138l-1 -2q20 -16 31 -48h102l-12 -104h-82q-9 -64 -53 -112.5t-123 -64.5l157 -237h-203l-146 241l16 127h72q71 0 92 60h-157l10 84h153q-15 65 -101 65h-44l14 110h428z" />
    <glyph glyph-name="uni20BA" unicode="&#x20ba;" horiz-adv-x="599" 
d="M431 305l134 -46q-48 -139 -124.5 -199t-185.5 -60h-199l23 185l-61 -27l-26 75l98 43l6 54l-60 -27l-26 75l97 43l33 266h182l-22 -181l134 59l26 -75l-172 -76l-6 -52l134 59l26 -76l-171 -76l-16 -127h15q52 0 89.5 38t71.5 125z" />
    <glyph glyph-name="uni20BC" unicode="&#x20bc;" horiz-adv-x="683" 
d="M450 694q237 -30 197 -332l-47 -362h-171l49 381q12 105 -41 135l-52 -418h-123l51 417q-61 -27 -73 -127l-50 -388h-170l50 394q19 149 86.5 219t186.5 82l11 83h106z" />
    <glyph glyph-name="uni20BD" unicode="&#x20bd;" horiz-adv-x="546" 
d="M297 252h-53l-5 -48h192l-11 -85h-191l-14 -119h-177l15 119h-51l10 85h51l6 49h-50l11 94h50l42 340h243q99 0 148 -53t49 -139q0 -103 -67.5 -173t-197.5 -70zM316 534h-39l-20 -155h32q49 0 68.5 27t19.5 63q0 34 -17.5 49.5t-43.5 15.5z" />
    <glyph glyph-name="uni2113" unicode="&#x2113;" horiz-adv-x="467" 
d="M396 135l50 -33q-63 -113 -179 -113q-162 0 -187 138l-56 -45l-30 43q10 9 39.5 31.5t42.5 34.5l2 254q1 234 176 234q59 0 90 -41.5t31 -104.5q0 -80 -43 -153.5t-127 -153.5v-21q0 -139 89 -139q53 0 102 69zM272 597q-25 0 -46.5 -36.5t-21.5 -111.5l1 -152
q116 129 116 224q0 76 -49 76z" />
    <glyph glyph-name="uni2116" unicode="&#x2116;" horiz-adv-x="979" 
d="M812 409q-57 0 -91 34t-34 94q0 75 45 126.5t125 51.5q56 0 89 -33.5t33 -94.5q0 -76 -42 -127t-125 -51zM26 0l87 710h165l165 -404l3 1l49 403h175l-88 -710h-172l-158 392l-3 -1l-49 -391h-174zM824 512q19 0 32 19.5t13 44.5q0 36 -26 36q-20 0 -32.5 -20t-12.5 -46
q0 -34 26 -34zM670 255l9 105h252l-9 -105h-252z" />
    <glyph glyph-name="uni2117" unicode="&#x2117;" horiz-adv-x="726" 
d="M362 -10q-137 0 -232.5 97t-95.5 233q0 135 96 232.5t234 97.5q137 0 232 -97t95 -233q0 -135 -95.5 -232.5t-233.5 -97.5zM362 94q94 0 158.5 66t64.5 160t-63.5 159.5t-158.5 65.5q-96 0 -159.5 -66t-63.5 -161q0 -94 63.5 -159t158.5 -65zM242 160v324h132
q59 0 89 -32t30 -85q0 -55 -33 -83.5t-91 -28.5h-37v-95h-90zM332 335h21q19 0 31.5 9t12.5 25q0 14 -12 23.5t-33 9.5h-20v-67z" />
    <glyph glyph-name="uni2120" unicode="&#x2120;" horiz-adv-x="641" 
d="M196 629q-25 0 -25 -16q0 -13 27 -23q52 -20 75 -38.5t23 -55.5q0 -55 -37 -84t-98 -29q-76 0 -123 45l56 67q33 -32 70 -32q31 0 31 18q0 10 -47 31q-16 7 -26 13t-24 17.5t-21 28t-7 36.5q0 47 34.5 76t89.5 29q65 0 114 -39l-57 -68q-33 24 -55 24zM574 710h98
l-40 -323h-94l19 147l-42 -88h-60l-21 86l-19 -145h-94l40 323h96l39 -152z" />
    <glyph glyph-name="trademark" unicode="&#x2122;" horiz-adv-x="614" 
d="M69 710h231l-10 -86h-67l-30 -237h-96l29 237h-67zM547 710h98l-40 -323h-94l19 147l-42 -88h-60l-21 86l-19 -145h-94l40 323h96l39 -152z" />
    <glyph glyph-name="uni2126" unicode="&#x2126;" horiz-adv-x="669" 
d="M9 0l20 161h88l1 4q-67 80 -67 211q0 145 96 244.5t241 99.5q126 0 198.5 -82.5t72.5 -205.5q0 -163 -128 -269v-2h88l-20 -161h-261l20 161q111 118 111 250q0 72 -25 108.5t-66 36.5q-66 -1 -104.5 -64t-38.5 -148q0 -99 55 -183l-19 -161h-262z" />
    <glyph glyph-name="estimated" unicode="&#x212e;" horiz-adv-x="785" 
d="M392 -10q-148 0 -252.5 94t-104.5 227t104.5 227t252.5 94t252.5 -94t104.5 -227v-9h-484v-244q62 -27 128 -27q135 0 211 84h69q-48 -58 -122.5 -91.5t-158.5 -33.5zM265 351h255v212q-62 27 -127 27q-66 0 -128 -27v-212z" />
    <glyph glyph-name="partialdiff" unicode="&#x2202;" horiz-adv-x="538" 
d="M230 -10q-86 0 -140 51.5t-54 142.5q0 107 64 183.5t161 76.5q50 0 88 -30l2 1v1q0 141 -86 141q-23 0 -115 -27l-24 125q99 40 189 40q199 0 199 -273q0 -193 -71 -312.5t-213 -119.5zM249 144q60 0 88 127q-28 41 -58 41q-34 0 -54.5 -29.5t-20.5 -73.5q0 -27 12 -46
t33 -19z" />
    <glyph glyph-name="emptyset" unicode="&#x2205;" horiz-adv-x="739" 
d="M635 507q59 -86 59 -189q0 -134 -94.5 -230.5t-231.5 -96.5q-104 0 -189 61l-55 -55l-70 69l55 55q-66 86 -66 197q0 135 95 231t232 96q110 0 197 -66l50 50l70 -70zM183 316q0 -52 25 -96l258 258q-44 27 -97 27q-79 0 -132.5 -55t-53.5 -134zM368 130q79 0 132.5 55
t53.5 133q0 48 -21 88l-254 -254q41 -22 89 -22z" />
    <glyph glyph-name="uni2206" unicode="&#x2206;" horiz-adv-x="620" 
d="M-5 0l16 138l270 572h170l129 -572l-16 -138h-569zM204 161h190l-53 319h-2z" />
    <glyph glyph-name="product" unicode="&#x220f;" horiz-adv-x="623" 
d="M12 -107l100 817h513l-101 -817h-182l80 656h-147l-81 -656h-182z" />
    <glyph glyph-name="summation" unicode="&#x2211;" horiz-adv-x="561" 
d="M2 -69l15 125l226 265l-160 259l15 130h484l-20 -161h-253v-3l128 -225l-181 -227v-2h250l-20 -161h-484z" />
    <glyph glyph-name="minus" unicode="&#x2212;" horiz-adv-x="510" 
d="M34 207l18 140h432l-17 -140h-433z" />
    <glyph glyph-name="radical" unicode="&#x221a;" horiz-adv-x="693" 
d="M252 0l-89 500h-106l16 133h234l64 -417h2l333 606h114l-465 -822h-103z" />
    </font>
</defs>
</svg>
