<?xml version="1.0" standalone="no"?>
<!DOCTYPE svg PUBLIC "-//W3C//DTD SVG 1.1//EN" "http://www.w3.org/Graphics/SVG/1.1/DTD/svg11.dtd" >
<svg xmlns="http://www.w3.org/2000/svg" xmlns:xlink="http://www.w3.org/1999/xlink" version="1.1">
<metadata>
Created by FontForge 20170731 at Sat Jul 15 13:21:57 2017
 By Aleksey,,,
Copyright (c) 2015 by Kostas Bartsokas. All rights reserved.
</metadata>
<defs>
<font id="AvertaStd-Bold" horiz-adv-x="0" >
  <font-face 
    font-family="Averta Std Bold"
    font-weight="700"
    font-stretch="normal"
    units-per-em="1000"
    panose-1="0 0 8 0 0 0 0 0 0 0"
    ascent="800"
    descent="-200"
    x-height="489"
    cap-height="710"
    bbox="-695 -257 1430 1058"
    underline-thickness="53"
    underline-position="-194"
    unicode-range="U+000D-2E18"
  />
<missing-glyph horiz-adv-x="446" 
 />
    <glyph glyph-name=".notdef" horiz-adv-x="446" 
 />
    <glyph glyph-name=".null" 
 />
    <glyph glyph-name="nonmarkingreturn" horiz-adv-x="333" 
 />
    <glyph glyph-name="CR" unicode="&#xd;" 
 />
    <glyph glyph-name="space" unicode=" " horiz-adv-x="257" 
 />
    <glyph glyph-name="exclam" unicode="!" horiz-adv-x="278" 
d="M92 233l-23 503h143l-22 -503h-98zM140 -9q-35 0 -59 23.5t-24 57.5q0 33 24.5 56.5t58.5 23.5q33 0 57 -23.5t24 -56.5q0 -34 -24 -57.5t-57 -23.5z" />
    <glyph glyph-name="quotedbl" unicode="&#x22;" horiz-adv-x="411" 
d="M30 450l31 260h135l-64 -260h-102zM218 450l31 260h135l-64 -260h-102z" />
    <glyph glyph-name="numbersign" unicode="#" horiz-adv-x="641" 
d="M109 -44l29 188h-105v97h120l22 139h-118v97h133l28 179h88l-28 -179h138l28 179h88l-27 -179h110l-1 -97h-124l-21 -139h120l-1 -97h-134l-30 -188h-88l29 188h-137l-29 -188h-90zM242 241h138l21 139h-137z" />
    <glyph glyph-name="dollar" unicode="$" horiz-adv-x="569" 
d="M532 195q0 -82 -52 -134.5t-142 -63.5v-117h-97v119q-113 17 -200 101l82 99q80 -77 177 -77q38 0 61 17t23 45q0 32 -25 50t-89 38q-51 15 -82 28.5t-65 36t-50 56t-16 78.5q0 78 49 131t136 63v122h96v-126q102 -19 179 -81l-79 -98q-77 56 -153 56q-39 0 -60 -15
t-21 -42t24.5 -44t81.5 -34q48 -15 75.5 -25.5t59.5 -28t48.5 -37t27.5 -49t11 -68.5z" />
    <glyph glyph-name="percent" unicode="%" horiz-adv-x="1018" 
d="M402 -24l-99 43l315 707l99 -43zM240 320q-85 0 -143.5 56t-58.5 144q0 83 56.5 140.5t145.5 57.5q85 0 143.5 -55.5t58.5 -142.5q0 -84 -57 -142t-145 -58zM240 413q44 0 71 30.5t27 75.5q0 46 -28 75t-70 29q-43 0 -70 -30t-27 -74q0 -46 28 -76t69 -30zM778 -9
q-85 0 -143.5 56t-58.5 144q0 84 56.5 141.5t145.5 57.5q85 0 143.5 -55.5t58.5 -143.5q0 -84 -56.5 -142t-145.5 -58zM779 85q43 0 70.5 30.5t27.5 74.5q0 46 -28.5 75t-69.5 29q-43 0 -70.5 -30t-27.5 -74q0 -46 28.5 -75.5t69.5 -29.5z" />
    <glyph glyph-name="ampersand" unicode="&#x26;" horiz-adv-x="664" 
d="M273 -9q-99 0 -166 61t-67 157q0 131 127 208v2l-75 97q9 89 70.5 146t150.5 57q154 0 227 -146l-109 -41q-39 73 -105 73q-42 0 -65.5 -22.5t-29.5 -53.5l228 -292h3q23 52 23 104l123 2q0 -123 -62 -215v-3l97 -125h-149l-38 49h-3q-70 -58 -180 -58zM287 112
q54 0 96 29v2l-143 182q-68 -37 -68 -108q0 -47 32 -76t83 -29z" />
    <glyph glyph-name="quotesingle" unicode="'" horiz-adv-x="223" 
d="M30 450l31 260h135l-64 -260h-102z" />
    <glyph glyph-name="parenleft" unicode="(" horiz-adv-x="308" 
d="M171 -157q-121 190 -121 452q0 268 123 453l96 -44q-100 -181 -100 -409q0 -219 99 -409z" />
    <glyph glyph-name="parenright" unicode=")" horiz-adv-x="308" 
d="M137 -157l-97 43q99 190 99 409q0 228 -100 409l96 44q123 -185 123 -453q0 -262 -121 -452z" />
    <glyph glyph-name="asterisk" unicode="*" horiz-adv-x="400" 
d="M160 383l5 102l-86 -54l-40 69l90 46l-91 48l41 69l86 -55l-5 102h80l-6 -102l87 54l40 -68l-90 -47l90 -47l-40 -69l-84 54l3 -102h-80z" />
    <glyph glyph-name="plus" unicode="+" horiz-adv-x="576" 
d="M230 41v179h-180v114h180v180h115v-180h180v-114h-180v-179h-115z" />
    <glyph glyph-name="comma" unicode="," horiz-adv-x="241" 
d="M23 -133l31 261h135l-71 -261h-95z" />
    <glyph glyph-name="hyphen" unicode="-" horiz-adv-x="397" 
d="M47 247v123h303v-123h-303z" />
    <glyph glyph-name="period" unicode="." horiz-adv-x="269" 
d="M135 -9q-35 0 -59 23.5t-24 57.5q0 33 24.5 56.5t58.5 23.5q33 0 57 -23.5t24 -56.5q0 -34 -24 -57.5t-57 -23.5z" />
    <glyph glyph-name="slash" unicode="/" horiz-adv-x="435" 
d="M67 -112l-98 45l382 854l97 -45z" />
    <glyph glyph-name="zero" unicode="0" horiz-adv-x="628" 
d="M314 -9q-121 0 -194.5 94t-73.5 258q0 159 72.5 255.5t195.5 96.5q121 0 194.5 -93.5t73.5 -258.5q0 -159 -72 -255.5t-196 -96.5zM314 118q61 0 95 58.5t34 166.5q0 106 -34 166t-95 60q-60 0 -94.5 -59t-34.5 -167q0 -104 34.5 -164.5t94.5 -60.5z" />
    <glyph glyph-name="one" unicode="1" horiz-adv-x="408" 
d="M192 0v524l-115 -87l-64 101l207 149h109v-687h-137z" />
    <glyph glyph-name="two" unicode="2" horiz-adv-x="529" 
d="M38 0l-2 89l213 227q47 49 69.5 85t22.5 74q0 40 -25.5 66.5t-65.5 26.5q-76 0 -120 -73l-97 69q71 130 227 130q90 0 154.5 -55.5t64.5 -147.5q0 -61 -24.5 -112.5t-89.5 -118.5l-128 -134l1 -3h247v-123h-447z" />
    <glyph glyph-name="three" unicode="3" horiz-adv-x="542" 
d="M266 -9q-89 0 -154.5 42.5t-91.5 109.5l117 49q30 -78 119 -78q43 0 72.5 25t29.5 66q0 40 -30 66.5t-84 26.5h-48v110h60q43 0 65.5 23t22.5 58q0 36 -26 59.5t-64 23.5q-67 0 -100 -58l-109 59q25 55 81.5 88.5t130.5 33.5q95 0 158 -49.5t63 -134.5q0 -102 -89 -154
v-3q109 -50 109 -167q0 -88 -65.5 -142t-166.5 -54z" />
    <glyph glyph-name="four" unicode="4" horiz-adv-x="572" 
d="M315 0v113h-290v86l315 488h109v-458h92v-116h-92v-113h-134zM173 223h151v244z" />
    <glyph glyph-name="five" unicode="5" horiz-adv-x="552" 
d="M294 443q91 0 152.5 -60.5t61.5 -160.5q0 -102 -68 -166.5t-177 -64.5q-150 0 -238 109l98 78q46 -63 127 -63q54 0 87 31t33 78q0 51 -35.5 79.5t-81.5 28.5q-60 0 -104 -35l-73 26l21 364h376v-124h-256l-8 -134q48 14 85 14z" />
    <glyph glyph-name="six" unicode="6" horiz-adv-x="582" 
d="M329 440q90 0 150.5 -59.5t60.5 -161.5q0 -100 -70.5 -164t-177.5 -64t-177 77.5t-70 201.5q0 165 100.5 287t262.5 152l40 -110q-190 -54 -246 -188l2 -2q57 31 125 31zM298 114q48 0 78.5 31.5t30.5 76.5q0 46 -31 75t-82 29q-69 0 -119 -62v-8q0 -63 35.5 -102.5
t87.5 -39.5z" />
    <glyph glyph-name="seven" unicode="7" horiz-adv-x="485" 
d="M20 687h428v-89l-239 -613l-136 25l225 554h-278v123z" />
    <glyph glyph-name="eight" unicode="8" horiz-adv-x="570" 
d="M285 -8q-108 0 -178 54.5t-70 142.5q0 67 33 114t86 68v2q-34 16 -59 55t-25 88q0 84 60 131.5t153 47.5q94 0 154 -48t60 -131q0 -49 -25 -89t-59 -54v-2q53 -20 86 -67t33 -115q0 -89 -71 -143t-178 -54zM285 426q38 0 63 21.5t25 55.5t-25 56.5t-63 22.5t-62.5 -23
t-24.5 -56q0 -34 24.5 -55.5t62.5 -21.5zM285 108q48 0 79.5 29.5t31.5 69.5q0 44 -31 72.5t-80 28.5t-80 -28.5t-31 -72.5q0 -41 32.5 -70t78.5 -29z" />
    <glyph glyph-name="nine" unicode="9" horiz-adv-x="579" 
d="M285 695q108 0 178 -76.5t70 -199.5q0 -168 -102 -290.5t-264 -153.5l-41 110q193 53 250 191l-1 1q-56 -32 -127 -32q-89 0 -149.5 60t-60.5 162q0 100 70.5 164t176.5 64zM172 464q0 -46 30.5 -75t81.5 -29q69 0 119 61v10q0 63 -32.5 102t-83.5 39t-83 -31.5
t-32 -76.5z" />
    <glyph glyph-name="colon" unicode=":" horiz-adv-x="270" 
d="M133 335q-35 0 -59 23.5t-24 57.5q0 33 24.5 56.5t58.5 23.5q33 0 57 -23.5t24 -56.5q0 -34 -24 -57.5t-57 -23.5zM133 -9q-35 0 -59 23.5t-24 57.5q0 33 24.5 56.5t58.5 23.5q33 0 57 -23.5t24 -56.5q0 -34 -24 -57.5t-57 -23.5z" />
    <glyph glyph-name="semicolon" unicode=";" horiz-adv-x="250" 
d="M131 335q-35 0 -59 23.5t-24 57.5q0 33 24.5 56.5t58.5 23.5q33 0 57 -23.5t24 -56.5q0 -34 -24 -57.5t-57 -23.5zM32 -133l31 261h135l-71 -261h-95z" />
    <glyph glyph-name="less" unicode="&#x3c;" horiz-adv-x="577" 
d="M520 26l-464 199v95l464 204v-127l-295 -123l295 -124v-124z" />
    <glyph glyph-name="equal" unicode="=" horiz-adv-x="587" 
d="M62 335v114h475v-114h-475zM62 105v114h475v-114h-475z" />
    <glyph glyph-name="greater" unicode="&#x3e;" horiz-adv-x="577" 
d="M61 26v124l295 124l-295 123v127l464 -204v-95z" />
    <glyph glyph-name="question" unicode="?" horiz-adv-x="465" 
d="M137 231v50q0 9 1.5 18.5t3 16.5t6 16.5t6.5 14.5t10 15t10 13.5t12 14t11.5 12t12.5 13t12 12.5q20 22 31 36t21.5 36t10.5 43q0 37 -21.5 57.5t-57.5 20.5q-61 0 -100 -54l-95 87q35 43 89.5 67.5t115.5 24.5q90 0 151 -51t61 -144q0 -88 -89 -173q-6 -6 -23 -21.5
t-23.5 -22t-16.5 -18.5t-14 -21.5t-5 -19.5l-4 -43h-116zM198 -9q-35 0 -59 23.5t-24 57.5q0 33 24.5 56.5t58.5 23.5q33 0 57 -23.5t24 -56.5q0 -34 -24 -57.5t-57 -23.5z" />
    <glyph glyph-name="at" unicode="@" horiz-adv-x="895" 
d="M420 -148q-166 0 -272 105t-106 280q0 56 14 112.5t47.5 113.5t82.5 100t125 70t170 27q170 0 271.5 -104t101.5 -263q0 -31 -5.5 -62t-21.5 -66.5t-39.5 -62.5t-64.5 -44.5t-92 -17.5q-57 0 -88 29q-18 20 -26 46h-3q-21 -31 -55 -48t-70 -17q-74 0 -119.5 52t-45.5 138
q0 34 10.5 72t31 75.5t59.5 62t88 24.5q75 0 114 -64l2 1l7 55h129l-27 -255q-2 -20 -2 -26q0 -46 35 -46q38 0 62 51.5t24 101.5q0 118 -77.5 198.5t-199.5 80.5q-84 0 -151.5 -29.5t-107.5 -78.5t-61 -107t-21 -120q0 -122 76.5 -207t206.5 -85q110 0 196 51l41 -68
q-92 -75 -239 -75zM428 164q41 0 69 32.5t28 78.5q0 38 -21 62t-52 24q-41 0 -70 -32t-29 -78q0 -39 21.5 -63t53.5 -24z" />
    <glyph glyph-name="A" unicode="A" horiz-adv-x="694" 
d="M16 0l263 710h136l264 -710h-147l-49 142h-272l-48 -142h-147zM251 262h192l-95 278h-2z" />
    <glyph glyph-name="B" unicode="B" horiz-adv-x="642" 
d="M77 0v710h256q113 0 173 -44t60 -129q0 -52 -26 -95t-81 -64v-2q69 -17 106 -63.5t37 -116.5q0 -88 -60 -142t-174 -54h-291zM216 420h106q102 0 102 83t-108 83h-100v-166zM216 124h132q51 0 79.5 23t28.5 67q0 43 -31 67.5t-91 24.5h-118v-182z" />
    <glyph glyph-name="C" unicode="C" horiz-adv-x="722" 
d="M410 -7q-155 0 -258.5 95.5t-103.5 264.5q0 158 96.5 262t263.5 104q79 0 153.5 -34.5t129.5 -102.5l-104 -87q-74 90 -179 90q-92 0 -152.5 -63.5t-60.5 -168.5q0 -99 60 -163t155 -64q106 0 179 90l103 -89q-108 -134 -282 -134z" />
    <glyph glyph-name="D" unicode="D" horiz-adv-x="728" 
d="M77 0v710h235q167 0 268 -98.5t101 -257.5t-98.5 -256.5t-267.5 -97.5h-238zM216 125h90q102 0 165 65t63 164q0 100 -62 165.5t-158 65.5h-98v-460z" />
    <glyph glyph-name="E" unicode="E" horiz-adv-x="598" 
d="M77 0v710h454v-125h-315v-171h252v-123h-252v-166h336v-125h-475z" />
    <glyph glyph-name="F" unicode="F" horiz-adv-x="586" 
d="M77 0v710h471v-125h-332v-190h277v-126h-277v-269h-139z" />
    <glyph glyph-name="G" unicode="G" horiz-adv-x="750" 
d="M410 -7q-158 0 -260 97t-102 264q0 160 96.5 262.5t259.5 102.5q79 0 154 -31t128 -90l-99 -86q-74 74 -183 74q-90 0 -149.5 -63t-59.5 -169q0 -101 58.5 -167t156.5 -66q77 0 143 41v104h-159v121h296v-306q-50 -40 -125 -64t-155 -24z" />
    <glyph glyph-name="H" unicode="H" horiz-adv-x="727" 
d="M77 0v710h142v-307h290v307h141v-710h-141v278h-290v-278h-142z" />
    <glyph glyph-name="I" unicode="I" horiz-adv-x="306" 
d="M81 0v710h143v-710h-143z" />
    <glyph glyph-name="J" unicode="J" horiz-adv-x="505" 
d="M218 -7q-57 0 -109 23.5t-86 67.5l81 100q47 -59 106 -59q85 0 85 121v464h141v-463q0 -254 -218 -254z" />
    <glyph glyph-name="K" unicode="K" horiz-adv-x="663" 
d="M77 0v710h141v-311h2l243 311h179l-262 -313l271 -397h-174l-190 285l-69 -82v-203h-141z" />
    <glyph glyph-name="L" unicode="L" horiz-adv-x="564" 
d="M77 0v710h143v-585h314v-125h-457z" />
    <glyph glyph-name="M" unicode="M" horiz-adv-x="876" 
d="M78 0v710h141l218 -404h2l218 404h141v-710h-140v439h-2l-173 -305h-91l-172 306h-2v-440h-140z" />
    <glyph glyph-name="N" unicode="N" horiz-adv-x="753" 
d="M77 0v710h138l319 -479h2v479h139v-710h-141l-315 469h-2v-469h-140z" />
    <glyph glyph-name="O" unicode="O" horiz-adv-x="819" 
d="M410 -9q-160 0 -261 102.5t-101 261.5t101 261.5t261 102.5q157 0 259 -101.5t102 -262.5t-102 -262.5t-259 -101.5zM410 123q92 0 153 66t61 166t-61 166t-153 66q-95 0 -155.5 -67t-60.5 -165t60.5 -165t155.5 -67z" />
    <glyph glyph-name="P" unicode="P" horiz-adv-x="622" 
d="M77 0v710h263q124 0 185.5 -64.5t61.5 -171.5q0 -114 -70 -172.5t-191 -58.5h-110v-243h-139zM216 367h95q64 0 97 29.5t33 79.5q0 51 -31.5 80t-91.5 29h-102v-218z" />
    <glyph glyph-name="Q" unicode="Q" horiz-adv-x="835" 
d="M791 73l-75 -95l-88 80q-92 -67 -218 -67q-160 0 -261 102.5t-101 261.5t101 261.5t261 102.5q157 0 259 -101.5t102 -262.5q0 -119 -60 -211zM194 355q0 -101 61.5 -167t154.5 -66q66 0 118 35l-67 61l68 82l69 -62q26 54 26 117q0 98 -60 165t-154 67q-93 0 -154.5 -66
t-61.5 -166z" />
    <glyph glyph-name="R" unicode="R" horiz-adv-x="655" 
d="M77 0v710h269q123 0 185 -64.5t62 -171.5q0 -166 -148 -214l178 -260h-167l-159 243h-81v-243h-139zM216 367h102q63 0 96.5 29.5t33.5 79.5t-32 79.5t-92 29.5h-108v-218z" />
    <glyph glyph-name="S" unicode="S" horiz-adv-x="582" 
d="M291 -9q-149 0 -259 113l85 104q38 -43 85.5 -66t91.5 -23q49 0 75 20.5t26 54.5q0 37 -26.5 57t-96.5 44q-38 13 -64.5 24.5t-57 30.5t-49.5 40.5t-31.5 54t-12.5 71.5q0 85 66 143.5t162 59.5q130 0 240 -90l-82 -106q-86 70 -155 70q-38 0 -61.5 -19t-24.5 -52
q0 -31 25.5 -49t94.5 -45q110 -43 144 -66q77 -52 77 -151q0 -74 -40 -125.5t-95 -73t-117 -21.5z" />
    <glyph glyph-name="T" unicode="T" horiz-adv-x="588" 
d="M222 0v585h-194v125h533v-125h-197v-585h-142z" />
    <glyph glyph-name="U" unicode="U" horiz-adv-x="711" 
d="M355 -9q-131 0 -209 80t-78 223v416h141v-407q0 -79 38.5 -129.5t107.5 -50.5q66 0 107 48.5t41 131.5v407h141v-416q0 -140 -76.5 -221.5t-212.5 -81.5z" />
    <glyph glyph-name="V" unicode="V" horiz-adv-x="690" 
d="M285 0l-264 710h152l174 -508h2l173 508h150l-263 -710h-124z" />
    <glyph glyph-name="W" unicode="W" horiz-adv-x="1031" 
d="M249 0l-224 710h150l138 -479h2l127 479h148l125 -478h3l138 478h150l-224 -710h-130l-134 505h-2l-137 -505h-130z" />
    <glyph glyph-name="X" unicode="X" horiz-adv-x="699" 
d="M25 0l231 356l-225 354h164l155 -246h2l156 246h160l-225 -353l232 -357h-165l-160 248h-3l-160 -248h-162z" />
    <glyph glyph-name="Y" unicode="Y" horiz-adv-x="630" 
d="M243 0v312l-235 398h161l145 -258h2l142 258h163l-236 -398v-312h-142z" />
    <glyph glyph-name="Z" unicode="Z" horiz-adv-x="621" 
d="M50 0v110l331 472l-1 3h-316v125h504v-107l-339 -475l2 -3h338v-125h-519z" />
    <glyph glyph-name="bracketleft" unicode="[" horiz-adv-x="342" 
d="M59 -148v881h238v-97h-126v-685h126v-99h-238z" />
    <glyph glyph-name="backslash" unicode="\" horiz-adv-x="440" 
d="M371 -112l-381 854l97 45l382 -854z" />
    <glyph glyph-name="bracketright" unicode="]" horiz-adv-x="342" 
d="M283 -148h-238v99h126v685h-126v97h238v-881z" />
    <glyph glyph-name="asciicircum" unicode="^" horiz-adv-x="464" 
d="M49 500l136 210h93l137 -210h-107l-77 128l-79 -128h-103z" />
    <glyph glyph-name="underscore" unicode="_" horiz-adv-x="530" 
d="M-4 -115v88h538v-88h-538z" />
    <glyph glyph-name="grave" unicode="`" horiz-adv-x="498" 
d="M230 531l-124 146l140 -1l108 -145h-124z" />
    <glyph glyph-name="a" unicode="a" horiz-adv-x="604" 
d="M270 -9q-102 0 -167.5 70t-65.5 182q0 110 65.5 181.5t164.5 71.5q91 0 144 -64l2 1v56h131v-489h-125v58l-2 1q-53 -68 -147 -68zM295 109q52 0 88 37t36 96t-35.5 98t-88.5 39q-54 0 -89.5 -37.5t-35.5 -99.5q0 -59 35 -96t90 -37z" />
    <glyph glyph-name="b" unicode="b" horiz-adv-x="614" 
d="M341 -9q-96 0 -150 69l-2 -1v-59h-124v736h131v-303h1q55 63 148 63q100 0 165.5 -71.5t65.5 -181.5q0 -112 -66 -182t-169 -70zM318 109q55 0 90 37.5t35 95.5q0 62 -36 99.5t-90 37.5q-56 0 -91.5 -38.5t-35.5 -98.5q0 -59 36.5 -96t91.5 -37z" />
    <glyph glyph-name="c" unicode="c" horiz-adv-x="528" 
d="M290 -9q-110 0 -181 70t-71 182q0 113 71 183t185 70q60 0 115 -22.5t92 -65.5l-86 -81q-42 52 -112 52q-59 0 -95.5 -37.5t-36.5 -97.5q0 -61 36.5 -98t95.5 -37q72 0 115 53l85 -82q-72 -89 -213 -89z" />
    <glyph glyph-name="d" unicode="d" horiz-adv-x="613" 
d="M271 -9q-102 0 -168 70t-66 182q0 110 66 181.5t165 71.5q93 0 148 -64h2v304h130v-736h-125v60h-1q-53 -69 -151 -69zM295 109q55 0 91.5 37t36.5 96t-36 98t-92 39q-54 0 -89.5 -37.5t-35.5 -99.5q0 -58 35 -95.5t90 -37.5z" />
    <glyph glyph-name="e" unicode="e" horiz-adv-x="557" 
d="M520 249q0 -23 -3 -47h-343q12 -44 46 -69t83 -25q74 0 119 55l85 -79q-72 -93 -213 -93q-113 0 -184.5 70t-71.5 184q0 111 69.5 181t178.5 70q103 0 168.5 -69.5t65.5 -177.5zM285 382q-40 0 -69.5 -22.5t-40.5 -63.5h215q-22 86 -105 86z" />
    <glyph glyph-name="f" unicode="f" horiz-adv-x="345" 
d="M82 0v380h-51v109h51v83q0 85 40 129t114 44q73 0 126 -36l-27 -102q-46 22 -72 22q-49 0 -49 -66v-74h108v-109h-108v-380h-132z" />
    <glyph glyph-name="g" unicode="g" horiz-adv-x="602" 
d="M286 -206q-114 0 -200 49l31 111q82 -46 159 -46q65 0 101 31t36 77v49h-2q-54 -56 -142 -56q-101 0 -167 67t-66 173q0 108 64 177.5t162 69.5q88 0 147 -58h2v51h131v-433q0 -262 -256 -262zM293 127q54 0 88.5 35.5t34.5 91.5q0 55 -35 89.5t-88 34.5q-55 0 -89.5 -35
t-34.5 -90q0 -57 35 -91.5t89 -34.5z" />
    <glyph glyph-name="h" unicode="h" horiz-adv-x="593" 
d="M65 0v736h131v-306h1q60 66 160 66q179 0 179 -203v-293h-131v260q0 65 -23.5 92t-71.5 27q-54 0 -84 -33.5t-30 -98.5v-247h-131z" />
    <glyph glyph-name="i" unicode="i" horiz-adv-x="273" 
d="M138 555q-36 0 -59.5 23.5t-23.5 57.5q0 33 23.5 56.5t59.5 23.5q35 0 59 -23.5t24 -56.5q0 -34 -24 -57.5t-59 -23.5zM71 0v489h131v-489h-131z" />
    <glyph glyph-name="j" unicode="j" horiz-adv-x="254" 
d="M129 555q-36 0 -59.5 23.5t-23.5 57.5q0 33 23.5 56.5t59.5 23.5q35 0 59 -23.5t24 -56.5q0 -34 -24 -57.5t-59 -23.5zM50 -207q-55 0 -102 19l22 108q22 -12 48 -12q45 0 45 68v513h131v-518q0 -86 -39 -132t-105 -46z" />
    <glyph glyph-name="k" unicode="k" horiz-adv-x="536" 
d="M65 0v736h130v-452h2l174 205h154l-171 -196l175 -293h-147l-121 205l-66 -72v-133h-130z" />
    <glyph glyph-name="l" unicode="l" horiz-adv-x="273" 
d="M71 0v736h131v-736h-131z" />
    <glyph glyph-name="m" unicode="m" horiz-adv-x="890" 
d="M65 0v489h131v-64h1q59 71 146 71q102 0 144 -77h2q60 77 171 77q172 0 172 -213v-283h-131v252q0 127 -85 127q-43 0 -71.5 -35.5t-28.5 -99.5v-244h-131v252q0 127 -86 127q-46 0 -74.5 -35.5t-28.5 -99.5v-244h-131z" />
    <glyph glyph-name="n" unicode="n" horiz-adv-x="588" 
d="M65 0v489h131v-63h2q59 70 156 70q177 0 177 -206v-290h-131v257q0 67 -23 94.5t-71 27.5q-51 0 -80.5 -34.5t-29.5 -99.5v-245h-131z" />
    <glyph glyph-name="o" unicode="o" horiz-adv-x="595" 
d="M298 -9q-116 0 -188 71t-72 182q0 110 72 181t188 71q114 0 186.5 -70t72.5 -182t-72.5 -182.5t-186.5 -70.5zM298 109q53 0 89.5 38t36.5 97q0 60 -36 97.5t-90 37.5q-56 0 -91.5 -38.5t-35.5 -96.5t35.5 -96.5t91.5 -38.5z" />
    <glyph glyph-name="p" unicode="p" horiz-adv-x="614" 
d="M65 -198v687h131v-56h2q54 63 147 63q100 0 165.5 -71.5t65.5 -181.5q0 -112 -66 -182t-169 -70q-90 0 -143 64l-2 -1v-252h-131zM318 109q55 0 90 37.5t35 95.5q0 62 -36 99.5t-90 37.5q-56 0 -91.5 -38.5t-35.5 -98.5q0 -59 36.5 -96t91.5 -37z" />
    <glyph glyph-name="q" unicode="q" horiz-adv-x="611" 
d="M418 -198v253h-1q-53 -64 -146 -64q-102 0 -167.5 70t-65.5 182q0 110 65.5 181.5t164.5 71.5q94 0 149 -64h1v57h131v-687h-131zM296 109q54 0 90.5 37t36.5 96q0 60 -35.5 98.5t-91.5 38.5q-54 0 -89.5 -37.5t-35.5 -99.5q0 -59 35 -96t90 -37z" />
    <glyph glyph-name="r" unicode="r" horiz-adv-x="372" 
d="M65 0v489h131v-71h2q58 78 147 78h10v-143q-14 1 -35 1q-59 0 -91.5 -35.5t-32.5 -92.5v-226h-131z" />
    <glyph glyph-name="s" unicode="s" horiz-adv-x="445" 
d="M223 -9q-115 0 -198 72l63 91q61 -56 136 -56q28 0 43.5 11t15.5 29q0 15 -18.5 25.5t-69.5 27.5q-72 24 -111.5 59.5t-39.5 100.5t50 105t127 40q99 0 178 -61l-64 -97q-53 52 -117 52q-18 0 -32 -9t-14 -27q0 -25 72 -52q40 -15 59 -22.5t45 -22t36.5 -28.5t19 -35.5
t8.5 -50.5q0 -68 -48.5 -110t-140.5 -42z" />
    <glyph glyph-name="t" unicode="t" horiz-adv-x="369" 
d="M216 -9q-65 0 -102 41.5t-37 121.5v226h-58v109h58v159l131 14v-173h132v-109h-132v-207q0 -33 9.5 -48t32.5 -15q28 0 62 17l33 -105q-57 -31 -129 -31z" />
    <glyph glyph-name="u" unicode="u" horiz-adv-x="575" 
d="M236 -9q-180 0 -180 203v295h130v-261q0 -66 20.5 -92.5t67.5 -26.5q45 0 76.5 37.5t31.5 104.5v238h132v-489h-132v58l-2 1q-56 -68 -144 -68z" />
    <glyph glyph-name="v" unicode="v" horiz-adv-x="537" 
d="M207 0l-192 489h140l113 -328h1l115 328h137l-192 -489h-122z" />
    <glyph glyph-name="w" unicode="w" horiz-adv-x="769" 
d="M183 0l-165 489h132l94 -299h1l87 299h105l88 -299h2l93 299h131l-166 -489h-113l-88 297h-1l-87 -297h-113z" />
    <glyph glyph-name="x" unicode="x" horiz-adv-x="526" 
d="M20 0l169 250l-168 239h150l90 -140h2l91 140h149l-167 -240l170 -249h-144l-98 140h-2l-100 -140h-142z" />
    <glyph glyph-name="y" unicode="y" horiz-adv-x="536" 
d="M124 -198l87 228l-196 459h140l119 -300h2l111 300h133l-263 -687h-133z" />
    <glyph glyph-name="z" unicode="z" horiz-adv-x="484" 
d="M35 0v90l235 288l-1 3h-216v108h394v-89l-238 -290l1 -2h231v-108h-406z" />
    <glyph glyph-name="braceleft" unicode="{" horiz-adv-x="356" 
d="M244 -147q-50 0 -83.5 35t-33.5 92v185q0 20 -1.5 30t-9 22.5t-25.5 18.5t-48 6v98q30 1 48 8t25.5 20t9 23t1.5 27v188q0 54 32 90.5t85 36.5h73v-87h-22q-31 0 -44.5 -20t-13.5 -44v-183q0 -85 -54 -106v-2q31 -12 42.5 -32t11.5 -76v-173q0 -36 12 -53t46 -17h22v-87
h-73z" />
    <glyph glyph-name="bar" unicode="|" horiz-adv-x="315" 
d="M103 -115v852h109v-852h-109z" />
    <glyph glyph-name="braceright" unicode="}" horiz-adv-x="356" 
d="M112 -147h-73v87h22q34 0 46 17t12 53v173q0 56 11.5 76t42.5 32v2q-54 21 -54 106v183q0 24 -13.5 44t-44.5 20h-22v87h73q53 0 85 -36.5t32 -90.5v-188q0 -17 1.5 -27t9 -23t25.5 -20t48 -8v-98q-30 0 -48 -6t-25.5 -18.5t-9 -22.5t-1.5 -30v-185q0 -57 -33.5 -92
t-83.5 -35z" />
    <glyph glyph-name="asciitilde" unicode="~" horiz-adv-x="567" 
d="M378 196q-41 0 -104 26q-38 19 -66 19q-42 0 -68 -46l-90 37q19 57 55.5 92t85.5 35q46 0 103 -25q36 -19 65 -19q42 0 68 45l89 -30q-18 -60 -54.5 -97t-83.5 -37z" />
    <glyph glyph-name="uni00A0" unicode="&#xa0;" horiz-adv-x="257" 
 />
    <glyph glyph-name="exclamdown" unicode="&#xa1;" horiz-adv-x="278" 
d="M140 497q33 0 57 -23.5t24 -57.5q0 -33 -24 -56.5t-57 -23.5q-34 0 -58.5 23.5t-24.5 56.5q0 34 24 57.5t59 23.5zM92 255h98l22 -503h-143z" />
    <glyph glyph-name="cent" unicode="&#xa2;" horiz-adv-x="541" 
d="M509 133q-61 -70 -167 -84v-97h-91v96q-95 13 -153.5 81t-58.5 168t58 167.5t154 81.5v95h91v-94q106 -15 165 -90l-88 -76q-45 52 -115 52q-59 0 -96 -37.5t-37 -96.5q0 -60 37 -98t96 -38q73 0 115 50z" />
    <glyph glyph-name="sterling" unicode="&#xa3;" horiz-adv-x="564" 
d="M42 0v125h67v183h-56v95h56v51q0 123 59 181.5t150 58.5q58 0 111 -25.5t89 -71.5l-70 -91q-48 61 -111 61q-89 0 -89 -123v-41h154v-95h-152v-183h288v-125h-496z" />
    <glyph glyph-name="currency" unicode="&#xa4;" horiz-adv-x="509" 
d="M437 388q0 -53 -28 -97l79 -80l-58 -59l-80 80q-44 -27 -97 -27q-52 0 -96 27l-80 -79l-59 59l80 80q-27 42 -27 96q0 52 27 95l-80 81l59 59l80 -80q44 28 96 28q53 0 97 -28l80 81l59 -60l-80 -80q28 -44 28 -96zM253 296q38 1 65.5 28t28.5 65q-1 38 -28.5 65.5
t-65.5 27.5q-38 -1 -65 -28t-27 -64q0 -38 27 -65.5t65 -28.5z" />
    <glyph glyph-name="yen" unicode="&#xa5;" horiz-adv-x="591" 
d="M588 687l-177 -321h101v-82h-145v-56h145v-81h-145v-147h-143v147h-153v81h153v56h-153v82h110l-177 321h162l129 -262h1l128 262h164z" />
    <glyph glyph-name="brokenbar" unicode="&#xa6;" horiz-adv-x="315" 
d="M103 385v352h109v-352h-109zM103 -114v352h109v-352h-109z" />
    <glyph glyph-name="section" unicode="&#xa7;" horiz-adv-x="547" 
d="M426 141q55 -44 55 -119q0 -80 -57 -127.5t-150 -47.5q-131 0 -225 95l77 93q67 -70 146 -70q30 0 49 15t19 39q0 25 -18.5 39t-71.5 34q-50 19 -79.5 32.5t-61 35t-45.5 48.5t-14 62q0 90 73 132q-52 42 -52 114q0 75 53.5 123.5t143.5 48.5q53 0 110.5 -22t98.5 -57
l-74 -92q-71 50 -128 50q-30 0 -47 -13.5t-17 -34.5q0 -22 17.5 -35t65.5 -33q8 -3 24 -10q104 -43 135 -69q47 -39 47 -107q0 -80 -74 -124zM179 294q0 -26 23 -44.5t85 -41.5q5 -2 17 -6.5t18 -7.5q47 13 47 55q0 26 -22 42.5t-90 42.5q-23 9 -29 11q-24 -5 -36.5 -19.5
t-12.5 -31.5z" />
    <glyph glyph-name="dieresis" unicode="&#xa8;" horiz-adv-x="522" 
d="M156 537q-34 0 -58 23.5t-24 56.5q0 32 24 55.5t58 23.5q35 0 59 -23.5t24 -56.5t-24 -56t-59 -23zM366 537q-35 0 -58.5 23.5t-23.5 56.5t23.5 56t58.5 23q34 0 58.5 -23.5t24.5 -56.5t-24 -56t-59 -23z" />
    <glyph glyph-name="copyright" unicode="&#xa9;" horiz-adv-x="720" 
d="M359 -1q-132 0 -224.5 94t-92.5 226q0 131 93 225.5t225 94.5q133 0 225 -94t92 -226t-92.5 -226t-225.5 -94zM359 83q98 0 165.5 69t67.5 167t-67 166.5t-165 68.5q-99 0 -166 -69.5t-67 -167.5q0 -97 67 -165.5t165 -68.5zM366 153q-70 0 -117.5 43t-47.5 120
q0 70 44 117t121 47q78 0 130 -62l-55 -47q-31 37 -75 37q-37 0 -61.5 -25t-24.5 -67q0 -39 23.5 -64.5t62.5 -25.5q47 0 75 36l55 -48q-50 -61 -130 -61z" />
    <glyph glyph-name="ordfeminine" unicode="&#xaa;" horiz-adv-x="408" 
d="M168 387q-64 0 -102.5 42.5t-38.5 110.5q0 67 38 109.5t98 42.5q57 0 97 -43h1v38h91v-294h-91v31h-2q-33 -37 -91 -37zM191 472q28 0 48 19t20 49q0 29 -19.5 48.5t-48.5 19.5q-30 0 -50 -19t-20 -49t20 -49t50 -19z" />
    <glyph glyph-name="guillemotleft" unicode="&#xab;" horiz-adv-x="513" 
d="M281 39h-127l-118 208l120 211h126l-121 -211zM486 39h-126l-119 208l120 211h126l-120 -211z" />
    <glyph glyph-name="logicalnot" unicode="&#xac;" horiz-adv-x="547" 
d="M387 146v162h-341v113h455v-275h-114z" />
    <glyph glyph-name="registered" unicode="&#xae;" horiz-adv-x="720" 
d="M360 639q133 0 225 -94t92 -226t-92.5 -226t-225.5 -94q-132 0 -224.5 94t-92.5 226q0 131 93 225.5t225 94.5zM359 83q98 0 165.5 69t67.5 167t-67 166.5t-165 68.5q-99 0 -166 -69.5t-67 -167.5q0 -97 67 -165.5t165 -68.5zM485 372q0 -73 -60 -98l76 -115h-86l-67 105
h-30v-105h-72v324h125q57 0 85.5 -30.5t28.5 -80.5zM319 416v-86h35q26 0 40 11.5t14 31.5q0 19 -13.5 31t-38.5 12h-37z" />
    <glyph glyph-name="macron" unicode="&#xaf;" horiz-adv-x="442" 
d="M69 559v105h305v-105h-305z" />
    <glyph glyph-name="degree" unicode="&#xb0;" horiz-adv-x="384" 
d="M192 440q-59 0 -100.5 40.5t-41.5 98.5q0 57 42.5 98.5t99.5 41.5t99.5 -42t42.5 -99t-41.5 -97.5t-100.5 -40.5zM192 520q25 0 42 17t17 42t-17.5 42.5t-41.5 17.5q-25 0 -42.5 -18t-17.5 -42q0 -25 17.5 -42t42.5 -17z" />
    <glyph glyph-name="plusminus" unicode="&#xb1;" horiz-adv-x="590" 
d="M238 177v179h-180v114h180v180h115v-180h180v-114h-180v-179h-115zM58 0v114h475v-114h-475z" />
    <glyph glyph-name="uni00B2" unicode="&#xb2;" horiz-adv-x="338" 
d="M23 436l-2 69l128 128q54 53 54 84q0 19 -12 30.5t-32 11.5q-40 0 -64 -38l-77 56q21 34 60 56t89 22q59 0 101 -34.5t42 -91.5q0 -38 -15 -68t-59 -70l-66 -60l1 -2h142v-93h-290z" />
    <glyph glyph-name="uni00B3" unicode="&#xb3;" horiz-adv-x="345" 
d="M173 429q-58 0 -101 27.5t-59 70.5l92 37q15 -45 60 -45q23 0 37 12t14 32q0 21 -16 33t-44 12h-28v76h35q22 0 35 10.5t13 27.5q0 18 -12.5 30t-33.5 12q-36 0 -50 -36l-86 46q15 35 52 58t85 23q61 0 102 -30.5t41 -82.5q0 -61 -51 -92v-2q65 -30 65 -98
q0 -56 -41.5 -88.5t-108.5 -32.5z" />
    <glyph glyph-name="acute" unicode="&#xb4;" horiz-adv-x="499" 
d="M141 536l114 146l137 1l-124 -147h-127z" />
    <glyph glyph-name="uni00B5" unicode="&#xb5;" horiz-adv-x="578" 
d="M60 -198v687h132v-252q0 -128 94 -128q44 0 72.5 35.5t28.5 99.5v245h131v-489h-120l-7 59h-2q-54 -68 -133 -68q-46 0 -72 25l-2 -2q10 -58 10 -111v-101h-132z" />
    <glyph glyph-name="paragraph" unicode="&#xb6;" horiz-adv-x="526" 
d="M381 -152v739h-63v-587h-81v298q-90 6 -144.5 54t-54.5 131q0 86 58.5 137t160.5 51h202v-823h-78z" />
    <glyph glyph-name="periodcentered" unicode="&#xb7;" horiz-adv-x="275" 
d="M140 163q-35 0 -59 23.5t-24 57.5q0 33 24.5 56.5t58.5 23.5q33 0 57 -23.5t24 -56.5q0 -34 -24 -57.5t-57 -23.5z" />
    <glyph glyph-name="cedilla" unicode="&#xb8;" horiz-adv-x="371" 
d="M155 -191q-31 0 -61 6v59q21 -7 48 -7q48 0 48 28q0 14 -21 23t-58 9v37l20 42h72l-18 -35v-2q98 -3 98 -81q0 -36 -32 -57.5t-96 -21.5z" />
    <glyph glyph-name="uni00B9" unicode="&#xb9;" horiz-adv-x="281" 
d="M126 436v284l-63 -43l-50 79l136 92h80v-412h-103z" />
    <glyph glyph-name="ordmasculine" unicode="&#xba;" horiz-adv-x="385" 
d="M187 387q-71 0 -115.5 43t-44.5 110t45 109.5t115 42.5t115.5 -42.5t45.5 -109.5q0 -68 -45.5 -110.5t-115.5 -42.5zM187 471q27 0 45.5 19.5t18.5 49.5t-18 49.5t-46 19.5t-46 -19.5t-18 -49.5t18 -49.5t46 -19.5z" />
    <glyph glyph-name="guillemotright" unicode="&#xbb;" horiz-adv-x="513" 
d="M27 39l119 208l-120 211h126l120 -211l-119 -208h-126zM232 39l120 208l-121 211h126l120 -211l-118 -208h-127z" />
    <glyph glyph-name="onequarter" unicode="&#xbc;" horiz-adv-x="807" 
d="M295 -24l-99 43l314 707l100 -43zM126 299v284l-63 -43l-50 79l136 92h80v-412h-103zM631 0v63h-167v62l189 287h81v-261h55v-88h-55v-63h-103zM567 144h73v115z" />
    <glyph glyph-name="onehalf" unicode="&#xbd;" horiz-adv-x="840" 
d="M295 -24l-99 43l314 707l100 -43zM126 299v284l-63 -43l-50 79l136 92h80v-412h-103zM525 0l-2 69l128 128q54 52 54 84q0 19 -12 30.5t-32 11.5q-40 0 -64 -38l-77 56q21 34 60 56t89 22q59 0 101 -34.5t42 -91.5q0 -38 -15 -68t-59 -70l-66 -60l1 -2h142v-93h-290z" />
    <glyph glyph-name="threequarters" unicode="&#xbe;" horiz-adv-x="849" 
d="M337 -24l-99 43l314 707l100 -43zM173 292q-58 0 -101 27.5t-59 70.5l92 37q15 -45 60 -45q23 0 37 12t14 32q0 21 -16 33t-44 12h-28v76h35q22 0 35 10.5t13 27.5q0 18 -12.5 30t-33.5 12q-36 0 -50 -36l-86 46q15 35 52 58t85 23q61 0 102 -30.5t41 -82.5
q0 -61 -51 -92v-2q65 -30 65 -98q0 -56 -41.5 -88.5t-108.5 -32.5zM673 0v63h-167v62l189 287h81v-261h55v-88h-55v-63h-103zM609 144h73v115z" />
    <glyph glyph-name="questiondown" unicode="&#xbf;" horiz-adv-x="447" 
d="M267 497q35 0 59 -23.5t24 -57.5q0 -33 -24.5 -56.5t-58.5 -23.5q-33 0 -57 23.5t-24 56.5q0 34 24 57.5t57 23.5zM328 257v-50q0 -9 -1.5 -18.5t-3 -16.5t-6 -16.5t-6.5 -14.5t-10 -15t-10 -13.5t-12 -14t-11.5 -12t-12.5 -13t-12 -12.5q-20 -22 -31 -36t-21.5 -36
t-10.5 -43q0 -37 21.5 -57.5t57.5 -20.5q61 0 100 54l95 -87q-35 -43 -89.5 -67.5t-115.5 -24.5q-90 0 -151 51t-61 144q0 88 89 173q6 6 23 21.5t23.5 22t16.5 18.5t14 21.5t5 19.5l4 43h116z" />
    <glyph glyph-name="Agrave" unicode="&#xc0;" horiz-adv-x="694" 
d="M294 769l-126 135h140l111 -135h-125zM16 0l263 710h136l264 -710h-147l-49 142h-272l-48 -142h-147zM251 262h192l-95 278h-2z" />
    <glyph glyph-name="Aacute" unicode="&#xc1;" horiz-adv-x="694" 
d="M287 769l111 135h139l-126 -135h-124zM16 0l263 710h136l264 -710h-147l-49 142h-272l-48 -142h-147zM251 262h192l-95 278h-2z" />
    <glyph glyph-name="Acircumflex" unicode="&#xc2;" horiz-adv-x="694" 
d="M173 769l104 135h139l104 -135h-121l-52 68h-2l-52 -68h-120zM16 0l263 710h136l264 -710h-147l-49 142h-272l-48 -142h-147zM251 262h192l-95 278h-2z" />
    <glyph glyph-name="Atilde" unicode="&#xc3;" horiz-adv-x="694" 
d="M428 769q-36 0 -85 28q-40 22 -60 22q-32 0 -53 -49l-78 32q38 108 120 108q45 0 89 -28q38 -21 56 -21q31 0 52 49l77 -25q-35 -116 -118 -116zM16 0l263 710h136l264 -710h-147l-49 142h-272l-48 -142h-147zM251 262h192l-95 278h-2z" />
    <glyph glyph-name="Adieresis" unicode="&#xc4;" horiz-adv-x="694" 
d="M241 767q-34 0 -58 23.5t-24 56.5q0 32 24 55.5t58 23.5q35 0 59 -23.5t24 -56.5t-24 -56t-59 -23zM451 767q-35 0 -58.5 23.5t-23.5 56.5t23.5 56t58.5 23q34 0 58.5 -23.5t24.5 -56.5t-24 -56t-59 -23zM16 0l263 710h136l264 -710h-147l-49 142h-272l-48 -142h-147z
M251 262h192l-95 278h-2z" />
    <glyph glyph-name="Aring" unicode="&#xc5;" horiz-adv-x="694" 
d="M347 746q-45 0 -77 30t-32 75q0 44 31 75t78 31q45 0 77 -30.5t32 -75.5q0 -44 -30.5 -74.5t-78.5 -30.5zM347 815q16 0 26.5 11t10.5 27q0 15 -10.5 25.5t-26.5 10.5t-26.5 -11t-10.5 -26q0 -16 10.5 -26.5t26.5 -10.5zM16 0l263 710h136l264 -710h-147l-49 142h-272
l-48 -142h-147zM251 262h192l-95 278h-2z" />
    <glyph glyph-name="AE" unicode="&#xc6;" horiz-adv-x="942" 
d="M7 0l340 710h537v-125h-316v-170h258v-124h-258v-166h337v-125h-475v142h-210l-67 -142h-146zM274 259h159v333h-2z" />
    <glyph glyph-name="Ccedilla" unicode="&#xc7;" horiz-adv-x="722" 
d="M417 -7l-11 -22v-2q98 -3 98 -81q0 -36 -32 -57.5t-96 -21.5q-31 0 -61 6v59q21 -7 48 -7q48 0 48 28q0 14 -21 23t-58 9v37l16 33q-133 19 -216.5 112t-83.5 244q0 158 96.5 262t263.5 104q79 0 153.5 -34.5t129.5 -102.5l-104 -87q-74 90 -179 90q-92 0 -152.5 -63.5
t-60.5 -168.5q0 -99 60 -163t155 -64q106 0 179 90l103 -89q-105 -131 -275 -134z" />
    <glyph glyph-name="Egrave" unicode="&#xc8;" horiz-adv-x="598" 
d="M296 768l-126 135h140l111 -135h-125zM77 0v710h454v-125h-315v-171h252v-123h-252v-166h336v-125h-475z" />
    <glyph glyph-name="Eacute" unicode="&#xc9;" horiz-adv-x="598" 
d="M204 768l111 135h139l-126 -135h-124zM77 0v710h454v-125h-315v-171h252v-123h-252v-166h336v-125h-475z" />
    <glyph glyph-name="Ecircumflex" unicode="&#xca;" horiz-adv-x="598" 
d="M137 768l104 135h139l104 -135h-121l-52 68h-2l-52 -68h-120zM77 0v710h454v-125h-315v-171h252v-123h-252v-166h336v-125h-475z" />
    <glyph glyph-name="Edieresis" unicode="&#xcb;" horiz-adv-x="598" 
d="M205 766q-34 0 -58 23.5t-24 56.5q0 32 24 55.5t58 23.5q35 0 59 -23.5t24 -56.5t-24 -56t-59 -23zM415 766q-35 0 -58.5 23.5t-23.5 56.5t23.5 56t58.5 23q34 0 58.5 -23.5t24.5 -56.5t-24 -56t-59 -23zM77 0v710h454v-125h-315v-171h252v-123h-252v-166h336v-125h-475z
" />
    <glyph glyph-name="Igrave" unicode="&#xcc;" horiz-adv-x="306" 
d="M95 769l-126 135h140l111 -135h-125zM81 0v710h143v-710h-143z" />
    <glyph glyph-name="Iacute" unicode="&#xcd;" horiz-adv-x="306" 
d="M87 769l111 135h139l-126 -135h-124zM81 0v710h143v-710h-143z" />
    <glyph glyph-name="Icircumflex" unicode="&#xce;" horiz-adv-x="306" 
d="M-22 768l104 135h139l104 -135h-121l-52 68h-2l-52 -68h-120zM81 0v710h143v-710h-143z" />
    <glyph glyph-name="Idieresis" unicode="&#xcf;" horiz-adv-x="306" 
d="M46 766q-34 0 -58 23.5t-24 56.5q0 32 24 55.5t58 23.5q35 0 59 -23.5t24 -56.5t-24 -56t-59 -23zM256 766q-35 0 -58.5 23.5t-23.5 56.5t23.5 56t58.5 23q34 0 58.5 -23.5t24.5 -56.5t-24 -56t-59 -23zM81 0v710h143v-710h-143z" />
    <glyph glyph-name="Eth" unicode="&#xd0;" horiz-adv-x="728" 
d="M312 710q167 0 268 -98.5t101 -257.5t-98.5 -256.5t-267.5 -97.5h-238v292h-54v118h54v300h235zM306 125q102 0 165 65t63 164q0 100 -62 165.5t-158 65.5h-98v-175h154v-118h-154v-167h90z" />
    <glyph glyph-name="Ntilde" unicode="&#xd1;" horiz-adv-x="753" 
d="M458 769q-36 0 -85 28q-40 22 -60 22q-32 0 -53 -49l-78 32q38 108 120 108q45 0 89 -28q38 -21 56 -21q31 0 52 49l77 -25q-35 -116 -118 -116zM77 0v710h138l319 -479h2v479h139v-710h-141l-315 469h-2v-469h-140z" />
    <glyph glyph-name="Ograve" unicode="&#xd2;" horiz-adv-x="819" 
d="M363 769l-126 135h140l111 -135h-125zM410 -9q-160 0 -261 102.5t-101 261.5t101 261.5t261 102.5q157 0 259 -101.5t102 -262.5t-102 -262.5t-259 -101.5zM410 123q92 0 153 66t61 166t-61 166t-153 66q-95 0 -155.5 -67t-60.5 -165t60.5 -165t155.5 -67z" />
    <glyph glyph-name="Oacute" unicode="&#xd3;" horiz-adv-x="819" 
d="M340 769l111 135h139l-126 -135h-124zM410 -9q-160 0 -261 102.5t-101 261.5t101 261.5t261 102.5q157 0 259 -101.5t102 -262.5t-102 -262.5t-259 -101.5zM410 123q92 0 153 66t61 166t-61 166t-153 66q-95 0 -155.5 -67t-60.5 -165t60.5 -165t155.5 -67z" />
    <glyph glyph-name="Ocircumflex" unicode="&#xd4;" horiz-adv-x="819" 
d="M237 769l104 135h139l104 -135h-121l-52 68h-2l-52 -68h-120zM410 -9q-160 0 -261 102.5t-101 261.5t101 261.5t261 102.5q157 0 259 -101.5t102 -262.5t-102 -262.5t-259 -101.5zM410 123q92 0 153 66t61 166t-61 166t-153 66q-95 0 -155.5 -67t-60.5 -165t60.5 -165
t155.5 -67z" />
    <glyph glyph-name="Otilde" unicode="&#xd5;" horiz-adv-x="819" 
d="M492 769q-36 0 -85 28q-40 22 -60 22q-32 0 -53 -49l-78 32q38 108 120 108q45 0 89 -28q38 -21 56 -21q31 0 52 49l77 -25q-35 -116 -118 -116zM410 -9q-160 0 -261 102.5t-101 261.5t101 261.5t261 102.5q157 0 259 -101.5t102 -262.5t-102 -262.5t-259 -101.5z
M410 123q92 0 153 66t61 166t-61 166t-153 66q-95 0 -155.5 -67t-60.5 -165t60.5 -165t155.5 -67z" />
    <glyph glyph-name="Odieresis" unicode="&#xd6;" horiz-adv-x="819" 
d="M305 767q-34 0 -58 23.5t-24 56.5q0 32 24 55.5t58 23.5q35 0 59 -23.5t24 -56.5t-24 -56t-59 -23zM515 767q-35 0 -58.5 23.5t-23.5 56.5t23.5 56t58.5 23q34 0 58.5 -23.5t24.5 -56.5t-24 -56t-59 -23zM410 -9q-160 0 -261 102.5t-101 261.5t101 261.5t261 102.5
q157 0 259 -101.5t102 -262.5t-102 -262.5t-259 -101.5zM410 123q92 0 153 66t61 166t-61 166t-153 66q-95 0 -155.5 -67t-60.5 -165t60.5 -165t155.5 -67z" />
    <glyph glyph-name="multiply" unicode="&#xd7;" horiz-adv-x="524" 
d="M126 61l-81 80l137 136l-137 137l80 80l136 -137l137 137l81 -80l-137 -138l137 -136l-80 -79l-137 136z" />
    <glyph glyph-name="Oslash" unicode="&#xd8;" horiz-adv-x="819" 
d="M778 677l-82 -90q75 -97 75 -232q0 -161 -102 -262.5t-259 -101.5q-118 0 -207 58l-78 -85l-69 64l77 83q-85 99 -85 244q0 159 101 261.5t261 102.5q127 0 220 -67l80 87zM194 355q0 -76 38 -136l302 328q-54 40 -124 40q-95 0 -155.5 -67t-60.5 -165zM624 355
q0 66 -29 122l-296 -323q48 -31 111 -31q92 0 153 66t61 166z" />
    <glyph glyph-name="Ugrave" unicode="&#xd9;" horiz-adv-x="711" 
d="M305 769l-126 135h140l111 -135h-125zM355 -9q-131 0 -209 80t-78 223v416h141v-407q0 -79 38.5 -129.5t107.5 -50.5q66 0 107 48.5t41 131.5v407h141v-416q0 -140 -76.5 -221.5t-212.5 -81.5z" />
    <glyph glyph-name="Uacute" unicode="&#xda;" horiz-adv-x="711" 
d="M276 769l111 135h139l-126 -135h-124zM355 -9q-131 0 -209 80t-78 223v416h141v-407q0 -79 38.5 -129.5t107.5 -50.5q66 0 107 48.5t41 131.5v407h141v-416q0 -140 -76.5 -221.5t-212.5 -81.5z" />
    <glyph glyph-name="Ucircumflex" unicode="&#xdb;" horiz-adv-x="711" 
d="M181 769l104 135h139l104 -135h-121l-52 68h-2l-52 -68h-120zM355 -9q-131 0 -209 80t-78 223v416h141v-407q0 -79 38.5 -129.5t107.5 -50.5q66 0 107 48.5t41 131.5v407h141v-416q0 -140 -76.5 -221.5t-212.5 -81.5z" />
    <glyph glyph-name="Udieresis" unicode="&#xdc;" horiz-adv-x="711" 
d="M249 767q-34 0 -58 23.5t-24 56.5q0 32 24 55.5t58 23.5q35 0 59 -23.5t24 -56.5t-24 -56t-59 -23zM459 767q-35 0 -58.5 23.5t-23.5 56.5t23.5 56t58.5 23q34 0 58.5 -23.5t24.5 -56.5t-24 -56t-59 -23zM355 -9q-131 0 -209 80t-78 223v416h141v-407q0 -79 38.5 -129.5
t107.5 -50.5q66 0 107 48.5t41 131.5v407h141v-416q0 -140 -76.5 -221.5t-212.5 -81.5z" />
    <glyph glyph-name="Yacute" unicode="&#xdd;" horiz-adv-x="630" 
d="M240 769l111 135h139l-126 -135h-124zM243 0v312l-235 398h161l145 -258h2l142 258h163l-236 -398v-312h-142z" />
    <glyph glyph-name="Thorn" unicode="&#xde;" horiz-adv-x="644" 
d="M77 0v710h139v-126h145q124 0 185 -64t61 -172q0 -112 -70 -170t-190 -58h-131v-120h-139zM216 244h116q64 0 96.5 29t32.5 78q0 51 -31 80t-92 29h-122v-216z" />
    <glyph glyph-name="germandbls" unicode="&#xdf;" horiz-adv-x="634" 
d="M282 -9v117h64q54 0 89 33.5t35 84.5q0 53 -36.5 88.5t-98.5 35.5h-40v110h34q56 0 79.5 28.5t23.5 58.5q0 35 -28 59t-80 24q-127 0 -127 -139v-491h-132v485q0 130 66.5 195t189.5 65q114 0 176.5 -53t62.5 -132q0 -91 -77 -137v-2q56 -26 88 -79.5t32 -119.5
q0 -105 -61.5 -168t-163.5 -63h-96z" />
    <glyph glyph-name="agrave" unicode="&#xe0;" horiz-adv-x="604" 
d="M263 552l-124 146l140 -1l108 -145h-124zM270 -9q-102 0 -167.5 70t-65.5 182q0 110 65.5 181.5t164.5 71.5q91 0 144 -64l2 1v56h131v-489h-125v58l-2 1q-53 -68 -147 -68zM295 109q52 0 88 37t36 96t-35.5 98t-88.5 39q-54 0 -89.5 -37.5t-35.5 -99.5q0 -59 35 -96
t90 -37z" />
    <glyph glyph-name="aacute" unicode="&#xe1;" horiz-adv-x="604" 
d="M220 554l114 146l137 1l-124 -147h-127zM270 -9q-102 0 -167.5 70t-65.5 182q0 110 65.5 181.5t164.5 71.5q91 0 144 -64l2 1v56h131v-489h-125v58l-2 1q-53 -68 -147 -68zM295 109q52 0 88 37t36 96t-35.5 98t-88.5 39q-54 0 -89.5 -37.5t-35.5 -99.5q0 -59 35 -96
t90 -37z" />
    <glyph glyph-name="acircumflex" unicode="&#xe2;" horiz-adv-x="604" 
d="M129 551l103 147h139l101 -147h-120l-50 75h-2l-50 -75h-121zM270 -9q-102 0 -167.5 70t-65.5 182q0 110 65.5 181.5t164.5 71.5q91 0 144 -64l2 1v56h131v-489h-125v58l-2 1q-53 -68 -147 -68zM295 109q52 0 88 37t36 96t-35.5 98t-88.5 39q-54 0 -89.5 -37.5
t-35.5 -99.5q0 -59 35 -96t90 -37z" />
    <glyph glyph-name="atilde" unicode="&#xe3;" horiz-adv-x="604" 
d="M383 551q-40 0 -88 30q-34 21 -54 21q-35 0 -57 -50l-78 33q17 53 47.5 84.5t72.5 31.5t86 -27q38 -23 55 -23q34 0 56 50l77 -26q-15 -56 -46 -90t-71 -34zM270 -9q-102 0 -167.5 70t-65.5 182q0 110 65.5 181.5t164.5 71.5q91 0 144 -64l2 1v56h131v-489h-125v58l-2 1
q-53 -68 -147 -68zM295 109q52 0 88 37t36 96t-35.5 98t-88.5 39q-54 0 -89.5 -37.5t-35.5 -99.5q0 -59 35 -96t90 -37z" />
    <glyph glyph-name="adieresis" unicode="&#xe4;" horiz-adv-x="604" 
d="M195 557q-34 0 -58 23.5t-24 56.5q0 32 24 55.5t58 23.5q35 0 59 -23.5t24 -56.5t-24 -56t-59 -23zM405 557q-35 0 -58.5 23.5t-23.5 56.5t23.5 56t58.5 23q34 0 58.5 -23.5t24.5 -56.5t-24 -56t-59 -23zM270 -9q-102 0 -167.5 70t-65.5 182q0 110 65.5 181.5t164.5 71.5
q91 0 144 -64l2 1v56h131v-489h-125v58l-2 1q-53 -68 -147 -68zM295 109q52 0 88 37t36 96t-35.5 98t-88.5 39q-54 0 -89.5 -37.5t-35.5 -99.5q0 -59 35 -96t90 -37z" />
    <glyph glyph-name="aring" unicode="&#xe5;" horiz-adv-x="604" 
d="M301 539q-45 0 -77 30t-32 75q0 44 31 75t78 31q45 0 77 -30.5t32 -75.5q0 -44 -30.5 -74.5t-78.5 -30.5zM301 608q16 0 26.5 11t10.5 27q0 15 -10.5 25.5t-26.5 10.5t-26.5 -11t-10.5 -26q0 -16 10.5 -26.5t26.5 -10.5zM270 -9q-102 0 -167.5 70t-65.5 182
q0 110 65.5 181.5t164.5 71.5q91 0 144 -64l2 1v56h131v-489h-125v58l-2 1q-53 -68 -147 -68zM295 109q52 0 88 37t36 96t-35.5 98t-88.5 39q-54 0 -89.5 -37.5t-35.5 -99.5q0 -59 35 -96t90 -37z" />
    <glyph glyph-name="ae" unicode="&#xe6;" horiz-adv-x="789" 
d="M763 249q0 -32 -4 -48h-319q11 -43 42 -68t79 -25q65 0 106 55l84 -80q-36 -45 -81.5 -68.5t-118.5 -23.5q-104 0 -168 72h-2q-63 -72 -174 -72q-89 0 -134.5 43.5t-45.5 110.5q0 73 49 112.5t147 40.5h88v5q0 46 -19 64.5t-61 18.5q-63 0 -127 -33l-47 100q29 15 82 29
t103 14q104 0 148 -66h2q60 66 157 66q95 0 154.5 -69.5t59.5 -177.5zM440 296h192q-6 38 -28 62t-62 24q-37 0 -64 -23.5t-38 -62.5zM222 92q37 0 63 23.5t26 56.5v37h-74q-84 0 -84 -59q0 -27 17.5 -42.5t51.5 -15.5z" />
    <glyph glyph-name="ccedilla" unicode="&#xe7;" horiz-adv-x="528" 
d="M304 -9l-10 -20v-2q98 -3 98 -81q0 -36 -32 -57.5t-96 -21.5q-31 0 -61 6v59q21 -7 48 -7q48 0 48 28q0 14 -21 23t-58 9v37l15 32q-89 17 -143 83.5t-54 163.5q0 113 71 183t185 70q60 0 115 -22.5t92 -65.5l-86 -81q-42 52 -112 52q-59 0 -95.5 -37.5t-36.5 -97.5
q0 -61 36.5 -98t95.5 -37q72 0 115 53l85 -82q-67 -83 -199 -89z" />
    <glyph glyph-name="egrave" unicode="&#xe8;" horiz-adv-x="556" 
d="M372 552h-124l-124 146l140 -1zM520 249q0 -23 -3 -47h-343q12 -44 46 -69t83 -25q74 0 119 55l85 -79q-72 -93 -213 -93q-113 0 -184.5 70t-71.5 184q0 111 69.5 181t178.5 70q103 0 168.5 -69.5t65.5 -177.5zM285 382q-40 0 -69.5 -22.5t-40.5 -63.5h215
q-22 86 -105 86z" />
    <glyph glyph-name="eacute" unicode="&#xe9;" horiz-adv-x="556" 
d="M469 701l-124 -147h-127l114 146zM520 249q0 -23 -3 -47h-343q12 -44 46 -69t83 -25q74 0 119 55l85 -79q-72 -93 -213 -93q-113 0 -184.5 70t-71.5 184q0 111 69.5 181t178.5 70q103 0 168.5 -69.5t65.5 -177.5zM285 382q-40 0 -69.5 -22.5t-40.5 -63.5h215
q-22 86 -105 86z" />
    <glyph glyph-name="ecircumflex" unicode="&#xea;" horiz-adv-x="557" 
d="M286 626l-50 -75h-121l103 147h139l101 -147h-120l-50 75h-2zM520 249q0 -23 -3 -47h-343q12 -44 46 -69t83 -25q74 0 119 55l85 -79q-72 -93 -213 -93q-113 0 -184.5 70t-71.5 184q0 111 69.5 181t178.5 70q103 0 168.5 -69.5t65.5 -177.5zM285 382q-40 0 -69.5 -22.5
t-40.5 -63.5h215q-22 86 -105 86z" />
    <glyph glyph-name="edieresis" unicode="&#xeb;" horiz-adv-x="557" 
d="M181 557q-34 0 -58 23.5t-24 56.5q0 32 24 55.5t58 23.5q35 0 59 -23.5t24 -56.5t-24 -56t-59 -23zM391 557q-35 0 -58.5 23.5t-23.5 56.5t23.5 56t58.5 23q34 0 58.5 -23.5t24.5 -56.5t-24 -56t-59 -23zM520 249q0 -23 -3 -47h-343q12 -44 46 -69t83 -25q74 0 119 55
l85 -79q-72 -93 -213 -93q-113 0 -184.5 70t-71.5 184q0 111 69.5 181t178.5 70q103 0 168.5 -69.5t65.5 -177.5zM285 382q-40 0 -69.5 -22.5t-40.5 -63.5h215q-22 86 -105 86z" />
    <glyph glyph-name="igrave" unicode="&#xec;" horiz-adv-x="274" 
d="M74 557l-87 147l138 -1l76 -146h-127zM71 0v489h131v-489h-131z" />
    <glyph glyph-name="iacute" unicode="&#xed;" horiz-adv-x="273" 
d="M77 554l114 146l137 1l-124 -147h-127zM71 0v489h131v-489h-131z" />
    <glyph glyph-name="icircumflex" unicode="&#xee;" horiz-adv-x="273" 
d="M-35 551l103 147h139l101 -147h-120l-50 75h-2l-50 -75h-121zM71 0v489h131v-489h-131z" />
    <glyph glyph-name="idieresis" unicode="&#xef;" horiz-adv-x="273" 
d="M44 555q-35 0 -59 24t-24 57t24 57t59 24q33 0 57 -24t24 -57t-24 -57t-57 -24zM231 557q-34 0 -57.5 23.5t-23.5 55.5t24 56t57 24t57 -24t24 -56t-24 -55.5t-57 -23.5zM71 0v489h131v-489h-131z" />
    <glyph glyph-name="eth" unicode="&#xf0;" horiz-adv-x="591" 
d="M448 550q105 -129 105 -282q0 -139 -69.5 -207.5t-189.5 -68.5q-110 0 -182.5 68t-72.5 172q0 110 64.5 177.5t159.5 67.5q70 0 125 -41l1 1q-14 22 -33 46q-81 97 -237 167l55 91q75 -28 145 -75l74 94l85 -63l-78 -96q26 -24 48 -51zM294 109q55 0 90.5 37.5t35.5 94.5
q0 55 -35 91t-90 36q-53 0 -88.5 -37t-35.5 -90q0 -57 35.5 -94.5t87.5 -37.5z" />
    <glyph glyph-name="ntilde" unicode="&#xf1;" horiz-adv-x="588" 
d="M380 551q-40 0 -88 30q-34 21 -54 21q-35 0 -57 -50l-78 33q17 53 47.5 84.5t72.5 31.5t86 -27q38 -23 55 -23q34 0 56 50l77 -26q-15 -56 -46 -90t-71 -34zM65 0v489h131v-63h2q59 70 156 70q177 0 177 -206v-290h-131v257q0 67 -23 94.5t-71 27.5q-51 0 -80.5 -34.5
t-29.5 -99.5v-245h-131z" />
    <glyph glyph-name="ograve" unicode="&#xf2;" horiz-adv-x="595" 
d="M253 552l-124 146l140 -1l108 -145h-124zM298 -9q-116 0 -188 71t-72 182q0 110 72 181t188 71q114 0 186.5 -70t72.5 -182t-72.5 -182.5t-186.5 -70.5zM298 109q53 0 89.5 38t36.5 97q0 60 -36 97.5t-90 37.5q-56 0 -91.5 -38.5t-35.5 -96.5t35.5 -96.5t91.5 -38.5z" />
    <glyph glyph-name="oacute" unicode="&#xf3;" horiz-adv-x="595" 
d="M232 554l114 146l137 1l-124 -147h-127zM298 -9q-116 0 -188 71t-72 182q0 110 72 181t188 71q114 0 186.5 -70t72.5 -182t-72.5 -182.5t-186.5 -70.5zM298 109q53 0 89.5 38t36.5 97q0 60 -36 97.5t-90 37.5q-56 0 -91.5 -38.5t-35.5 -96.5t35.5 -96.5t91.5 -38.5z" />
    <glyph glyph-name="ocircumflex" unicode="&#xf4;" horiz-adv-x="595" 
d="M126 551l103 147h139l101 -147h-120l-50 75h-2l-50 -75h-121zM298 -9q-116 0 -188 71t-72 182q0 110 72 181t188 71q114 0 186.5 -70t72.5 -182t-72.5 -182.5t-186.5 -70.5zM298 109q53 0 89.5 38t36.5 97q0 60 -36 97.5t-90 37.5q-56 0 -91.5 -38.5t-35.5 -96.5
t35.5 -96.5t91.5 -38.5z" />
    <glyph glyph-name="otilde" unicode="&#xf5;" horiz-adv-x="595" 
d="M380 551q-40 0 -88 30q-34 21 -54 21q-35 0 -57 -50l-78 33q17 53 47.5 84.5t72.5 31.5t86 -27q38 -23 55 -23q34 0 56 50l77 -26q-15 -56 -46 -90t-71 -34zM298 -9q-116 0 -188 71t-72 182q0 110 72 181t188 71q114 0 186.5 -70t72.5 -182t-72.5 -182.5t-186.5 -70.5z
M298 109q53 0 89.5 38t36.5 97q0 60 -36 97.5t-90 37.5q-56 0 -91.5 -38.5t-35.5 -96.5t35.5 -96.5t91.5 -38.5z" />
    <glyph glyph-name="odieresis" unicode="&#xf6;" horiz-adv-x="595" 
d="M192 557q-34 0 -58 23.5t-24 56.5q0 32 24 55.5t58 23.5q35 0 59 -23.5t24 -56.5t-24 -56t-59 -23zM402 557q-35 0 -58.5 23.5t-23.5 56.5t23.5 56t58.5 23q34 0 58.5 -23.5t24.5 -56.5t-24 -56t-59 -23zM298 -9q-116 0 -188 71t-72 182q0 110 72 181t188 71
q114 0 186.5 -70t72.5 -182t-72.5 -182.5t-186.5 -70.5zM298 109q53 0 89.5 38t36.5 97q0 60 -36 97.5t-90 37.5q-56 0 -91.5 -38.5t-35.5 -96.5t35.5 -96.5t91.5 -38.5z" />
    <glyph glyph-name="divide" unicode="&#xf7;" horiz-adv-x="567" 
d="M287 393q-35 0 -58 23t-23 56t23 55.5t58 22.5q34 0 57.5 -23t23.5 -55q0 -33 -23.5 -56t-57.5 -23zM52 220v114h475v-114h-475zM287 -6q-35 0 -58 23t-23 56t23 55.5t58 22.5q34 0 57.5 -23t23.5 -55q0 -33 -23.5 -56t-57.5 -23z" />
    <glyph glyph-name="oslash" unicode="&#xf8;" horiz-adv-x="595" 
d="M560 460l-54 -58q51 -65 51 -158q0 -112 -72.5 -182.5t-186.5 -70.5q-77 0 -141 35l-50 -54l-59 55l47 51q-57 70 -57 166q0 110 72 181t188 71q86 0 149 -40l55 59zM171 244q0 -36 16 -68l174 187q-30 16 -63 16q-56 0 -91.5 -38.5t-35.5 -96.5zM424 244q0 31 -11 58
l-168 -182q25 -11 53 -11q53 0 89.5 38t36.5 97z" />
    <glyph glyph-name="ugrave" unicode="&#xf9;" horiz-adv-x="575" 
d="M244 552l-124 146l140 -1l108 -145h-124zM236 -9q-180 0 -180 203v295h130v-261q0 -66 20.5 -92.5t67.5 -26.5q45 0 76.5 37.5t31.5 104.5v238h132v-489h-132v58l-2 1q-56 -68 -144 -68z" />
    <glyph glyph-name="uacute" unicode="&#xfa;" horiz-adv-x="575" 
d="M219 554l114 146l137 1l-124 -147h-127zM236 -9q-180 0 -180 203v295h130v-261q0 -66 20.5 -92.5t67.5 -26.5q45 0 76.5 37.5t31.5 104.5v238h132v-489h-132v58l-2 1q-56 -68 -144 -68z" />
    <glyph glyph-name="ucircumflex" unicode="&#xfb;" horiz-adv-x="575" 
d="M114 551l103 147h139l101 -147h-120l-50 75h-2l-50 -75h-121zM236 -9q-180 0 -180 203v295h130v-261q0 -66 20.5 -92.5t67.5 -26.5q45 0 76.5 37.5t31.5 104.5v238h132v-489h-132v58l-2 1q-56 -68 -144 -68z" />
    <glyph glyph-name="udieresis" unicode="&#xfc;" horiz-adv-x="575" 
d="M180 557q-34 0 -58 23.5t-24 56.5q0 32 24 55.5t58 23.5q35 0 59 -23.5t24 -56.5t-24 -56t-59 -23zM390 557q-35 0 -58.5 23.5t-23.5 56.5t23.5 56t58.5 23q34 0 58.5 -23.5t24.5 -56.5t-24 -56t-59 -23zM236 -9q-180 0 -180 203v295h130v-261q0 -66 20.5 -92.5
t67.5 -26.5q45 0 76.5 37.5t31.5 104.5v238h132v-489h-132v58l-2 1q-56 -68 -144 -68z" />
    <glyph glyph-name="yacute" unicode="&#xfd;" horiz-adv-x="536" 
d="M187 554l114 146l137 1l-124 -147h-127zM124 -198l87 228l-196 459h140l119 -300h2l111 300h133l-263 -687h-133z" />
    <glyph glyph-name="thorn" unicode="&#xfe;" horiz-adv-x="614" 
d="M65 -198v934h131v-302h2q54 62 147 62q100 0 165.5 -71.5t65.5 -181.5q0 -112 -66 -182t-169 -70q-91 0 -143 63l-2 -1v-251h-131zM318 109q55 0 90 37.5t35 95.5q0 62 -36 99.5t-90 37.5q-56 0 -91.5 -38.5t-35.5 -98.5q0 -59 36.5 -96t91.5 -37z" />
    <glyph glyph-name="ydieresis" unicode="&#xff;" horiz-adv-x="536" 
d="M163 557q-34 0 -58 23.5t-24 56.5q0 32 24 55.5t58 23.5q35 0 59 -23.5t24 -56.5t-24 -56t-59 -23zM373 557q-35 0 -58.5 23.5t-23.5 56.5t23.5 56t58.5 23q34 0 58.5 -23.5t24.5 -56.5t-24 -56t-59 -23zM124 -198l87 228l-196 459h140l119 -300h2l111 300h133l-263 -687
h-133z" />
    <glyph glyph-name="Amacron" unicode="&#x100;" horiz-adv-x="694" 
d="M194 788v100h305v-100h-305zM16 0l263 710h136l264 -710h-147l-49 142h-272l-48 -142h-147zM251 262h192l-95 278h-2z" />
    <glyph glyph-name="amacron" unicode="&#x101;" horiz-adv-x="604" 
d="M148 579v105h305v-105h-305zM270 -9q-102 0 -167.5 70t-65.5 182q0 110 65.5 181.5t164.5 71.5q91 0 144 -64l2 1v56h131v-489h-125v58l-2 1q-53 -68 -147 -68zM295 109q52 0 88 37t36 96t-35.5 98t-88.5 39q-54 0 -89.5 -37.5t-35.5 -99.5q0 -59 35 -96t90 -37z" />
    <glyph glyph-name="Abreve" unicode="&#x102;" horiz-adv-x="694" 
d="M347 762q-73 0 -115.5 37.5t-47.5 104.5h99q2 -22 18.5 -36t45.5 -14q28 0 45 14t19 36h99q-5 -65 -47 -103.5t-116 -38.5zM16 0l263 710h136l264 -710h-147l-49 142h-272l-48 -142h-147zM251 262h192l-95 278h-2z" />
    <glyph glyph-name="abreve" unicode="&#x103;" horiz-adv-x="604" 
d="M301 543q-71 0 -114.5 40.5t-48.5 112.5h99q2 -24 19.5 -40.5t44.5 -16.5q28 0 45 16.5t19 40.5h99q-5 -70 -47.5 -111.5t-115.5 -41.5zM270 -9q-102 0 -167.5 70t-65.5 182q0 110 65.5 181.5t164.5 71.5q91 0 144 -64l2 1v56h131v-489h-125v58l-2 1q-53 -68 -147 -68z
M295 109q52 0 88 37t36 96t-35.5 98t-88.5 39q-54 0 -89.5 -37.5t-35.5 -99.5q0 -59 35 -96t90 -37z" />
    <glyph glyph-name="Aogonek" unicode="&#x104;" horiz-adv-x="694" 
d="M609 -113q21 0 39 7l7 -72q-27 -11 -73 -11q-52 0 -83 25t-31 65q0 57 63 101l-48 140h-272l-48 -142h-147l263 710h136l264 -710h-30q-37 -7 -59 -27.5t-22 -44.5q0 -19 11 -30t30 -11zM251 262h192l-95 278h-2z" />
    <glyph glyph-name="aogonek" unicode="&#x105;" horiz-adv-x="604" 
d="M530 0q-37 -7 -59 -27.5t-22 -44.5q0 -19 11 -30t30 -11q22 0 39 7l7 -72q-28 -11 -73 -11q-52 0 -83 25t-31 65q0 27 18 55.5t52 49.5v52l-2 1q-53 -68 -147 -68q-102 0 -167.5 70t-65.5 182q0 110 65.5 181.5t164.5 71.5q91 0 144 -64l2 1v56h131v-489h-14zM295 109
q52 0 88 37t36 96t-35.5 98t-88.5 39q-54 0 -89.5 -37.5t-35.5 -99.5q0 -59 35 -96t90 -37z" />
    <glyph glyph-name="Cacute" unicode="&#x106;" horiz-adv-x="722" 
d="M326 769l111 135h139l-126 -135h-124zM410 -7q-155 0 -258.5 95.5t-103.5 264.5q0 158 96.5 262t263.5 104q79 0 153.5 -34.5t129.5 -102.5l-104 -87q-74 90 -179 90q-92 0 -152.5 -63.5t-60.5 -168.5q0 -99 60 -163t155 -64q106 0 179 90l103 -89q-108 -134 -282 -134z
" />
    <glyph glyph-name="cacute" unicode="&#x107;" horiz-adv-x="528" 
d="M219 554l114 146l137 1l-124 -147h-127zM290 -9q-110 0 -181 70t-71 182q0 113 71 183t185 70q60 0 115 -22.5t92 -65.5l-86 -81q-42 52 -112 52q-59 0 -95.5 -37.5t-36.5 -97.5q0 -61 36.5 -98t95.5 -37q72 0 115 53l85 -82q-72 -89 -213 -89z" />
    <glyph glyph-name="Ccircumflex" unicode="&#x108;" horiz-adv-x="722" 
d="M234 769l104 135h139l104 -135h-121l-52 68h-2l-52 -68h-120zM410 -7q-155 0 -258.5 95.5t-103.5 264.5q0 158 96.5 262t263.5 104q79 0 153.5 -34.5t129.5 -102.5l-104 -87q-74 90 -179 90q-92 0 -152.5 -63.5t-60.5 -168.5q0 -99 60 -163t155 -64q106 0 179 90l103 -89
q-108 -134 -282 -134z" />
    <glyph glyph-name="ccircumflex" unicode="&#x109;" horiz-adv-x="528" 
d="M123 551l103 147h139l101 -147h-120l-50 75h-2l-50 -75h-121zM290 -9q-110 0 -181 70t-71 182q0 113 71 183t185 70q60 0 115 -22.5t92 -65.5l-86 -81q-42 52 -112 52q-59 0 -95.5 -37.5t-36.5 -97.5q0 -61 36.5 -98t95.5 -37q72 0 115 53l85 -82q-72 -89 -213 -89z" />
    <glyph glyph-name="Cdotaccent" unicode="&#x10a;" horiz-adv-x="722" 
d="M409 765q-36 0 -59.5 23.5t-23.5 57.5q0 33 23.5 56.5t59.5 23.5q35 0 59 -23.5t24 -56.5q0 -34 -24 -57.5t-59 -23.5zM410 -7q-155 0 -258.5 95.5t-103.5 264.5q0 158 96.5 262t263.5 104q79 0 153.5 -34.5t129.5 -102.5l-104 -87q-74 90 -179 90q-92 0 -152.5 -63.5
t-60.5 -168.5q0 -99 60 -163t155 -64q106 0 179 90l103 -89q-108 -134 -282 -134z" />
    <glyph glyph-name="cdotaccent" unicode="&#x10b;" horiz-adv-x="528" 
d="M296 555q-36 0 -59.5 23.5t-23.5 57.5q0 33 23.5 56.5t59.5 23.5q35 0 59 -23.5t24 -56.5q0 -34 -24 -57.5t-59 -23.5zM290 -9q-110 0 -181 70t-71 182q0 113 71 183t185 70q60 0 115 -22.5t92 -65.5l-86 -81q-42 52 -112 52q-59 0 -95.5 -37.5t-36.5 -97.5
q0 -61 36.5 -98t95.5 -37q72 0 115 53l85 -82q-72 -89 -213 -89z" />
    <glyph glyph-name="Ccaron" unicode="&#x10c;" horiz-adv-x="722" 
d="M338 769l-104 135h121l51 -68h2l52 68h121l-104 -135h-139zM410 -7q-155 0 -258.5 95.5t-103.5 264.5q0 158 96.5 262t263.5 104q79 0 153.5 -34.5t129.5 -102.5l-104 -87q-74 90 -179 90q-92 0 -152.5 -63.5t-60.5 -168.5q0 -99 60 -163t155 -64q106 0 179 90l103 -89
q-108 -134 -282 -134z" />
    <glyph glyph-name="ccaron" unicode="&#x10d;" horiz-adv-x="528" 
d="M225 549l-102 147h121l50 -75h2l50 75h120l-102 -147h-139zM290 -9q-110 0 -181 70t-71 182q0 113 71 183t185 70q60 0 115 -22.5t92 -65.5l-86 -81q-42 52 -112 52q-59 0 -95.5 -37.5t-36.5 -97.5q0 -61 36.5 -98t95.5 -37q72 0 115 53l85 -82q-72 -89 -213 -89z" />
    <glyph glyph-name="Dcaron" unicode="&#x10e;" horiz-adv-x="728" 
d="M283 768l-104 135h121l51 -68h2l52 68h121l-104 -135h-139zM77 0v710h235q167 0 268 -98.5t101 -257.5t-98.5 -256.5t-267.5 -97.5h-238zM216 125h90q102 0 165 65t63 164q0 100 -62 165.5t-158 65.5h-98v-460z" />
    <glyph glyph-name="dcaron" unicode="&#x10f;" horiz-adv-x="689" 
d="M607 580l31 206h125l-63 -206h-93zM271 -9q-102 0 -168 70t-66 182q0 110 66 181.5t165 71.5q93 0 148 -64h2v304h130v-736h-125v60h-1q-53 -69 -151 -69zM295 109q55 0 91.5 37t36.5 96t-36 98t-92 39q-54 0 -89.5 -37.5t-35.5 -99.5q0 -58 35 -95.5t90 -37.5z" />
    <glyph glyph-name="Dcroat" unicode="&#x110;" horiz-adv-x="728" 
d="M312 710q167 0 268 -98.5t101 -257.5t-98.5 -256.5t-267.5 -97.5h-238v292h-54v118h54v300h235zM306 125q102 0 165 65t63 164q0 100 -62 165.5t-158 65.5h-98v-175h154v-118h-154v-167h90z" />
    <glyph glyph-name="dcroat" unicode="&#x111;" horiz-adv-x="606" 
d="M607 638v-84h-59v-554h-125v60h-1q-53 -69 -151 -69q-102 0 -168 70t-66 182q0 110 66 181.5t165 71.5q93 0 148 -64h2v122h-177v84h177v98h130v-98h59zM295 109q55 0 91.5 37t36.5 96t-36 98t-92 39q-54 0 -89.5 -37.5t-35.5 -99.5q0 -58 35 -95.5t90 -37.5z" />
    <glyph glyph-name="Emacron" unicode="&#x112;" horiz-adv-x="598" 
d="M158 787v100h305v-100h-305zM77 0v710h454v-125h-315v-171h252v-123h-252v-166h336v-125h-475z" />
    <glyph glyph-name="emacron" unicode="&#x113;" horiz-adv-x="557" 
d="M439 684v-105h-305v105h305zM520 249q0 -23 -3 -47h-343q12 -44 46 -69t83 -25q74 0 119 55l85 -79q-72 -93 -213 -93q-113 0 -184.5 70t-71.5 184q0 111 69.5 181t178.5 70q103 0 168.5 -69.5t65.5 -177.5zM285 382q-40 0 -69.5 -22.5t-40.5 -63.5h215q-22 86 -105 86z
" />
    <glyph glyph-name="Ebreve" unicode="&#x114;" horiz-adv-x="598" 
d="M311 761q-73 0 -115.5 37.5t-47.5 104.5h99q2 -22 18.5 -36t45.5 -14q28 0 45 14t19 36h99q-5 -65 -47 -103.5t-116 -38.5zM77 0v710h454v-125h-315v-171h252v-123h-252v-166h336v-125h-475z" />
    <glyph glyph-name="ebreve" unicode="&#x115;" horiz-adv-x="557" 
d="M287 543q-71 0 -114.5 40.5t-48.5 112.5h99q2 -24 19.5 -40.5t44.5 -16.5q28 0 45 16.5t19 40.5h99q-5 -70 -47.5 -111.5t-115.5 -41.5zM520 249q0 -23 -3 -47h-343q12 -44 46 -69t83 -25q74 0 119 55l85 -79q-72 -93 -213 -93q-113 0 -184.5 70t-71.5 184
q0 111 69.5 181t178.5 70q103 0 168.5 -69.5t65.5 -177.5zM285 382q-40 0 -69.5 -22.5t-40.5 -63.5h215q-22 86 -105 86z" />
    <glyph glyph-name="Edotaccent" unicode="&#x116;" horiz-adv-x="598" 
d="M312 764q-36 0 -59.5 23.5t-23.5 57.5q0 33 23.5 56.5t59.5 23.5q35 0 59 -23.5t24 -56.5q0 -34 -24 -57.5t-59 -23.5zM77 0v710h454v-125h-315v-171h252v-123h-252v-166h336v-125h-475z" />
    <glyph glyph-name="edotaccent" unicode="&#x117;" horiz-adv-x="557" 
d="M288 555q-36 0 -59.5 23.5t-23.5 57.5q0 33 23.5 56.5t59.5 23.5q35 0 59 -23.5t24 -56.5q0 -34 -24 -57.5t-59 -23.5zM520 249q0 -23 -3 -47h-343q12 -44 46 -69t83 -25q74 0 119 55l85 -79q-72 -93 -213 -93q-113 0 -184.5 70t-71.5 184q0 111 69.5 181t178.5 70
q103 0 168.5 -69.5t65.5 -177.5zM285 382q-40 0 -69.5 -22.5t-40.5 -63.5h215q-22 86 -105 86z" />
    <glyph glyph-name="Eogonek" unicode="&#x118;" horiz-adv-x="598" 
d="M539 0q-37 -7 -59 -27.5t-22 -44.5q0 -19 11 -30t30 -11q21 0 39 7l7 -72q-27 -11 -73 -11q-52 0 -83 25t-31 65q0 57 61 99h-342v710h454v-125h-315v-171h252v-123h-252v-166h336v-125h-13z" />
    <glyph glyph-name="eogonek" unicode="&#x119;" horiz-adv-x="556" 
d="M520 249q0 -23 -3 -47h-343q12 -44 46 -69t83 -25q74 0 119 55l85 -79q-56 -71 -147 -87q-65 -29 -65 -66q0 -17 11 -27t30 -10q18 0 40 6l6 -74q-27 -13 -73 -13q-56 0 -88 25.5t-32 66.5q0 49 49 88v3q-91 17 -145.5 83.5t-54.5 165.5q0 111 69.5 181t178.5 70
q103 0 168.5 -69.5t65.5 -177.5zM285 382q-40 0 -69.5 -22.5t-40.5 -63.5h215q-22 86 -105 86z" />
    <glyph glyph-name="Ecaron" unicode="&#x11a;" horiz-adv-x="598" 
d="M241 768l-104 135h121l51 -68h2l52 68h121l-104 -135h-139zM77 0v710h454v-125h-315v-171h252v-123h-252v-166h336v-125h-475z" />
    <glyph glyph-name="ecaron" unicode="&#x11b;" horiz-adv-x="557" 
d="M356 549h-139l-102 147h121l50 -75h2l50 75h120zM520 249q0 -23 -3 -47h-343q12 -44 46 -69t83 -25q74 0 119 55l85 -79q-72 -93 -213 -93q-113 0 -184.5 70t-71.5 184q0 111 69.5 181t178.5 70q103 0 168.5 -69.5t65.5 -177.5zM285 382q-40 0 -69.5 -22.5t-40.5 -63.5
h215q-22 86 -105 86z" />
    <glyph glyph-name="Gcircumflex" unicode="&#x11c;" horiz-adv-x="750" 
d="M224 768l104 135h139l104 -135h-121l-52 68h-2l-52 -68h-120zM410 -7q-158 0 -260 97t-102 264q0 160 96.5 262.5t259.5 102.5q79 0 154 -31t128 -90l-99 -86q-74 74 -183 74q-90 0 -149.5 -63t-59.5 -169q0 -101 58.5 -167t156.5 -66q77 0 143 41v104h-159v121h296v-306
q-50 -40 -125 -64t-155 -24z" />
    <glyph glyph-name="gcircumflex" unicode="&#x11d;" horiz-adv-x="602" 
d="M122 551l103 147h139l101 -147h-120l-50 75h-2l-50 -75h-121zM286 -206q-114 0 -200 49l31 111q82 -46 159 -46q65 0 101 31t36 77v49h-2q-54 -56 -142 -56q-101 0 -167 67t-66 173q0 108 64 177.5t162 69.5q88 0 147 -58h2v51h131v-433q0 -262 -256 -262zM293 127
q54 0 88.5 35.5t34.5 91.5q0 55 -35 89.5t-88 34.5q-55 0 -89.5 -35t-34.5 -90q0 -57 35 -91.5t89 -34.5z" />
    <glyph glyph-name="Gbreve" unicode="&#x11e;" horiz-adv-x="750" 
d="M398 761q-73 0 -115.5 37.5t-47.5 104.5h99q2 -22 18.5 -36t45.5 -14q28 0 45 14t19 36h99q-5 -65 -47 -103.5t-116 -38.5zM410 -7q-158 0 -260 97t-102 264q0 160 96.5 262.5t259.5 102.5q79 0 154 -31t128 -90l-99 -86q-74 74 -183 74q-90 0 -149.5 -63t-59.5 -169
q0 -101 58.5 -167t156.5 -66q77 0 143 41v104h-159v121h296v-306q-50 -40 -125 -64t-155 -24z" />
    <glyph glyph-name="gbreve" unicode="&#x11f;" horiz-adv-x="602" 
d="M294 543q-71 0 -114.5 40.5t-48.5 112.5h99q2 -24 19.5 -40.5t44.5 -16.5q28 0 45 16.5t19 40.5h99q-5 -70 -47.5 -111.5t-115.5 -41.5zM286 -206q-114 0 -200 49l31 111q82 -46 159 -46q65 0 101 31t36 77v49h-2q-54 -56 -142 -56q-101 0 -167 67t-66 173
q0 108 64 177.5t162 69.5q88 0 147 -58h2v51h131v-433q0 -262 -256 -262zM293 127q54 0 88.5 35.5t34.5 91.5q0 55 -35 89.5t-88 34.5q-55 0 -89.5 -35t-34.5 -90q0 -57 35 -91.5t89 -34.5z" />
    <glyph glyph-name="Gdotaccent" unicode="&#x120;" horiz-adv-x="750" 
d="M399 764q-36 0 -59.5 23.5t-23.5 57.5q0 33 23.5 56.5t59.5 23.5q35 0 59 -23.5t24 -56.5q0 -34 -24 -57.5t-59 -23.5zM410 -7q-158 0 -260 97t-102 264q0 160 96.5 262.5t259.5 102.5q79 0 154 -31t128 -90l-99 -86q-74 74 -183 74q-90 0 -149.5 -63t-59.5 -169
q0 -101 58.5 -167t156.5 -66q77 0 143 41v104h-159v121h296v-306q-50 -40 -125 -64t-155 -24z" />
    <glyph glyph-name="gdotaccent" unicode="&#x121;" horiz-adv-x="602" 
d="M295 555q-36 0 -59.5 23.5t-23.5 57.5q0 33 23.5 56.5t59.5 23.5q35 0 59 -23.5t24 -56.5q0 -34 -24 -57.5t-59 -23.5zM286 -206q-114 0 -200 49l31 111q82 -46 159 -46q65 0 101 31t36 77v49h-2q-54 -56 -142 -56q-101 0 -167 67t-66 173q0 108 64 177.5t162 69.5
q88 0 147 -58h2v51h131v-433q0 -262 -256 -262zM293 127q54 0 88.5 35.5t34.5 91.5q0 55 -35 89.5t-88 34.5q-55 0 -89.5 -35t-34.5 -90q0 -57 35 -91.5t89 -34.5z" />
    <glyph glyph-name="Gcommaaccent" unicode="&#x122;" horiz-adv-x="750" 
d="M410 -7q-158 0 -260 97t-102 264q0 160 96.5 262.5t259.5 102.5q79 0 154 -31t128 -90l-99 -86q-74 74 -183 74q-90 0 -149.5 -63t-59.5 -169q0 -101 58.5 -167t156.5 -66q77 0 143 41v104h-159v121h296v-306q-50 -40 -125 -64t-155 -24zM321 -220l-27 74q30 8 42.5 20.5
t12.5 34.5q0 16 -7 38h113q5 -18 5 -45q0 -56 -38 -87t-101 -35z" />
    <glyph glyph-name="gcommaaccent" unicode="&#x123;" horiz-adv-x="602" 
d="M375 729l27 -74q-30 -8 -42.5 -20.5t-12.5 -34.5q0 -16 7 -38h-113q-5 18 -5 45q0 56 38 87t101 35zM286 -206q-114 0 -200 49l31 111q82 -46 159 -46q65 0 101 31t36 77v49h-2q-54 -56 -142 -56q-101 0 -167 67t-66 173q0 108 64 177.5t162 69.5q88 0 147 -58h2v51h131
v-433q0 -262 -256 -262zM293 127q54 0 88.5 35.5t34.5 91.5q0 55 -35 89.5t-88 34.5q-55 0 -89.5 -35t-34.5 -90q0 -57 35 -91.5t89 -34.5z" />
    <glyph glyph-name="Hcircumflex" unicode="&#x124;" horiz-adv-x="727" 
d="M193 769l104 135h139l104 -135h-121l-52 68h-2l-52 -68h-120zM77 0v710h142v-307h290v307h141v-710h-141v278h-290v-278h-142z" />
    <glyph glyph-name="hcircumflex" unicode="&#x125;" horiz-adv-x="593" 
d="M75 780l104 135h139l104 -135h-121l-52 68h-2l-52 -68h-120zM65 0v736h131v-306h1q60 66 160 66q179 0 179 -203v-293h-131v260q0 65 -23.5 92t-71.5 27q-54 0 -84 -33.5t-30 -98.5v-247h-131z" />
    <glyph glyph-name="Hbar" unicode="&#x126;" horiz-adv-x="736" 
d="M709 606v-93h-54v-513h-141v278h-290v-278h-142v513h-49v93h49v104h142v-104h290v104h141v-104h54zM514 403v110h-290v-110h290z" />
    <glyph glyph-name="hbar" unicode="&#x127;" horiz-adv-x="593" 
d="M357 496q179 0 179 -203v-293h-131v260q0 65 -23.5 92t-71.5 27q-54 0 -84 -33.5t-30 -98.5v-247h-131v554h-61v84h61v98h131v-98h170v-84h-170v-124h1q60 66 160 66z" />
    <glyph glyph-name="Itilde" unicode="&#x128;" horiz-adv-x="306" 
d="M233 768q-36 0 -85 28q-40 22 -60 22q-32 0 -53 -49l-78 32q38 108 120 108q45 0 89 -28q38 -21 56 -21q31 0 52 49l77 -25q-35 -116 -118 -116zM81 0v710h143v-710h-143z" />
    <glyph glyph-name="itilde" unicode="&#x129;" horiz-adv-x="273" 
d="M29 551l-77 33q37 108 114 108q36 0 78 -24q36 -22 51 -22q33 0 54 49l78 -26q-16 -52 -46 -84t-71 -32q-32 0 -76 26q-39 23 -57 22q-29 -3 -48 -50zM71 0v489h131v-489h-131z" />
    <glyph glyph-name="Imacron" unicode="&#x12a;" horiz-adv-x="306" 
d="M-1 787v100h305v-100h-305zM81 0v710h143v-710h-143z" />
    <glyph glyph-name="imacron" unicode="&#x12b;" horiz-adv-x="273" 
d="M-16 579v105h305v-105h-305zM71 0v489h131v-489h-131z" />
    <glyph glyph-name="Ibreve" unicode="&#x12c;" horiz-adv-x="306" 
d="M152 761q-73 0 -115.5 37.5t-47.5 104.5h99q2 -22 18.5 -36t45.5 -14q28 0 45 14t19 36h99q-5 -65 -47 -103.5t-116 -38.5zM81 0v710h143v-710h-143z" />
    <glyph glyph-name="ibreve" unicode="&#x12d;" horiz-adv-x="273" 
d="M137 550q-59 0 -99.5 39.5t-46.5 110.5h98q5 -63 48 -63q20 0 33.5 17t14.5 46h98q-5 -67 -43 -108.5t-103 -41.5zM71 0v489h131v-489h-131z" />
    <glyph glyph-name="Iogonek" unicode="&#x12e;" horiz-adv-x="306" 
d="M200 0q-37 -7 -59 -27.5t-22 -44.5q0 -19 11 -30t30 -11q22 0 39 7l7 -72q-28 -11 -73 -11q-52 0 -83 25t-31 65q0 57 62 100v709h143v-710h-24z" />
    <glyph glyph-name="iogonek" unicode="&#x12f;" horiz-adv-x="273" 
d="M138 555q-36 0 -59.5 23.5t-23.5 57.5q0 33 23.5 56.5t59.5 23.5q35 0 59 -23.5t24 -56.5q0 -34 -24 -57.5t-59 -23.5zM71 2v487h131v-489h-14q-37 -7 -59 -27.5t-22 -44.5q0 -19 11 -30t30 -11q21 0 39 7l7 -72q-27 -11 -73 -11q-52 0 -83 25t-31 65q0 25 16.5 53
t47.5 48z" />
    <glyph glyph-name="Idotaccent" unicode="&#x130;" horiz-adv-x="306" 
d="M153 764q-36 0 -59.5 23.5t-23.5 57.5q0 33 23.5 56.5t59.5 23.5q35 0 59 -23.5t24 -56.5q0 -34 -24 -57.5t-59 -23.5zM81 0v710h143v-710h-143z" />
    <glyph glyph-name="dotlessi" unicode="&#x131;" horiz-adv-x="273" 
d="M71 0v489h131v-489h-131z" />
    <glyph glyph-name="IJ" unicode="&#x132;" horiz-adv-x="811" 
d="M81 0v710h143v-710h-143zM524 -7q-57 0 -109 23.5t-86 67.5l81 100q47 -59 106 -59q85 0 85 121v464h141v-463q0 -254 -218 -254z" />
    <glyph glyph-name="ij" unicode="&#x133;" horiz-adv-x="527" 
d="M138 555q-36 0 -59.5 23.5t-23.5 57.5q0 33 23.5 56.5t59.5 23.5q35 0 59 -23.5t24 -56.5q0 -34 -24 -57.5t-59 -23.5zM402 555q-36 0 -59.5 23.5t-23.5 57.5q0 33 23.5 56.5t59.5 23.5q35 0 59 -23.5t24 -56.5q0 -34 -24 -57.5t-59 -23.5zM71 0v489h131v-489h-131z
M323 -207q-55 0 -102 19l22 108q22 -12 48 -12q45 0 45 68v513h131v-518q0 -86 -39 -132t-105 -46z" />
    <glyph glyph-name="Jcircumflex" unicode="&#x134;" horiz-adv-x="505" 
d="M192 769l104 135h139l104 -135h-121l-52 68h-2l-52 -68h-120zM218 -7q-57 0 -109 23.5t-86 67.5l81 100q47 -59 106 -59q85 0 85 121v464h141v-463q0 -254 -218 -254z" />
    <glyph glyph-name="jcircumflex" unicode="&#x135;" horiz-adv-x="254" 
d="M-44 551l103 147h139l101 -147h-120l-50 75h-2l-50 -75h-121zM50 -207q-55 0 -102 19l22 108q22 -12 48 -12q45 0 45 68v513h131v-518q0 -86 -39 -132t-105 -46z" />
    <glyph glyph-name="Kcommaaccent" unicode="&#x136;" horiz-adv-x="663" 
d="M77 0v710h141v-311h2l243 311h179l-262 -313l271 -397h-174l-190 285l-69 -82v-203h-141zM260 -220l-27 74q30 8 42.5 20.5t12.5 34.5q0 16 -7 38h113q5 -18 5 -45q0 -56 -38 -87t-101 -35z" />
    <glyph glyph-name="kcommaaccent" unicode="&#x137;" horiz-adv-x="536" 
d="M65 0v736h130v-452h2l174 205h154l-171 -196l175 -293h-147l-121 205l-66 -72v-133h-130zM202 -220l-27 74q30 8 42.5 20.5t12.5 34.5q0 16 -7 38h113q5 -18 5 -45q0 -56 -38 -87t-101 -35z" />
    <glyph glyph-name="kgreenlandic" unicode="&#x138;" horiz-adv-x="552" 
d="M65 0v488h130v-206h2l180 207h158l-187 -206l197 -283h-154l-133 198l-63 -68v-130h-130z" />
    <glyph glyph-name="Lacute" unicode="&#x139;" horiz-adv-x="564" 
d="M184 769l111 135h139l-126 -135h-124zM77 0v710h143v-585h314v-125h-457z" />
    <glyph glyph-name="lacute" unicode="&#x13a;" horiz-adv-x="273" 
d="M72 782l111 135h139l-126 -135h-124zM71 0v736h131v-736h-131z" />
    <glyph glyph-name="Lcommaaccent" unicode="&#x13b;" horiz-adv-x="564" 
d="M77 0v710h143v-585h314v-125h-457zM224 -220l-27 74q30 8 42.5 20.5t12.5 34.5q0 16 -7 38h113q5 -18 5 -45q0 -56 -38 -87t-101 -35z" />
    <glyph glyph-name="lcommaaccent" unicode="&#x13c;" horiz-adv-x="273" 
d="M71 0v736h131v-736h-131zM56 -220l-27 74q30 8 42.5 20.5t12.5 34.5q0 16 -7 38h113q5 -17 5 -45q0 -56 -38 -87t-101 -35z" />
    <glyph glyph-name="Lcaron" unicode="&#x13d;" horiz-adv-x="570" 
d="M327 579l31 206h125l-63 -206h-93zM77 0v710h143v-585h314v-125h-457z" />
    <glyph glyph-name="lcaron" unicode="&#x13e;" horiz-adv-x="342" 
d="M261 580l31 206h125l-63 -206h-93zM71 0v736h131v-736h-131z" />
    <glyph glyph-name="Ldot" unicode="&#x13f;" horiz-adv-x="564" 
d="M77 0v710h143v-585h314v-125h-457zM435 259q-35 0 -59 23.5t-24 57.5q0 33 24.5 56.5t58.5 23.5q33 0 57 -23.5t24 -56.5q0 -34 -24 -57.5t-57 -23.5z" />
    <glyph glyph-name="ldot" unicode="&#x140;" horiz-adv-x="466" 
d="M71 0v736h131v-736h-131zM368 173q-35 0 -59 23.5t-24 57.5q0 33 24.5 56.5t58.5 23.5q33 0 57 -23.5t24 -56.5q0 -34 -24 -57.5t-57 -23.5z" />
    <glyph glyph-name="Lslash" unicode="&#x141;" horiz-adv-x="572" 
d="M228 125h314v-125h-457v264l-69 -30v108l69 30v338h143v-276l113 49v-110l-113 -48v-200z" />
    <glyph glyph-name="lslash" unicode="&#x142;" horiz-adv-x="314" 
d="M295 430v-96l-69 -30v-304h-131v248l-73 -32v95l73 32v393h131v-336z" />
    <glyph glyph-name="Nacute" unicode="&#x143;" horiz-adv-x="753" 
d="M270 769l111 135h139l-126 -135h-124zM77 0v710h138l319 -479h2v479h139v-710h-141l-315 469h-2v-469h-140z" />
    <glyph glyph-name="nacute" unicode="&#x144;" horiz-adv-x="588" 
d="M216 554l114 146l137 1l-124 -147h-127zM65 0v489h131v-63h2q59 70 156 70q177 0 177 -206v-290h-131v257q0 67 -23 94.5t-71 27.5q-51 0 -80.5 -34.5t-29.5 -99.5v-245h-131z" />
    <glyph glyph-name="Ncommaaccent" unicode="&#x145;" horiz-adv-x="753" 
d="M77 0v710h138l319 -479h2v479h139v-710h-141l-315 469h-2v-469h-140zM295 -220l-27 74q30 8 42.5 20.5t12.5 34.5q0 16 -7 38h113q5 -18 5 -45q0 -56 -38 -87t-101 -35z" />
    <glyph glyph-name="ncommaaccent" unicode="&#x146;" horiz-adv-x="588" 
d="M65 0v489h131v-63h2q59 70 156 70q177 0 177 -206v-290h-131v257q0 67 -23 94.5t-71 27.5q-51 0 -80.5 -34.5t-29.5 -99.5v-245h-131zM228 -220l-27 74q30 8 42.5 20.5t12.5 34.5q0 16 -7 38h113q5 -18 5 -45q0 -56 -38 -87t-101 -35z" />
    <glyph glyph-name="Ncaron" unicode="&#x147;" horiz-adv-x="753" 
d="M307 769l-104 135h121l51 -68h2l52 68h121l-104 -135h-139zM77 0v710h138l319 -479h2v479h139v-710h-141l-315 469h-2v-469h-140z" />
    <glyph glyph-name="ncaron" unicode="&#x148;" horiz-adv-x="588" 
d="M228 549l-102 147h121l50 -75h2l50 75h120l-102 -147h-139zM65 0v489h131v-63h2q59 70 156 70q177 0 177 -206v-290h-131v257q0 67 -23 94.5t-71 27.5q-51 0 -80.5 -34.5t-29.5 -99.5v-245h-131z" />
    <glyph glyph-name="napostrophe" unicode="&#x149;" horiz-adv-x="691" 
d="M-17 494l32 216h124l-63 -216h-93zM167 0v489h131v-63h2q59 70 156 70q177 0 177 -206v-290h-131v257q0 67 -23 94.5t-71 27.5q-51 0 -80.5 -34.5t-29.5 -99.5v-245h-131z" />
    <glyph glyph-name="Eng" unicode="&#x14a;" horiz-adv-x="753" 
d="M536 710h140v-712q0 -110 -55.5 -157t-144.5 -47q-49 0 -93 13l10 110q25 -9 55 -9q46 0 67 24t21 62v5l-317 469h-2v-468h-140v710h136l321 -480h2v480z" />
    <glyph glyph-name="eng" unicode="&#x14b;" horiz-adv-x="584" 
d="M346 -206q-40 0 -79 14l9 100q25 -8 48 -8q40 0 56 20.5t16 65.5v271q0 67 -23 94.5t-71 27.5t-77 -34.5t-29 -99.5v-245h-131v489h131v-63h2q58 70 152 70q178 0 178 -206v-296q0 -102 -45 -151t-137 -49z" />
    <glyph glyph-name="Omacron" unicode="&#x14c;" horiz-adv-x="819" 
d="M258 788v100h305v-100h-305zM410 -9q-160 0 -261 102.5t-101 261.5t101 261.5t261 102.5q157 0 259 -101.5t102 -262.5t-102 -262.5t-259 -101.5zM410 123q92 0 153 66t61 166t-61 166t-153 66q-95 0 -155.5 -67t-60.5 -165t60.5 -165t155.5 -67z" />
    <glyph glyph-name="omacron" unicode="&#x14d;" horiz-adv-x="595" 
d="M145 579v105h305v-105h-305zM298 -9q-116 0 -188 71t-72 182q0 110 72 181t188 71q114 0 186.5 -70t72.5 -182t-72.5 -182.5t-186.5 -70.5zM298 109q53 0 89.5 38t36.5 97q0 60 -36 97.5t-90 37.5q-56 0 -91.5 -38.5t-35.5 -96.5t35.5 -96.5t91.5 -38.5z" />
    <glyph glyph-name="Obreve" unicode="&#x14e;" horiz-adv-x="819" 
d="M411 762q-73 0 -115.5 37.5t-47.5 104.5h99q2 -22 18.5 -36t45.5 -14q28 0 45 14t19 36h99q-5 -65 -47 -103.5t-116 -38.5zM410 -9q-160 0 -261 102.5t-101 261.5t101 261.5t261 102.5q157 0 259 -101.5t102 -262.5t-102 -262.5t-259 -101.5zM410 123q92 0 153 66t61 166
t-61 166t-153 66q-95 0 -155.5 -67t-60.5 -165t60.5 -165t155.5 -67z" />
    <glyph glyph-name="obreve" unicode="&#x14f;" horiz-adv-x="595" 
d="M298 543q-71 0 -114.5 40.5t-48.5 112.5h99q2 -24 19.5 -40.5t44.5 -16.5q28 0 45 16.5t19 40.5h99q-5 -70 -47.5 -111.5t-115.5 -41.5zM298 -9q-116 0 -188 71t-72 182q0 110 72 181t188 71q114 0 186.5 -70t72.5 -182t-72.5 -182.5t-186.5 -70.5zM298 109q53 0 89.5 38
t36.5 97q0 60 -36 97.5t-90 37.5q-56 0 -91.5 -38.5t-35.5 -96.5t35.5 -96.5t91.5 -38.5z" />
    <glyph glyph-name="Ohungarumlaut" unicode="&#x150;" horiz-adv-x="819" 
d="M249 769l113 146l132 1l-124 -147h-121zM454 769l112 146l131 1l-123 -147h-120zM410 -9q-160 0 -261 102.5t-101 261.5t101 261.5t261 102.5q157 0 259 -101.5t102 -262.5t-102 -262.5t-259 -101.5zM410 123q92 0 153 66t61 166t-61 166t-153 66q-95 0 -155.5 -67
t-60.5 -165t60.5 -165t155.5 -67z" />
    <glyph glyph-name="ohungarumlaut" unicode="&#x151;" horiz-adv-x="595" 
d="M136 556l113 146l132 1l-124 -147h-121zM341 556l112 146l131 1l-123 -147h-120zM298 -9q-116 0 -188 71t-72 182q0 110 72 181t188 71q114 0 186.5 -70t72.5 -182t-72.5 -182.5t-186.5 -70.5zM298 109q53 0 89.5 38t36.5 97q0 60 -36 97.5t-90 37.5q-56 0 -91.5 -38.5
t-35.5 -96.5t35.5 -96.5t91.5 -38.5z" />
    <glyph glyph-name="OE" unicode="&#x152;" horiz-adv-x="959" 
d="M577 125h336v-125h-503q-160 0 -261 101t-101 254q0 154 101 255t261 100h483v-125h-316v-172h257v-122h-257v-166zM410 131h33v448h-33q-92 1 -154 -63.5t-62 -160.5q0 -95 62 -160t154 -64z" />
    <glyph glyph-name="oe" unicode="&#x153;" horiz-adv-x="815" 
d="M789 249q0 -32 -4 -46h-305q18 -95 111 -95q64 0 102 55l84 -80q-67 -92 -194 -92q-115 0 -177 75h-2q-25 -35 -67.5 -55t-88.5 -20q-101 0 -160.5 68t-59.5 183q0 113 61 183.5t161 70.5q97 0 153 -73h3q60 73 174 73q94 0 151.5 -69.5t57.5 -177.5zM480 295h181
q-13 87 -84 87q-81 0 -97 -87zM250 108q39 0 66 38.5t27 97.5q0 60 -25 97.5t-64 37.5q-40 0 -66.5 -38t-26.5 -97q0 -62 24 -99t65 -37z" />
    <glyph glyph-name="Racute" unicode="&#x154;" horiz-adv-x="655" 
d="M215 769l111 135h139l-126 -135h-124zM77 0v710h269q123 0 185 -64.5t62 -171.5q0 -166 -148 -214l178 -260h-167l-159 243h-81v-243h-139zM216 367h102q63 0 96.5 29.5t33.5 79.5t-32 79.5t-92 29.5h-108v-218z" />
    <glyph glyph-name="racute" unicode="&#x155;" horiz-adv-x="372" 
d="M116 553l114 146l137 1l-124 -147h-127zM65 0v489h131v-71h2q58 78 147 78h10v-143q-14 1 -35 1q-59 0 -91.5 -35.5t-32.5 -92.5v-226h-131z" />
    <glyph glyph-name="Rcommaaccent" unicode="&#x156;" horiz-adv-x="655" 
d="M77 0v710h269q123 0 185 -64.5t62 -171.5q0 -166 -148 -214l178 -260h-167l-159 243h-81v-243h-139zM216 367h102q63 0 96.5 29.5t33.5 79.5t-32 79.5t-92 29.5h-108v-218zM247 -220l-27 74q30 8 42.5 20.5t12.5 34.5q0 16 -7 38h113q5 -18 5 -45q0 -56 -38 -87t-101 -35
z" />
    <glyph glyph-name="rcommaaccent" unicode="&#x157;" horiz-adv-x="372" 
d="M65 0v489h131v-71h2q58 78 147 78h10v-143q-14 1 -35 1q-59 0 -91.5 -35.5t-32.5 -92.5v-226h-131zM52 -220l-27 74q30 8 42.5 20.5t12.5 34.5q0 16 -7 38h113q5 -17 5 -45q0 -56 -38 -87t-101 -35z" />
    <glyph glyph-name="Rcaron" unicode="&#x158;" horiz-adv-x="655" 
d="M252 769l-104 135h121l51 -68h2l52 68h121l-104 -135h-139zM77 0v710h269q123 0 185 -64.5t62 -171.5q0 -166 -148 -214l178 -260h-167l-159 243h-81v-243h-139zM216 367h102q63 0 96.5 29.5t33.5 79.5t-32 79.5t-92 29.5h-108v-218z" />
    <glyph glyph-name="rcaron" unicode="&#x159;" horiz-adv-x="372" 
d="M153 549l-102 147h121l50 -75h2l50 75h120l-102 -147h-139zM65 0v489h131v-71h2q58 78 147 78h10v-143q-14 1 -35 1q-59 0 -91.5 -35.5t-32.5 -92.5v-226h-131z" />
    <glyph glyph-name="Sacute" unicode="&#x15a;" horiz-adv-x="582" 
d="M212 769l111 135h139l-126 -135h-124zM291 -9q-149 0 -259 113l85 104q38 -43 85.5 -66t91.5 -23q49 0 75 20.5t26 54.5q0 37 -26.5 57t-96.5 44q-38 13 -64.5 24.5t-57 30.5t-49.5 40.5t-31.5 54t-12.5 71.5q0 85 66 143.5t162 59.5q130 0 240 -90l-82 -106
q-86 70 -155 70q-38 0 -61.5 -19t-24.5 -52q0 -31 25.5 -49t94.5 -45q110 -43 144 -66q77 -52 77 -151q0 -74 -40 -125.5t-95 -73t-117 -21.5z" />
    <glyph glyph-name="sacute" unicode="&#x15b;" horiz-adv-x="445" 
d="M143 554l114 146l137 1l-124 -147h-127zM223 -9q-115 0 -198 72l63 91q61 -56 136 -56q28 0 43.5 11t15.5 29q0 15 -18.5 25.5t-69.5 27.5q-72 24 -111.5 59.5t-39.5 100.5t50 105t127 40q99 0 178 -61l-64 -97q-53 52 -117 52q-18 0 -32 -9t-14 -27q0 -25 72 -52
q40 -15 59 -22.5t45 -22t36.5 -28.5t19 -35.5t8.5 -50.5q0 -68 -48.5 -110t-140.5 -42z" />
    <glyph glyph-name="Scircumflex" unicode="&#x15c;" horiz-adv-x="582" 
d="M116 769l104 135h139l104 -135h-121l-52 68h-2l-52 -68h-120zM291 -9q-149 0 -259 113l85 104q38 -43 85.5 -66t91.5 -23q49 0 75 20.5t26 54.5q0 37 -26.5 57t-96.5 44q-38 13 -64.5 24.5t-57 30.5t-49.5 40.5t-31.5 54t-12.5 71.5q0 85 66 143.5t162 59.5
q130 0 240 -90l-82 -106q-86 70 -155 70q-38 0 -61.5 -19t-24.5 -52q0 -31 25.5 -49t94.5 -45q110 -43 144 -66q77 -52 77 -151q0 -74 -40 -125.5t-95 -73t-117 -21.5z" />
    <glyph glyph-name="scircumflex" unicode="&#x15d;" horiz-adv-x="445" 
d="M56 551l103 147h139l101 -147h-120l-50 75h-2l-50 -75h-121zM223 -9q-115 0 -198 72l63 91q61 -56 136 -56q28 0 43.5 11t15.5 29q0 15 -18.5 25.5t-69.5 27.5q-72 24 -111.5 59.5t-39.5 100.5t50 105t127 40q99 0 178 -61l-64 -97q-53 52 -117 52q-18 0 -32 -9t-14 -27
q0 -25 72 -52q40 -15 59 -22.5t45 -22t36.5 -28.5t19 -35.5t8.5 -50.5q0 -68 -48.5 -110t-140.5 -42z" />
    <glyph glyph-name="Scedilla" unicode="&#x15e;" horiz-adv-x="582" 
d="M305 -9l-10 -20v-2q98 -3 98 -81q0 -36 -32 -57.5t-96 -21.5q-31 0 -61 6v59q21 -7 48 -7q48 0 48 28q0 14 -21 23t-58 9v37l15 31q-115 19 -204 109l85 104q38 -43 85.5 -66t91.5 -23q49 0 75 20.5t26 54.5q0 37 -26.5 57t-96.5 44q-38 13 -64.5 24.5t-57 30.5
t-49.5 40.5t-31.5 54t-12.5 71.5q0 85 66 143.5t162 59.5q130 0 240 -90l-82 -106q-86 70 -155 70q-38 0 -61.5 -19t-24.5 -52q0 -31 25.5 -49t94.5 -45q110 -43 144 -66q77 -52 77 -151q0 -104 -71.5 -160t-166.5 -60z" />
    <glyph glyph-name="scedilla" unicode="&#x15f;" horiz-adv-x="445" 
d="M232 -9l-10 -20v-2q98 -3 98 -81q0 -36 -32 -57.5t-96 -21.5q-31 0 -61 6v59q21 -7 48 -7q48 0 48 28q0 14 -21 23t-58 9v37l15 32q-78 15 -138 67l63 91q61 -56 136 -56q28 0 43.5 11t15.5 29q0 15 -18.5 25.5t-69.5 27.5q-72 24 -111.5 59.5t-39.5 100.5t50 105t127 40
q99 0 178 -61l-64 -97q-53 52 -117 52q-18 0 -32 -9t-14 -27q0 -25 72 -52q40 -15 59 -22.5t45 -22t36.5 -28.5t19 -35.5t8.5 -50.5q0 -66 -46 -108t-134 -44z" />
    <glyph glyph-name="Scaron" unicode="&#x160;" horiz-adv-x="582" 
d="M220 769l-104 135h121l51 -68h2l52 68h121l-104 -135h-139zM291 -9q-149 0 -259 113l85 104q38 -43 85.5 -66t91.5 -23q49 0 75 20.5t26 54.5q0 37 -26.5 57t-96.5 44q-38 13 -64.5 24.5t-57 30.5t-49.5 40.5t-31.5 54t-12.5 71.5q0 85 66 143.5t162 59.5q130 0 240 -90
l-82 -106q-86 70 -155 70q-38 0 -61.5 -19t-24.5 -52q0 -31 25.5 -49t94.5 -45q110 -43 144 -66q77 -52 77 -151q0 -74 -40 -125.5t-95 -73t-117 -21.5z" />
    <glyph glyph-name="scaron" unicode="&#x161;" horiz-adv-x="445" 
d="M158 549l-102 147h121l50 -75h2l50 75h120l-102 -147h-139zM223 -9q-115 0 -198 72l63 91q61 -56 136 -56q28 0 43.5 11t15.5 29q0 15 -18.5 25.5t-69.5 27.5q-72 24 -111.5 59.5t-39.5 100.5t50 105t127 40q99 0 178 -61l-64 -97q-53 52 -117 52q-18 0 -32 -9t-14 -27
q0 -25 72 -52q40 -15 59 -22.5t45 -22t36.5 -28.5t19 -35.5t8.5 -50.5q0 -68 -48.5 -110t-140.5 -42z" />
    <glyph glyph-name="uni0162" unicode="&#x162;" horiz-adv-x="588" 
d="M302 0l-15 -29v-2q98 -3 98 -81q0 -36 -32 -57.5t-96 -21.5q-31 0 -61 6v59q21 -7 48 -7q48 0 48 28q0 14 -21 23t-58 9v37l17 36h-8v585h-194v125h533v-125h-197v-585h-62z" />
    <glyph glyph-name="uni0163" unicode="&#x163;" horiz-adv-x="369" 
d="M208 -31q98 -3 98 -81q0 -36 -32 -57.5t-96 -21.5q-31 0 -61 6v59q21 -7 48 -7q48 0 48 28q0 14 -21 23t-58 9v37l19 40q-76 34 -76 150v226h-58v109h58v159l131 14v-173h132v-109h-132v-207q0 -33 9.5 -48t32.5 -15q28 0 62 17l33 -105q-57 -31 -127 -31l-10 -20v-2z
" />
    <glyph glyph-name="Tcaron" unicode="&#x164;" horiz-adv-x="588" 
d="M223 769l-104 135h121l51 -68h2l52 68h121l-104 -135h-139zM222 0v585h-194v125h533v-125h-197v-585h-142z" />
    <glyph glyph-name="tcaron" unicode="&#x165;" horiz-adv-x="368" 
d="M261 580l31 206h125l-63 -206h-93zM216 -9q-65 0 -102 41.5t-37 121.5v226h-58v109h58v159l131 14v-173h132v-109h-132v-207q0 -33 9.5 -48t32.5 -15q28 0 62 17l33 -105q-57 -31 -129 -31z" />
    <glyph glyph-name="Tbar" unicode="&#x166;" horiz-adv-x="588" 
d="M561 585h-197v-203h120v-104h-120v-278h-142v278h-112v104h112v203h-194v125h533v-125z" />
    <glyph glyph-name="tbar" unicode="&#x167;" horiz-adv-x="369" 
d="M312 127l33 -105q-57 -31 -129 -31q-65 0 -102 41.5t-37 121.5v66h-50v84h50v76h-58v109h58v159l131 14v-173h132v-109h-132v-76h108v-84h-108v-47q0 -33 9.5 -48t32.5 -15q28 0 62 17z" />
    <glyph glyph-name="Utilde" unicode="&#x168;" horiz-adv-x="711" 
d="M436 769q-36 0 -85 28q-40 22 -60 22q-32 0 -53 -49l-78 32q38 108 120 108q45 0 89 -28q38 -21 56 -21q31 0 52 49l77 -25q-35 -116 -118 -116zM355 -9q-131 0 -209 80t-78 223v416h141v-407q0 -79 38.5 -129.5t107.5 -50.5q66 0 107 48.5t41 131.5v407h141v-416
q0 -140 -76.5 -221.5t-212.5 -81.5z" />
    <glyph glyph-name="utilde" unicode="&#x169;" horiz-adv-x="575" 
d="M368 551q-40 0 -88 30q-34 21 -54 21q-35 0 -57 -50l-78 33q17 53 47.5 84.5t72.5 31.5t86 -27q38 -23 55 -23q34 0 56 50l77 -26q-15 -56 -46 -90t-71 -34zM236 -9q-180 0 -180 203v295h130v-261q0 -66 20.5 -92.5t67.5 -26.5q45 0 76.5 37.5t31.5 104.5v238h132v-489
h-132v58l-2 1q-56 -68 -144 -68z" />
    <glyph glyph-name="Umacron" unicode="&#x16a;" horiz-adv-x="711" 
d="M202 788v100h305v-100h-305zM355 -9q-131 0 -209 80t-78 223v416h141v-407q0 -79 38.5 -129.5t107.5 -50.5q66 0 107 48.5t41 131.5v407h141v-416q0 -140 -76.5 -221.5t-212.5 -81.5z" />
    <glyph glyph-name="umacron" unicode="&#x16b;" horiz-adv-x="575" 
d="M133 579v105h305v-105h-305zM236 -9q-180 0 -180 203v295h130v-261q0 -66 20.5 -92.5t67.5 -26.5q45 0 76.5 37.5t31.5 104.5v238h132v-489h-132v58l-2 1q-56 -68 -144 -68z" />
    <glyph glyph-name="Ubreve" unicode="&#x16c;" horiz-adv-x="711" 
d="M355 762q-73 0 -115.5 37.5t-47.5 104.5h99q2 -22 18.5 -36t45.5 -14q28 0 45 14t19 36h99q-5 -65 -47 -103.5t-116 -38.5zM355 -9q-131 0 -209 80t-78 223v416h141v-407q0 -79 38.5 -129.5t107.5 -50.5q66 0 107 48.5t41 131.5v407h141v-416q0 -140 -76.5 -221.5
t-212.5 -81.5z" />
    <glyph glyph-name="ubreve" unicode="&#x16d;" horiz-adv-x="575" 
d="M286 543q-71 0 -114.5 40.5t-48.5 112.5h99q2 -24 19.5 -40.5t44.5 -16.5q28 0 45 16.5t19 40.5h99q-5 -70 -47.5 -111.5t-115.5 -41.5zM236 -9q-180 0 -180 203v295h130v-261q0 -66 20.5 -92.5t67.5 -26.5q45 0 76.5 37.5t31.5 104.5v238h132v-489h-132v58l-2 1
q-56 -68 -144 -68z" />
    <glyph glyph-name="Uring" unicode="&#x16e;" horiz-adv-x="711" 
d="M355 746q-45 0 -77 30t-32 75q0 44 31 75t78 31q45 0 77 -30.5t32 -75.5q0 -44 -30.5 -74.5t-78.5 -30.5zM355 815q16 0 26.5 11t10.5 27q0 15 -10.5 25.5t-26.5 10.5t-26.5 -11t-10.5 -26q0 -16 10.5 -26.5t26.5 -10.5zM355 -9q-131 0 -209 80t-78 223v416h141v-407
q0 -79 38.5 -129.5t107.5 -50.5q66 0 107 48.5t41 131.5v407h141v-416q0 -140 -76.5 -221.5t-212.5 -81.5z" />
    <glyph glyph-name="uring" unicode="&#x16f;" horiz-adv-x="575" 
d="M286 539q-45 0 -77 30t-32 75q0 44 31 75t78 31q45 0 77 -30.5t32 -75.5q0 -44 -30.5 -74.5t-78.5 -30.5zM286 608q16 0 26.5 11t10.5 27q0 15 -10.5 25.5t-26.5 10.5t-26.5 -11t-10.5 -26q0 -16 10.5 -26.5t26.5 -10.5zM236 -9q-180 0 -180 203v295h130v-261
q0 -66 20.5 -92.5t67.5 -26.5q45 0 76.5 37.5t31.5 104.5v238h132v-489h-132v58l-2 1q-56 -68 -144 -68z" />
    <glyph glyph-name="Uhungarumlaut" unicode="&#x170;" horiz-adv-x="711" 
d="M193 769l113 146l132 1l-124 -147h-121zM398 769l112 146l131 1l-123 -147h-120zM355 -9q-131 0 -209 80t-78 223v416h141v-407q0 -79 38.5 -129.5t107.5 -50.5q66 0 107 48.5t41 131.5v407h141v-416q0 -140 -76.5 -221.5t-212.5 -81.5z" />
    <glyph glyph-name="uhungarumlaut" unicode="&#x171;" horiz-adv-x="575" 
d="M124 556l113 146l132 1l-124 -147h-121zM329 556l112 146l131 1l-123 -147h-120zM236 -9q-180 0 -180 203v295h130v-261q0 -66 20.5 -92.5t67.5 -26.5q45 0 76.5 37.5t31.5 104.5v238h132v-489h-132v58l-2 1q-56 -68 -144 -68z" />
    <glyph glyph-name="Uogonek" unicode="&#x172;" horiz-adv-x="711" 
d="M503 710h141v-416q0 -113 -51 -189.5t-145 -101.5q-79 -27 -79 -73q0 -39 41 -39q24 0 39 6l6 -71q-27 -13 -72 -13q-52 0 -82.5 25.5t-30.5 66.5q0 47 46 87v1q-115 12 -181.5 90.5t-66.5 210.5v416h141v-407q0 -79 38.5 -129.5t107.5 -50.5q66 0 107 48.5t41 131.5v407
z" />
    <glyph glyph-name="uogonek" unicode="&#x173;" horiz-adv-x="575" 
d="M499 0q-37 -7 -59 -27.5t-22 -44.5q0 -19 11 -30t30 -11q21 0 39 7l7 -72q-27 -11 -73 -11q-52 0 -83 25t-31 65q0 25 16.5 53t47.5 48v56l-2 1q-56 -68 -144 -68q-180 0 -180 203v295h130v-261q0 -66 20.5 -92.5t67.5 -26.5q45 0 76.5 37.5t31.5 104.5v238h132v-489h-15
z" />
    <glyph glyph-name="Wcircumflex" unicode="&#x174;" horiz-adv-x="1031" 
d="M343 769l104 135h139l104 -135h-121l-52 68h-2l-52 -68h-120zM249 0l-224 710h150l138 -479h2l127 479h148l125 -478h3l138 478h150l-224 -710h-130l-134 505h-2l-137 -505h-130z" />
    <glyph glyph-name="wcircumflex" unicode="&#x175;" horiz-adv-x="769" 
d="M212 551l103 147h139l101 -147h-120l-50 75h-2l-50 -75h-121zM183 0l-165 489h132l94 -299h1l87 299h105l88 -299h2l93 299h131l-166 -489h-113l-88 297h-1l-87 -297h-113z" />
    <glyph glyph-name="Ycircumflex" unicode="&#x176;" horiz-adv-x="630" 
d="M142 769l104 135h139l104 -135h-121l-52 68h-2l-52 -68h-120zM243 0v312l-235 398h161l145 -258h2l142 258h163l-236 -398v-312h-142z" />
    <glyph glyph-name="ycircumflex" unicode="&#x177;" horiz-adv-x="536" 
d="M97 551l103 147h139l101 -147h-120l-50 75h-2l-50 -75h-121zM124 -198l87 228l-196 459h140l119 -300h2l111 300h133l-263 -687h-133z" />
    <glyph glyph-name="Ydieresis" unicode="&#x178;" horiz-adv-x="630" 
d="M210 767q-34 0 -58 23.5t-24 56.5q0 32 24 55.5t58 23.5q35 0 59 -23.5t24 -56.5t-24 -56t-59 -23zM420 767q-35 0 -58.5 23.5t-23.5 56.5t23.5 56t58.5 23q34 0 58.5 -23.5t24.5 -56.5t-24 -56t-59 -23zM243 0v312l-235 398h161l145 -258h2l142 258h163l-236 -398v-312
h-142z" />
    <glyph glyph-name="Zacute" unicode="&#x179;" horiz-adv-x="621" 
d="M202 769l111 135h139l-126 -135h-124zM50 0v110l331 472l-1 3h-316v125h504v-107l-339 -475l2 -3h338v-125h-519z" />
    <glyph glyph-name="zacute" unicode="&#x17a;" horiz-adv-x="484" 
d="M159 554l114 146l137 1l-124 -147h-127zM35 0v90l235 288l-1 3h-216v108h394v-89l-238 -290l1 -2h231v-108h-406z" />
    <glyph glyph-name="Zdotaccent" unicode="&#x17b;" horiz-adv-x="621" 
d="M310 765q-36 0 -59.5 23.5t-23.5 57.5q0 33 23.5 56.5t59.5 23.5q35 0 59 -23.5t24 -56.5q0 -34 -24 -57.5t-59 -23.5zM50 0v110l331 472l-1 3h-316v125h504v-107l-339 -475l2 -3h338v-125h-519z" />
    <glyph glyph-name="zdotaccent" unicode="&#x17c;" horiz-adv-x="484" 
d="M245 555q-36 0 -59.5 23.5t-23.5 57.5q0 33 23.5 56.5t59.5 23.5q35 0 59 -23.5t24 -56.5q0 -34 -24 -57.5t-59 -23.5zM35 0v90l235 288l-1 3h-216v108h394v-89l-238 -290l1 -2h231v-108h-406z" />
    <glyph glyph-name="Zcaron" unicode="&#x17d;" horiz-adv-x="621" 
d="M239 769l-104 135h121l51 -68h2l52 68h121l-104 -135h-139zM50 0v110l331 472l-1 3h-316v125h504v-107l-339 -475l2 -3h338v-125h-519z" />
    <glyph glyph-name="zcaron" unicode="&#x17e;" horiz-adv-x="484" 
d="M174 549l-102 147h121l50 -75h2l50 75h120l-102 -147h-139zM35 0v90l235 288l-1 3h-216v108h394v-89l-238 -290l1 -2h231v-108h-406z" />
    <glyph glyph-name="longs" unicode="&#x17f;" horiz-adv-x="340" 
d="M82 0v380h-51v109h51v83q0 85 40 129t114 44q73 0 126 -36l-27 -102q-46 22 -72 22q-49 0 -49 -66v-563h-132z" />
    <glyph glyph-name="uni018F" unicode="&#x18f;" horiz-adv-x="774" 
d="M367 719q172 0 266 -102t94 -260q0 -171 -97.5 -268.5t-251.5 -97.5q-158 0 -248.5 92t-90.5 244q0 27 4 67h537q-10 92 -67.5 142.5t-155.5 50.5q-104 2 -196 -57l-78 106q115 85 284 83zM375 122q72 0 125.5 37.5t72.5 112.5h-389q8 -71 59.5 -110.5t131.5 -39.5z" />
    <glyph glyph-name="florin" unicode="&#x192;" horiz-adv-x="546" 
d="M106 -154q-105 0 -146 43l45 89q44 -17 76 -17q65 0 77 87l40 313h-75l16 109h75l13 104q23 171 184 171q98 0 146 -43l-46 -89q-46 16 -76 16q-66 0 -77 -87l-9 -72h132l-15 -109h-133l-44 -344q-23 -171 -183 -171z" />
    <glyph glyph-name="uni019D" unicode="&#x19d;" horiz-adv-x="753" 
d="M536 710h139v-710h-141l-315 469h-2v-469h-1v-8q0 -198 -158 -198q-43 0 -89 13l10 110q29 -8 45 -8q53 0 53 65v736h138l319 -479h2v479z" />
    <glyph glyph-name="Ohorn" unicode="&#x1a0;" horiz-adv-x="858" 
d="M725 774h122v-73q0 -140 -112 -177q36 -77 36 -169q0 -161 -102 -262.5t-259 -101.5q-160 0 -261 102.5t-101 261.5t101 261.5t261 102.5q177 0 280 -124q23 13 29 37.5t6 70.5v71zM410 123q92 0 153 66t61 166t-61 166t-153 66q-95 0 -155.5 -67t-60.5 -165t60.5 -165
t155.5 -67z" />
    <glyph glyph-name="ohorn" unicode="&#x1a1;" horiz-adv-x="687" 
d="M549 565h122v-73q0 -146 -122 -179q8 -35 8 -69q0 -112 -72.5 -182.5t-186.5 -70.5q-116 0 -188 71t-72 182q0 110 72 181t188 71q71 0 128 -28.5t90 -79.5q22 13 27.5 37t5.5 69v71zM298 109q53 0 89.5 38t36.5 97q0 60 -36 97.5t-90 37.5q-56 0 -91.5 -38.5
t-35.5 -96.5t35.5 -96.5t91.5 -38.5z" />
    <glyph glyph-name="Uhorn" unicode="&#x1af;" horiz-adv-x="822" 
d="M705 774h122v-73q0 -89 -48 -137.5t-135 -49.5v-220q0 -140 -76.5 -221.5t-212.5 -81.5q-131 0 -209 80t-78 223v416h141v-407q0 -79 38.5 -129.5t107.5 -50.5q66 0 107 48.5t41 131.5v407h141v-124q21 4 34 14t18.5 27.5t7 32.5t1.5 43v71z" />
    <glyph glyph-name="uhorn" unicode="&#x1b0;" horiz-adv-x="699" 
d="M566 565h122v-73q0 -87 -45 -135t-129 -52v-305h-132v58l-2 1q-56 -68 -144 -68q-180 0 -180 203v295h130v-261q0 -66 20.5 -92.5t67.5 -26.5q45 0 76.5 37.5t31.5 104.5v238h132v-109q34 10 43 36t9 78v71z" />
    <glyph glyph-name="uni01CD" unicode="&#x1cd;" horiz-adv-x="694" 
d="M277 769l-104 135h121l51 -68h2l52 68h121l-104 -135h-139zM16 0l263 710h136l264 -710h-147l-49 142h-272l-48 -142h-147zM251 262h192l-95 278h-2z" />
    <glyph glyph-name="uni01CE" unicode="&#x1ce;" horiz-adv-x="604" 
d="M231 549l-102 147h121l50 -75h2l50 75h120l-102 -147h-139zM270 -9q-102 0 -167.5 70t-65.5 182q0 110 65.5 181.5t164.5 71.5q91 0 144 -64l2 1v56h131v-489h-125v58l-2 1q-53 -68 -147 -68zM295 109q52 0 88 37t36 96t-35.5 98t-88.5 39q-54 0 -89.5 -37.5t-35.5 -99.5
q0 -59 35 -96t90 -37z" />
    <glyph glyph-name="uni01CF" unicode="&#x1cf;" horiz-adv-x="306" 
d="M82 768l-104 135h121l51 -68h2l52 68h121l-104 -135h-139zM81 0v710h143v-710h-143z" />
    <glyph glyph-name="uni01D0" unicode="&#x1d0;" horiz-adv-x="273" 
d="M67 549l-102 147h121l50 -75h2l50 75h120l-102 -147h-139zM71 0v489h131v-489h-131z" />
    <glyph glyph-name="uni01D1" unicode="&#x1d1;" horiz-adv-x="819" 
d="M341 769l-104 135h121l51 -68h2l52 68h121l-104 -135h-139zM410 -9q-160 0 -261 102.5t-101 261.5t101 261.5t261 102.5q157 0 259 -101.5t102 -262.5t-102 -262.5t-259 -101.5zM410 123q92 0 153 66t61 166t-61 166t-153 66q-95 0 -155.5 -67t-60.5 -165t60.5 -165
t155.5 -67z" />
    <glyph glyph-name="uni01D2" unicode="&#x1d2;" horiz-adv-x="595" 
d="M228 549l-102 147h121l50 -75h2l50 75h120l-102 -147h-139zM298 -9q-116 0 -188 71t-72 182q0 110 72 181t188 71q114 0 186.5 -70t72.5 -182t-72.5 -182.5t-186.5 -70.5zM298 109q53 0 89.5 38t36.5 97q0 60 -36 97.5t-90 37.5q-56 0 -91.5 -38.5t-35.5 -96.5
t35.5 -96.5t91.5 -38.5z" />
    <glyph glyph-name="uni01D3" unicode="&#x1d3;" horiz-adv-x="711" 
d="M285 769l-104 135h121l51 -68h2l52 68h121l-104 -135h-139zM355 -9q-131 0 -209 80t-78 223v416h141v-407q0 -79 38.5 -129.5t107.5 -50.5q66 0 107 48.5t41 131.5v407h141v-416q0 -140 -76.5 -221.5t-212.5 -81.5z" />
    <glyph glyph-name="uni01D4" unicode="&#x1d4;" horiz-adv-x="575" 
d="M216 549l-102 147h121l50 -75h2l50 75h120l-102 -147h-139zM236 -9q-180 0 -180 203v295h130v-261q0 -66 20.5 -92.5t67.5 -26.5q45 0 76.5 37.5t31.5 104.5v238h132v-489h-132v58l-2 1q-56 -68 -144 -68z" />
    <glyph glyph-name="uni01D5" unicode="&#x1d5;" horiz-adv-x="711" 
d="M203 934v77h305v-77h-305zM260 761q-31 0 -51.5 19.5t-20.5 48.5q0 28 20.5 48t51.5 20q30 0 51 -20t21 -48q0 -29 -20.5 -48.5t-51.5 -19.5zM453 761q-31 0 -51.5 19.5t-20.5 48.5q0 28 20.5 48t51.5 20q30 0 51 -20t21 -48q0 -29 -20.5 -48.5t-51.5 -19.5zM355 -9
q-131 0 -209 80t-78 223v416h141v-407q0 -79 38.5 -129.5t107.5 -50.5q66 0 107 48.5t41 131.5v407h141v-416q0 -140 -76.5 -221.5t-212.5 -81.5z" />
    <glyph glyph-name="uni01D6" unicode="&#x1d6;" horiz-adv-x="575" 
d="M133 750v92h305v-92h-305zM188 556q-34 0 -56.5 21.5t-22.5 53.5q0 31 22.5 52.5t56.5 21.5t57 -21.5t23 -52.5q0 -32 -23 -53.5t-57 -21.5zM388 556q-34 0 -56.5 21.5t-22.5 53.5q0 31 22.5 52.5t56.5 21.5t57 -21.5t23 -52.5q0 -32 -23 -53.5t-57 -21.5zM236 -9
q-180 0 -180 203v295h130v-261q0 -66 20.5 -92.5t67.5 -26.5q45 0 76.5 37.5t31.5 104.5v238h132v-489h-132v58l-2 1q-56 -68 -144 -68z" />
    <glyph glyph-name="uni01D7" unicode="&#x1d7;" horiz-adv-x="711" 
d="M311 908l86 128h137l-130 -128h-93zM260 761q-31 0 -51.5 19.5t-20.5 48.5q0 28 20.5 48t51.5 20q30 0 51 -20t21 -48q0 -29 -20.5 -48.5t-51.5 -19.5zM453 761q-31 0 -51.5 19.5t-20.5 48.5q0 28 20.5 48t51.5 20q30 0 51 -20t21 -48q0 -29 -20.5 -48.5t-51.5 -19.5z
M355 -9q-131 0 -209 80t-78 223v416h141v-407q0 -79 38.5 -129.5t107.5 -50.5q66 0 107 48.5t41 131.5v407h141v-416q0 -140 -76.5 -221.5t-212.5 -81.5z" />
    <glyph glyph-name="uni01D8" unicode="&#x1d8;" horiz-adv-x="575" 
d="M234 727l113 141l134 1l-149 -142h-98zM186 557q-34 0 -56.5 21.5t-22.5 53.5q0 31 22.5 52.5t56.5 21.5t57 -21.5t23 -52.5q0 -32 -23 -53.5t-57 -21.5zM386 557q-34 0 -56.5 21.5t-22.5 53.5q0 31 22.5 52.5t56.5 21.5t57 -21.5t23 -52.5q0 -32 -23 -53.5t-57 -21.5z
M236 -9q-180 0 -180 203v295h130v-261q0 -66 20.5 -92.5t67.5 -26.5q45 0 76.5 37.5t31.5 104.5v238h132v-489h-132v58l-2 1q-56 -68 -144 -68z" />
    <glyph glyph-name="uni01D9" unicode="&#x1d9;" horiz-adv-x="711" 
d="M290 910l-104 129h121l51 -65h2l52 65h121l-104 -129h-139zM260 761q-31 0 -51.5 19.5t-20.5 48.5q0 28 20.5 48t51.5 20q30 0 51 -20t21 -48q0 -29 -20.5 -48.5t-51.5 -19.5zM453 761q-31 0 -51.5 19.5t-20.5 48.5q0 28 20.5 48t51.5 20q30 0 51 -20t21 -48
q0 -29 -20.5 -48.5t-51.5 -19.5zM355 -9q-131 0 -209 80t-78 223v416h141v-407q0 -79 38.5 -129.5t107.5 -50.5q66 0 107 48.5t41 131.5v407h141v-416q0 -140 -76.5 -221.5t-212.5 -81.5z" />
    <glyph glyph-name="uni01DA" unicode="&#x1da;" horiz-adv-x="575" 
d="M217 728l-102 143h121l50 -73h2l50 73h120l-102 -143h-139zM186 557q-34 0 -56.5 21.5t-22.5 53.5q0 31 22.5 52.5t56.5 21.5t57 -21.5t23 -52.5q0 -32 -23 -53.5t-57 -21.5zM386 557q-34 0 -56.5 21.5t-22.5 53.5q0 31 22.5 52.5t56.5 21.5t57 -21.5t23 -52.5
q0 -32 -23 -53.5t-57 -21.5zM236 -9q-180 0 -180 203v295h130v-261q0 -66 20.5 -92.5t67.5 -26.5q45 0 76.5 37.5t31.5 104.5v238h132v-489h-132v58l-2 1q-56 -68 -144 -68z" />
    <glyph glyph-name="uni01DB" unicode="&#x1db;" horiz-adv-x="711" 
d="M313 908l-130 128l138 -1l85 -127h-93zM260 761q-31 0 -51.5 19.5t-20.5 48.5q0 28 20.5 48t51.5 20q30 0 51 -20t21 -48q0 -29 -20.5 -48.5t-51.5 -19.5zM453 761q-31 0 -51.5 19.5t-20.5 48.5q0 28 20.5 48t51.5 20q30 0 51 -20t21 -48q0 -29 -20.5 -48.5t-51.5 -19.5z
M355 -9q-131 0 -209 80t-78 223v416h141v-407q0 -79 38.5 -129.5t107.5 -50.5q66 0 107 48.5t41 131.5v407h141v-416q0 -140 -76.5 -221.5t-212.5 -81.5z" />
    <glyph glyph-name="uni01DC" unicode="&#x1dc;" horiz-adv-x="575" 
d="M341 727h-98l-149 142l134 -1zM186 557q-34 0 -56.5 21.5t-22.5 53.5q0 31 22.5 52.5t56.5 21.5t57 -21.5t23 -52.5q0 -32 -23 -53.5t-57 -21.5zM386 557q-34 0 -56.5 21.5t-22.5 53.5q0 31 22.5 52.5t56.5 21.5t57 -21.5t23 -52.5q0 -32 -23 -53.5t-57 -21.5zM236 -9
q-180 0 -180 203v295h130v-261q0 -66 20.5 -92.5t67.5 -26.5q45 0 76.5 37.5t31.5 104.5v238h132v-489h-132v58l-2 1q-56 -68 -144 -68z" />
    <glyph glyph-name="Gcaron" unicode="&#x1e6;" horiz-adv-x="750" 
d="M328 768l-104 135h121l51 -68h2l52 68h121l-104 -135h-139zM410 -7q-158 0 -260 97t-102 264q0 160 96.5 262.5t259.5 102.5q79 0 154 -31t128 -90l-99 -86q-74 74 -183 74q-90 0 -149.5 -63t-59.5 -169q0 -101 58.5 -167t156.5 -66q77 0 143 41v104h-159v121h296v-306
q-50 -40 -125 -64t-155 -24z" />
    <glyph glyph-name="gcaron" unicode="&#x1e7;" horiz-adv-x="602" 
d="M224 549l-102 147h121l50 -75h2l50 75h120l-102 -147h-139zM286 -206q-114 0 -200 49l31 111q82 -46 159 -46q65 0 101 31t36 77v49h-2q-54 -56 -142 -56q-101 0 -167 67t-66 173q0 108 64 177.5t162 69.5q88 0 147 -58h2v51h131v-433q0 -262 -256 -262zM293 127
q54 0 88.5 35.5t34.5 91.5q0 55 -35 89.5t-88 34.5q-55 0 -89.5 -35t-34.5 -90q0 -57 35 -91.5t89 -34.5z" />
    <glyph glyph-name="uni01EA" unicode="&#x1ea;" horiz-adv-x="819" 
d="M465 -5q-28 -9 -44 -28t-16 -39q0 -19 11 -30t30 -11q22 0 39 7l7 -72q-28 -11 -73 -11q-52 0 -83 25t-31 65q0 52 52 92v1q-139 17 -224 116.5t-85 244.5q0 159 101 261.5t261 102.5q157 0 259 -101.5t102 -262.5q0 -146 -85 -244.5t-221 -115.5zM194 355
q0 -98 60.5 -165t155.5 -67q92 0 153 66t61 166t-61 166t-153 66q-95 0 -155.5 -67t-60.5 -165z" />
    <glyph glyph-name="uni01EB" unicode="&#x1eb;" horiz-adv-x="595" 
d="M332 -7q-26 -10 -40.5 -28t-14.5 -37t11 -30t30 -11q22 0 39 7l7 -72q-27 -11 -73 -11q-52 0 -83 25t-31 65q0 54 56 96v1q-89 19 -142 85.5t-53 160.5q0 110 72 181t188 71q114 0 186.5 -70t72.5 -182q0 -103 -62 -171.5t-163 -79.5zM171 244q0 -58 35.5 -96.5
t91.5 -38.5q53 0 89.5 38t36.5 97q0 60 -36 97.5t-90 37.5q-56 0 -91.5 -38.5t-35.5 -96.5z" />
    <glyph glyph-name="Aringacute" unicode="&#x1fa;" horiz-adv-x="694" 
d="M347 746q-45 0 -77 30t-32 75q0 44 31 75t78 31q44 0 74 -27l61 46l140 1l-166 -132q-2 -42 -32.5 -70.5t-76.5 -28.5zM347 889q-16 0 -26.5 -11t-10.5 -26q0 -16 10.5 -26.5t26.5 -10.5t26.5 11t10.5 27q0 15 -10.5 25.5t-26.5 10.5zM415 710l264 -710h-147l-49 142
h-272l-48 -142h-147l263 710h136zM251 262h192l-95 278h-2z" />
    <glyph glyph-name="aringacute" unicode="&#x1fb;" horiz-adv-x="604" 
d="M301 539q-45 0 -77 30t-32 75q0 44 31 75t78 31q44 0 76 -29l58 44h141l-166 -131q-4 -40 -34 -67.5t-75 -27.5zM301 682q-16 0 -26.5 -11t-10.5 -26q0 -16 10.5 -26.5t26.5 -10.5t26.5 11t10.5 27q0 15 -10.5 25.5t-26.5 10.5zM413 433v56h131v-489h-125v58l-2 1
q-53 -68 -147 -68q-102 0 -167.5 70t-65.5 182q0 110 65.5 181.5t164.5 71.5q91 0 144 -64zM295 109q52 0 88 37t36 96t-35.5 98t-88.5 39q-54 0 -89.5 -37.5t-35.5 -99.5q0 -59 35 -96t90 -37z" />
    <glyph glyph-name="AEacute" unicode="&#x1fc;" horiz-adv-x="942" 
d="M396 769l111 135h139l-126 -135h-124zM7 0l340 710h537v-125h-316v-170h258v-124h-258v-166h337v-125h-475v142h-210l-67 -142h-146zM274 259h159v333h-2z" />
    <glyph glyph-name="aeacute" unicode="&#x1fd;" horiz-adv-x="789" 
d="M569 701l-124 -147h-127l114 146zM763 249q0 -32 -4 -48h-319q11 -43 42 -68t79 -25q65 0 106 55l84 -80q-36 -45 -81.5 -68.5t-118.5 -23.5q-104 0 -168 72h-2q-63 -72 -174 -72q-89 0 -134.5 43.5t-45.5 110.5q0 73 49 112.5t147 40.5h88v5q0 46 -19 64.5t-61 18.5
q-63 0 -127 -33l-47 100q29 15 82 29t103 14q104 0 148 -66h2q60 66 157 66q95 0 154.5 -69.5t59.5 -177.5zM440 296h192q-6 38 -28 62t-62 24q-37 0 -64 -23.5t-38 -62.5zM222 92q37 0 63 23.5t26 56.5v37h-74q-84 0 -84 -59q0 -27 17.5 -42.5t51.5 -15.5z" />
    <glyph glyph-name="Oslashacute" unicode="&#x1fe;" horiz-adv-x="819" 
d="M591 903l-126 -135h-124l111 135h139zM778 677l-82 -90q75 -97 75 -232q0 -161 -102 -262.5t-259 -101.5q-118 0 -207 58l-78 -85l-69 64l77 83q-85 99 -85 244q0 159 101 261.5t261 102.5q127 0 220 -67l80 87zM194 355q0 -76 38 -136l302 328q-54 40 -124 40
q-95 0 -155.5 -67t-60.5 -165zM624 355q0 66 -29 122l-296 -323q48 -31 111 -31q92 0 153 66t61 166z" />
    <glyph glyph-name="oslashacute" unicode="&#x1ff;" horiz-adv-x="595" 
d="M483 701l-124 -147h-127l114 146zM560 460l-54 -58q51 -65 51 -158q0 -112 -72.5 -182.5t-186.5 -70.5q-77 0 -141 35l-50 -54l-59 55l47 51q-57 70 -57 166q0 110 72 181t188 71q86 0 149 -40l55 59zM171 244q0 -36 16 -68l174 187q-30 16 -63 16q-56 0 -91.5 -38.5
t-35.5 -96.5zM424 244q0 31 -11 58l-168 -182q25 -11 53 -11q53 0 89.5 38t36.5 97z" />
    <glyph glyph-name="Scommaaccent" unicode="&#x218;" horiz-adv-x="582" 
d="M291 -9q-149 0 -259 113l85 104q38 -43 85.5 -66t91.5 -23q49 0 75 20.5t26 54.5q0 37 -26.5 57t-96.5 44q-38 13 -64.5 24.5t-57 30.5t-49.5 40.5t-31.5 54t-12.5 71.5q0 85 66 143.5t162 59.5q130 0 240 -90l-82 -106q-86 70 -155 70q-38 0 -61.5 -19t-24.5 -52
q0 -31 25.5 -49t94.5 -45q110 -43 144 -66q77 -52 77 -151q0 -74 -40 -125.5t-95 -73t-117 -21.5zM218 -220l-27 74q30 8 42.5 20.5t12.5 34.5q0 16 -7 38h113q5 -18 5 -45q0 -56 -38 -87t-101 -35z" />
    <glyph glyph-name="scommaaccent" unicode="&#x219;" horiz-adv-x="445" 
d="M223 -9q-115 0 -198 72l63 91q61 -56 136 -56q28 0 43.5 11t15.5 29q0 15 -18.5 25.5t-69.5 27.5q-72 24 -111.5 59.5t-39.5 100.5t50 105t127 40q99 0 178 -61l-64 -97q-53 52 -117 52q-18 0 -32 -9t-14 -27q0 -25 72 -52q40 -15 59 -22.5t45 -22t36.5 -28.5t19 -35.5
t8.5 -50.5q0 -68 -48.5 -110t-140.5 -42zM145 -220l-27 74q30 8 42.5 20.5t12.5 34.5q0 16 -7 38h113q5 -18 5 -45q0 -56 -38 -87t-101 -35z" />
    <glyph glyph-name="uni021A" unicode="&#x21a;" horiz-adv-x="588" 
d="M222 0v585h-194v125h533v-125h-197v-585h-142zM210 -220l-27 74q30 8 42.5 20.5t12.5 34.5q0 16 -7 38h113q5 -18 5 -45q0 -56 -38 -87t-101 -35z" />
    <glyph glyph-name="uni021B" unicode="&#x21b;" horiz-adv-x="369" 
d="M216 -9q-65 0 -102 41.5t-37 121.5v226h-58v109h58v159l131 14v-173h132v-109h-132v-207q0 -33 9.5 -48t32.5 -15q28 0 62 17l33 -105q-57 -31 -129 -31zM131 -220l-27 74q30 8 42.5 20.5t12.5 34.5q0 16 -7 38h113q5 -17 5 -45q0 -56 -38 -87t-101 -35z" />
    <glyph glyph-name="uni0232" unicode="&#x232;" horiz-adv-x="630" 
d="M163 788v100h305v-100h-305zM243 0v312l-235 398h161l145 -258h2l142 258h163l-236 -398v-312h-142z" />
    <glyph glyph-name="uni0233" unicode="&#x233;" horiz-adv-x="536" 
d="M116 579v105h305v-105h-305zM124 -198l87 228l-196 459h140l119 -300h2l111 300h133l-263 -687h-133z" />
    <glyph glyph-name="uni0237" unicode="&#x237;" horiz-adv-x="254" 
d="M50 -207q-55 0 -102 19l22 108q22 -12 48 -12q45 0 45 68v513h131v-518q0 -86 -39 -132t-105 -46z" />
    <glyph glyph-name="uni0251" unicode="&#x251;" horiz-adv-x="604" 
d="M270 -9q-102 0 -167.5 70t-65.5 182q0 110 65.5 181.5t164.5 71.5q91 0 144 -64l2 1v56h131v-489h-125v58l-2 1q-53 -68 -147 -68zM295 109q52 0 88 37t36 96t-35.5 98t-88.5 39q-54 0 -89.5 -37.5t-35.5 -99.5q0 -59 35 -96t90 -37z" />
    <glyph glyph-name="uni0259" unicode="&#x259;" horiz-adv-x="556" 
d="M259 496q113 0 186 -67.5t73 -187.5q0 -112 -64.5 -181t-178.5 -69q-113 0 -175.5 69t-62.5 178q0 29 4 49h343q-12 47 -47.5 71.5t-86.5 24.5q-61 0 -124 -33l-53 102q86 44 186 44zM274 106q87 0 109 85h-215q8 -40 35 -62.5t71 -22.5z" />
    <glyph glyph-name="uni0261" unicode="&#x261;" horiz-adv-x="602" 
d="M286 -206q-114 0 -200 49l31 111q82 -46 159 -46q65 0 101 31t36 77v49h-2q-54 -56 -142 -56q-101 0 -167 67t-66 173q0 108 64 177.5t162 69.5q88 0 147 -58h2v51h131v-433q0 -262 -256 -262zM293 127q54 0 88.5 35.5t34.5 91.5q0 55 -35 89.5t-88 34.5q-55 0 -89.5 -35
t-34.5 -90q0 -57 35 -91.5t89 -34.5z" />
    <glyph glyph-name="uni0272" unicode="&#x272;" horiz-adv-x="588" 
d="M354 496q177 0 177 -206v-290h-131v257q0 67 -23 94.5t-71 27.5q-51 0 -80.5 -34.5t-29.5 -99.5v-259q0 -192 -158 -192q-39 0 -78 14l9 100q21 -8 41 -8q55 0 55 78v511h131v-63h2q59 70 156 70z" />
    <glyph glyph-name="uni02BB" unicode="&#x2bb;" horiz-adv-x="234" 
d="M58 410l20 261h101l14 -261h-135z" />
    <glyph glyph-name="uni02BC" unicode="&#x2bc;" horiz-adv-x="208" 
d="M31 494l31 216h125l-64 -216h-92z" />
    <glyph glyph-name="uni02BE" unicode="&#x2be;" horiz-adv-x="219" 
d="M38 433l-10 92q34 1 51 21t17 50t-17.5 50t-50.5 21l10 92q74 0 119.5 -45t45.5 -118t-45.5 -118t-119.5 -45z" />
    <glyph glyph-name="uni02BF" unicode="&#x2bf;" horiz-adv-x="251" 
d="M213 433q-74 0 -119.5 45t-45.5 118t45.5 118t119.5 45l10 -92q-33 -1 -50.5 -21t-17.5 -50t17 -50t51 -21z" />
    <glyph glyph-name="circumflex" unicode="&#x2c6;" horiz-adv-x="472" 
d="M64 531l103 147h139l101 -147h-120l-50 75h-2l-50 -75h-121z" />
    <glyph glyph-name="caron" unicode="&#x2c7;" horiz-adv-x="472" 
d="M166 529l-102 147h121l50 -75h2l50 75h120l-102 -147h-139z" />
    <glyph glyph-name="uni02C8" unicode="&#x2c8;" horiz-adv-x="192" 
d="M44 688h99v-305h-99v305z" />
    <glyph glyph-name="uni02C9" unicode="&#x2c9;" horiz-adv-x="381" 
d="M38 580v105h305v-105h-305z" />
    <glyph glyph-name="uni02CA" unicode="&#x2ca;" horiz-adv-x="328" 
d="M51 557l114 146l137 1l-124 -147h-127z" />
    <glyph glyph-name="uni02CB" unicode="&#x2cb;" horiz-adv-x="328" 
d="M149 552l-124 146l140 -1l108 -145h-124z" />
    <glyph glyph-name="uni02CC" unicode="&#x2cc;" horiz-adv-x="192" 
d="M44 136h99v-305h-99v305z" />
    <glyph glyph-name="breve" unicode="&#x2d8;" horiz-adv-x="460" 
d="M230 523q-71 0 -114.5 40.5t-48.5 112.5h99q2 -24 19.5 -40.5t44.5 -16.5q28 0 45 16.5t19 40.5h99q-5 -70 -47.5 -111.5t-115.5 -41.5z" />
    <glyph glyph-name="dotaccent" unicode="&#x2d9;" horiz-adv-x="501" 
d="M251 535q-36 0 -59.5 23.5t-23.5 57.5q0 33 23.5 56.5t59.5 23.5q35 0 59 -23.5t24 -56.5q0 -34 -24 -57.5t-59 -23.5z" />
    <glyph glyph-name="ring" unicode="&#x2da;" horiz-adv-x="462" 
d="M231 512q-45 0 -77 30t-32 75q0 44 31 75t78 31q45 0 77 -30.5t32 -75.5q0 -44 -30.5 -74.5t-78.5 -30.5zM231 581q16 0 26.5 11t10.5 27q0 15 -10.5 25.5t-26.5 10.5t-26.5 -11t-10.5 -26q0 -16 10.5 -26.5t26.5 -10.5z" />
    <glyph glyph-name="ogonek" unicode="&#x2db;" horiz-adv-x="473" 
d="M273 -189q-52 0 -83 25t-31 65q0 30 22 61.5t63 51.5l103 -13q-40 -5 -64 -26.5t-24 -46.5q0 -19 11 -30t30 -11q21 0 39 7l7 -72q-28 -11 -73 -11z" />
    <glyph glyph-name="tilde" unicode="&#x2dc;" horiz-adv-x="496" 
d="M328 531q-40 0 -88 30q-34 21 -54 21q-35 0 -57 -50l-78 33q17 53 47.5 84.5t72.5 31.5t86 -27q38 -23 55 -23q34 0 56 50l77 -26q-15 -56 -46 -90t-71 -34z" />
    <glyph glyph-name="hungarumlaut" unicode="&#x2dd;" horiz-adv-x="532" 
d="M45 536l113 146l132 1l-124 -147h-121zM250 536l112 146l131 1l-123 -147h-120z" />
    <glyph glyph-name="gravecomb" unicode="&#x300;" 
d="M-514 531l-124 146l140 -1l108 -145h-124z" />
    <glyph glyph-name="acutecomb" unicode="&#x301;" 
d="M-607 533l114 146l137 1l-124 -147h-127z" />
    <glyph glyph-name="uni0302" unicode="&#x302;" 
d="M-672 531l103 147h139l101 -147h-120l-50 75h-2l-50 -75h-121z" />
    <glyph glyph-name="tildecomb" unicode="&#x303;" 
d="M-418 531q-40 0 -88 30q-34 21 -54 21q-35 0 -57 -50l-78 33q17 53 47.5 84.5t72.5 31.5t86 -27q38 -23 55 -23q34 0 56 50l77 -26q-15 -56 -46 -90t-71 -34z" />
    <glyph glyph-name="uni0304" unicode="&#x304;" 
d="M-653 559v105h305v-105h-305z" />
    <glyph glyph-name="uni0306" unicode="&#x306;" 
d="M-500 523q-71 0 -114.5 40.5t-48.5 112.5h99q2 -24 19.5 -40.5t44.5 -16.5q28 0 45 16.5t19 40.5h99q-5 -70 -47.5 -111.5t-115.5 -41.5z" />
    <glyph glyph-name="uni0307" unicode="&#x307;" 
d="M-499 535q-36 0 -59.5 23.5t-23.5 57.5q0 33 23.5 56.5t59.5 23.5q35 0 59 -23.5t24 -56.5q0 -34 -24 -57.5t-59 -23.5z" />
    <glyph glyph-name="uni0308" unicode="&#x308;" 
d="M-606 537q-34 0 -58 23.5t-24 56.5q0 32 24 55.5t58 23.5q35 0 59 -23.5t24 -56.5t-24 -56t-59 -23zM-396 537q-35 0 -58.5 23.5t-23.5 56.5t23.5 56t58.5 23q34 0 58.5 -23.5t24.5 -56.5t-24 -56t-59 -23z" />
    <glyph glyph-name="hookabovecomb" unicode="&#x309;" 
d="M-541 532q65 47 64 81q0 22 -29 22q-36 0 -80 -29l-27 60q55 55 143 55q46 0 72.5 -21t26.5 -63q0 -34 -25.5 -63t-58.5 -42h-86z" />
    <glyph glyph-name="uni030A" unicode="&#x30a;" 
d="M-500 519q-45 0 -77 30t-32 75q0 44 31 75t78 31q45 0 77 -30.5t32 -75.5q0 -44 -30.5 -74.5t-78.5 -30.5zM-500 588q16 0 26.5 11t10.5 27q0 15 -10.5 25.5t-26.5 10.5t-26.5 -11t-10.5 -26q0 -16 10.5 -26.5t26.5 -10.5z" />
    <glyph glyph-name="uni030B" unicode="&#x30b;" 
d="M-662 536l113 146l132 1l-124 -147h-121zM-457 536l112 146l131 1l-123 -147h-120z" />
    <glyph glyph-name="uni030C" unicode="&#x30c;" 
d="M-570 529l-102 147h121l50 -75h2l50 75h120l-102 -147h-139z" />
    <glyph glyph-name="uni0312" unicode="&#x312;" 
d="M-553 542q-5 23 -5 44q0 57 38 87.5t101 34.5l27 -73q-29 -9 -41.5 -21.5t-12.5 -34.5q0 -13 6 -37h-113z" />
    <glyph glyph-name="uni0313" unicode="&#x313;" 
d="M-437 698q5 -23 5 -44q0 -57 -38 -87.5t-101 -34.5l-27 73q29 9 41.5 21.5t12.5 34.5q0 13 -6 37h113z" />
    <glyph glyph-name="uni031B" unicode="&#x31b;" 
d="M-521 450l-2 70q37 3 55 20.5t21 37.5t3 61v71h122v-73q0 -93 -52 -142t-147 -45z" />
    <glyph glyph-name="dotbelowcomb" unicode="&#x323;" 
d="M-500 -69q36 0 59.5 -23.5t23.5 -57.5q0 -33 -23.5 -56.5t-59.5 -23.5q-35 0 -59 23.5t-24 56.5q0 34 24 57.5t59 23.5z" />
    <glyph glyph-name="uni0324" unicode="&#x324;" 
d="M-605 -71q35 0 58.5 -23.5t23.5 -56.5t-23.5 -56t-58.5 -23q-34 0 -58.5 23.5t-24.5 56.5t24 56t59 23zM-395 -71q34 0 58 -23.5t24 -56.5q0 -32 -24 -55.5t-58 -23.5q-35 0 -59 23.5t-24 56.5t24 56t59 23z" />
    <glyph glyph-name="uni0326" unicode="&#x326;" 
d="M-581 -220l-27 74q30 8 42.5 20.5t12.5 34.5q0 16 -7 38h113q5 -18 5 -45q0 -56 -38 -87t-101 -35z" />
    <glyph glyph-name="uni0327" unicode="&#x327;" 
d="M-534 -191q-31 0 -61 6v59q21 -7 48 -7q48 0 48 28q0 14 -21 23t-58 9v37l20 42h72l-18 -35v-2q98 -3 98 -81q0 -36 -32 -57.5t-96 -21.5z" />
    <glyph glyph-name="uni0328" unicode="&#x328;" 
d="M-579 -189q-52 0 -83 25t-31 65q0 30 22 61.5t63 51.5l103 -13q-40 -5 -64 -26.5t-24 -46.5q0 -19 11 -30t30 -11q22 0 39 7l7 -72q-28 -11 -73 -11z" />
    <glyph glyph-name="uni032E" unicode="&#x32e;" 
d="M-500 -230q-73 0 -115.5 41.5t-47.5 111.5h99q2 -24 19 -40.5t45 -16.5q27 0 44.5 16.5t19.5 40.5h99q-5 -72 -48.5 -112.5t-114.5 -40.5z" />
    <glyph glyph-name="uni0331" unicode="&#x331;" 
d="M-347 -213h-305v105h305v-105z" />
    <glyph glyph-name="uni0335" unicode="&#x335;" 
d="M-642 220v84h289v-84h-289z" />
    <glyph glyph-name="uni0374" unicode="&#x374;" horiz-adv-x="268" 
d="M35 472l50 258h132l-74 -258h-108z" />
    <glyph glyph-name="uni0375" unicode="&#x375;" horiz-adv-x="286" 
d="M65 -154l50 258h132l-74 -258h-108z" />
    <glyph glyph-name="uni037E" unicode="&#x37e;" horiz-adv-x="250" 
d="M131 335q-35 0 -59 23.5t-24 57.5q0 33 24.5 56.5t58.5 23.5q33 0 57 -23.5t24 -56.5q0 -34 -24 -57.5t-57 -23.5zM32 -133l31 261h135l-71 -261h-95z" />
    <glyph glyph-name="tonos" unicode="&#x384;" horiz-adv-x="465" 
d="M141 536l56 172h146l-82 -172h-120z" />
    <glyph glyph-name="dieresistonos" unicode="&#x385;" horiz-adv-x="559" 
d="M201 542l10 172h113l-32 -172h-91zM99 535q-35 0 -59 23.5t-24 57.5q0 33 24 56.5t59 23.5t59 -23.5t24 -56.5q0 -34 -24 -57.5t-59 -23.5zM413 537q-35 0 -58.5 23t-23.5 56t23.5 56.5t58.5 23.5q34 0 58 -23.5t24 -56.5t-24 -56t-58 -23z" />
    <glyph glyph-name="Alphatonos" unicode="&#x386;" horiz-adv-x="694" 
d="M16 0l263 710h136l264 -710h-147l-49 142h-272l-48 -142h-147zM-63 536l70 172h145l-97 -172h-118zM251 262h192l-95 278h-2z" />
    <glyph glyph-name="anoteleia" unicode="&#x387;" horiz-adv-x="268" 
d="M135 335q-35 0 -59 23.5t-24 57.5q0 33 24.5 56.5t58.5 23.5q33 0 57 -23.5t24 -56.5q0 -34 -24 -57.5t-57 -23.5z" />
    <glyph glyph-name="Epsilontonos" unicode="&#x388;" horiz-adv-x="598" 
d="M77 0v710h454v-125h-315v-171h252v-123h-252v-166h336v-125h-475zM-190 536l70 172h145l-97 -172h-118z" />
    <glyph glyph-name="Etatonos" unicode="&#x389;" horiz-adv-x="727" 
d="M77 0v710h142v-307h290v307h141v-710h-141v278h-290v-278h-142zM-190 536l70 172h145l-97 -172h-118z" />
    <glyph glyph-name="Iotatonos" unicode="&#x38a;" horiz-adv-x="306" 
d="M81 0v710h143v-710h-143zM-185 536l70 172h145l-97 -172h-118z" />
    <glyph glyph-name="Omicrontonos" unicode="&#x38c;" horiz-adv-x="819" 
d="M410 -9q-160 0 -261 102.5t-101 261.5t101 261.5t261 102.5q157 0 259 -101.5t102 -262.5t-102 -262.5t-259 -101.5zM-128 536l70 172h145l-97 -172h-118zM410 123q92 0 153 66t61 166t-61 166t-153 66q-95 0 -155.5 -67t-60.5 -165t60.5 -165t155.5 -67z" />
    <glyph glyph-name="Upsilontonos" unicode="&#x38e;" horiz-adv-x="630" 
d="M243 0v312l-235 398h161l145 -258h2l142 258h163l-236 -398v-312h-142zM-247 536l70 172h145l-97 -172h-118z" />
    <glyph glyph-name="Omegatonos" unicode="&#x38f;" horiz-adv-x="760" 
d="M56 0v125h113l1 2q-124 105 -124 263q0 143 92.5 236t241.5 93t241.5 -93t92.5 -236q0 -158 -124 -263l1 -2h114v-125h-278v125q140 111 140 261q0 90 -51.5 146.5t-135.5 56.5q-84 -1 -135.5 -57t-51.5 -146q0 -149 140 -261v-125h-277zM-142 536l70 172h145l-97 -172
h-118z" />
    <glyph glyph-name="iotadieresistonos" unicode="&#x390;" horiz-adv-x="302" 
d="M87 563l10 172h113l-32 -172h-91zM-15 556q-35 0 -59 23.5t-24 57.5q0 33 24 56.5t59 23.5t59 -23.5t24 -56.5q0 -34 -24 -57.5t-59 -23.5zM299 558q-35 0 -58.5 23t-23.5 56t23.5 56.5t58.5 23.5q34 0 58 -23.5t24 -56.5t-24 -56t-58 -23zM193 -9q-126 0 -126 140v358
h131v-332q0 -29 7 -38.5t25 -9.5q20 0 44 7l14 -105q-53 -20 -95 -20z" />
    <glyph glyph-name="Alpha" unicode="&#x391;" horiz-adv-x="694" 
d="M16 0l263 710h136l264 -710h-147l-49 142h-272l-48 -142h-147zM251 262h192l-95 278h-2z" />
    <glyph glyph-name="Beta" unicode="&#x392;" horiz-adv-x="642" 
d="M77 0v710h256q113 0 173 -44t60 -129q0 -52 -26 -95t-81 -64v-2q69 -17 106 -63.5t37 -116.5q0 -88 -60 -142t-174 -54h-291zM216 420h106q102 0 102 83t-108 83h-100v-166zM216 124h132q51 0 79.5 23t28.5 67q0 43 -31 67.5t-91 24.5h-118v-182z" />
    <glyph glyph-name="Gamma" unicode="&#x393;" horiz-adv-x="573" 
d="M77 0v710h467v-125h-324v-585h-143z" />
    <glyph glyph-name="uni0394" unicode="&#x394;" horiz-adv-x="683" 
d="M34 0v108l237 602h140l238 -602v-108h-615zM191 125h299l-147 411h-2z" />
    <glyph glyph-name="Epsilon" unicode="&#x395;" horiz-adv-x="598" 
d="M77 0v710h454v-125h-315v-171h252v-123h-252v-166h336v-125h-475z" />
    <glyph glyph-name="Zeta" unicode="&#x396;" horiz-adv-x="621" 
d="M50 0v110l331 472l-1 3h-316v125h504v-107l-339 -475l2 -3h338v-125h-519z" />
    <glyph glyph-name="Eta" unicode="&#x397;" horiz-adv-x="727" 
d="M77 0v710h142v-307h290v307h141v-710h-141v278h-290v-278h-142z" />
    <glyph glyph-name="Theta" unicode="&#x398;" horiz-adv-x="827" 
d="M410 -9q-160 0 -261 102.5t-101 261.5t101 261.5t261 102.5q157 0 259 -101.5t102 -262.5t-102 -262.5t-259 -101.5zM410 123q92 0 153 66t61 166t-61 166t-153 66q-95 0 -155.5 -67t-60.5 -165t60.5 -165t155.5 -67zM280 289v122h267v-122h-267z" />
    <glyph glyph-name="Iota" unicode="&#x399;" horiz-adv-x="306" 
d="M81 0v710h143v-710h-143z" />
    <glyph glyph-name="Kappa" unicode="&#x39a;" horiz-adv-x="663" 
d="M77 0v710h141v-311h2l243 311h179l-262 -313l271 -397h-174l-190 285l-69 -82v-203h-141z" />
    <glyph glyph-name="Lambda" unicode="&#x39b;" horiz-adv-x="678" 
d="M18 0l251 710h138l252 -710h-151l-168 512h-4l-167 -512h-151z" />
    <glyph glyph-name="Mu" unicode="&#x39c;" horiz-adv-x="876" 
d="M78 0v710h141l218 -404h2l218 404h141v-710h-140v439h-2l-173 -305h-91l-172 306h-2v-440h-140z" />
    <glyph glyph-name="Nu" unicode="&#x39d;" horiz-adv-x="753" 
d="M77 0v710h138l319 -479h2v479h139v-710h-141l-315 469h-2v-469h-140z" />
    <glyph glyph-name="Xi" unicode="&#x39e;" horiz-adv-x="634" 
d="M60 581v129h514v-129h-514zM115 289v124h401v-124h-401zM53 0v129h528v-129h-528z" />
    <glyph glyph-name="Omicron" unicode="&#x39f;" horiz-adv-x="819" 
d="M410 -9q-160 0 -261 102.5t-101 261.5t101 261.5t261 102.5q157 0 259 -101.5t102 -262.5t-102 -262.5t-259 -101.5zM410 123q92 0 153 66t61 166t-61 166t-153 66q-95 0 -155.5 -67t-60.5 -165t60.5 -165t155.5 -67z" />
    <glyph glyph-name="Pi" unicode="&#x3a0;" horiz-adv-x="698" 
d="M77 0v710h544v-710h-141v585h-261v-585h-142z" />
    <glyph glyph-name="Rho" unicode="&#x3a1;" horiz-adv-x="622" 
d="M77 0v710h263q124 0 185.5 -64.5t61.5 -171.5q0 -114 -70 -172.5t-191 -58.5h-110v-243h-139zM216 367h95q64 0 97 29.5t33 79.5q0 51 -31.5 80t-91.5 29h-102v-218z" />
    <glyph glyph-name="Sigma" unicode="&#x3a3;" horiz-adv-x="587" 
d="M46 0v98l187 258l-187 252v102h503v-125h-311l-2 -3l166 -226l-165 -228l1 -3h311v-125h-503z" />
    <glyph glyph-name="Tau" unicode="&#x3a4;" horiz-adv-x="588" 
d="M222 0v585h-194v125h533v-125h-197v-585h-142z" />
    <glyph glyph-name="Upsilon" unicode="&#x3a5;" horiz-adv-x="630" 
d="M243 0v312l-235 398h161l145 -258h2l142 258h163l-236 -398v-312h-142z" />
    <glyph glyph-name="Phi" unicode="&#x3a6;" horiz-adv-x="863" 
d="M824 362q0 -126 -83 -203.5t-239 -84.5v-74h-140v73q-155 7 -239.5 85t-84.5 204q0 128 85 211t239 90v65h140v-65q154 -7 238 -90t84 -211zM184 363q0 -73 46.5 -119t136.5 -51v348q-89 -6 -136 -54.5t-47 -123.5zM498 193q89 7 135.5 52t46.5 118q0 75 -46.5 123
t-135.5 55v-348z" />
    <glyph glyph-name="Chi" unicode="&#x3a7;" horiz-adv-x="699" 
d="M25 0l231 356l-225 354h164l155 -246h2l156 246h160l-225 -353l232 -357h-165l-160 248h-3l-160 -248h-162z" />
    <glyph glyph-name="Psi" unicode="&#x3a8;" horiz-adv-x="795" 
d="M602 710h138l-1 -257q0 -142 -69.5 -218.5t-203.5 -77.5v-157h-139v157q-132 1 -202 77t-70 219l1 257h137l-1 -241q0 -97 32 -141t103 -47v429h139v-429q69 2 102 46.5t34 141.5v241z" />
    <glyph glyph-name="uni03A9" unicode="&#x3a9;" horiz-adv-x="760" 
d="M56 0v125h113l1 2q-124 105 -124 263q0 143 92.5 236t241.5 93t241.5 -93t92.5 -236q0 -158 -124 -263l1 -2h114v-125h-278v125q140 111 140 261q0 90 -51.5 146.5t-135.5 56.5q-84 -1 -135.5 -57t-51.5 -146q0 -149 140 -261v-125h-277z" />
    <glyph glyph-name="Iotadieresis" unicode="&#x3aa;" horiz-adv-x="306" 
d="M45 765q-35 0 -59 23.5t-24 57.5q0 33 24 56.5t59 23.5t59.5 -23.5t24.5 -56.5q0 -34 -24.5 -57.5t-59.5 -23.5zM265 766q-34 0 -58.5 23.5t-24.5 56.5q0 32 24.5 55.5t58.5 23.5t58 -23.5t24 -55.5q0 -34 -23.5 -57t-58.5 -23zM81 0v710h143v-710h-143z" />
    <glyph glyph-name="Upsilondieresis" unicode="&#x3ab;" horiz-adv-x="630" 
d="M204 765q-35 0 -59 23.5t-24 57.5q0 33 24 56.5t59 23.5t59.5 -23.5t24.5 -56.5q0 -34 -24.5 -57.5t-59.5 -23.5zM424 766q-34 0 -58.5 23.5t-24.5 56.5q0 32 24.5 55.5t58.5 23.5t58 -23.5t24 -55.5q0 -34 -23.5 -57t-58.5 -23zM243 0v312l-235 398h161l145 -258h2
l142 258h163l-236 -398v-312h-142z" />
    <glyph glyph-name="alphatonos" unicode="&#x3ac;" horiz-adv-x="594" 
d="M238 556l56 172h146l-82 -172h-120zM255 -8q-100 0 -159.5 69.5t-59.5 181.5q0 111 63 182t160 71q100 0 149 -82h2l4 75h123l-27 -227v-102q0 -28 7 -40t25 -12q15 0 29 5l14 -102q-43 -19 -86 -19q-81 0 -99 73h-2q-49 -73 -143 -73zM276 109q49 0 82 36.5t39 96.5
q0 64 -30.5 100.5t-82.5 36.5q-50 0 -82.5 -37.5t-32.5 -99.5q0 -59 29 -96t78 -37z" />
    <glyph glyph-name="epsilontonos" unicode="&#x3ad;" horiz-adv-x="501" 
d="M395 728l-82 -172h-120l56 172h146zM425 142l55 -92q-55 -35 -109.5 -47t-129.5 -12q-92 0 -145.5 37.5t-53.5 105.5q0 40 25 70.5t67 45.5q-36 19 -57 48t-21 61q0 68 54.5 102.5t143.5 34.5q132 0 217 -49l-49 -93q-74 30 -154 30q-82 -2 -82 -41q0 -21 18.5 -34.5
t57.5 -13.5h82v-94h-90q-40 0 -59 -15t-19 -35q0 -46 100 -46q87 0 149 37z" />
    <glyph glyph-name="etatonos" unicode="&#x3ae;" horiz-adv-x="585" 
d="M234 556l56 172h146l-82 -172h-120zM396 -198v453q0 124 -93 124q-48 0 -77 -35t-29 -100v-244h-132v489h132v-62l2 -1q59 70 151 70q177 0 177 -208v-486h-131z" />
    <glyph glyph-name="iotatonos" unicode="&#x3af;" horiz-adv-x="293" 
d="M75 556l56 172h146l-82 -172h-120zM193 -9q-126 0 -126 140v358h131v-332q0 -29 7 -38.5t25 -9.5q20 0 44 7l14 -105q-53 -20 -95 -20z" />
    <glyph glyph-name="upsilondieresistonos" unicode="&#x3b0;" horiz-adv-x="564" 
d="M230 563l10 172h113l-32 -172h-91zM128 556q-35 0 -59 23.5t-24 57.5q0 33 24 56.5t59 23.5t59 -23.5t24 -56.5q0 -34 -24 -57.5t-59 -23.5zM442 558q-35 0 -58.5 23t-23.5 56t23.5 56.5t58.5 23.5q34 0 58 -23.5t24 -56.5t-24 -56t-58 -23zM280 -9q-104 0 -164.5 63
t-60.5 185v250h131v-242q0 -69 25.5 -103.5t68.5 -34.5q95 0 95 138v242h130v-250q0 -123 -59.5 -185.5t-165.5 -62.5z" />
    <glyph glyph-name="alpha" unicode="&#x3b1;" horiz-adv-x="594" 
d="M255 -8q-100 0 -159.5 69.5t-59.5 181.5q0 111 63 182t160 71q100 0 149 -82h2l4 75h123l-27 -227v-102q0 -28 7 -40t25 -12q15 0 29 5l14 -102q-43 -19 -86 -19q-81 0 -99 73h-2q-49 -73 -143 -73zM276 109q49 0 82 36.5t39 96.5q0 64 -30.5 100.5t-82.5 36.5
q-50 0 -82.5 -37.5t-32.5 -99.5q0 -59 29 -96t78 -37z" />
    <glyph glyph-name="beta" unicode="&#x3b2;" horiz-adv-x="596" 
d="M65 -198v688q0 125 63.5 190t170.5 65q105 0 165.5 -54t60.5 -135q0 -107 -79 -155v-1q53 -26 84 -75t31 -105q0 -105 -62.5 -167t-165.5 -62q-84 0 -134 50l-2 -1v-238h-132zM314 103q52 0 83 31t31 81q0 48 -35 81t-96 33h-36v106h30q61 1 83.5 32.5t22.5 72.5
q0 38 -24.5 63.5t-69.5 25.5t-75.5 -31t-30.5 -97v-276q0 -49 33.5 -85.5t83.5 -36.5z" />
    <glyph glyph-name="gamma" unicode="&#x3b3;" horiz-adv-x="535" 
d="M219 -198q0 4 -0.5 31.5t-0.5 36.5t-2 34t-5 40.5t-8.5 38.5t-13.5 44l-174 462h140l112 -335h3l112 335h139l-188 -492q6 -21 9 -50t3.5 -43.5t1 -56t0.5 -45.5h-128z" />
    <glyph glyph-name="delta" unicode="&#x3b4;" horiz-adv-x="573" 
d="M412 464q130 -74 130 -225q0 -113 -70 -180.5t-179 -67.5q-113 0 -184.5 68.5t-71.5 175.5q0 142 137 219q-84 53 -84 141q0 67 51.5 108t147.5 42q129 2 222 -52l-50 -100q-73 38 -163 38q-78 0 -78 -44q0 -21 18 -38.5t66 -35.5q71 -26 108 -49zM293 109q49 0 82.5 35
t33.5 94q0 55 -29 94t-96 67l-9 3q-49 -24 -77.5 -66.5t-28.5 -96.5q0 -57 34 -93.5t90 -36.5z" />
    <glyph glyph-name="epsilon" unicode="&#x3b5;" horiz-adv-x="501" 
d="M425 142l55 -92q-55 -35 -109.5 -47t-129.5 -12q-92 0 -145.5 37.5t-53.5 105.5q0 40 25 70.5t67 45.5q-36 19 -57 48t-21 61q0 68 54.5 102.5t143.5 34.5q132 0 217 -49l-49 -93q-74 30 -154 30q-82 -2 -82 -41q0 -21 18.5 -34.5t57.5 -13.5h82v-94h-90q-40 0 -59 -15
t-19 -35q0 -46 100 -46q87 0 149 37z" />
    <glyph glyph-name="zeta" unicode="&#x3b6;" horiz-adv-x="468" 
d="M384 -220l-110 56q22 24 30.5 34.5t19.5 30t11 35.5q0 25 -22 42.5t-87 35.5q-41 12 -70 25.5t-59 38t-45.5 63.5t-15.5 92q1 176 252 390v3h-215v110h396v-97q-131 -102 -215.5 -210t-85.5 -194q0 -27 8.5 -46t32.5 -34t43.5 -23t61.5 -22q90 -29 122.5 -64.5
t32.5 -89.5q0 -87 -85 -176z" />
    <glyph glyph-name="eta" unicode="&#x3b7;" horiz-adv-x="585" 
d="M396 -198v453q0 124 -93 124q-48 0 -77 -35t-29 -100v-244h-132v489h132v-62l2 -1q59 70 151 70q177 0 177 -208v-486h-131z" />
    <glyph glyph-name="theta" unicode="&#x3b8;" horiz-adv-x="590" 
d="M295 745q118 0 188 -93.5t70 -282.5q0 -171 -63 -274.5t-195 -103.5q-118 0 -188 93.5t-70 284.5q0 80 14.5 146.5t44.5 119t80.5 81.5t118.5 29zM295 629q-110 0 -124 -204h249q-14 204 -125 204zM295 108q55 0 87 54t38 155h-250q13 -209 125 -209z" />
    <glyph glyph-name="iota" unicode="&#x3b9;" horiz-adv-x="293" 
d="M193 -9q-126 0 -126 140v358h131v-332q0 -29 7 -38.5t25 -9.5q20 0 44 7l14 -105q-53 -20 -95 -20z" />
    <glyph glyph-name="kappa" unicode="&#x3ba;" horiz-adv-x="565" 
d="M65 0v489h130v-211l2 -1l189 212h161l-195 -207l206 -282h-156l-141 198l-66 -69v-129h-130z" />
    <glyph glyph-name="lambda" unicode="&#x3bb;" horiz-adv-x="554" 
d="M540 0h-138q-15 43 -53 155t-58 171h-1l-131 -326h-141l210 491q-10 29 -26 69q-23 69 -73 69q-31 0 -58 -9l-17 106q57 19 108 19q60 0 98 -37.5t71 -124.5q74 -196 209 -583z" />
    <glyph glyph-name="uni03BC" unicode="&#x3bc;" horiz-adv-x="578" 
d="M60 -198v687h132v-252q0 -128 94 -128q44 0 72.5 35.5t28.5 99.5v245h131v-489h-120l-7 59h-2q-54 -68 -133 -68q-46 0 -72 25l-2 -2q10 -58 10 -111v-101h-132z" />
    <glyph glyph-name="nu" unicode="&#x3bd;" horiz-adv-x="537" 
d="M207 0l-192 489h140l113 -328h1l115 328h137l-192 -489h-122z" />
    <glyph glyph-name="xi" unicode="&#x3be;" horiz-adv-x="496" 
d="M395 -220l-110 56q62 66 62 102q0 22 -20.5 38t-72.5 34q-47 16 -79.5 31t-66.5 40t-52 60.5t-18 81.5q0 52 32 99t87 75v2q-85 53 -85 152q0 94 65 144t151 50q118 0 206 -52l-50 -104q-74 39 -144 39q-45 0 -71 -24.5t-26 -59.5q0 -100 180 -100h53v-110h-112
q-72 0 -112.5 -29.5t-40.5 -73.5q0 -41 36 -66t121 -57t118.5 -67t33.5 -87q0 -44 -26 -91.5t-59 -82.5z" />
    <glyph glyph-name="omicron" unicode="&#x3bf;" horiz-adv-x="582" 
d="M291 -9q-112 0 -183 70.5t-71 182.5t71 182t183 70t183 -70t71 -182t-71 -182.5t-183 -70.5zM291 109q52 0 87 38t35 97t-35 97t-87 38t-87 -38t-35 -97t35 -97t87 -38z" />
    <glyph glyph-name="pi" unicode="&#x3c0;" horiz-adv-x="620" 
d="M600 489v-110h-79v-379h-131v379h-160v-379h-131v379h-75v110h576z" />
    <glyph glyph-name="rho" unicode="&#x3c1;" horiz-adv-x="597" 
d="M56 -198v441q0 111 67 182t180 71q111 0 185 -71t74 -182t-65 -181.5t-163 -70.5q-87 0 -145 53l-2 -1v-241h-131zM303 109q55 0 90.5 37.5t35.5 95.5q0 60 -36.5 98.5t-89.5 38.5q-52 0 -86.5 -39t-34.5 -98t35 -96t86 -37z" />
    <glyph glyph-name="uni03C2" unicode="&#x3c2;" horiz-adv-x="507" 
d="M382 -220l-110 56q3 3 11 12t11 12.5t10 11.5t9.5 12t7 11.5t6.5 13t3.5 13t1.5 14.5q0 23 -17.5 38t-69.5 34q-48 18 -80.5 36t-65.5 46.5t-50 71t-17 97.5q0 106 71.5 171.5t187.5 65.5q129 0 204 -88l-87 -81q-42 52 -113 52q-59 0 -94.5 -33.5t-35.5 -86.5
q0 -54 37 -87t118 -63q83 -30 114 -65.5t31 -89.5q0 -37 -15 -72.5t-29 -54.5t-39 -47z" />
    <glyph glyph-name="sigma" unicode="&#x3c3;" horiz-adv-x="599" 
d="M288 -9q-111 0 -181 68t-70 180q0 111 72 180.5t187 69.5h288v-110h-112l-1 -2q70 -65 70 -156q0 -100 -70.5 -165t-182.5 -65zM289 109q54 0 85.5 36t31.5 94q0 84 -66 140h-43q-56 0 -91.5 -39t-35.5 -101q0 -59 35 -94.5t84 -35.5z" />
    <glyph glyph-name="tau" unicode="&#x3c4;" horiz-adv-x="465" 
d="M286 -9q-140 0 -140 164v224h-130v110h426v-110h-165v-200q0 -39 11 -54.5t40 -15.5t65 18l33 -104q-64 -32 -140 -32z" />
    <glyph glyph-name="upsilon" unicode="&#x3c5;" horiz-adv-x="560" 
d="M280 -9q-104 0 -164.5 63t-60.5 185v250h131v-242q0 -69 25.5 -103.5t68.5 -34.5q95 0 95 138v242h130v-250q0 -123 -59.5 -185.5t-165.5 -62.5z" />
    <glyph glyph-name="phi" unicode="&#x3c6;" horiz-adv-x="715" 
d="M679 264q0 -113 -70.5 -188t-193.5 -79v-195h-130v195q-109 5 -177.5 74t-68.5 182q0 77 22.5 134t66.5 114l127 -28q-40 -46 -62 -101.5t-22 -106.5q0 -66 30.5 -107t85.5 -48v175q0 101 47.5 156t125.5 55q101 0 160 -65t59 -167zM415 108q65 7 99.5 49.5t34.5 104.5
q0 47 -21.5 83t-57.5 36q-34 0 -44.5 -27.5t-10.5 -75.5v-170z" />
    <glyph glyph-name="chi" unicode="&#x3c7;" horiz-adv-x="530" 
d="M451 -206q-52 0 -82.5 29t-56.5 94l-48 107h-2l-112 -222h-141l194 353l-88 174q-13 27 -27 39t-34 12q-4 0 -12.5 -1.5t-12.5 -1.5l-17 103q36 16 81 16q49 0 78.5 -28.5t55.5 -88.5l41 -95h2l104 205h140l-183 -332l97 -196q25 -51 58 -51q8 0 29 3l15 -103
q-39 -16 -79 -16z" />
    <glyph glyph-name="psi" unicode="&#x3c8;" horiz-adv-x="722" 
d="M541 489h128v-254q0 -117 -66.5 -179.5t-176.5 -64.5v-189h-130v189q-110 2 -176.5 64.5t-66.5 179.5v254h127v-243q0 -65 32.5 -99t84.5 -36v529h128v-529q52 2 84 36.5t32 98.5v243z" />
    <glyph glyph-name="omega" unicode="&#x3c9;" horiz-adv-x="756" 
d="M229 -9q-79 0 -135 65t-56 176q0 95 23.5 155t66.5 115l118 -23q-31 -49 -53 -112.5t-22 -121.5q0 -66 20.5 -101t56.5 -35q30 0 49.5 36t19.5 99v122h121v-122q0 -63 20 -99t50 -36q35 0 55.5 35t20.5 101q0 58 -21.5 122t-53.5 112l119 23q43 -56 66 -116t23 -154
q0 -111 -56 -176t-135 -65q-103 0 -147 85h-3q-42 -85 -147 -85z" />
    <glyph glyph-name="iotadieresis" unicode="&#x3ca;" horiz-adv-x="293" 
d="M25 555q-35 0 -59 23.5t-24 57.5q0 33 24 56.5t59 23.5t59.5 -23.5t24.5 -56.5q0 -34 -24.5 -57.5t-59.5 -23.5zM245 557q-35 0 -59 23t-24 56q0 32 24.5 56t58.5 24t58 -23.5t24 -56.5t-24 -56t-58 -23zM193 -9q-126 0 -126 140v358h131v-332q0 -29 7 -38.5t25 -9.5
q20 0 44 7l14 -105q-53 -20 -95 -20z" />
    <glyph glyph-name="upsilondieresis" unicode="&#x3cb;" horiz-adv-x="560" 
d="M171 555q-35 0 -59 23.5t-24 57.5q0 33 24 56.5t59 23.5t59.5 -23.5t24.5 -56.5q0 -34 -24.5 -57.5t-59.5 -23.5zM391 557q-35 0 -59 23t-24 56q0 32 24.5 56t58.5 24t58 -23.5t24 -56.5t-24 -56t-58 -23zM280 -9q-104 0 -164.5 63t-60.5 185v250h131v-242
q0 -69 25.5 -103.5t68.5 -34.5q95 0 95 138v242h130v-250q0 -123 -59.5 -185.5t-165.5 -62.5z" />
    <glyph glyph-name="omicrontonos" unicode="&#x3cc;" horiz-adv-x="582" 
d="M230 556l56 172h146l-82 -172h-120zM291 -9q-112 0 -183 70.5t-71 182.5t71 182t183 70t183 -70t71 -182t-71 -182.5t-183 -70.5zM291 109q52 0 87 38t35 97t-35 97t-87 38t-87 -38t-35 -97t35 -97t87 -38z" />
    <glyph glyph-name="upsilontonos" unicode="&#x3cd;" horiz-adv-x="560" 
d="M221 556l56 172h146l-82 -172h-120zM280 -9q-104 0 -164.5 63t-60.5 185v250h131v-242q0 -69 25.5 -103.5t68.5 -34.5q95 0 95 138v242h130v-250q0 -123 -59.5 -185.5t-165.5 -62.5z" />
    <glyph glyph-name="omegatonos" unicode="&#x3ce;" horiz-adv-x="756" 
d="M318 556l56 172h146l-82 -172h-120zM229 -9q-79 0 -135 65t-56 176q0 95 23.5 155t66.5 115l118 -23q-31 -49 -53 -112.5t-22 -121.5q0 -66 20.5 -101t56.5 -35q30 0 49.5 36t19.5 99v122h121v-122q0 -63 20 -99t50 -36q35 0 55.5 35t20.5 101q0 58 -21.5 122t-53.5 112
l119 23q43 -56 66 -116t23 -154q0 -111 -56 -176t-135 -65q-103 0 -147 85h-3q-42 -85 -147 -85z" />
    <glyph glyph-name="uni03D7" unicode="&#x3d7;" horiz-adv-x="598" 
d="M199 -216q-115 0 -194 45l23 109q70 -49 153 -49q119 0 237 107v4q-111 58 -155 187l-67 -73v-114h-131v489h131v-203l3 -1l183 204h158l-187 -205q38 -93 87.5 -138.5t139.5 -64.5v-73q-113 -123 -195 -173.5t-186 -50.5z" />
    <glyph glyph-name="uni1E0C" unicode="&#x1e0c;" horiz-adv-x="728" 
d="M77 0v710h235q167 0 268 -98.5t101 -257.5t-98.5 -256.5t-267.5 -97.5h-238zM216 125h90q102 0 165 65t63 164q0 100 -62 165.5t-158 65.5h-98v-460zM345 -69q36 0 59.5 -23.5t23.5 -57.5q0 -33 -23.5 -56.5t-59.5 -23.5q-35 0 -59 23.5t-24 56.5q0 34 24 57.5t59 23.5z
" />
    <glyph glyph-name="uni1E0D" unicode="&#x1e0d;" horiz-adv-x="613" 
d="M271 -9q-102 0 -168 70t-66 182q0 110 66 181.5t165 71.5q93 0 148 -64h2v304h130v-736h-125v60h-1q-53 -69 -151 -69zM295 109q55 0 91.5 37t36.5 96t-36 98t-92 39q-54 0 -89.5 -37.5t-35.5 -99.5q0 -58 35 -95.5t90 -37.5zM307 -69q36 0 59.5 -23.5t23.5 -57.5
q0 -33 -23.5 -56.5t-59.5 -23.5q-35 0 -59 23.5t-24 56.5q0 34 24 57.5t59 23.5z" />
    <glyph glyph-name="uni1E0E" unicode="&#x1e0e;" horiz-adv-x="728" 
d="M77 0v710h235q167 0 268 -98.5t101 -257.5t-98.5 -256.5t-267.5 -97.5h-238zM216 125h90q102 0 165 65t63 164q0 100 -62 165.5t-158 65.5h-98v-460zM498 -213h-305v105h305v-105z" />
    <glyph glyph-name="uni1E0F" unicode="&#x1e0f;" horiz-adv-x="613" 
d="M271 -9q-102 0 -168 70t-66 182q0 110 66 181.5t165 71.5q93 0 148 -64h2v304h130v-736h-125v60h-1q-53 -69 -151 -69zM295 109q55 0 91.5 37t36.5 96t-36 98t-92 39q-54 0 -89.5 -37.5t-35.5 -99.5q0 -58 35 -95.5t90 -37.5zM460 -213h-305v105h305v-105z" />
    <glyph glyph-name="uni1E20" unicode="&#x1e20;" horiz-adv-x="750" 
d="M245 787v100h305v-100h-305zM410 -7q-158 0 -260 97t-102 264q0 160 96.5 262.5t259.5 102.5q79 0 154 -31t128 -90l-99 -86q-74 74 -183 74q-90 0 -149.5 -63t-59.5 -169q0 -101 58.5 -167t156.5 -66q77 0 143 41v104h-159v121h296v-306q-50 -40 -125 -64t-155 -24z" />
    <glyph glyph-name="uni1E21" unicode="&#x1e21;" horiz-adv-x="602" 
d="M141 579v105h305v-105h-305zM286 -206q-114 0 -200 49l31 111q82 -46 159 -46q65 0 101 31t36 77v49h-2q-54 -56 -142 -56q-101 0 -167 67t-66 173q0 108 64 177.5t162 69.5q88 0 147 -58h2v51h131v-433q0 -262 -256 -262zM293 127q54 0 88.5 35.5t34.5 91.5
q0 55 -35 89.5t-88 34.5q-55 0 -89.5 -35t-34.5 -90q0 -57 35 -91.5t89 -34.5z" />
    <glyph glyph-name="uni1E24" unicode="&#x1e24;" horiz-adv-x="727" 
d="M77 0v710h142v-307h290v307h141v-710h-141v278h-290v-278h-142zM367 -69q36 0 59.5 -23.5t23.5 -57.5q0 -33 -23.5 -56.5t-59.5 -23.5q-35 0 -59 23.5t-24 56.5q0 34 24 57.5t59 23.5z" />
    <glyph glyph-name="uni1E25" unicode="&#x1e25;" horiz-adv-x="593" 
d="M65 0v736h131v-306h1q60 66 160 66q179 0 179 -203v-293h-131v260q0 65 -23.5 92t-71.5 27q-54 0 -84 -33.5t-30 -98.5v-247h-131zM293 -69q36 0 59.5 -23.5t23.5 -57.5q0 -33 -23.5 -56.5t-59.5 -23.5q-35 0 -59 23.5t-24 56.5q0 34 24 57.5t59 23.5z" />
    <glyph glyph-name="uni1E2A" unicode="&#x1e2a;" horiz-adv-x="727" 
d="M77 0v710h142v-307h290v307h141v-710h-141v278h-290v-278h-142zM367 -230q-73 0 -115.5 41.5t-47.5 111.5h99q2 -24 19 -40.5t45 -16.5q27 0 44.5 16.5t19.5 40.5h99q-5 -72 -48.5 -112.5t-114.5 -40.5z" />
    <glyph glyph-name="uni1E2B" unicode="&#x1e2b;" horiz-adv-x="593" 
d="M65 0v736h131v-306h1q60 66 160 66q179 0 179 -203v-293h-131v260q0 65 -23.5 92t-71.5 27q-54 0 -84 -33.5t-30 -98.5v-247h-131zM293 -230q-73 0 -115.5 41.5t-47.5 111.5h99q2 -24 19 -40.5t45 -16.5q27 0 44.5 16.5t19.5 40.5h99q-5 -72 -48.5 -112.5t-114.5 -40.5z
" />
    <glyph glyph-name="uni1E30" unicode="&#x1e30;" horiz-adv-x="663" 
d="M231 769l111 135h139l-126 -135h-124zM77 0v710h141v-311h2l243 311h179l-262 -313l271 -397h-174l-190 285l-69 -82v-203h-141z" />
    <glyph glyph-name="uni1E31" unicode="&#x1e31;" horiz-adv-x="536" 
d="M65 0v736h130v-452h2l174 205h154l-171 -196l175 -293h-147l-121 205l-66 -72v-133h-130zM246 553l114 146l137 1l-124 -147h-127z" />
    <glyph glyph-name="uni1E36" unicode="&#x1e36;" horiz-adv-x="564" 
d="M77 0v710h143v-585h314v-125h-457zM305 -69q36 0 59.5 -23.5t23.5 -57.5q0 -33 -23.5 -56.5t-59.5 -23.5q-35 0 -59 23.5t-24 56.5q0 34 24 57.5t59 23.5z" />
    <glyph glyph-name="uni1E37" unicode="&#x1e37;" horiz-adv-x="273" 
d="M71 0v736h131v-736h-131zM137 -69q36 0 59.5 -23.5t23.5 -57.5q0 -33 -23.5 -56.5t-59.5 -23.5q-35 0 -59 23.5t-24 56.5q0 34 24 57.5t59 23.5z" />
    <glyph glyph-name="uni1E38" unicode="&#x1e38;" horiz-adv-x="564" 
d="M138 788v100h305v-100h-305zM77 0v710h143v-585h314v-125h-457zM305 -69q36 0 59.5 -23.5t23.5 -57.5q0 -33 -23.5 -56.5t-59.5 -23.5q-35 0 -59 23.5t-24 56.5q0 34 24 57.5t59 23.5z" />
    <glyph glyph-name="uni1E39" unicode="&#x1e39;" horiz-adv-x="273" 
d="M-13 801v100h305v-100h-305zM71 0v736h131v-736h-131zM137 -69q36 0 59.5 -23.5t23.5 -57.5q0 -33 -23.5 -56.5t-59.5 -23.5q-35 0 -59 23.5t-24 56.5q0 34 24 57.5t59 23.5z" />
    <glyph glyph-name="uni1E3A" unicode="&#x1e3a;" horiz-adv-x="564" 
d="M77 0v710h143v-585h314v-125h-457zM458 -213h-305v105h305v-105z" />
    <glyph glyph-name="uni1E3B" unicode="&#x1e3b;" horiz-adv-x="273" 
d="M71 0v736h131v-736h-131zM290 -213h-305v105h305v-105z" />
    <glyph glyph-name="uni1E42" unicode="&#x1e42;" horiz-adv-x="876" 
d="M78 0v710h141l218 -404h2l218 404h141v-710h-140v439h-2l-173 -305h-91l-172 306h-2v-440h-140zM439 -69q36 0 59.5 -23.5t23.5 -57.5q0 -33 -23.5 -56.5t-59.5 -23.5q-35 0 -59 23.5t-24 56.5q0 34 24 57.5t59 23.5z" />
    <glyph glyph-name="uni1E43" unicode="&#x1e43;" horiz-adv-x="890" 
d="M65 0v489h131v-64h1q59 71 146 71q102 0 144 -77h2q60 77 171 77q172 0 172 -213v-283h-131v252q0 127 -85 127q-43 0 -71.5 -35.5t-28.5 -99.5v-244h-131v252q0 127 -86 127q-46 0 -74.5 -35.5t-28.5 -99.5v-244h-131zM452 -69q36 0 59.5 -23.5t23.5 -57.5
q0 -33 -23.5 -56.5t-59.5 -23.5q-35 0 -59 23.5t-24 56.5q0 34 24 57.5t59 23.5z" />
    <glyph glyph-name="uni1E44" unicode="&#x1e44;" horiz-adv-x="753" 
d="M378 765q-36 0 -59.5 23.5t-23.5 57.5q0 33 23.5 56.5t59.5 23.5q35 0 59 -23.5t24 -56.5q0 -34 -24 -57.5t-59 -23.5zM77 0v710h138l319 -479h2v479h139v-710h-141l-315 469h-2v-469h-140z" />
    <glyph glyph-name="uni1E45" unicode="&#x1e45;" horiz-adv-x="588" 
d="M299 555q-36 0 -59.5 23.5t-23.5 57.5q0 33 23.5 56.5t59.5 23.5q35 0 59 -23.5t24 -56.5q0 -34 -24 -57.5t-59 -23.5zM65 0v489h131v-63h2q59 70 156 70q177 0 177 -206v-290h-131v257q0 67 -23 94.5t-71 27.5q-51 0 -80.5 -34.5t-29.5 -99.5v-245h-131z" />
    <glyph glyph-name="uni1E46" unicode="&#x1e46;" horiz-adv-x="753" 
d="M77 0v710h138l319 -479h2v479h139v-710h-141l-315 469h-2v-469h-140zM376 -69q36 0 59.5 -23.5t23.5 -57.5q0 -33 -23.5 -56.5t-59.5 -23.5q-35 0 -59 23.5t-24 56.5q0 34 24 57.5t59 23.5z" />
    <glyph glyph-name="uni1E47" unicode="&#x1e47;" horiz-adv-x="588" 
d="M65 0v489h131v-63h2q59 70 156 70q177 0 177 -206v-290h-131v257q0 67 -23 94.5t-71 27.5q-51 0 -80.5 -34.5t-29.5 -99.5v-245h-131zM309 -69q36 0 59.5 -23.5t23.5 -57.5q0 -33 -23.5 -56.5t-59.5 -23.5q-35 0 -59 23.5t-24 56.5q0 34 24 57.5t59 23.5z" />
    <glyph glyph-name="uni1E48" unicode="&#x1e48;" horiz-adv-x="753" 
d="M77 0v710h138l319 -479h2v479h139v-710h-141l-315 469h-2v-469h-140zM529 -213h-305v105h305v-105z" />
    <glyph glyph-name="uni1E49" unicode="&#x1e49;" horiz-adv-x="588" 
d="M65 0v489h131v-63h2q59 70 156 70q177 0 177 -206v-290h-131v257q0 67 -23 94.5t-71 27.5q-51 0 -80.5 -34.5t-29.5 -99.5v-245h-131zM462 -213h-305v105h305v-105z" />
    <glyph glyph-name="uni1E5A" unicode="&#x1e5a;" horiz-adv-x="655" 
d="M77 0v710h269q123 0 185 -64.5t62 -171.5q0 -166 -148 -214l178 -260h-167l-159 243h-81v-243h-139zM216 367h102q63 0 96.5 29.5t33.5 79.5t-32 79.5t-92 29.5h-108v-218zM328 -69q36 0 59.5 -23.5t23.5 -57.5q0 -33 -23.5 -56.5t-59.5 -23.5q-35 0 -59 23.5t-24 56.5
q0 34 24 57.5t59 23.5z" />
    <glyph glyph-name="uni1E5B" unicode="&#x1e5b;" horiz-adv-x="372" 
d="M65 0v489h131v-71h2q58 78 147 78h10v-143q-14 1 -35 1q-59 0 -91.5 -35.5t-32.5 -92.5v-226h-131zM133 -69q36 0 59.5 -23.5t23.5 -57.5q0 -33 -23.5 -56.5t-59.5 -23.5q-35 0 -59 23.5t-24 56.5q0 34 24 57.5t59 23.5z" />
    <glyph glyph-name="uni1E5C" unicode="&#x1e5c;" horiz-adv-x="655" 
d="M169 788v100h305v-100h-305zM77 0v710h269q123 0 185 -64.5t62 -171.5q0 -166 -148 -214l178 -260h-167l-159 243h-81v-243h-139zM216 367h102q63 0 96.5 29.5t33.5 79.5t-32 79.5t-92 29.5h-108v-218zM328 -69q36 0 59.5 -23.5t23.5 -57.5q0 -33 -23.5 -56.5
t-59.5 -23.5q-35 0 -59 23.5t-24 56.5q0 34 24 57.5t59 23.5z" />
    <glyph glyph-name="uni1E5D" unicode="&#x1e5d;" horiz-adv-x="372" 
d="M70 579v105h305v-105h-305zM65 0v489h131v-71h2q58 78 147 78h10v-143q-14 1 -35 1q-59 0 -91.5 -35.5t-32.5 -92.5v-226h-131zM133 -69q36 0 59.5 -23.5t23.5 -57.5q0 -33 -23.5 -56.5t-59.5 -23.5q-35 0 -59 23.5t-24 56.5q0 34 24 57.5t59 23.5z" />
    <glyph glyph-name="uni1E5E" unicode="&#x1e5e;" horiz-adv-x="655" 
d="M77 0v710h269q123 0 185 -64.5t62 -171.5q0 -166 -148 -214l178 -260h-167l-159 243h-81v-243h-139zM216 367h102q63 0 96.5 29.5t33.5 79.5t-32 79.5t-92 29.5h-108v-218zM481 -213h-305v105h305v-105z" />
    <glyph glyph-name="uni1E5F" unicode="&#x1e5f;" horiz-adv-x="372" 
d="M65 0v489h131v-71h2q58 78 147 78h10v-143q-14 1 -35 1q-59 0 -91.5 -35.5t-32.5 -92.5v-226h-131zM286 -213h-305v105h305v-105z" />
    <glyph glyph-name="uni1E60" unicode="&#x1e60;" horiz-adv-x="582" 
d="M291 765q-36 0 -59.5 23.5t-23.5 57.5q0 33 23.5 56.5t59.5 23.5q35 0 59 -23.5t24 -56.5q0 -34 -24 -57.5t-59 -23.5zM291 -9q-149 0 -259 113l85 104q38 -43 85.5 -66t91.5 -23q49 0 75 20.5t26 54.5q0 37 -26.5 57t-96.5 44q-38 13 -64.5 24.5t-57 30.5t-49.5 40.5
t-31.5 54t-12.5 71.5q0 85 66 143.5t162 59.5q130 0 240 -90l-82 -106q-86 70 -155 70q-38 0 -61.5 -19t-24.5 -52q0 -31 25.5 -49t94.5 -45q110 -43 144 -66q77 -52 77 -151q0 -74 -40 -125.5t-95 -73t-117 -21.5z" />
    <glyph glyph-name="uni1E61" unicode="&#x1e61;" horiz-adv-x="445" 
d="M229 555q-36 0 -59.5 23.5t-23.5 57.5q0 33 23.5 56.5t59.5 23.5q35 0 59 -23.5t24 -56.5q0 -34 -24 -57.5t-59 -23.5zM223 -9q-115 0 -198 72l63 91q61 -56 136 -56q28 0 43.5 11t15.5 29q0 15 -18.5 25.5t-69.5 27.5q-72 24 -111.5 59.5t-39.5 100.5t50 105t127 40
q99 0 178 -61l-64 -97q-53 52 -117 52q-18 0 -32 -9t-14 -27q0 -25 72 -52q40 -15 59 -22.5t45 -22t36.5 -28.5t19 -35.5t8.5 -50.5q0 -68 -48.5 -110t-140.5 -42z" />
    <glyph glyph-name="uni1E62" unicode="&#x1e62;" horiz-adv-x="582" 
d="M291 -9q-149 0 -259 113l85 104q38 -43 85.5 -66t91.5 -23q49 0 75 20.5t26 54.5q0 37 -26.5 57t-96.5 44q-38 13 -64.5 24.5t-57 30.5t-49.5 40.5t-31.5 54t-12.5 71.5q0 85 66 143.5t162 59.5q130 0 240 -90l-82 -106q-86 70 -155 70q-38 0 -61.5 -19t-24.5 -52
q0 -31 25.5 -49t94.5 -45q110 -43 144 -66q77 -52 77 -151q0 -74 -40 -125.5t-95 -73t-117 -21.5zM299 -69q36 0 59.5 -23.5t23.5 -57.5q0 -33 -23.5 -56.5t-59.5 -23.5q-35 0 -59 23.5t-24 56.5q0 34 24 57.5t59 23.5z" />
    <glyph glyph-name="uni1E63" unicode="&#x1e63;" horiz-adv-x="445" 
d="M223 -9q-115 0 -198 72l63 91q61 -56 136 -56q28 0 43.5 11t15.5 29q0 15 -18.5 25.5t-69.5 27.5q-72 24 -111.5 59.5t-39.5 100.5t50 105t127 40q99 0 178 -61l-64 -97q-53 52 -117 52q-18 0 -32 -9t-14 -27q0 -25 72 -52q40 -15 59 -22.5t45 -22t36.5 -28.5t19 -35.5
t8.5 -50.5q0 -68 -48.5 -110t-140.5 -42zM226 -69q36 0 59.5 -23.5t23.5 -57.5q0 -33 -23.5 -56.5t-59.5 -23.5q-35 0 -59 23.5t-24 56.5q0 34 24 57.5t59 23.5z" />
    <glyph glyph-name="uni1E6C" unicode="&#x1e6c;" horiz-adv-x="588" 
d="M222 0v585h-194v125h533v-125h-197v-585h-142zM291 -69q36 0 59.5 -23.5t23.5 -57.5q0 -33 -23.5 -56.5t-59.5 -23.5q-35 0 -59 23.5t-24 56.5q0 34 24 57.5t59 23.5z" />
    <glyph glyph-name="uni1E6D" unicode="&#x1e6d;" horiz-adv-x="369" 
d="M216 -9q-65 0 -102 41.5t-37 121.5v226h-58v109h58v159l131 14v-173h132v-109h-132v-207q0 -33 9.5 -48t32.5 -15q28 0 62 17l33 -105q-57 -31 -129 -31zM212 -69q36 0 59.5 -23.5t23.5 -57.5q0 -33 -23.5 -56.5t-59.5 -23.5q-35 0 -59 23.5t-24 56.5q0 34 24 57.5
t59 23.5z" />
    <glyph glyph-name="uni1E6E" unicode="&#x1e6e;" horiz-adv-x="588" 
d="M222 0v585h-194v125h533v-125h-197v-585h-142zM444 -213h-305v105h305v-105z" />
    <glyph glyph-name="uni1E6F" unicode="&#x1e6f;" horiz-adv-x="369" 
d="M216 -9q-65 0 -102 41.5t-37 121.5v226h-58v109h58v159l131 14v-173h132v-109h-132v-207q0 -33 9.5 -48t32.5 -15q28 0 62 17l33 -105q-57 -31 -129 -31zM365 -213h-305v105h305v-105z" />
    <glyph glyph-name="Wgrave" unicode="&#x1e80;" horiz-adv-x="1031" 
d="M459 769l-126 135h140l111 -135h-125zM249 0l-224 710h150l138 -479h2l127 479h148l125 -478h3l138 478h150l-224 -710h-130l-134 505h-2l-137 -505h-130z" />
    <glyph glyph-name="wgrave" unicode="&#x1e81;" horiz-adv-x="769" 
d="M322 552l-124 146l140 -1l108 -145h-124zM183 0l-165 489h132l94 -299h1l87 299h105l88 -299h2l93 299h131l-166 -489h-113l-88 297h-1l-87 -297h-113z" />
    <glyph glyph-name="Wacute" unicode="&#x1e82;" horiz-adv-x="1031" 
d="M456 769l111 135h139l-126 -135h-124zM249 0l-224 710h150l138 -479h2l127 479h148l125 -478h3l138 478h150l-224 -710h-130l-134 505h-2l-137 -505h-130z" />
    <glyph glyph-name="wacute" unicode="&#x1e83;" horiz-adv-x="769" 
d="M321 554l114 146l137 1l-124 -147h-127zM183 0l-165 489h132l94 -299h1l87 299h105l88 -299h2l93 299h131l-166 -489h-113l-88 297h-1l-87 -297h-113z" />
    <glyph glyph-name="Wdieresis" unicode="&#x1e84;" horiz-adv-x="1031" 
d="M411 767q-34 0 -58 23.5t-24 56.5q0 32 24 55.5t58 23.5q35 0 59 -23.5t24 -56.5t-24 -56t-59 -23zM621 767q-35 0 -58.5 23.5t-23.5 56.5t23.5 56t58.5 23q34 0 58.5 -23.5t24.5 -56.5t-24 -56t-59 -23zM249 0l-224 710h150l138 -479h2l127 479h148l125 -478h3l138 478
h150l-224 -710h-130l-134 505h-2l-137 -505h-130z" />
    <glyph glyph-name="wdieresis" unicode="&#x1e85;" horiz-adv-x="769" 
d="M278 557q-34 0 -58 23.5t-24 56.5q0 32 24 55.5t58 23.5q35 0 59 -23.5t24 -56.5t-24 -56t-59 -23zM488 557q-35 0 -58.5 23.5t-23.5 56.5t23.5 56t58.5 23q34 0 58.5 -23.5t24.5 -56.5t-24 -56t-59 -23zM183 0l-165 489h132l94 -299h1l87 299h105l88 -299h2l93 299h131
l-166 -489h-113l-88 297h-1l-87 -297h-113z" />
    <glyph glyph-name="uni1E8E" unicode="&#x1e8e;" horiz-adv-x="630" 
d="M317 765q-36 0 -59.5 23.5t-23.5 57.5q0 33 23.5 56.5t59.5 23.5q35 0 59 -23.5t24 -56.5q0 -34 -24 -57.5t-59 -23.5zM243 0v312l-235 398h161l145 -258h2l142 258h163l-236 -398v-312h-142z" />
    <glyph glyph-name="uni1E8F" unicode="&#x1e8f;" horiz-adv-x="536" 
d="M270 555q-36 0 -59.5 23.5t-23.5 57.5q0 33 23.5 56.5t59.5 23.5q35 0 59 -23.5t24 -56.5q0 -34 -24 -57.5t-59 -23.5zM124 -198l87 228l-196 459h140l119 -300h2l111 300h133l-263 -687h-133z" />
    <glyph glyph-name="uni1E92" unicode="&#x1e92;" horiz-adv-x="621" 
d="M50 0v110l331 472l-1 3h-316v125h504v-107l-339 -475l2 -3h338v-125h-519zM309 -69q36 0 59.5 -23.5t23.5 -57.5q0 -33 -23.5 -56.5t-59.5 -23.5q-35 0 -59 23.5t-24 56.5q0 34 24 57.5t59 23.5z" />
    <glyph glyph-name="uni1E93" unicode="&#x1e93;" horiz-adv-x="484" 
d="M35 0v90l235 288l-1 3h-216v108h394v-89l-238 -290l1 -2h231v-108h-406zM244 -69q36 0 59.5 -23.5t23.5 -57.5q0 -33 -23.5 -56.5t-59.5 -23.5q-35 0 -59 23.5t-24 56.5q0 34 24 57.5t59 23.5z" />
    <glyph glyph-name="uni1E97" unicode="&#x1e97;" horiz-adv-x="369" 
d="M78 705q-34 0 -58 23.5t-24 56.5q0 32 24 55.5t58 23.5q35 0 59 -23.5t24 -56.5t-24 -56t-59 -23zM288 705q-35 0 -58.5 23.5t-23.5 56.5t23.5 56t58.5 23q34 0 58.5 -23.5t24.5 -56.5t-24 -56t-59 -23zM216 -9q-65 0 -102 41.5t-37 121.5v226h-58v109h58v159l131 14
v-173h132v-109h-132v-207q0 -33 9.5 -48t32.5 -15q28 0 62 17l33 -105q-57 -31 -129 -31z" />
    <glyph glyph-name="uni1E9E" unicode="&#x1e9e;" horiz-adv-x="769" 
d="M535 425q106 -42 141 -68q70 -51 70 -146q0 -56 -22.5 -100t-58.5 -69t-76.5 -38t-81.5 -13q-117 0 -219 84l65 121q36 -38 78.5 -57.5t77.5 -19.5q43 0 66.5 20.5t23.5 54.5q0 38 -27 58.5t-97 42.5q-59 20 -119 53l121 232l-2 4q-83 10 -128 10q-72 0 -108.5 -30
t-36.5 -99l-1 -465h-139l1 471q0 248 271 248q137 0 332 -48z" />
    <glyph glyph-name="uni1EA0" unicode="&#x1ea0;" horiz-adv-x="694" 
d="M16 0l263 710h136l264 -710h-147l-49 142h-272l-48 -142h-147zM251 262h192l-95 278h-2zM348 -69q36 0 59.5 -23.5t23.5 -57.5q0 -33 -23.5 -56.5t-59.5 -23.5q-35 0 -59 23.5t-24 56.5q0 34 24 57.5t59 23.5z" />
    <glyph glyph-name="uni1EA1" unicode="&#x1ea1;" horiz-adv-x="604" 
d="M270 -9q-102 0 -167.5 70t-65.5 182q0 110 65.5 181.5t164.5 71.5q91 0 144 -64l2 1v56h131v-489h-125v58l-2 1q-53 -68 -147 -68zM295 109q52 0 88 37t36 96t-35.5 98t-88.5 39q-54 0 -89.5 -37.5t-35.5 -99.5q0 -59 35 -96t90 -37zM293 -69q36 0 59.5 -23.5t23.5 -57.5
q0 -33 -23.5 -56.5t-59.5 -23.5q-35 0 -59 23.5t-24 56.5q0 34 24 57.5t59 23.5z" />
    <glyph glyph-name="uni1EA2" unicode="&#x1ea2;" horiz-adv-x="694" 
d="M306 769q64 43 64 67q0 20 -29 20q-33 0 -81 -27l-27 61q56 47 144 47q46 0 72.5 -20t26.5 -58q0 -59 -84 -90h-86zM16 0l263 710h136l264 -710h-147l-49 142h-272l-48 -142h-147zM251 262h192l-95 278h-2z" />
    <glyph glyph-name="uni1EA3" unicode="&#x1ea3;" horiz-adv-x="604" 
d="M260 552q65 47 64 81q0 22 -29 22q-36 0 -80 -29l-27 60q55 55 143 55q46 0 72.5 -21t26.5 -63q0 -34 -25.5 -63t-58.5 -42h-86zM270 -9q-102 0 -167.5 70t-65.5 182q0 110 65.5 181.5t164.5 71.5q91 0 144 -64l2 1v56h131v-489h-125v58l-2 1q-53 -68 -147 -68zM295 109
q52 0 88 37t36 96t-35.5 98t-88.5 39q-54 0 -89.5 -37.5t-35.5 -99.5q0 -59 35 -96t90 -37z" />
    <glyph glyph-name="uni1EA4" unicode="&#x1ea4;" horiz-adv-x="694" 
d="M504 827l81 139l135 1l-120 -140h-96zM173 769l104 135h139l104 -135h-121l-52 68h-2l-52 -68h-120zM16 0l263 710h136l264 -710h-147l-49 142h-272l-48 -142h-147zM251 262h192l-95 278h-2z" />
    <glyph glyph-name="uni1EA5" unicode="&#x1ea5;" horiz-adv-x="604" 
d="M439 648l80 147h134l-120 -147h-94zM129 551l103 147h139l101 -147h-120l-50 75h-2l-50 -75h-121zM270 -9q-102 0 -167.5 70t-65.5 182q0 110 65.5 181.5t164.5 71.5q91 0 144 -64l2 1v56h131v-489h-125v58l-2 1q-53 -68 -147 -68zM295 109q52 0 88 37t36 96t-35.5 98
t-88.5 39q-54 0 -89.5 -37.5t-35.5 -99.5q0 -59 35 -96t90 -37z" />
    <glyph glyph-name="uni1EA6" unicode="&#x1ea6;" horiz-adv-x="694" 
d="M550 826l-120 140h135l81 -140h-96zM173 769l104 135h139l104 -135h-121l-52 68h-2l-52 -68h-120zM16 0l263 710h136l264 -710h-147l-49 142h-272l-48 -142h-147zM251 262h192l-95 278h-2z" />
    <glyph glyph-name="uni1EA7" unicode="&#x1ea7;" horiz-adv-x="604" 
d="M469 648l-120 147h134l79 -147h-93zM129 551l103 147h139l101 -147h-120l-50 75h-2l-50 -75h-121zM270 -9q-102 0 -167.5 70t-65.5 182q0 110 65.5 181.5t164.5 71.5q91 0 144 -64l2 1v56h131v-489h-125v58l-2 1q-53 -68 -147 -68zM295 109q52 0 88 37t36 96t-35.5 98
t-88.5 39q-54 0 -89.5 -37.5t-35.5 -99.5q0 -59 35 -96t90 -37z" />
    <glyph glyph-name="uni1EA8" unicode="&#x1ea8;" horiz-adv-x="694" 
d="M511 839q58 39 58 60q0 18 -26 18q-29 0 -73 -24l-25 55q51 42 130 42q41 0 65 -18t24 -52q0 -54 -76 -81h-77zM173 769l104 135h139l104 -135h-121l-52 68h-2l-52 -68h-120zM16 0l263 710h136l264 -710h-147l-49 142h-272l-48 -142h-147zM251 262h192l-95 278h-2z" />
    <glyph glyph-name="uni1EA9" unicode="&#x1ea9;" horiz-adv-x="604" 
d="M452 651q60 44 60 76q0 20 -28 20q-35 0 -74 -27l-26 56q52 52 134 52q43 0 68 -20t25 -59q0 -32 -23.5 -59t-55.5 -39h-80zM129 551l103 147h139l101 -147h-120l-50 75h-2l-50 -75h-121zM270 -9q-102 0 -167.5 70t-65.5 182q0 110 65.5 181.5t164.5 71.5q91 0 144 -64
l2 1v56h131v-489h-125v58l-2 1q-53 -68 -147 -68zM295 109q52 0 88 37t36 96t-35.5 98t-88.5 39q-54 0 -89.5 -37.5t-35.5 -99.5q0 -59 35 -96t90 -37z" />
    <glyph glyph-name="uni1EAA" unicode="&#x1eaa;" horiz-adv-x="694" 
d="M422 927q-34 0 -80 26q-36 20 -56 20q-29 0 -50 -46l-73 30q36 101 113 101q43 0 83 -26q35 -20 53 -20q29 0 48 46l72 -24q-32 -107 -110 -107zM173 769l104 135h139l104 -135h-121l-52 68h-2l-52 -68h-120zM16 0l263 710h136l264 -710h-147l-49 142h-272l-48 -142h-147
zM251 262h192l-95 278h-2z" />
    <glyph glyph-name="uni1EAB" unicode="&#x1eab;" horiz-adv-x="604" 
d="M194 732l-77 33q37 106 114 106q35 0 78 -23q36 -22 51 -22q33 0 54 48l78 -25q-16 -51 -46 -83t-71 -32q-32 0 -76 26q-39 23 -57 22q-29 -3 -48 -50zM130 551l103 147h139l101 -147h-120l-50 75h-2l-50 -75h-121zM270 -9q-102 0 -167.5 70t-65.5 182q0 110 65.5 181.5
t164.5 71.5q91 0 144 -64l2 1v56h131v-489h-125v58l-2 1q-53 -68 -147 -68zM295 109q52 0 88 37t36 96t-35.5 98t-88.5 39q-54 0 -89.5 -37.5t-35.5 -99.5q0 -59 35 -96t90 -37z" />
    <glyph glyph-name="uni1EAC" unicode="&#x1eac;" horiz-adv-x="694" 
d="M173 769l104 135h139l104 -135h-121l-52 68h-2l-52 -68h-120zM16 0l263 710h136l264 -710h-147l-49 142h-272l-48 -142h-147zM251 262h192l-95 278h-2zM348 -69q36 0 59.5 -23.5t23.5 -57.5q0 -33 -23.5 -56.5t-59.5 -23.5q-35 0 -59 23.5t-24 56.5q0 34 24 57.5t59 23.5
z" />
    <glyph glyph-name="uni1EAD" unicode="&#x1ead;" horiz-adv-x="604" 
d="M129 551l103 147h139l101 -147h-120l-50 75h-2l-50 -75h-121zM270 -9q-102 0 -167.5 70t-65.5 182q0 110 65.5 181.5t164.5 71.5q91 0 144 -64l2 1v56h131v-489h-125v58l-2 1q-53 -68 -147 -68zM295 109q52 0 88 37t36 96t-35.5 98t-88.5 39q-54 0 -89.5 -37.5
t-35.5 -99.5q0 -59 35 -96t90 -37zM293 -69q36 0 59.5 -23.5t23.5 -57.5q0 -33 -23.5 -56.5t-59.5 -23.5q-35 0 -59 23.5t-24 56.5q0 34 24 57.5t59 23.5z" />
    <glyph glyph-name="uni1EAE" unicode="&#x1eae;" horiz-adv-x="694" 
d="M302 897l82 134h134l-121 -134h-95zM347 758q-76 0 -121 35t-51 96h105q2 -21 19.5 -33.5t47.5 -12.5q29 0 47 13t20 33h105q-6 -60 -50 -95.5t-122 -35.5zM16 0l263 710h136l264 -710h-147l-49 142h-272l-48 -142h-147zM251 262h192l-95 278h-2z" />
    <glyph glyph-name="uni1EAF" unicode="&#x1eaf;" horiz-adv-x="604" 
d="M251 712l79 147h134l-120 -147h-93zM301 543q-71 0 -114.5 40.5t-48.5 112.5h99q2 -24 19.5 -40.5t44.5 -16.5q28 0 45 16.5t19 40.5h99q-5 -70 -47.5 -111.5t-115.5 -41.5zM270 -9q-102 0 -167.5 70t-65.5 182q0 110 65.5 181.5t164.5 71.5q91 0 144 -64l2 1v56h131
v-489h-125v58l-2 1q-53 -68 -147 -68zM295 109q52 0 88 37t36 96t-35.5 98t-88.5 39q-54 0 -89.5 -37.5t-35.5 -99.5q0 -59 35 -96t90 -37z" />
    <glyph glyph-name="uni1EB0" unicode="&#x1eb0;" horiz-adv-x="694" 
d="M308 898l-121 135l135 -1l81 -134h-95zM347 758q-76 0 -121 35t-51 96h105q2 -21 19.5 -33.5t47.5 -12.5q29 0 47 13t20 33h105q-6 -60 -50 -95.5t-122 -35.5zM16 0l263 710h136l264 -710h-147l-49 142h-272l-48 -142h-147zM251 262h192l-95 278h-2z" />
    <glyph glyph-name="uni1EB1" unicode="&#x1eb1;" horiz-adv-x="604" 
d="M260 712l-121 147h135l79 -147h-93zM301 543q-71 0 -114.5 40.5t-48.5 112.5h99q2 -24 19.5 -40.5t44.5 -16.5q28 0 45 16.5t19 40.5h99q-5 -70 -47.5 -111.5t-115.5 -41.5zM270 -9q-102 0 -167.5 70t-65.5 182q0 110 65.5 181.5t164.5 71.5q91 0 144 -64l2 1v56h131
v-489h-125v58l-2 1q-53 -68 -147 -68zM295 109q52 0 88 37t36 96t-35.5 98t-88.5 39q-54 0 -89.5 -37.5t-35.5 -99.5q0 -59 35 -96t90 -37z" />
    <glyph glyph-name="uni1EB2" unicode="&#x1eb2;" horiz-adv-x="694" 
d="M297 890q58 39 58 60q0 18 -26 18q-29 0 -73 -24l-25 55q51 42 130 42q41 0 65 -18t24 -52q0 -54 -76 -81h-77zM347 758q-76 0 -121 35t-51 96h105q2 -21 19.5 -33.5t47.5 -12.5q29 0 47 13t20 33h105q-6 -60 -50 -95.5t-122 -35.5zM16 0l263 710h136l264 -710h-147
l-49 142h-272l-48 -142h-147zM251 262h192l-95 278h-2z" />
    <glyph glyph-name="uni1EB3" unicode="&#x1eb3;" horiz-adv-x="604" 
d="M254 698q60 44 60 76q0 20 -28 20q-35 0 -74 -27l-26 56q52 52 134 52q43 0 68 -20t25 -59q0 -32 -23.5 -59t-55.5 -39h-80zM301 544q-73 0 -118 38t-51 106h103q2 -22 20 -38t46 -16q29 0 46.5 16t19.5 38h103q-6 -66 -50 -105t-119 -39zM270 -9q-102 0 -167.5 70
t-65.5 182q0 110 65.5 181.5t164.5 71.5q91 0 144 -64l2 1v56h131v-489h-125v58l-2 1q-53 -68 -147 -68zM295 109q52 0 88 37t36 96t-35.5 98t-88.5 39q-54 0 -89.5 -37.5t-35.5 -99.5q0 -59 35 -96t90 -37z" />
    <glyph glyph-name="uni1EB4" unicode="&#x1eb4;" horiz-adv-x="694" 
d="M421 910q-34 0 -80 26q-36 20 -56 20q-29 0 -50 -46l-73 30q36 101 113 101q43 0 83 -26q35 -20 53 -20q29 0 48 46l72 -24q-32 -107 -110 -107zM347 758q-76 0 -121 35t-51 96h105q2 -21 19.5 -33.5t47.5 -12.5q29 0 47 13t20 33h105q-6 -60 -50 -95.5t-122 -35.5zM16 0
l263 710h136l264 -710h-147l-49 142h-272l-48 -142h-147zM251 262h192l-95 278h-2z" />
    <glyph glyph-name="uni1EB5" unicode="&#x1eb5;" horiz-adv-x="604" 
d="M192 728l-77 33q37 106 114 106q35 0 78 -23q36 -22 51 -22q33 0 54 48l78 -25q-16 -51 -46 -83t-71 -32q-32 0 -76 26q-39 23 -57 22q-29 -3 -48 -50zM300 543q-71 0 -114.5 40.5t-48.5 112.5h99q2 -24 19.5 -40.5t44.5 -16.5q28 0 45 16.5t19 40.5h99
q-5 -70 -47.5 -111.5t-115.5 -41.5zM270 -9q-102 0 -167.5 70t-65.5 182q0 110 65.5 181.5t164.5 71.5q91 0 144 -64l2 1v56h131v-489h-125v58l-2 1q-53 -68 -147 -68zM295 109q52 0 88 37t36 96t-35.5 98t-88.5 39q-54 0 -89.5 -37.5t-35.5 -99.5q0 -59 35 -96t90 -37z" />
    <glyph glyph-name="uni1EB6" unicode="&#x1eb6;" horiz-adv-x="694" 
d="M347 762q-73 0 -115.5 37.5t-47.5 104.5h99q2 -22 18.5 -36t45.5 -14q28 0 45 14t19 36h99q-5 -65 -47 -103.5t-116 -38.5zM16 0l263 710h136l264 -710h-147l-49 142h-272l-48 -142h-147zM251 262h192l-95 278h-2zM348 -69q36 0 59.5 -23.5t23.5 -57.5q0 -33 -23.5 -56.5
t-59.5 -23.5q-35 0 -59 23.5t-24 56.5q0 34 24 57.5t59 23.5z" />
    <glyph glyph-name="uni1EB7" unicode="&#x1eb7;" horiz-adv-x="604" 
d="M301 543q-71 0 -114.5 40.5t-48.5 112.5h99q2 -24 19.5 -40.5t44.5 -16.5q28 0 45 16.5t19 40.5h99q-5 -70 -47.5 -111.5t-115.5 -41.5zM270 -9q-102 0 -167.5 70t-65.5 182q0 110 65.5 181.5t164.5 71.5q91 0 144 -64l2 1v56h131v-489h-125v58l-2 1q-53 -68 -147 -68z
M295 109q52 0 88 37t36 96t-35.5 98t-88.5 39q-54 0 -89.5 -37.5t-35.5 -99.5q0 -59 35 -96t90 -37zM293 -69q36 0 59.5 -23.5t23.5 -57.5q0 -33 -23.5 -56.5t-59.5 -23.5q-35 0 -59 23.5t-24 56.5q0 34 24 57.5t59 23.5z" />
    <glyph glyph-name="uni1EB8" unicode="&#x1eb8;" horiz-adv-x="598" 
d="M77 0v710h454v-125h-315v-171h252v-123h-252v-166h336v-125h-475zM318 -69q36 0 59.5 -23.5t23.5 -57.5q0 -33 -23.5 -56.5t-59.5 -23.5q-35 0 -59 23.5t-24 56.5q0 34 24 57.5t59 23.5z" />
    <glyph glyph-name="uni1EB9" unicode="&#x1eb9;" horiz-adv-x="557" 
d="M520 249q0 -23 -3 -47h-343q12 -44 46 -69t83 -25q74 0 119 55l85 -79q-72 -93 -213 -93q-113 0 -184.5 70t-71.5 184q0 111 69.5 181t178.5 70q103 0 168.5 -69.5t65.5 -177.5zM285 382q-40 0 -69.5 -22.5t-40.5 -63.5h215q-22 86 -105 86zM291 -69q36 0 59.5 -23.5
t23.5 -57.5q0 -33 -23.5 -56.5t-59.5 -23.5q-35 0 -59 23.5t-24 56.5q0 34 24 57.5t59 23.5z" />
    <glyph glyph-name="uni1EBA" unicode="&#x1eba;" horiz-adv-x="598" 
d="M270 768q64 43 64 67q0 20 -29 20q-33 0 -81 -27l-27 61q56 47 144 47q46 0 72.5 -20t26.5 -58q0 -58 -84 -90h-86zM77 0v710h454v-125h-315v-171h252v-123h-252v-166h336v-125h-475z" />
    <glyph glyph-name="uni1EBB" unicode="&#x1ebb;" horiz-adv-x="557" 
d="M281 655q-36 0 -80 -29l-27 60q55 55 143 55q46 0 72.5 -21t26.5 -63q0 -34 -25.5 -63t-58.5 -42h-86q65 47 64 81q0 22 -29 22zM520 249q0 -23 -3 -47h-343q12 -44 46 -69t83 -25q74 0 119 55l85 -79q-72 -93 -213 -93q-113 0 -184.5 70t-71.5 184q0 111 69.5 181
t178.5 70q103 0 168.5 -69.5t65.5 -177.5zM285 382q-40 0 -69.5 -22.5t-40.5 -63.5h215q-22 86 -105 86z" />
    <glyph glyph-name="uni1EBC" unicode="&#x1ebc;" horiz-adv-x="598" 
d="M392 768q-36 0 -85 28q-40 22 -60 22q-32 0 -53 -49l-78 32q38 108 120 108q45 0 89 -28q38 -21 56 -21q31 0 52 49l77 -25q-35 -116 -118 -116zM77 0v710h454v-125h-315v-171h252v-123h-252v-166h336v-125h-475z" />
    <glyph glyph-name="uni1EBD" unicode="&#x1ebd;" horiz-adv-x="557" 
d="M227 602q-35 0 -57 -50l-78 33q17 53 47.5 84.5t72.5 31.5t86 -27q38 -23 55 -23q34 0 56 50l77 -26q-15 -56 -46 -90t-71 -34t-88 30q-34 21 -54 21zM520 249q0 -23 -3 -47h-343q12 -44 46 -69t83 -25q74 0 119 55l85 -79q-72 -93 -213 -93q-113 0 -184.5 70t-71.5 184
q0 111 69.5 181t178.5 70q103 0 168.5 -69.5t65.5 -177.5zM285 382q-40 0 -69.5 -22.5t-40.5 -63.5h215q-22 86 -105 86z" />
    <glyph glyph-name="uni1EBE" unicode="&#x1ebe;" horiz-adv-x="598" 
d="M468 826l81 139l135 1l-120 -140h-96zM137 768l104 135h139l104 -135h-121l-52 68h-2l-52 -68h-120zM77 0v710h454v-125h-315v-171h252v-123h-252v-166h336v-125h-475z" />
    <glyph glyph-name="uni1EBF" unicode="&#x1ebf;" horiz-adv-x="557" 
d="M639 795l-120 -147h-94l80 147h134zM286 626l-50 -75h-121l103 147h139l101 -147h-120l-50 75h-2zM286 496q103 0 168.5 -69.5t65.5 -177.5q0 -23 -3 -47h-343q12 -44 46 -69t83 -25q74 0 119 55l85 -79q-72 -93 -213 -93q-113 0 -184.5 70t-71.5 184q0 111 69.5 181
t178.5 70zM285 382q-40 0 -69.5 -22.5t-40.5 -63.5h215q-22 86 -105 86z" />
    <glyph glyph-name="uni1EC0" unicode="&#x1ec0;" horiz-adv-x="598" 
d="M514 825l-120 140h135l81 -140h-96zM137 768l104 135h139l104 -135h-121l-52 68h-2l-52 -68h-120zM77 0v710h454v-125h-315v-171h252v-123h-252v-166h336v-125h-475z" />
    <glyph glyph-name="uni1EC1" unicode="&#x1ec1;" horiz-adv-x="557" 
d="M548 648h-93l-120 147h134zM286 626l-50 -75h-121l103 147h139l101 -147h-120l-50 75h-2zM286 496q103 0 168.5 -69.5t65.5 -177.5q0 -23 -3 -47h-343q12 -44 46 -69t83 -25q74 0 119 55l85 -79q-72 -93 -213 -93q-113 0 -184.5 70t-71.5 184q0 111 69.5 181t178.5 70z
M285 382q-40 0 -69.5 -22.5t-40.5 -63.5h215q-22 86 -105 86z" />
    <glyph glyph-name="uni1EC2" unicode="&#x1ec2;" horiz-adv-x="598" 
d="M475 838q58 39 58 60q0 18 -26 18q-29 0 -73 -24l-25 55q51 42 130 42q41 0 65 -18t24 -52q0 -54 -76 -81h-77zM137 768l104 135h139l104 -135h-121l-52 68h-2l-52 -68h-120zM77 0v710h454v-125h-315v-171h252v-123h-252v-166h336v-125h-475z" />
    <glyph glyph-name="uni1EC3" unicode="&#x1ec3;" horiz-adv-x="557" 
d="M504 828q43 0 68 -20t25 -59q0 -32 -23.5 -59t-55.5 -39h-80q60 44 60 76q0 20 -28 20q-35 0 -74 -27l-26 56q52 52 134 52zM286 626l-50 -75h-121l103 147h139l101 -147h-120l-50 75h-2zM286 496q103 0 168.5 -69.5t65.5 -177.5q0 -23 -3 -47h-343q12 -44 46 -69t83 -25
q74 0 119 55l85 -79q-72 -93 -213 -93q-113 0 -184.5 70t-71.5 184q0 111 69.5 181t178.5 70zM285 382q-40 0 -69.5 -22.5t-40.5 -63.5h215q-22 86 -105 86z" />
    <glyph glyph-name="uni1EC4" unicode="&#x1ec4;" horiz-adv-x="598" 
d="M386 926q-34 0 -80 26q-36 20 -56 20q-29 0 -50 -46l-73 30q36 101 113 101q43 0 83 -26q35 -20 53 -20q29 0 48 46l72 -24q-32 -107 -110 -107zM137 768l104 135h139l104 -135h-121l-52 68h-2l-52 -68h-120zM77 0v710h454v-125h-315v-171h252v-123h-252v-166h336v-125
h-475z" />
    <glyph glyph-name="uni1EC5" unicode="&#x1ec5;" horiz-adv-x="557" 
d="M228 782q-29 -3 -48 -50l-77 33q37 106 114 106q35 0 78 -23q36 -22 51 -22q33 0 54 48l78 -25q-16 -51 -46 -83t-71 -32q-32 0 -76 26q-39 23 -57 22zM219 698h139l101 -147h-120l-50 75h-2l-50 -75h-121zM520 249q0 -23 -3 -47h-343q12 -44 46 -69t83 -25q74 0 119 55
l85 -79q-72 -93 -213 -93q-113 0 -184.5 70t-71.5 184q0 111 69.5 181t178.5 70q103 0 168.5 -69.5t65.5 -177.5zM285 382q-40 0 -69.5 -22.5t-40.5 -63.5h215q-22 86 -105 86z" />
    <glyph glyph-name="uni1EC6" unicode="&#x1ec6;" horiz-adv-x="598" 
d="M137 768l104 135h139l104 -135h-121l-52 68h-2l-52 -68h-120zM77 0v710h454v-125h-315v-171h252v-123h-252v-166h336v-125h-475zM318 -69q36 0 59.5 -23.5t23.5 -57.5q0 -33 -23.5 -56.5t-59.5 -23.5q-35 0 -59 23.5t-24 56.5q0 34 24 57.5t59 23.5z" />
    <glyph glyph-name="uni1EC7" unicode="&#x1ec7;" horiz-adv-x="557" 
d="M286 626l-50 -75h-121l103 147h139l101 -147h-120l-50 75h-2zM520 249q0 -23 -3 -47h-343q12 -44 46 -69t83 -25q74 0 119 55l85 -79q-72 -93 -213 -93q-113 0 -184.5 70t-71.5 184q0 111 69.5 181t178.5 70q103 0 168.5 -69.5t65.5 -177.5zM285 382q-40 0 -69.5 -22.5
t-40.5 -63.5h215q-22 86 -105 86zM291 -69q36 0 59.5 -23.5t23.5 -57.5q0 -33 -23.5 -56.5t-59.5 -23.5q-35 0 -59 23.5t-24 56.5q0 34 24 57.5t59 23.5z" />
    <glyph glyph-name="uni1EC8" unicode="&#x1ec8;" horiz-adv-x="306" 
d="M111 768q64 43 64 67q0 20 -29 20q-33 0 -81 -27l-27 61q56 47 144 47q46 0 72.5 -20t26.5 -58q0 -58 -84 -90h-86zM81 0v710h143v-710h-143z" />
    <glyph glyph-name="uni1EC9" unicode="&#x1ec9;" horiz-adv-x="273" 
d="M96 552q65 47 64 81q0 22 -29 22q-36 0 -80 -29l-27 60q55 55 143 55q46 0 72.5 -21t26.5 -63q0 -34 -25.5 -63t-58.5 -42h-86zM71 0v489h131v-489h-131z" />
    <glyph glyph-name="uni1ECA" unicode="&#x1eca;" horiz-adv-x="306" 
d="M81 0v710h143v-710h-143zM154 -69q36 0 59.5 -23.5t23.5 -57.5q0 -33 -23.5 -56.5t-59.5 -23.5q-35 0 -59 23.5t-24 56.5q0 34 24 57.5t59 23.5z" />
    <glyph glyph-name="uni1ECB" unicode="&#x1ecb;" horiz-adv-x="273" 
d="M138 555q-36 0 -59.5 23.5t-23.5 57.5q0 33 23.5 56.5t59.5 23.5q35 0 59 -23.5t24 -56.5q0 -34 -24 -57.5t-59 -23.5zM71 0v489h131v-489h-131zM137 -69q36 0 59.5 -23.5t23.5 -57.5q0 -33 -23.5 -56.5t-59.5 -23.5q-35 0 -59 23.5t-24 56.5q0 34 24 57.5t59 23.5z" />
    <glyph glyph-name="uni1ECC" unicode="&#x1ecc;" horiz-adv-x="819" 
d="M410 -9q-160 0 -261 102.5t-101 261.5t101 261.5t261 102.5q157 0 259 -101.5t102 -262.5t-102 -262.5t-259 -101.5zM410 123q92 0 153 66t61 166t-61 166t-153 66q-95 0 -155.5 -67t-60.5 -165t60.5 -165t155.5 -67zM410 -69q36 0 59.5 -23.5t23.5 -57.5
q0 -33 -23.5 -56.5t-59.5 -23.5q-35 0 -59 23.5t-24 56.5q0 34 24 57.5t59 23.5z" />
    <glyph glyph-name="uni1ECD" unicode="&#x1ecd;" horiz-adv-x="595" 
d="M298 -9q-116 0 -188 71t-72 182q0 110 72 181t188 71q114 0 186.5 -70t72.5 -182t-72.5 -182.5t-186.5 -70.5zM298 109q53 0 89.5 38t36.5 97q0 60 -36 97.5t-90 37.5q-56 0 -91.5 -38.5t-35.5 -96.5t35.5 -96.5t91.5 -38.5zM298 -69q36 0 59.5 -23.5t23.5 -57.5
q0 -33 -23.5 -56.5t-59.5 -23.5q-35 0 -59 23.5t-24 56.5q0 34 24 57.5t59 23.5z" />
    <glyph glyph-name="uni1ECE" unicode="&#x1ece;" horiz-adv-x="819" 
d="M370 769q64 43 64 67q0 20 -29 20q-33 0 -81 -27l-27 61q56 47 144 47q46 0 72.5 -20t26.5 -58q0 -59 -84 -90h-86zM410 -9q-160 0 -261 102.5t-101 261.5t101 261.5t261 102.5q157 0 259 -101.5t102 -262.5t-102 -262.5t-259 -101.5zM410 123q92 0 153 66t61 166
t-61 166t-153 66q-95 0 -155.5 -67t-60.5 -165t60.5 -165t155.5 -67z" />
    <glyph glyph-name="uni1ECF" unicode="&#x1ecf;" horiz-adv-x="595" 
d="M257 552q65 47 64 81q0 22 -29 22q-36 0 -80 -29l-27 60q55 55 143 55q46 0 72.5 -21t26.5 -63q0 -34 -25.5 -63t-58.5 -42h-86zM298 -9q-116 0 -188 71t-72 182q0 110 72 181t188 71q114 0 186.5 -70t72.5 -182t-72.5 -182.5t-186.5 -70.5zM298 109q53 0 89.5 38
t36.5 97q0 60 -36 97.5t-90 37.5q-56 0 -91.5 -38.5t-35.5 -96.5t35.5 -96.5t91.5 -38.5z" />
    <glyph glyph-name="uni1ED0" unicode="&#x1ed0;" horiz-adv-x="819" 
d="M568 827l81 139l135 1l-120 -140h-96zM237 769l104 135h139l104 -135h-121l-52 68h-2l-52 -68h-120zM410 -9q-160 0 -261 102.5t-101 261.5t101 261.5t261 102.5q157 0 259 -101.5t102 -262.5t-102 -262.5t-259 -101.5zM410 123q92 0 153 66t61 166t-61 166t-153 66
q-95 0 -155.5 -67t-60.5 -165t60.5 -165t155.5 -67z" />
    <glyph glyph-name="uni1ED1" unicode="&#x1ed1;" horiz-adv-x="595" 
d="M436 648l80 147h134l-120 -147h-94zM126 551l103 147h139l101 -147h-120l-50 75h-2l-50 -75h-121zM298 -9q-116 0 -188 71t-72 182q0 110 72 181t188 71q114 0 186.5 -70t72.5 -182t-72.5 -182.5t-186.5 -70.5zM298 109q53 0 89.5 38t36.5 97q0 60 -36 97.5t-90 37.5
q-56 0 -91.5 -38.5t-35.5 -96.5t35.5 -96.5t91.5 -38.5z" />
    <glyph glyph-name="uni1ED2" unicode="&#x1ed2;" horiz-adv-x="819" 
d="M614 826l-120 140h135l81 -140h-96zM237 769l104 135h139l104 -135h-121l-52 68h-2l-52 -68h-120zM410 -9q-160 0 -261 102.5t-101 261.5t101 261.5t261 102.5q157 0 259 -101.5t102 -262.5t-102 -262.5t-259 -101.5zM410 123q92 0 153 66t61 166t-61 166t-153 66
q-95 0 -155.5 -67t-60.5 -165t60.5 -165t155.5 -67z" />
    <glyph glyph-name="uni1ED3" unicode="&#x1ed3;" horiz-adv-x="595" 
d="M466 648l-120 147h134l79 -147h-93zM126 551l103 147h139l101 -147h-120l-50 75h-2l-50 -75h-121zM298 -9q-116 0 -188 71t-72 182q0 110 72 181t188 71q114 0 186.5 -70t72.5 -182t-72.5 -182.5t-186.5 -70.5zM298 109q53 0 89.5 38t36.5 97q0 60 -36 97.5t-90 37.5
q-56 0 -91.5 -38.5t-35.5 -96.5t35.5 -96.5t91.5 -38.5z" />
    <glyph glyph-name="uni1ED4" unicode="&#x1ed4;" horiz-adv-x="819" 
d="M575 839q58 39 58 60q0 18 -26 18q-29 0 -73 -24l-25 55q51 42 130 42q41 0 65 -18t24 -52q0 -54 -76 -81h-77zM237 769l104 135h139l104 -135h-121l-52 68h-2l-52 -68h-120zM410 -9q-160 0 -261 102.5t-101 261.5t101 261.5t261 102.5q157 0 259 -101.5t102 -262.5
t-102 -262.5t-259 -101.5zM410 123q92 0 153 66t61 166t-61 166t-153 66q-95 0 -155.5 -67t-60.5 -165t60.5 -165t155.5 -67z" />
    <glyph glyph-name="uni1ED5" unicode="&#x1ed5;" horiz-adv-x="595" 
d="M449 651q60 44 60 76q0 20 -28 20q-35 0 -74 -27l-26 56q52 52 134 52q43 0 68 -20t25 -59q0 -32 -23.5 -59t-55.5 -39h-80zM126 551l103 147h139l101 -147h-120l-50 75h-2l-50 -75h-121zM298 -9q-116 0 -188 71t-72 182q0 110 72 181t188 71q114 0 186.5 -70t72.5 -182
t-72.5 -182.5t-186.5 -70.5zM298 109q53 0 89.5 38t36.5 97q0 60 -36 97.5t-90 37.5q-56 0 -91.5 -38.5t-35.5 -96.5t35.5 -96.5t91.5 -38.5z" />
    <glyph glyph-name="uni1ED6" unicode="&#x1ed6;" horiz-adv-x="819" 
d="M486 927q-34 0 -80 26q-36 20 -56 20q-29 0 -50 -46l-73 30q36 101 113 101q43 0 83 -26q35 -20 53 -20q29 0 48 46l72 -24q-32 -107 -110 -107zM237 769l104 135h139l104 -135h-121l-52 68h-2l-52 -68h-120zM410 -9q-160 0 -261 102.5t-101 261.5t101 261.5t261 102.5
q157 0 259 -101.5t102 -262.5t-102 -262.5t-259 -101.5zM410 123q92 0 153 66t61 166t-61 166t-153 66q-95 0 -155.5 -67t-60.5 -165t60.5 -165t155.5 -67z" />
    <glyph glyph-name="uni1ED7" unicode="&#x1ed7;" horiz-adv-x="595" 
d="M191 732l-77 33q37 106 114 106q35 0 78 -23q36 -22 51 -22q33 0 54 48l78 -25q-16 -51 -46 -83t-71 -32q-32 0 -76 26q-39 23 -57 22q-29 -3 -48 -50zM127 551l103 147h139l101 -147h-120l-50 75h-2l-50 -75h-121zM298 -9q-116 0 -188 71t-72 182q0 110 72 181t188 71
q114 0 186.5 -70t72.5 -182t-72.5 -182.5t-186.5 -70.5zM298 109q53 0 89.5 38t36.5 97q0 60 -36 97.5t-90 37.5q-56 0 -91.5 -38.5t-35.5 -96.5t35.5 -96.5t91.5 -38.5z" />
    <glyph glyph-name="uni1ED8" unicode="&#x1ed8;" horiz-adv-x="819" 
d="M237 769l104 135h139l104 -135h-121l-52 68h-2l-52 -68h-120zM410 -9q-160 0 -261 102.5t-101 261.5t101 261.5t261 102.5q157 0 259 -101.5t102 -262.5t-102 -262.5t-259 -101.5zM410 123q92 0 153 66t61 166t-61 166t-153 66q-95 0 -155.5 -67t-60.5 -165t60.5 -165
t155.5 -67zM410 -69q36 0 59.5 -23.5t23.5 -57.5q0 -33 -23.5 -56.5t-59.5 -23.5q-35 0 -59 23.5t-24 56.5q0 34 24 57.5t59 23.5z" />
    <glyph glyph-name="uni1ED9" unicode="&#x1ed9;" horiz-adv-x="595" 
d="M126 551l103 147h139l101 -147h-120l-50 75h-2l-50 -75h-121zM298 -9q-116 0 -188 71t-72 182q0 110 72 181t188 71q114 0 186.5 -70t72.5 -182t-72.5 -182.5t-186.5 -70.5zM298 109q53 0 89.5 38t36.5 97q0 60 -36 97.5t-90 37.5q-56 0 -91.5 -38.5t-35.5 -96.5
t35.5 -96.5t91.5 -38.5zM298 -69q36 0 59.5 -23.5t23.5 -57.5q0 -33 -23.5 -56.5t-59.5 -23.5q-35 0 -59 23.5t-24 56.5q0 34 24 57.5t59 23.5z" />
    <glyph glyph-name="uni1EDA" unicode="&#x1eda;" horiz-adv-x="858" 
d="M590 904l-126 -135h-124l111 135h139zM725 774h122v-73q0 -140 -112 -177q36 -77 36 -169q0 -161 -102 -262.5t-259 -101.5q-160 0 -261 102.5t-101 261.5t101 261.5t261 102.5q177 0 280 -124q23 13 29 37.5t6 70.5v71zM410 123q92 0 153 66t61 166t-61 166t-153 66
q-95 0 -155.5 -67t-60.5 -165t60.5 -165t155.5 -67z" />
    <glyph glyph-name="uni1EDB" unicode="&#x1edb;" horiz-adv-x="687" 
d="M483 701l-124 -147h-127l114 146zM549 565h122v-73q0 -146 -122 -179q8 -35 8 -69q0 -112 -72.5 -182.5t-186.5 -70.5q-116 0 -188 71t-72 182q0 110 72 181t188 71q71 0 128 -28.5t90 -79.5q22 13 27.5 37t5.5 69v71zM298 109q53 0 89.5 38t36.5 97q0 60 -36 97.5
t-90 37.5q-56 0 -91.5 -38.5t-35.5 -96.5t35.5 -96.5t91.5 -38.5z" />
    <glyph glyph-name="uni1EDC" unicode="&#x1edc;" horiz-adv-x="858" 
d="M488 769h-125l-126 135h140zM725 774h122v-73q0 -140 -112 -177q36 -77 36 -169q0 -161 -102 -262.5t-259 -101.5q-160 0 -261 102.5t-101 261.5t101 261.5t261 102.5q177 0 280 -124q23 13 29 37.5t6 70.5v71zM410 123q92 0 153 66t61 166t-61 166t-153 66
q-95 0 -155.5 -67t-60.5 -165t60.5 -165t155.5 -67z" />
    <glyph glyph-name="uni1EDD" unicode="&#x1edd;" horiz-adv-x="687" 
d="M377 552h-124l-124 146l140 -1zM549 565h122v-73q0 -146 -122 -179q8 -35 8 -69q0 -112 -72.5 -182.5t-186.5 -70.5q-116 0 -188 71t-72 182q0 110 72 181t188 71q71 0 128 -28.5t90 -79.5q22 13 27.5 37t5.5 69v71zM298 109q53 0 89.5 38t36.5 97q0 60 -36 97.5
t-90 37.5q-56 0 -91.5 -38.5t-35.5 -96.5t35.5 -96.5t91.5 -38.5z" />
    <glyph glyph-name="uni1EDE" unicode="&#x1ede;" horiz-adv-x="858" 
d="M405 856q-33 0 -81 -27l-27 61q56 47 144 47q46 0 72.5 -20t26.5 -58q0 -59 -84 -90h-86q64 43 64 67q0 20 -29 20zM725 774h122v-73q0 -140 -112 -177q36 -77 36 -169q0 -161 -102 -262.5t-259 -101.5q-160 0 -261 102.5t-101 261.5t101 261.5t261 102.5q177 0 280 -124
q23 13 29 37.5t6 70.5v71zM410 123q92 0 153 66t61 166t-61 166t-153 66q-95 0 -155.5 -67t-60.5 -165t60.5 -165t155.5 -67z" />
    <glyph glyph-name="uni1EDF" unicode="&#x1edf;" horiz-adv-x="687" 
d="M292 655q-36 0 -80 -29l-27 60q55 55 143 55q46 0 72.5 -21t26.5 -63q0 -34 -25.5 -63t-58.5 -42h-86q65 47 64 81q0 22 -29 22zM549 565h122v-73q0 -146 -122 -179q8 -35 8 -69q0 -112 -72.5 -182.5t-186.5 -70.5q-116 0 -188 71t-72 182q0 110 72 181t188 71
q71 0 128 -28.5t90 -79.5q22 13 27.5 37t5.5 69v71zM298 109q53 0 89.5 38t36.5 97q0 60 -36 97.5t-90 37.5q-56 0 -91.5 -38.5t-35.5 -96.5t35.5 -96.5t91.5 -38.5z" />
    <glyph glyph-name="uni1EE0" unicode="&#x1ee0;" horiz-adv-x="858" 
d="M347 819q-32 0 -53 -49l-78 32q38 108 120 108q45 0 89 -28q38 -21 56 -21q31 0 52 49l77 -25q-35 -116 -118 -116q-36 0 -85 28q-40 22 -60 22zM725 774h122v-73q0 -140 -112 -177q36 -77 36 -169q0 -161 -102 -262.5t-259 -101.5q-160 0 -261 102.5t-101 261.5
t101 261.5t261 102.5q177 0 280 -124q23 13 29 37.5t6 70.5v71zM410 123q92 0 153 66t61 166t-61 166t-153 66q-95 0 -155.5 -67t-60.5 -165t60.5 -165t155.5 -67z" />
    <glyph glyph-name="uni1EE1" unicode="&#x1ee1;" horiz-adv-x="687" 
d="M238 602q-35 0 -57 -50l-78 33q17 53 47.5 84.5t72.5 31.5t86 -27q38 -23 55 -23q34 0 56 50l77 -26q-15 -56 -46 -90t-71 -34t-88 30q-34 21 -54 21zM549 565h122v-73q0 -146 -122 -179q8 -35 8 -69q0 -112 -72.5 -182.5t-186.5 -70.5q-116 0 -188 71t-72 182
q0 110 72 181t188 71q71 0 128 -28.5t90 -79.5q22 13 27.5 37t5.5 69v71zM298 109q53 0 89.5 38t36.5 97q0 60 -36 97.5t-90 37.5q-56 0 -91.5 -38.5t-35.5 -96.5t35.5 -96.5t91.5 -38.5z" />
    <glyph glyph-name="uni1EE2" unicode="&#x1ee2;" horiz-adv-x="858" 
d="M725 774h122v-73q0 -140 -112 -177q36 -77 36 -169q0 -161 -102 -262.5t-259 -101.5q-160 0 -261 102.5t-101 261.5t101 261.5t261 102.5q177 0 280 -124q23 13 29 37.5t6 70.5v71zM410 123q92 0 153 66t61 166t-61 166t-153 66q-95 0 -155.5 -67t-60.5 -165t60.5 -165
t155.5 -67zM410 -69q36 0 59.5 -23.5t23.5 -57.5q0 -33 -23.5 -56.5t-59.5 -23.5q-35 0 -59 23.5t-24 56.5q0 34 24 57.5t59 23.5z" />
    <glyph glyph-name="uni1EE3" unicode="&#x1ee3;" horiz-adv-x="687" 
d="M549 565h122v-73q0 -146 -122 -179q8 -35 8 -69q0 -112 -72.5 -182.5t-186.5 -70.5q-116 0 -188 71t-72 182q0 110 72 181t188 71q71 0 128 -28.5t90 -79.5q22 13 27.5 37t5.5 69v71zM298 109q53 0 89.5 38t36.5 97q0 60 -36 97.5t-90 37.5q-56 0 -91.5 -38.5
t-35.5 -96.5t35.5 -96.5t91.5 -38.5zM298 -69q36 0 59.5 -23.5t23.5 -57.5q0 -33 -23.5 -56.5t-59.5 -23.5q-35 0 -59 23.5t-24 56.5q0 34 24 57.5t59 23.5z" />
    <glyph glyph-name="uni1EE4" unicode="&#x1ee4;" horiz-adv-x="711" 
d="M355 -9q-131 0 -209 80t-78 223v416h141v-407q0 -79 38.5 -129.5t107.5 -50.5q66 0 107 48.5t41 131.5v407h141v-416q0 -140 -76.5 -221.5t-212.5 -81.5zM355 -69q36 0 59.5 -23.5t23.5 -57.5q0 -33 -23.5 -56.5t-59.5 -23.5q-35 0 -59 23.5t-24 56.5q0 34 24 57.5
t59 23.5z" />
    <glyph glyph-name="uni1EE5" unicode="&#x1ee5;" horiz-adv-x="575" 
d="M236 -9q-180 0 -180 203v295h130v-261q0 -66 20.5 -92.5t67.5 -26.5q45 0 76.5 37.5t31.5 104.5v238h132v-489h-132v58l-2 1q-56 -68 -144 -68zM292 -69q36 0 59.5 -23.5t23.5 -57.5q0 -33 -23.5 -56.5t-59.5 -23.5q-35 0 -59 23.5t-24 56.5q0 34 24 57.5t59 23.5z" />
    <glyph glyph-name="uni1EE6" unicode="&#x1ee6;" horiz-adv-x="711" 
d="M314 769q64 43 64 67q0 20 -29 20q-33 0 -81 -27l-27 61q56 47 144 47q46 0 72.5 -20t26.5 -58q0 -59 -84 -90h-86zM355 -9q-131 0 -209 80t-78 223v416h141v-407q0 -79 38.5 -129.5t107.5 -50.5q66 0 107 48.5t41 131.5v407h141v-416q0 -140 -76.5 -221.5t-212.5 -81.5z
" />
    <glyph glyph-name="uni1EE7" unicode="&#x1ee7;" horiz-adv-x="575" 
d="M245 552q65 47 64 81q0 22 -29 22q-36 0 -80 -29l-27 60q55 55 143 55q46 0 72.5 -21t26.5 -63q0 -34 -25.5 -63t-58.5 -42h-86zM236 -9q-180 0 -180 203v295h130v-261q0 -66 20.5 -92.5t67.5 -26.5q45 0 76.5 37.5t31.5 104.5v238h132v-489h-132v58l-2 1
q-56 -68 -144 -68z" />
    <glyph glyph-name="uni1EE8" unicode="&#x1ee8;" horiz-adv-x="822" 
d="M526 904l-126 -135h-124l111 135h139zM705 774h122v-73q0 -89 -48 -137.5t-135 -49.5v-220q0 -140 -76.5 -221.5t-212.5 -81.5q-131 0 -209 80t-78 223v416h141v-407q0 -79 38.5 -129.5t107.5 -50.5q66 0 107 48.5t41 131.5v407h141v-124q21 4 34 14t18.5 27.5t7 32.5
t1.5 43v71z" />
    <glyph glyph-name="uni1EE9" unicode="&#x1ee9;" horiz-adv-x="699" 
d="M470 701l-124 -147h-127l114 146zM566 565h122v-73q0 -87 -45 -135t-129 -52v-305h-132v58l-2 1q-56 -68 -144 -68q-180 0 -180 203v295h130v-261q0 -66 20.5 -92.5t67.5 -26.5q45 0 76.5 37.5t31.5 104.5v238h132v-109q34 10 43 36t9 78v71z" />
    <glyph glyph-name="uni1EEA" unicode="&#x1eea;" horiz-adv-x="822" 
d="M430 769h-125l-126 135h140zM705 774h122v-73q0 -89 -48 -137.5t-135 -49.5v-220q0 -140 -76.5 -221.5t-212.5 -81.5q-131 0 -209 80t-78 223v416h141v-407q0 -79 38.5 -129.5t107.5 -50.5q66 0 107 48.5t41 131.5v407h141v-124q21 4 34 14t18.5 27.5t7 32.5t1.5 43v71z
" />
    <glyph glyph-name="uni1EEB" unicode="&#x1eeb;" horiz-adv-x="699" 
d="M368 552h-124l-124 146l140 -1zM566 565h122v-73q0 -87 -45 -135t-129 -52v-305h-132v58l-2 1q-56 -68 -144 -68q-180 0 -180 203v295h130v-261q0 -66 20.5 -92.5t67.5 -26.5q45 0 76.5 37.5t31.5 104.5v238h132v-109q34 10 43 36t9 78v71z" />
    <glyph glyph-name="uni1EEC" unicode="&#x1eec;" horiz-adv-x="822" 
d="M349 856q-33 0 -81 -27l-27 61q56 47 144 47q46 0 72.5 -20t26.5 -58q0 -59 -84 -90h-86q64 43 64 67q0 20 -29 20zM705 774h122v-73q0 -89 -48 -137.5t-135 -49.5v-220q0 -140 -76.5 -221.5t-212.5 -81.5q-131 0 -209 80t-78 223v416h141v-407q0 -79 38.5 -129.5
t107.5 -50.5q66 0 107 48.5t41 131.5v407h141v-124q21 4 34 14t18.5 27.5t7 32.5t1.5 43v71z" />
    <glyph glyph-name="uni1EED" unicode="&#x1eed;" horiz-adv-x="699" 
d="M280 655q-36 0 -80 -29l-27 60q55 55 143 55q46 0 72.5 -21t26.5 -63q0 -34 -25.5 -63t-58.5 -42h-86q65 47 64 81q0 22 -29 22zM566 565h122v-73q0 -87 -45 -135t-129 -52v-305h-132v58l-2 1q-56 -68 -144 -68q-180 0 -180 203v295h130v-261q0 -66 20.5 -92.5
t67.5 -26.5q45 0 76.5 37.5t31.5 104.5v238h132v-109q34 10 43 36t9 78v71z" />
    <glyph glyph-name="uni1EEE" unicode="&#x1eee;" horiz-adv-x="822" 
d="M291 819q-32 0 -53 -49l-78 32q38 108 120 108q45 0 89 -28q38 -21 56 -21q31 0 52 49l77 -25q-35 -116 -118 -116q-36 0 -85 28q-40 22 -60 22zM705 774h122v-73q0 -89 -48 -137.5t-135 -49.5v-220q0 -140 -76.5 -221.5t-212.5 -81.5q-131 0 -209 80t-78 223v416h141
v-407q0 -79 38.5 -129.5t107.5 -50.5q66 0 107 48.5t41 131.5v407h141v-124q21 4 34 14t18.5 27.5t7 32.5t1.5 43v71z" />
    <glyph glyph-name="uni1EEF" unicode="&#x1eef;" horiz-adv-x="699" 
d="M226 602q-35 0 -57 -50l-78 33q17 53 47.5 84.5t72.5 31.5t86 -27q38 -23 55 -23q34 0 56 50l77 -26q-15 -56 -46 -90t-71 -34t-88 30q-34 21 -54 21zM566 565h122v-73q0 -87 -45 -135t-129 -52v-305h-132v58l-2 1q-56 -68 -144 -68q-180 0 -180 203v295h130v-261
q0 -66 20.5 -92.5t67.5 -26.5q45 0 76.5 37.5t31.5 104.5v238h132v-109q34 10 43 36t9 78v71z" />
    <glyph glyph-name="uni1EF0" unicode="&#x1ef0;" horiz-adv-x="822" 
d="M705 774h122v-73q0 -89 -48 -137.5t-135 -49.5v-220q0 -140 -76.5 -221.5t-212.5 -81.5q-131 0 -209 80t-78 223v416h141v-407q0 -79 38.5 -129.5t107.5 -50.5q66 0 107 48.5t41 131.5v407h141v-124q21 4 34 14t18.5 27.5t7 32.5t1.5 43v71zM355 -69q36 0 59.5 -23.5
t23.5 -57.5q0 -33 -23.5 -56.5t-59.5 -23.5q-35 0 -59 23.5t-24 56.5q0 34 24 57.5t59 23.5z" />
    <glyph glyph-name="uni1EF1" unicode="&#x1ef1;" horiz-adv-x="699" 
d="M566 565h122v-73q0 -87 -45 -135t-129 -52v-305h-132v58l-2 1q-56 -68 -144 -68q-180 0 -180 203v295h130v-261q0 -66 20.5 -92.5t67.5 -26.5q45 0 76.5 37.5t31.5 104.5v238h132v-109q34 10 43 36t9 78v71zM292 -69q36 0 59.5 -23.5t23.5 -57.5q0 -33 -23.5 -56.5
t-59.5 -23.5q-35 0 -59 23.5t-24 56.5q0 34 24 57.5t59 23.5z" />
    <glyph glyph-name="Ygrave" unicode="&#x1ef2;" horiz-adv-x="630" 
d="M277 769l-126 135h140l111 -135h-125zM243 0v312l-235 398h161l145 -258h2l142 258h163l-236 -398v-312h-142z" />
    <glyph glyph-name="ygrave" unicode="&#x1ef3;" horiz-adv-x="536" 
d="M223 552l-124 146l140 -1l108 -145h-124zM124 -198l87 228l-196 459h140l119 -300h2l111 300h133l-263 -687h-133z" />
    <glyph glyph-name="uni1EF4" unicode="&#x1ef4;" horiz-adv-x="630" 
d="M243 0v312l-235 398h161l145 -258h2l142 258h163l-236 -398v-312h-142zM314 -69q36 0 59.5 -23.5t23.5 -57.5q0 -33 -23.5 -56.5t-59.5 -23.5q-35 0 -59 23.5t-24 56.5q0 34 24 57.5t59 23.5z" />
    <glyph glyph-name="uni1EF5" unicode="&#x1ef5;" horiz-adv-x="536" 
d="M124 -198l87 228l-196 459h140l119 -300h2l111 300h133l-263 -687h-133zM415 -69q36 0 59.5 -23.5t23.5 -57.5q0 -33 -23.5 -56.5t-59.5 -23.5q-35 0 -59 23.5t-24 56.5q0 34 24 57.5t59 23.5z" />
    <glyph glyph-name="uni1EF6" unicode="&#x1ef6;" horiz-adv-x="630" 
d="M275 769q64 43 64 67q0 20 -29 20q-33 0 -81 -27l-27 61q56 47 144 47q46 0 72.5 -20t26.5 -58q0 -59 -84 -90h-86zM243 0v312l-235 398h161l145 -258h2l142 258h163l-236 -398v-312h-142z" />
    <glyph glyph-name="uni1EF7" unicode="&#x1ef7;" horiz-adv-x="536" 
d="M228 552q65 47 64 81q0 22 -29 22q-36 0 -80 -29l-27 60q55 55 143 55q46 0 72.5 -21t26.5 -63q0 -34 -25.5 -63t-58.5 -42h-86zM124 -198l87 228l-196 459h140l119 -300h2l111 300h133l-263 -687h-133z" />
    <glyph glyph-name="uni1EF8" unicode="&#x1ef8;" horiz-adv-x="630" 
d="M397 769q-36 0 -85 28q-40 22 -60 22q-32 0 -53 -49l-78 32q38 108 120 108q45 0 89 -28q38 -21 56 -21q31 0 52 49l77 -25q-35 -116 -118 -116zM243 0v312l-235 398h161l145 -258h2l142 258h163l-236 -398v-312h-142z" />
    <glyph glyph-name="uni1EF9" unicode="&#x1ef9;" horiz-adv-x="536" 
d="M351 551q-40 0 -88 30q-34 21 -54 21q-35 0 -57 -50l-78 33q17 53 47.5 84.5t72.5 31.5t86 -27q38 -23 55 -23q34 0 56 50l77 -26q-15 -56 -46 -90t-71 -34zM124 -198l87 228l-196 459h140l119 -300h2l111 300h133l-263 -687h-133z" />
    <glyph glyph-name="uni2002" unicode="&#x2002;" horiz-adv-x="467" 
 />
    <glyph glyph-name="uni2003" unicode="&#x2003;" horiz-adv-x="934" 
 />
    <glyph glyph-name="uni2007" unicode="&#x2007;" horiz-adv-x="586" 
 />
    <glyph glyph-name="uni2009" unicode="&#x2009;" horiz-adv-x="25" 
 />
    <glyph glyph-name="uni2010" unicode="&#x2010;" horiz-adv-x="397" 
d="M47 247v123h303v-123h-303z" />
    <glyph glyph-name="figuredash" unicode="&#x2012;" horiz-adv-x="586" 
d="M47 242v113h492v-113h-492z" />
    <glyph glyph-name="endash" unicode="&#x2013;" horiz-adv-x="561" 
d="M47 242v113h467v-113h-467z" />
    <glyph glyph-name="emdash" unicode="&#x2014;" horiz-adv-x="1028" 
d="M47 242v113h934v-113h-934z" />
    <glyph glyph-name="uni2015" unicode="&#x2015;" horiz-adv-x="1190" 
d="M47 242v113h1096v-113h-1096z" />
    <glyph glyph-name="quoteleft" unicode="&#x2018;" horiz-adv-x="223" 
d="M193 709l-31 -260h-135l64 260h102z" />
    <glyph glyph-name="quoteright" unicode="&#x2019;" horiz-adv-x="223" 
d="M30 450l31 260h135l-64 -260h-102z" />
    <glyph glyph-name="quotesinglbase" unicode="&#x201a;" horiz-adv-x="241" 
d="M23 -79l31 261h135l-71 -261h-95z" />
    <glyph glyph-name="quotedblleft" unicode="&#x201c;" horiz-adv-x="411" 
d="M193 710l-31 -260h-135l64 260h102zM381 710l-31 -260h-135l64 260h102z" />
    <glyph glyph-name="quotedblright" unicode="&#x201d;" horiz-adv-x="411" 
d="M30 450l31 260h135l-64 -260h-102zM218 450l31 260h135l-64 -260h-102z" />
    <glyph glyph-name="quotedblbase" unicode="&#x201e;" horiz-adv-x="429" 
d="M23 -78l31 260h135l-64 -260h-102zM211 -78l31 260h135l-64 -260h-102z" />
    <glyph glyph-name="dagger" unicode="&#x2020;" horiz-adv-x="390" 
d="M196 227l-38 63l4 127l-1 108h-18l-95 -5v75l95 -5h18l-3 96h76l-5 -96h19l94 6v-76l-94 5h-20v-108l6 -127z" />
    <glyph glyph-name="daggerdbl" unicode="&#x2021;" horiz-adv-x="390" 
d="M158 54l4 94h-19l-95 -5v75l94 -4h20v59l-4 97l4 97v58h-19l-95 -4v73l94 -5h19l-4 97h76l-5 -97h19l95 6v-74l-95 4h-19v-58l5 -97l-6 -97l1 -59h19l95 4v-74l-95 4h-19l5 -94h-75z" />
    <glyph glyph-name="bullet" unicode="&#x2022;" horiz-adv-x="422" 
d="M211 199q-49 0 -83.5 34t-34.5 83t34.5 83.5t83.5 34.5t83.5 -34.5t34.5 -83.5t-34.5 -83t-83.5 -34z" />
    <glyph glyph-name="ellipsis" unicode="&#x2026;" horiz-adv-x="1000" 
d="M165 -9q-35 0 -59 23.5t-24 57.5q0 33 24.5 56.5t58.5 23.5q33 0 57 -23.5t24 -56.5q0 -34 -24 -57.5t-57 -23.5zM499 -9q-35 0 -59 23.5t-24 57.5q0 33 24.5 56.5t58.5 23.5q33 0 57 -23.5t24 -56.5q0 -34 -24 -57.5t-57 -23.5zM833 -9q-35 0 -59 23.5t-24 57.5
q0 33 24.5 56.5t58.5 23.5q33 0 57 -23.5t24 -56.5q0 -34 -24 -57.5t-57 -23.5z" />
    <glyph glyph-name="perthousand" unicode="&#x2030;" horiz-adv-x="1467" 
d="M402 -24l-99 43l315 707l99 -43zM240 320q-85 0 -143.5 56t-58.5 144q0 84 56.5 141.5t145.5 57.5q85 0 143.5 -55.5t58.5 -143.5q0 -84 -57 -142t-145 -58zM240 413q44 0 71 30.5t27 75.5q0 47 -28 76t-70 29q-43 0 -70 -30.5t-27 -74.5q0 -46 28 -76t69 -30zM778 -9
q-85 0 -143.5 56t-58.5 144q0 84 56.5 141.5t145.5 57.5q85 0 143.5 -55.5t58.5 -143.5q0 -84 -56.5 -142t-145.5 -58zM1228 -9q-85 0 -144 56t-59 144q0 84 56.5 141.5t146.5 57.5q85 0 143.5 -55.5t58.5 -143.5q0 -83 -57 -141.5t-145 -58.5zM779 85q43 0 70.5 30.5
t27.5 74.5q0 46 -28.5 75t-69.5 29q-43 0 -70.5 -30t-27.5 -74q0 -46 28.5 -75.5t69.5 -29.5zM1228 85q43 0 70.5 30.5t27.5 74.5q0 46 -28.5 75t-69.5 29q-43 0 -70 -30t-27 -74q0 -46 28 -75.5t69 -29.5z" />
    <glyph glyph-name="minute" unicode="&#x2032;" horiz-adv-x="268" 
d="M29 450l77 260h135l-110 -260h-102z" />
    <glyph glyph-name="second" unicode="&#x2033;" horiz-adv-x="463" 
d="M29 450l77 260h135l-110 -260h-102zM224 450l77 260h135l-110 -260h-102z" />
    <glyph glyph-name="guilsinglleft" unicode="&#x2039;" horiz-adv-x="307" 
d="M280 458l-119 -208l120 -211h-126l-120 211l119 208h126z" />
    <glyph glyph-name="guilsinglright" unicode="&#x203a;" horiz-adv-x="307" 
d="M27 39l119 208l-120 211h126l120 -211l-119 -208h-126z" />
    <glyph glyph-name="uni203D" unicode="&#x203d;" horiz-adv-x="465" 
d="M216 745q91 0 151.5 -51t60.5 -142q0 -55 -23.5 -95t-65.5 -80q-6 -6 -23 -21.5t-23.5 -22t-16.5 -18.5t-14 -21.5t-5 -19.5l-4 -43h-107l-23 318h133l-3 -91l2 -1q37 42 37 83t-22 63t-62 22q-29 0 -58.5 -14.5t-49.5 -39.5l-89 82q35 43 89.5 67.5t115.5 24.5zM198 152
q33 0 57 -23.5t24 -56.5q0 -34 -24 -57.5t-57 -23.5q-35 0 -59 23.5t-24 57.5q0 33 24.5 56.5t58.5 23.5z" />
    <glyph glyph-name="uni2042" unicode="&#x2042;" horiz-adv-x="831" 
d="M371 383l5 102l-86 -54l-40 69l90 46l-91 48l41 69l86 -55l-5 102h80l-6 -102l87 54l40 -68l-90 -47l90 -47l-40 -69l-84 54l3 -102h-80zM160 48l5 102l-86 -54l-40 69l90 46l-91 48l41 69l86 -55l-5 102h80l-6 -102l87 54l40 -68l-90 -47l90 -47l-40 -69l-84 54l3 -102
h-80zM591 48l5 102l-86 -54l-40 69l90 46l-91 48l41 69l86 -55l-5 102h80l-6 -102l87 54l40 -68l-90 -47l90 -47l-40 -69l-84 54l3 -102h-80z" />
    <glyph glyph-name="fraction" unicode="&#x2044;" horiz-adv-x="229" 
d="M22 -24l-99 43l314 707l100 -43z" />
    <glyph glyph-name="uni2051" unicode="&#x2051;" horiz-adv-x="400" 
d="M160 383l5 102l-86 -54l-40 69l90 46l-91 48l41 69l86 -55l-5 102h80l-6 -102l87 54l40 -68l-90 -47l90 -47l-40 -69l-84 54l3 -102h-80zM160 22l5 103l-86 -54l-40 68l90 46l-91 48l41 69l86 -54l-5 101h80l-6 -101l87 53l40 -68l-90 -47l90 -47l-40 -69l-84 55l3 -103
h-80z" />
    <glyph glyph-name="uni2070" unicode="&#x2070;" horiz-adv-x="408" 
d="M204 426q-84 0 -132 59t-48 156q0 101 49.5 158t130.5 57q83 0 131 -58.5t48 -156.5q0 -101 -49.5 -158t-129.5 -57zM204 522q35 0 55 31t20 88t-20 88t-55 31t-55 -30.5t-20 -88.5q0 -56 20 -87.5t55 -31.5z" />
    <glyph glyph-name="colonmonetary" unicode="&#x20a1;" horiz-adv-x="585" 
d="M562 52q-87 -60 -196 -60q-55 0 -101 13l-36 -85l-61 24l36 85q-16 8 -39 24l-55 -133l-61 24l66 158q-71 90 -71 238q0 162 83.5 257t234.5 96l19 46l61 -23l-12 -29q28 -5 44 -11l26 63l61 -23l-28 -66l24 -15l-72 -103h-1l-170 -408q24 -6 52 -6q71 0 121 35zM222 189
q15 -21 33 -36l170 406q-19 6 -45 8zM186 340q0 -35 4 -58l116 277q-120 -37 -120 -219z" />
    <glyph glyph-name="lira" unicode="&#x20a4;" horiz-adv-x="564" 
d="M250 125h288v-125h-496v125h67v96h-56v80h56v62h-56v81h56v10q0 123 59 181.5t150 58.5q58 0 111 -25.5t89 -71.5l-70 -91q-48 61 -111 61q-89 0 -89 -123h154v-81h-154v-62h154v-80h-152v-96z" />
    <glyph glyph-name="uni20A6" unicode="&#x20a6;" horiz-adv-x="662" 
d="M643 368h-56v-59h56v-78h-56v-231h-145l-111 231h-121v-231h-135v231h-56v78h56v59h-56v78h56v241h143l116 -241h118v241h135v-241h56v-78zM210 504v-58h25l-23 58h-2zM210 309h83l-26 55l-3 8v-4h-54v-59zM452 309v59h-80l27 -57l1 -2h52zM452 181v50h-22l20 -50h2z" />
    <glyph glyph-name="peseta" unicode="&#x20a7;" horiz-adv-x="649" 
d="M629 498v-81h-67q-22 -179 -235 -179h-97v-238h-139v417h-71v81h71v189h241q105 0 163 -50t68 -139h66zM228 569v-71h197q-19 71 -101 71h-96zM326 349q83 0 100 68h-198v-68h98z" />
    <glyph glyph-name="dong" unicode="&#x20ab;" horiz-adv-x="610" 
d="M607 638v-84h-59v-554h-125v60h-1q-53 -69 -151 -69q-102 0 -168 70t-66 182q0 110 66 181.5t165 71.5q93 0 148 -64h2v122h-177v84h177v98h130v-98h59zM295 109q55 0 91.5 37t36.5 96t-36 98t-92 39q-54 0 -89.5 -37.5t-35.5 -99.5q0 -58 35 -95.5t90 -37.5zM71 -167
v114h475v-114h-475z" />
    <glyph glyph-name="Euro" unicode="&#x20ac;" horiz-adv-x="601" 
d="M503 153l76 -101q-87 -60 -191 -60q-113 0 -198 59.5t-113 180.5h-66v80h56q-1 9 -1 28q0 23 1 34h-56v81h68q27 114 107.5 176t201.5 62q102 0 186 -58l-79 -100q-50 33 -107 33q-55 0 -97.5 -28t-63.5 -85h228v-81h-245q-1 -11 -1 -34q0 -19 1 -28h245v-80h-229
q20 -57 63 -85.5t99 -28.5q65 0 115 35z" />
    <glyph glyph-name="uni20AE" unicode="&#x20ae;" horiz-adv-x="562" 
d="M531 562h-181v-127l114 47l35 -72l-149 -62v-63l112 46l36 -73l-148 -61v-197h-141v138l-110 -45l-37 72l147 61v64l-108 -45l-37 72l145 60v185h-178v125h500v-125z" />
    <glyph glyph-name="uni20B1" unicode="&#x20b1;" horiz-adv-x="649" 
d="M628 552v-75h-63v-17v-15h63v-75h-76q-43 -132 -225 -132h-97v-238h-139v370h-71v75h71v32h-71v75h71v135h241q175 0 219 -135h77zM334 575h-106v-33h188q-25 33 -82 33zM228 477v-32h209v11q0 14 -1 21h-208zM336 343q63 0 85 37h-193v-37h108z" />
    <glyph glyph-name="uni20B2" unicode="&#x20b2;" horiz-adv-x="658" 
d="M598 384v-316q-68 -66 -190 -75v-113h-96v118q-112 19 -182 104.5t-70 237.5q0 143 66.5 234t185.5 113v100h96v-95q99 -6 179 -71l-80 -100q-47 40 -104 46v-183h195zM202 340q0 -170 116 -212v429q-54 -21 -85 -75t-31 -142zM474 144v122h-71v-147q44 6 71 25z" />
    <glyph glyph-name="uni20B4" unicode="&#x20b4;" horiz-adv-x="575" 
d="M458 188l79 -103q-99 -94 -258 -94q-104 0 -164.5 40.5t-60.5 102.5q0 59 51 97h-64v78h111q13 6 50 23t57 25h-218v77h280q48 40 48 74q0 54 -76 54q-77 0 -154 -63l-79 106q110 84 240 84q99 0 159.5 -44.5t60.5 -110.5q0 -64 -60 -100h63v-77h-90q-21 -8 -61.5 -26
t-48.5 -22h200v-78h-304q-26 -24 -26 -53q0 -26 25.5 -43.5t75.5 -17.5q94 0 164 71z" />
    <glyph glyph-name="uni20B5" unicode="&#x20b5;" horiz-adv-x="607" 
d="M586 61q-77 -61 -177 -68v-113h-96v118q-113 20 -183 105t-70 237q0 143 66.5 234.5t186.5 112.5v100h96v-95q94 -6 174 -67l-80 -100q-43 36 -100 42v-448q61 4 108 44zM202 340q0 -170 117 -212v429q-54 -20 -85.5 -74.5t-31.5 -142.5z" />
    <glyph glyph-name="uni20B8" unicode="&#x20b8;" horiz-adv-x="560" 
d="M31 687h498v-98h-498v98zM31 434v97h498v-97h-180v-434h-140v434h-178z" />
    <glyph glyph-name="uni20B9" unicode="&#x20b9;" horiz-adv-x="592" 
d="M545 589h-140v-2q26 -27 37 -61h103v-95h-94q-17 -147 -198 -175v-1l273 -255h-176l-282 265v101h122q92 0 112 69h-234v89h233q-22 67 -105 67h-128v96h477v-98z" />
    <glyph glyph-name="uni20BA" unicode="&#x20ba;" horiz-adv-x="570" 
d="M444 267l109 -40q-39 -124 -105 -175.5t-166 -51.5h-196v185l-66 -32l-33 72l99 48v64l-66 -32l-32 72l98 48v262h142v-193l155 75l32 -72l-187 -91v-64l155 76l32 -73l-187 -91v-143h44q66 0 104.5 35t67.5 121z" />
    <glyph glyph-name="uni20BC" unicode="&#x20bc;" horiz-adv-x="734" 
d="M417 690q126 -13 192 -91t66 -206v-393h-134v386q0 148 -116 176v-466h-117v467q-116 -29 -116 -177v-386h-133v393q0 131 67.5 208t189.5 90v96h101v-97z" />
    <glyph glyph-name="uni20BD" unicode="&#x20bd;" horiz-adv-x="589" 
d="M327 264h-97v-56h227v-82h-227v-126h-139v126h-71v82h71v56h-71v86h71v337h241q116 0 174.5 -59t58.5 -156q0 -108 -64 -158t-174 -50zM228 562v-196h86q52 0 79 27t27 69q0 46 -27.5 73t-78.5 27h-86z" />
    <glyph glyph-name="uni2113" unicode="&#x2113;" horiz-adv-x="460" 
d="M399 124l40 -28q-65 -105 -175 -105q-155 0 -175 145q-6 -5 -25 -20t-30 -23l-25 34q9 8 37 29.5t41 33.5l2 261q1 119 46 173.5t121 54.5q56 0 86 -41t30 -105q0 -145 -180 -315v-21q0 -145 95 -145q61 0 112 72zM269 615q-31 0 -54.5 -38.5t-23.5 -121.5l1 -178
q136 143 136 248q0 90 -59 90z" />
    <glyph glyph-name="uni2116" unicode="&#x2116;" horiz-adv-x="1116" 
d="M900 409q-71 0 -115.5 43t-44.5 110t45 109.5t115 42.5t115.5 -42.5t45.5 -109.5q0 -68 -45.5 -110.5t-115.5 -42.5zM77 0v710h138l319 -479h2v479h139v-710h-141l-315 469h-2v-469h-140zM900 493q27 0 45.5 19.5t18.5 49.5t-18 49.5t-46 19.5t-46 -19.5t-18 -49.5
t18 -49.5t46 -19.5zM750 270v90h308v-90h-308z" />
    <glyph glyph-name="uni2117" unicode="&#x2117;" horiz-adv-x="720" 
d="M359 -1q-132 0 -224.5 94t-92.5 226q0 131 93 225.5t225 94.5q133 0 225 -94t92 -226t-92.5 -226t-225.5 -94zM359 83q98 0 165.5 69t67.5 167t-67 166.5t-165 68.5q-99 0 -166 -69.5t-67 -167.5q0 -97 67 -165.5t165 -68.5zM246 159v324h125q57 0 85.5 -30.5t28.5 -80.5
q0 -53 -32 -80.5t-88 -27.5h-47v-105h-72zM319 330h35q26 0 40 11.5t14 31.5q0 19 -13.5 31t-38.5 12h-37v-86z" />
    <glyph glyph-name="uni2120" unicode="&#x2120;" horiz-adv-x="699" 
d="M157 383q-78 0 -130 49l45 57q38 -38 82 -38q41 0 41 26q0 16 -26 27q-5 2 -27 10q-26 9 -38.5 14.5t-31 17.5t-26 29.5t-7.5 41.5q1 43 29.5 69t81.5 27q64 0 118 -39l-40 -61q-41 31 -74 31q-13 0 -24 -6t-11 -18q0 -10 12.5 -17t50.5 -21q46 -17 70.5 -38t24.5 -59
q0 -52 -34.5 -77t-85.5 -25zM325 387v323h81l87 -169l85 169h81v-323h-79v176l-63 -115h-51l-64 115v-176h-77z" />
    <glyph glyph-name="trademark" unicode="&#x2122;" horiz-adv-x="685" 
d="M103 387v252h-83v71h247v-71h-83v-252h-81zM311 387v323h81l86 -169l86 169h81v-323h-79v176l-63 -115h-51l-64 115v-176h-77z" />
    <glyph glyph-name="uni2126" unicode="&#x2126;" horiz-adv-x="760" 
d="M56 0v125h113l1 2q-124 105 -124 263q0 143 92.5 236t241.5 93t241.5 -93t92.5 -236q0 -158 -124 -263l1 -2h114v-125h-278v125q140 111 140 261q0 90 -51.5 146.5t-135.5 56.5q-84 -1 -135.5 -57t-51.5 -146q0 -149 140 -261v-125h-277z" />
    <glyph glyph-name="estimated" unicode="&#x212e;" horiz-adv-x="791" 
d="M395 -10q-146 0 -246 93.5t-100 227.5q0 136 101 228.5t245 92.5q147 0 247.5 -93.5t100.5 -227.5v-9h-510v-230q72 -47 163 -47q132 0 210 84h59q-46 -55 -118 -87t-152 -32zM233 343h325v209q-67 44 -162 44q-96 0 -163 -47v-206z" />
    <glyph glyph-name="partialdiff" unicode="&#x2202;" horiz-adv-x="586" 
d="M279 694q64 0 112.5 -28t75.5 -70t44 -98.5t22.5 -104t5.5 -97.5q0 -148 -70 -226.5t-179 -78.5q-103 0 -173.5 64t-70.5 164q0 104 62.5 164t151.5 60q82 0 139 -42l3 2q-25 174 -141 175q-35 0 -136 -33l-37 108q103 41 191 41zM292 117q50 0 83 40.5t34 107.5
q-49 65 -120 65q-49 0 -78 -28t-29 -78q0 -45 31 -76t79 -31z" />
    <glyph glyph-name="emptyset" unicode="&#x2205;" horiz-adv-x="723" 
d="M611 509q63 -83 63 -191q0 -129 -91 -222.5t-223 -93.5q-107 0 -191 66l-50 -50l-53 53l50 50q-68 85 -68 197q0 129 91 222t223 93q112 0 196 -70l46 46l53 -54zM152 317q0 -68 38 -122l294 294q-54 40 -123 40q-88 0 -148.5 -62t-60.5 -150zM360 106q88 0 149 62.5
t61 149.5q0 65 -34 116l-293 -292q52 -36 117 -36z" />
    <glyph glyph-name="uni2206" unicode="&#x2206;" horiz-adv-x="683" 
d="M34 0v108l237 602h140l238 -602v-108h-615zM191 125h299l-147 411h-2z" />
    <glyph glyph-name="product" unicode="&#x220f;" horiz-adv-x="698" 
d="M77 -105v815h544v-815h-141v690h-262v-690h-141z" />
    <glyph glyph-name="summation" unicode="&#x2211;" horiz-adv-x="612" 
d="M48 -77v99l219 295l-219 291v102h520v-125h-332l-1 -4l189 -264l-189 -264l1 -3h332v-127h-520z" />
    <glyph glyph-name="minus" unicode="&#x2212;" horiz-adv-x="567" 
d="M46 220v114h475v-114h-475z" />
    <glyph glyph-name="radical" unicode="&#x221a;" horiz-adv-x="730" 
d="M311 0l-167 500h-114v110h219l139 -432h2l303 644h95l-390 -822h-87z" />
    <glyph glyph-name="infinity" unicode="&#x221e;" horiz-adv-x="770" 
d="M551 450q71 0 119 -49.5t48 -122.5q0 -76 -49 -123.5t-118 -47.5q-92 0 -167 94q-73 -94 -165 -94q-71 0 -119 49t-48 122q0 77 49 124.5t118 47.5q93 0 165 -94q78 94 167 94zM226 207q46 0 100 71q-27 35 -49.5 53.5t-50.5 18.5q-30 0 -49.5 -19.5t-19.5 -52.5
t19.5 -52t49.5 -19zM546 207q28 0 47 19.5t19 51.5q0 33 -19 52.5t-47 19.5q-50 0 -103 -72q55 -71 103 -71z" />
    <glyph glyph-name="integral" unicode="&#x222b;" horiz-adv-x="417" 
d="M52 -173q-40 -1 -80 6l15 100h8q47 0 59.5 19t23.5 89l77 513q12 71 52 108.5t96 39.5q58 1 105 -13l-14 -93q-8 0 -20 0.5t-16 0.5q-46 0 -58.5 -18.5t-23.5 -91.5l-77 -513q-11 -69 -51 -106.5t-96 -40.5z" />
    <glyph glyph-name="uni2236" unicode="&#x2236;" horiz-adv-x="274" 
d="M133 393q-35 0 -59 23.5t-24 57.5q0 33 24.5 56.5t58.5 23.5q33 0 57 -23.5t24 -56.5q0 -34 -24 -57.5t-57 -23.5zM133 49q-35 0 -59 23.5t-24 57.5q0 33 24.5 56.5t58.5 23.5q33 0 57 -23.5t24 -56.5q0 -34 -24 -57.5t-57 -23.5z" />
    <glyph glyph-name="approxequal" unicode="&#x2248;" horiz-adv-x="589" 
d="M409 309q-33 0 -98 24.5t-105 24.5q-55 0 -118 -39l-36 87q18 19 58.5 41.5t82.5 22.5q41 0 104.5 -25t96.5 -25q54 0 104 44l38 -89q-54 -66 -127 -66zM409 88q-33 0 -98 24.5t-105 24.5q-55 0 -118 -39l-36 86q17 20 57.5 42.5t83.5 22.5q42 0 105.5 -25t95.5 -25
q56 0 104 44l38 -89q-21 -26 -54.5 -46t-72.5 -20z" />
    <glyph glyph-name="notequal" unicode="&#x2260;" horiz-adv-x="587" 
d="M531 335h-161l-54 -116h215v-114h-268l-50 -106l-83 32l35 74h-109v114h162l54 116h-216v114h269l54 116l83 -33l-39 -83h108v-114z" />
    <glyph glyph-name="lessequal" unicode="&#x2264;" horiz-adv-x="583" 
d="M523 165l-464 199v95l464 204v-127l-295 -123l295 -124v-124zM525 0h-468v114h468v-114z" />
    <glyph glyph-name="greaterequal" unicode="&#x2265;" horiz-adv-x="582" 
d="M63 165v124l295 124l-295 123v127l464 -204v-95zM61 0v114h468v-114h-468z" />
    <glyph glyph-name="lozenge" unicode="&#x25ca;" horiz-adv-x="498" 
d="M245 0l-208 338l208 339l216 -339zM246 194l83 144l-83 147l-81 -147z" />
    <glyph glyph-name="uni2713" unicode="&#x2713;" horiz-adv-x="574" 
d="M211 115l-193 200l72 70l102 -106l315 515l87 -54z" />
    <glyph glyph-name="uni2715" unicode="&#x2715;" horiz-adv-x="362" 
d="M89 114l-72 72l92 92l-92 91l72 72l91 -91l92 92l72 -73l-91 -92l91 -92l-71 -71l-91 91z" />
    <glyph glyph-name="uni2E18" unicode="&#x2e18;" horiz-adv-x="447" 
d="M267 337q-33 0 -57 23.5t-24 56.5q0 34 24 57.5t57 23.5q35 0 59 -23.5t24 -57.5q0 -33 -24.5 -56.5t-58.5 -23.5zM365 -82l89 -82q-35 -43 -89.5 -67.5t-115.5 -24.5q-91 0 -151.5 51t-60.5 142q0 55 23.5 95t65.5 80q6 6 23 21.5t23.5 22t16.5 18.5t14 21.5t5 19.5
l4 43h107l23 -318h-133l3 91l-2 1q-37 -42 -37 -83t22 -63t62 -22q29 0 58.5 14.5t49.5 39.5z" />
    <glyph glyph-name="uni00A40301" horiz-adv-x="505" 
d="M303 769l111 135h139l-126 -135h-124zM218 -7q-57 0 -109 23.5t-86 67.5l81 100q47 -59 106 -59q85 0 85 121v464h141v-463q0 -254 -218 -254z" />
    <glyph glyph-name="Tdieresis" horiz-adv-x="588" 
d="M187 785q-34 0 -58 23.5t-24 56.5q0 32 24 55.5t58 23.5q35 0 59 -23.5t24 -56.5t-24 -56t-59 -23zM397 785q-35 0 -58.5 23.5t-23.5 56.5t23.5 56t58.5 23q34 0 58.5 -23.5t24.5 -56.5t-24 -56t-59 -23zM222 0v585h-194v125h533v-125h-197v-585h-142z" />
    <glyph glyph-name="Q.alt" horiz-adv-x="819" 
d="M771 355q0 -93 -36.5 -169t-101.5 -124l135 -111l-84 -104l-183 154q-41 -10 -91 -10q-160 0 -261 102.5t-101 261.5t101 261.5t261 102.5q157 0 259 -101.5t102 -262.5zM194 355q0 -98 60.5 -165t155.5 -67q92 0 153 66t61 166t-61 166t-153 66q-95 0 -155.5 -67
t-60.5 -165z" />
    <glyph glyph-name="i.loclTRK" horiz-adv-x="273" 
d="M138 555q-36 0 -59.5 23.5t-23.5 57.5q0 33 23.5 56.5t59.5 23.5q35 0 59 -23.5t24 -56.5q0 -34 -24 -57.5t-59 -23.5zM71 0v489h131v-489h-131z" />
    <glyph glyph-name="uni006A0301" horiz-adv-x="254" 
d="M68 560l114 146l137 1l-124 -147h-127zM50 -207q-55 0 -102 19l22 108q22 -12 48 -12q45 0 45 68v513h131v-518q0 -86 -39 -132t-105 -46z" />
    <glyph glyph-name="a.alt" horiz-adv-x="511" 
d="M248 496q109 0 160 -48.5t51 -157.5v-290h-121l-5 43l-2 1q-58 -53 -136 -53q-76 0 -119.5 43t-43.5 112q0 75 49 116t147 41h103q-1 45 -23 64t-72 19q-68 0 -125 -34l-50 99q37 19 91 32t96 13zM226 92q48 0 76.5 21t28.5 49v52h-98q-75 0 -75 -61t68 -61z" />
    <glyph glyph-name="aacute.alt" horiz-adv-x="511" 
d="M437 697l-124 -147h-127l114 146zM248 496q109 0 160 -48.5t51 -157.5v-290h-121l-5 43l-2 1q-58 -53 -136 -53q-76 0 -119.5 43t-43.5 112q0 75 49 116t147 41h103q-1 45 -23 64t-72 19q-68 0 -125 -34l-50 99q37 19 91 32t96 13zM226 92q48 0 76.5 21t28.5 49v52h-98
q-75 0 -75 -61t68 -61z" />
    <glyph glyph-name="abreve.alt" horiz-adv-x="511" 
d="M261 543q-71 0 -114.5 40.5t-48.5 112.5h99q2 -24 19.5 -40.5t44.5 -16.5q28 0 45 16.5t19 40.5h99q-5 -70 -47.5 -111.5t-115.5 -41.5zM248 496q109 0 160 -48.5t51 -157.5v-290h-121l-5 43l-2 1q-58 -53 -136 -53q-76 0 -119.5 43t-43.5 112q0 75 49 116t147 41h103
q-1 45 -23 64t-72 19q-68 0 -125 -34l-50 99q37 19 91 32t96 13zM226 92q48 0 76.5 21t28.5 49v52h-98q-75 0 -75 -61t68 -61z" />
    <glyph glyph-name="uni1EAF.alt" horiz-adv-x="511" 
d="M424 859l-120 -147h-93l79 147h134zM261 543q-71 0 -114.5 40.5t-48.5 112.5h99q2 -24 19.5 -40.5t44.5 -16.5q28 0 45 16.5t19 40.5h99q-5 -70 -47.5 -111.5t-115.5 -41.5zM248 496q109 0 160 -48.5t51 -157.5v-290h-121l-5 43l-2 1q-58 -53 -136 -53q-76 0 -119.5 43
t-43.5 112q0 75 49 116t147 41h103q-1 45 -23 64t-72 19q-68 0 -125 -34l-50 99q37 19 91 32t96 13zM226 92q48 0 76.5 21t28.5 49v52h-98q-75 0 -75 -61t68 -61z" />
    <glyph glyph-name="uni1EB7.alt" horiz-adv-x="511" 
d="M261 543q-71 0 -114.5 40.5t-48.5 112.5h99q2 -24 19.5 -40.5t44.5 -16.5q28 0 45 16.5t19 40.5h99q-5 -70 -47.5 -111.5t-115.5 -41.5zM248 496q109 0 160 -48.5t51 -157.5v-290h-121l-5 43l-2 1q-58 -53 -136 -53q-76 0 -119.5 43t-43.5 112q0 75 49 116t147 41h103
q-1 45 -23 64t-72 19q-68 0 -125 -34l-50 99q37 19 91 32t96 13zM226 92q48 0 76.5 21t28.5 49v52h-98q-75 0 -75 -61t68 -61zM261 -69q36 0 59.5 -23.5t23.5 -57.5q0 -33 -23.5 -56.5t-59.5 -23.5q-35 0 -59 23.5t-24 56.5q0 34 24 57.5t59 23.5z" />
    <glyph glyph-name="uni1EB1.alt" horiz-adv-x="511" 
d="M313 712h-93l-121 147h135zM261 543q-71 0 -114.5 40.5t-48.5 112.5h99q2 -24 19.5 -40.5t44.5 -16.5q28 0 45 16.5t19 40.5h99q-5 -70 -47.5 -111.5t-115.5 -41.5zM248 496q109 0 160 -48.5t51 -157.5v-290h-121l-5 43l-2 1q-58 -53 -136 -53q-76 0 -119.5 43t-43.5 112
q0 75 49 116t147 41h103q-1 45 -23 64t-72 19q-68 0 -125 -34l-50 99q37 19 91 32t96 13zM226 92q48 0 76.5 21t28.5 49v52h-98q-75 0 -75 -61t68 -61z" />
    <glyph glyph-name="uni1EB3.alt" horiz-adv-x="511" 
d="M246 794q-35 0 -74 -27l-26 56q52 52 134 52q43 0 68 -20t25 -59q0 -32 -23.5 -59t-55.5 -39h-80q60 44 60 76q0 20 -28 20zM261 544q-73 0 -118 38t-51 106h103q2 -22 20 -38t46 -16q29 0 46.5 16t19.5 38h103q-6 -66 -50 -105t-119 -39zM248 496q109 0 160 -48.5
t51 -157.5v-290h-121l-5 43l-2 1q-58 -53 -136 -53q-76 0 -119.5 43t-43.5 112q0 75 49 116t147 41h103q-1 45 -23 64t-72 19q-68 0 -125 -34l-50 99q37 19 91 32t96 13zM226 92q48 0 76.5 21t28.5 49v52h-98q-75 0 -75 -61t68 -61z" />
    <glyph glyph-name="uni1EB5.alt" horiz-adv-x="511" 
d="M200 778q-29 -3 -48 -50l-77 33q37 106 114 106q35 0 78 -23q36 -22 51 -22q33 0 54 48l78 -25q-16 -51 -46 -83t-71 -32q-32 0 -76 26q-39 23 -57 22zM260 639q28 0 45 16.5t19 40.5h99q-5 -70 -47.5 -111.5t-115.5 -41.5q-71 0 -114.5 40.5t-48.5 112.5h99
q2 -24 19.5 -40.5t44.5 -16.5zM248 496q109 0 160 -48.5t51 -157.5v-290h-121l-5 43l-2 1q-58 -53 -136 -53q-76 0 -119.5 43t-43.5 112q0 75 49 116t147 41h103q-1 45 -23 64t-72 19q-68 0 -125 -34l-50 99q37 19 91 32t96 13zM226 92q48 0 76.5 21t28.5 49v52h-98
q-75 0 -75 -61t68 -61z" />
    <glyph glyph-name="uni01CE.alt" horiz-adv-x="511" 
d="M330 549h-139l-102 147h121l50 -75h2l50 75h120zM248 496q109 0 160 -48.5t51 -157.5v-290h-121l-5 43l-2 1q-58 -53 -136 -53q-76 0 -119.5 43t-43.5 112q0 75 49 116t147 41h103q-1 45 -23 64t-72 19q-68 0 -125 -34l-50 99q37 19 91 32t96 13zM226 92q48 0 76.5 21
t28.5 49v52h-98q-75 0 -75 -61t68 -61z" />
    <glyph glyph-name="acircumflex.alt" horiz-adv-x="511" 
d="M260 626l-50 -75h-121l103 147h139l101 -147h-120l-50 75h-2zM248 496q109 0 160 -48.5t51 -157.5v-290h-121l-5 43l-2 1q-58 -53 -136 -53q-76 0 -119.5 43t-43.5 112q0 75 49 116t147 41h103q-1 45 -23 64t-72 19q-68 0 -125 -34l-50 99q37 19 91 32t96 13zM226 92
q48 0 76.5 21t28.5 49v52h-98q-75 0 -75 -61t68 -61z" />
    <glyph glyph-name="uni1EA5.alt" horiz-adv-x="511" 
d="M479 795h134l-120 -147h-94zM260 626l-50 -75h-121l103 147h139l101 -147h-120l-50 75h-2zM248 496q109 0 160 -48.5t51 -157.5v-290h-121l-5 43l-2 1q-58 -53 -136 -53q-76 0 -119.5 43t-43.5 112q0 75 49 116t147 41h103q-1 45 -23 64t-72 19q-68 0 -125 -34l-50 99
q37 19 91 32t96 13zM226 92q48 0 76.5 21t28.5 49v52h-98q-75 0 -75 -61t68 -61z" />
    <glyph glyph-name="uni1EAD.alt" horiz-adv-x="511" 
d="M260 626l-50 -75h-121l103 147h139l101 -147h-120l-50 75h-2zM248 496q109 0 160 -48.5t51 -157.5v-290h-121l-5 43l-2 1q-58 -53 -136 -53q-76 0 -119.5 43t-43.5 112q0 75 49 116t147 41h103q-1 45 -23 64t-72 19q-68 0 -125 -34l-50 99q37 19 91 32t96 13zM226 92
q48 0 76.5 21t28.5 49v52h-98q-75 0 -75 -61t68 -61zM261 -69q36 0 59.5 -23.5t23.5 -57.5q0 -33 -23.5 -56.5t-59.5 -23.5q-35 0 -59 23.5t-24 56.5q0 34 24 57.5t59 23.5z" />
    <glyph glyph-name="uni1EA7.alt" horiz-adv-x="511" 
d="M522 648h-93l-120 147h134zM260 626l-50 -75h-121l103 147h139l101 -147h-120l-50 75h-2zM248 496q109 0 160 -48.5t51 -157.5v-290h-121l-5 43l-2 1q-58 -53 -136 -53q-76 0 -119.5 43t-43.5 112q0 75 49 116t147 41h103q-1 45 -23 64t-72 19q-68 0 -125 -34l-50 99
q37 19 91 32t96 13zM226 92q48 0 76.5 21t28.5 49v52h-98q-75 0 -75 -61t68 -61z" />
    <glyph glyph-name="uni1EA9.alt" horiz-adv-x="511" 
d="M478 828q43 0 68 -20t25 -59q0 -32 -23.5 -59t-55.5 -39h-80q60 44 60 76q0 20 -28 20q-35 0 -74 -27l-26 56q52 52 134 52zM260 626l-50 -75h-121l103 147h139l101 -147h-120l-50 75h-2zM248 496q109 0 160 -48.5t51 -157.5v-290h-121l-5 43l-2 1q-58 -53 -136 -53
q-76 0 -119.5 43t-43.5 112q0 75 49 116t147 41h103q-1 45 -23 64t-72 19q-68 0 -125 -34l-50 99q37 19 91 32t96 13zM226 92q48 0 76.5 21t28.5 49v52h-98q-75 0 -75 -61t68 -61z" />
    <glyph glyph-name="uni1EAB.alt" horiz-adv-x="511" 
d="M202 782q-29 -3 -48 -50l-77 33q37 106 114 106q35 0 78 -23q36 -22 51 -22q33 0 54 48l78 -25q-16 -51 -46 -83t-71 -32q-32 0 -76 26q-39 23 -57 22zM193 698h139l101 -147h-120l-50 75h-2l-50 -75h-121zM248 496q109 0 160 -48.5t51 -157.5v-290h-121l-5 43l-2 1
q-58 -53 -136 -53q-76 0 -119.5 43t-43.5 112q0 75 49 116t147 41h103q-1 45 -23 64t-72 19q-68 0 -125 -34l-50 99q37 19 91 32t96 13zM226 92q48 0 76.5 21t28.5 49v52h-98q-75 0 -75 -61t68 -61z" />
    <glyph glyph-name="adieresis.alt" horiz-adv-x="511" 
d="M155 557q-34 0 -58 23.5t-24 56.5q0 32 24 55.5t58 23.5q35 0 59 -23.5t24 -56.5t-24 -56t-59 -23zM365 557q-35 0 -58.5 23.5t-23.5 56.5t23.5 56t58.5 23q34 0 58.5 -23.5t24.5 -56.5t-24 -56t-59 -23zM248 496q109 0 160 -48.5t51 -157.5v-290h-121l-5 43l-2 1
q-58 -53 -136 -53q-76 0 -119.5 43t-43.5 112q0 75 49 116t147 41h103q-1 45 -23 64t-72 19q-68 0 -125 -34l-50 99q37 19 91 32t96 13zM226 92q48 0 76.5 21t28.5 49v52h-98q-75 0 -75 -61t68 -61z" />
    <glyph glyph-name="uni1EA1.alt" horiz-adv-x="511" 
d="M248 496q109 0 160 -48.5t51 -157.5v-290h-121l-5 43l-2 1q-58 -53 -136 -53q-76 0 -119.5 43t-43.5 112q0 75 49 116t147 41h103q-1 45 -23 64t-72 19q-68 0 -125 -34l-50 99q37 19 91 32t96 13zM226 92q48 0 76.5 21t28.5 49v52h-98q-75 0 -75 -61t68 -61zM261 -69
q36 0 59.5 -23.5t23.5 -57.5q0 -33 -23.5 -56.5t-59.5 -23.5q-35 0 -59 23.5t-24 56.5q0 34 24 57.5t59 23.5z" />
    </font>
</defs>
</svg>
