<?xml version="1.0" standalone="no"?>
<!DOCTYPE svg PUBLIC "-//W3C//DTD SVG 1.1//EN" "http://www.w3.org/Graphics/SVG/1.1/DTD/svg11.dtd" >
<svg xmlns="http://www.w3.org/2000/svg" xmlns:xlink="http://www.w3.org/1999/xlink" version="1.1">
<metadata>
Created by FontForge 20170731 at Sat Jul 15 13:38:08 2017
 By Aleksey,,,
Copyright (c) 2015 by Kostas Bartsokas. All rights reserved.
</metadata>
<defs>
<font id="AvertaStd-BoldItalic" horiz-adv-x="0" >
  <font-face 
    font-family="Averta Std Bold"
    font-weight="700"
    font-style="italic"
    font-stretch="normal"
    units-per-em="1000"
    panose-1="0 0 8 0 0 0 0 0 0 0"
    ascent="800"
    descent="-200"
    x-height="489"
    cap-height="710"
    bbox="-729 -378 1387 1056"
    underline-thickness="53"
    underline-position="-194"
    slope="-7"
    unicode-range="U+000D-2E18"
  />
<missing-glyph horiz-adv-x="401" 
 />
    <glyph glyph-name=".notdef" horiz-adv-x="401" 
 />
    <glyph glyph-name=".null" 
 />
    <glyph glyph-name="nonmarkingreturn" horiz-adv-x="333" 
 />
    <glyph glyph-name="CR" unicode="&#xd;" 
 />
    <glyph glyph-name="space" unicode=" " horiz-adv-x="192" 
 />
    <glyph glyph-name="exclam" unicode="!" horiz-adv-x="282" 
d="M101 231l39 505h137l-84 -505h-92zM130 -9q-35 0 -56.5 22t-21.5 55q0 35 22.5 58t58.5 23q34 0 56 -22t22 -56q0 -35 -22.5 -57.5t-58.5 -22.5z" />
    <glyph glyph-name="quotedbl" unicode="&#x22;" horiz-adv-x="397" 
d="M57 451l59 259h131l-92 -259h-98zM236 451l59 259h131l-92 -259h-98z" />
    <glyph glyph-name="numbersign" unicode="#" horiz-adv-x="591" 
d="M65 -43l50 189h-92l11 94h107l36 141h-102l10 94h118l46 181h88l-47 -181h118l46 181h88l-46 -181h96l-12 -94h-111l-35 -141h105l-12 -94h-120l-49 -189h-87l49 189h-118l-49 -189h-88zM228 240h119l34 141h-117z" />
    <glyph glyph-name="dollar" unicode="$" horiz-adv-x="532" 
d="M306 401q13 -8 44 -25.5t44.5 -26t35.5 -25.5t31.5 -32t17.5 -37t8 -48q0 -94 -56.5 -149.5t-147.5 -63.5l-14 -114h-90l15 119q-112 23 -166 110l96 86q19 -40 53.5 -60.5t73.5 -20.5q43 0 70.5 21.5t27.5 52.5q0 8 -2 14.5t-7.5 13t-9.5 10.5t-15 11t-17.5 11t-22.5 13
t-26 15q-82 48 -107 70q-57 52 -57 124q0 80 52 132.5t133 64.5l15 120h89l-15 -124q91 -19 146 -94l-94 -81q-44 62 -111 62q-33 0 -55 -18.5t-21 -46.5q1 -22 18.5 -39t63.5 -45z" />
    <glyph glyph-name="percent" unicode="%" horiz-adv-x="1000" 
d="M374 -23l-95 44l370 707l96 -45zM257 319q-79 0 -131 52t-52 134q0 90 59 150.5t146 60.5q80 0 132 -50.5t52 -132.5q0 -92 -60 -153t-146 -61zM260 413q43 0 72 32t29 85q0 41 -24.5 67t-61.5 26q-41 0 -70 -33t-29 -84q0 -42 23.5 -67.5t60.5 -25.5zM746 -9
q-79 0 -130.5 52t-51.5 134q0 90 59 150.5t145 60.5q80 0 133 -51t53 -132q0 -93 -60.5 -153.5t-147.5 -60.5zM750 85q43 0 72 32t29 85q0 41 -24.5 67t-61.5 26q-41 0 -70 -33.5t-29 -83.5q0 -42 23.5 -67.5t60.5 -25.5z" />
    <glyph glyph-name="ampersand" unicode="&#x26;" horiz-adv-x="732" 
d="M227 -9q-84 0 -137.5 52t-53.5 137q0 69 37 129t104 91q-47 44 -47 107q0 93 62.5 152.5t153.5 59.5q155 0 193 -147l-111 -36q-12 72 -76 72q-42 0 -67.5 -26t-25.5 -71q0 -26 17 -44t48 -18h409l-14 -114h-147q-22 -157 -110 -250.5t-235 -93.5zM247 109q81 0 135.5 67
t69.5 159h-138q-63 0 -104.5 -44.5t-41.5 -97.5q0 -39 21.5 -61.5t57.5 -22.5z" />
    <glyph glyph-name="quotesingle" unicode="'" horiz-adv-x="218" 
d="M57 451l59 259h131l-92 -259h-98z" />
    <glyph glyph-name="parenleft" unicode="(" horiz-adv-x="299" 
d="M113 -159q-62 136 -62 318q0 160 46 315.5t131 270.5l86 -38q-70 -113 -108.5 -253t-38.5 -278q0 -155 48 -288z" />
    <glyph glyph-name="parenright" unicode=")" horiz-adv-x="299" 
d="M85 -155l-87 38q70 116 108 256t38 277q0 156 -47 286l100 47q64 -128 64 -318q0 -160 -45 -311.5t-131 -274.5z" />
    <glyph glyph-name="asterisk" unicode="*" horiz-adv-x="378" 
d="M167 384l17 104l-79 -55l-32 67l83 46l-73 49l48 67l67 -55l9 103h78l-18 -103l80 54l32 -66l-83 -48l73 -47l-47 -68l-67 56l-10 -104h-78z" />
    <glyph glyph-name="plus" unicode="+" horiz-adv-x="534" 
d="M186 41l21 180h-157l14 112h158l21 181h114l-23 -181h158l-14 -112h-158l-22 -180h-112z" />
    <glyph glyph-name="comma" unicode="," horiz-adv-x="236" 
d="M-21 -133l59 259h129l-96 -259h-92z" />
    <glyph glyph-name="hyphen" unicode="-" horiz-adv-x="373" 
d="M50 249l14 120h275l-14 -120h-275z" />
    <glyph glyph-name="period" unicode="." horiz-adv-x="269" 
d="M112 -9q-35 0 -56.5 22t-21.5 55q0 35 22.5 58t58.5 23q34 0 56 -22t22 -56q0 -35 -22.5 -57.5t-58.5 -22.5z" />
    <glyph glyph-name="slash" unicode="/" horiz-adv-x="386" 
d="M13 -112l-87 45l447 853l86 -44z" />
    <glyph glyph-name="zero" unicode="0" horiz-adv-x="585" 
d="M266 -9q-100 0 -155 69t-55 200q0 114 31.5 210.5t99.5 160.5t160 64q99 0 152.5 -69t53.5 -199q0 -115 -31.5 -212t-98 -160.5t-157.5 -63.5zM270 115q38 0 68 30t47 78t25.5 102t8.5 109q0 138 -81 138q-38 0 -68 -30.5t-46.5 -79.5t-25 -103t-8.5 -108q0 -136 80 -136
z" />
    <glyph glyph-name="one" unicode="1" horiz-adv-x="392" 
d="M258 687h105l-84 -687h-133l64 514l-102 -76l-59 101z" />
    <glyph glyph-name="two" unicode="2" horiz-adv-x="494" 
d="M10 0l8 87l213 228q33 36 52.5 60t38.5 61t19 69q0 30 -16 49t-44 19q-30 0 -62.5 -20.5t-53.5 -57.5l-92 71q32 57 92.5 93t131.5 36q75 0 126.5 -48t51.5 -128q0 -70 -34.5 -132.5t-100.5 -130.5l-130 -134v-2h223l-15 -120h-408z" />
    <glyph glyph-name="three" unicode="3" horiz-adv-x="504" 
d="M215 -9q-83 0 -136.5 43t-69.5 113l125 44q11 -80 78 -80q48 0 77 33t29 85q0 70 -79 70h-49l14 108h41q46 0 72.5 33.5t26.5 73.5q0 28 -17 44.5t-44 16.5q-62 0 -96 -63l-105 61q29 55 86 88.5t126 33.5q80 0 129.5 -41t49.5 -116q0 -122 -100 -182v-1q79 -39 79 -141
q0 -100 -67.5 -161.5t-169.5 -61.5z" />
    <glyph glyph-name="four" unicode="4" horiz-adv-x="527" 
d="M407 226h86l-15 -113h-85l-14 -113h-129l14 113h-255l10 85l339 489h105zM168 218h119l30 235z" />
    <glyph glyph-name="five" unicode="5" horiz-adv-x="514" 
d="M475 567h-226l-24 -137q45 12 78 12q75 0 119.5 -49t44.5 -134q0 -117 -71.5 -192.5t-182.5 -75.5q-137 0 -203 116l106 72q30 -67 93 -67q56 0 90.5 40t34.5 98q0 41 -20.5 62.5t-58.5 21.5q-51 0 -100 -37l-72 27l65 363h342z" />
    <glyph glyph-name="six" unicode="6" horiz-adv-x="544" 
d="M246 -9q-88 0 -143.5 58t-55.5 161q0 176 105.5 316t279.5 181l23 -109q-184 -68 -246 -203l1 -1q62 46 137 46q62 0 106.5 -46.5t44.5 -131.5q0 -118 -68.5 -194.5t-183.5 -76.5zM253 111q48 0 81.5 40t33.5 100q0 37 -19.5 57t-57.5 20q-29 0 -61.5 -17.5t-54.5 -45.5
q-2 -26 -2 -40q0 -52 22 -83t58 -31z" />
    <glyph glyph-name="seven" unicode="7" horiz-adv-x="447" 
d="M76 687h385l-10 -87l-280 -615l-133 25l260 558h-237z" />
    <glyph glyph-name="eight" unicode="8" horiz-adv-x="528" 
d="M226 -8q-89 0 -142.5 44.5t-53.5 120.5q0 70 35.5 127.5t97.5 84.5v2q-26 13 -43.5 43.5t-17.5 71.5q0 91 63 150t160 59q71 0 119.5 -39.5t48.5 -109.5q0 -56 -25.5 -102t-69.5 -69v-2q40 -14 64.5 -51.5t24.5 -92.5q0 -111 -72 -174t-189 -63zM287 425q35 0 59 27.5
t24 67.5q0 29 -16.5 47t-46.5 18q-36 0 -59.5 -27t-23.5 -66q0 -30 17.5 -48.5t45.5 -18.5zM243 105q46 0 78 34t32 85q0 39 -21.5 62t-59.5 23q-46 0 -77 -35.5t-31 -82.5q0 -39 21 -62.5t58 -23.5z" />
    <glyph glyph-name="nine" unicode="9" horiz-adv-x="539" 
d="M128 -24l-22 106q175 52 243 201l-1 1q-56 -38 -124 -38q-70 0 -114.5 45t-44.5 128q0 121 73.5 198.5t183.5 77.5q88 0 141 -59t53 -162q0 -185 -109 -326.5t-279 -171.5zM273 358q63 0 113 62q2 28 2 44q0 54 -21 83t-59 29q-50 0 -81.5 -38t-31.5 -97q0 -83 78 -83z
" />
    <glyph glyph-name="colon" unicode=":" horiz-adv-x="275" 
d="M160 338q-35 0 -56.5 22t-21.5 55q0 35 22.5 58t58.5 23q34 0 56 -22t22 -56q0 -35 -22.5 -57.5t-58.5 -22.5zM116 -9q-35 0 -56.5 22t-21.5 55q0 35 22.5 58t58.5 23q34 0 56 -22t22 -56q0 -35 -22.5 -57.5t-58.5 -22.5z" />
    <glyph glyph-name="semicolon" unicode=";" horiz-adv-x="250" 
d="M143 338q-35 0 -56.5 22t-21.5 55q0 35 22.5 58t58.5 23q34 0 56 -22t22 -56q0 -35 -22.5 -57.5t-58.5 -22.5zM-15 -133l59 259h129l-96 -259h-92z" />
    <glyph glyph-name="less" unicode="&#x3c;" horiz-adv-x="539" 
d="M450 27l-397 200l10 92l447 204l-14 -123l-271 -126l239 -127z" />
    <glyph glyph-name="equal" unicode="=" horiz-adv-x="553" 
d="M90 336l14 112h428l-13 -112h-429zM58 106l14 112h428l-13 -112h-429z" />
    <glyph glyph-name="greater" unicode="&#x3e;" horiz-adv-x="540" 
d="M38 27l13 120l272 127l-240 126l15 123l397 -204l-11 -92z" />
    <glyph glyph-name="question" unicode="?" horiz-adv-x="435" 
d="M124 230l5 46q3 26 18 53t28.5 42.5t47.5 51.5q35 37 53 66t18 66q0 32 -16 50t-45 18q-48 0 -90 -53l-81 81q34 44 88.5 69t115.5 25q73 0 121.5 -42t48.5 -119q0 -104 -107 -203q-74 -68 -81 -106l-10 -45h-114zM169 -9q-35 0 -56.5 22t-21.5 55q0 35 22.5 58t58.5 23
q34 0 56 -22t22 -56q0 -35 -22.5 -57.5t-58.5 -22.5z" />
    <glyph glyph-name="at" unicode="@" horiz-adv-x="896" 
d="M415 -147q-164 0 -266.5 100t-102.5 271q0 56 14.5 113.5t48.5 116t83 104t126.5 74t171.5 28.5q169 0 268.5 -101t99.5 -261q0 -31 -5.5 -62.5t-21 -67.5t-39.5 -64t-64.5 -46t-91.5 -18q-59 0 -94 35q-21 21 -28 50h-2q-54 -74 -142 -74q-60 0 -99.5 44.5t-39.5 123.5
q0 109 60 182t147 73q67 0 104 -37l3 1l4 29h120l-28 -229q-6 -52 -6 -58q0 -44 40 -44q39 0 63.5 55t24.5 106q0 118 -74.5 197.5t-198.5 79.5q-89 0 -159 -32.5t-110 -85t-60.5 -112t-20.5 -120.5q0 -127 79 -204.5t196 -77.5q103 0 207 51l40 -66q-110 -74 -247 -74z
M410 161q41 0 77 43t44 107l4 25q-36 28 -78 28q-43 0 -72.5 -41t-29.5 -92q0 -35 16 -52.5t39 -17.5z" />
    <glyph glyph-name="A" unicode="A" horiz-adv-x="642" 
d="M-12 0l322 710h136l149 -710h-142l-26 144h-237l-61 -144h-141zM237 261h170l-51 281h-2z" />
    <glyph glyph-name="B" unicode="B" horiz-adv-x="603" 
d="M52 0l87 710h238q189 0 189 -149q0 -54 -29.5 -105t-81.5 -76v-2q102 -36 102 -146q0 -112 -68.5 -172t-201.5 -60h-235zM238 419h83q47 0 77 29t30 81q0 32 -20.5 46t-64.5 14h-84zM201 120h91q61 0 93.5 31.5t32.5 88.5q0 67 -94 67h-100z" />
    <glyph glyph-name="C" unicode="C" horiz-adv-x="669" 
d="M348 -9q-128 0 -208 77.5t-80 221.5q0 180 104 304.5t268 124.5q157 0 246 -149l-111 -81q-53 100 -142 100q-98 0 -160.5 -89.5t-62.5 -207.5q0 -81 40 -126t113 -45q43 0 85.5 22t72.5 59l99 -89q-107 -122 -264 -122z" />
    <glyph glyph-name="D" unicode="D" horiz-adv-x="682" 
d="M52 0l87 710h217q143 0 217.5 -78t74.5 -216q0 -188 -102 -302t-277 -114h-217zM201 122h82q103 0 163 82t60 211q0 81 -41.5 127t-121.5 46h-85z" />
    <glyph glyph-name="E" unicode="E" horiz-adv-x="563" 
d="M51 0l87 710h415l-16 -122h-280l-21 -176h224l-15 -120h-224l-21 -170h299l-15 -122h-433z" />
    <glyph glyph-name="F" unicode="F" horiz-adv-x="551" 
d="M52 0l87 710h429l-15 -122h-294l-25 -194h245l-14 -121h-246l-32 -273h-135z" />
    <glyph glyph-name="G" unicode="G" horiz-adv-x="695" 
d="M350 -9q-129 0 -209.5 76.5t-80.5 221.5q0 180 104 305t264 125q164 0 243 -125l-109 -82q-50 78 -141 78q-94 0 -156 -87t-62 -209q0 -85 40 -131t114 -46q67 0 129 42l15 108h-135l15 118h268l-36 -306q-48 -40 -119 -64t-144 -24z" />
    <glyph glyph-name="H" unicode="H" horiz-adv-x="686" 
d="M52 0l87 710h136l-38 -309h251l38 309h136l-87 -710h-137l35 279h-251l-34 -279h-136z" />
    <glyph glyph-name="I" unicode="I" horiz-adv-x="310" 
d="M56 0l87 710h138l-87 -710h-138z" />
    <glyph glyph-name="J" unicode="J" horiz-adv-x="476" 
d="M174 -9q-51 0 -96.5 25t-72.5 70l92 93q31 -58 76 -58q79 0 97 144l55 445h137l-56 -452q-16 -135 -71 -201t-161 -66z" />
    <glyph glyph-name="K" unicode="K" horiz-adv-x="621" 
d="M662 710l-263 -317l181 -393h-155l-129 295l-85 -100l-24 -195h-135l87 710h135l-39 -319l3 -1l257 320h167z" />
    <glyph glyph-name="L" unicode="L" horiz-adv-x="535" 
d="M52 0l87 710h136l-72 -588h280l-15 -122h-416z" />
    <glyph glyph-name="M" unicode="M" horiz-adv-x="817" 
d="M52 0l87 710h135l144 -408h3l237 408h135l-87 -710h-135l52 432l-3 1l-178 -298h-88l-111 312l-2 -1l-54 -446h-135z" />
    <glyph glyph-name="N" unicode="N" horiz-adv-x="707" 
d="M52 0l87 710h132l216 -481l3 2l59 479h134l-88 -710h-135l-213 472h-3l-58 -472h-134z" />
    <glyph glyph-name="O" unicode="O" horiz-adv-x="754" 
d="M346 -9q-131 0 -208.5 80t-77.5 221q0 113 45.5 209.5t132 157t196.5 60.5q130 0 208.5 -79.5t78.5 -219.5q0 -180 -102 -304.5t-273 -124.5zM357 119q96 0 159 87.5t63 207.5q0 88 -42.5 133t-116.5 45q-93 0 -156 -89.5t-63 -205.5q0 -88 42 -133t114 -45z" />
    <glyph glyph-name="P" unicode="P" horiz-adv-x="585" 
d="M52 0l87 710h242q197 0 197 -193q0 -127 -73 -199.5t-209 -72.5h-80l-29 -245h-135zM231 366h78q59 0 93.5 37.5t34.5 105.5q0 38 -24.5 59t-63.5 21h-90z" />
    <glyph glyph-name="Q" unicode="Q" horiz-adv-x="768" 
d="M721 420q0 -164 -83 -281l62 -68l-83 -92l-66 73q-90 -61 -205 -61q-131 0 -208.5 80t-77.5 221q0 113 45.5 209.5t132.5 156.5t196 60q130 0 208.5 -79t78.5 -219zM357 119q57 0 104 33l-54 60l82 88l51 -55q39 76 39 169q0 88 -42.5 132.5t-116.5 44.5q-93 0 -156 -89
t-63 -205q0 -88 42 -133t114 -45z" />
    <glyph glyph-name="R" unicode="R" horiz-adv-x="617" 
d="M52 0l87 710h248q197 0 197 -193q0 -90 -39.5 -155t-115.5 -95l124 -267h-150l-106 245h-81l-29 -245h-135zM231 366h83q59 0 93.5 38.5t34.5 104.5q0 38 -24.5 59t-63.5 21h-95z" />
    <glyph glyph-name="S" unicode="S" horiz-adv-x="556" 
d="M261 -9q-76 0 -140.5 32.5t-101.5 91.5l98 88q22 -42 60 -65t79 -23q49 0 80 25t31 61q0 9 -2.5 17t-8.5 15.5t-11 12.5t-16.5 12.5t-19.5 12t-25.5 14.5t-27.5 16q-87 51 -115 75q-61 54 -61 130q0 96 68 154.5t169 58.5q62 0 119 -28t93 -78l-98 -84q-47 68 -121 68
q-40 0 -64.5 -22t-23.5 -53q1 -26 20.5 -44.5t72.5 -50.5q14 -8 47.5 -27t47.5 -27.5t37.5 -27t34 -34t19 -39.5t8.5 -52q0 -109 -69.5 -169t-178.5 -60z" />
    <glyph glyph-name="T" unicode="T" horiz-adv-x="543" 
d="M173 0l72 588h-173l14 122h485l-15 -122h-175l-72 -588h-136z" />
    <glyph glyph-name="U" unicode="U" horiz-adv-x="669" 
d="M306 -9q-132 0 -188.5 85t-38.5 233l50 401h136l-50 -405q-11 -84 12 -134.5t88 -50.5q130 0 152 175l51 415h136l-51 -416q-19 -158 -92 -230.5t-205 -72.5z" />
    <glyph glyph-name="V" unicode="V" horiz-adv-x="637" 
d="M229 0l-149 710h145l88 -516h2l211 516h150l-322 -710h-125z" />
    <glyph glyph-name="W" unicode="W" horiz-adv-x="942" 
d="M197 0l-113 710h141l64 -486h3l164 486h145l48 -473h3l175 473h147l-288 -710h-130l-56 493h-2l-173 -493h-128z" />
    <glyph glyph-name="X" unicode="X" horiz-adv-x="624" 
d="M-19 0l252 360l-155 350h149l108 -251h4l163 251h161l-246 -354l164 -356h-154l-113 254h-4l-174 -254h-155z" />
    <glyph glyph-name="Y" unicode="Y" horiz-adv-x="581" 
d="M191 0l39 312l-163 398h150l94 -269h3l160 269h157l-264 -398l-39 -312h-137z" />
    <glyph glyph-name="Z" unicode="Z" horiz-adv-x="581" 
d="M23 0l12 107l359 478l-1 3h-287l14 122h463l-12 -104l-366 -480l2 -4h304l-15 -122h-473z" />
    <glyph glyph-name="bracketleft" unicode="[" horiz-adv-x="332" 
d="M14 -148l108 881h223l-12 -95h-113l-85 -690h113l-11 -96h-223z" />
    <glyph glyph-name="backslash" unicode="\" horiz-adv-x="397" 
d="M288 -112l-237 854l99 44l238 -854z" />
    <glyph glyph-name="bracketright" unicode="]" horiz-adv-x="335" 
d="M-1 -148l12 96h116l84 690h-115l12 95h225l-108 -881h-226z" />
    <glyph glyph-name="asciicircum" unicode="^" horiz-adv-x="437" 
d="M82 500l146 210h91l97 -210h-103l-46 129l-83 -129h-102z" />
    <glyph glyph-name="underscore" unicode="_" horiz-adv-x="477" 
d="M-48 -113l10 86h486l-10 -86h-486z" />
    <glyph glyph-name="grave" unicode="`" horiz-adv-x="450" 
d="M237 536l-93 147l134 -1l82 -146h-123z" />
    <glyph glyph-name="a" unicode="a" horiz-adv-x="558" 
d="M198 -9q-80 0 -122 56t-42 143q0 125 67.5 215.5t168.5 90.5q80 0 122 -45l3 1l5 36h127l-60 -488h-127l10 82l-3 1q-64 -92 -149 -92zM231 104q49 0 93.5 61t57.5 160l2 16q-41 41 -98 41q-55 0 -89.5 -58t-34.5 -130q0 -42 18 -66t51 -24z" />
    <glyph glyph-name="b" unicode="b" horiz-adv-x="567" 
d="M249 -9q-118 0 -208 54l85 691h127l-39 -324l2 -1q64 85 153 85q78 0 120 -58t42 -147q0 -127 -73 -213.5t-209 -86.5zM241 105q75 0 118.5 55t43.5 134q0 37 -18.5 62.5t-50.5 25.5q-53 0 -97 -60.5t-57 -162.5l-6 -45q33 -9 67 -9z" />
    <glyph glyph-name="c" unicode="c" horiz-adv-x="487" 
d="M240 -8q-96 0 -150 54t-54 156q0 122 69.5 208t188.5 86q125 0 182 -85l-98 -74q-28 45 -84 45q-57 0 -93.5 -50.5t-36.5 -122.5q0 -50 23 -76t60 -26q55 0 99 50l99 -67q-82 -98 -205 -98z" />
    <glyph glyph-name="d" unicode="d" horiz-adv-x="562" 
d="M199 -9q-80 0 -122 56t-42 143q0 125 67 215.5t169 90.5q79 0 125 -45l3 1l35 284h127l-91 -736h-127l11 83l-3 1q-64 -93 -152 -93zM231 104q50 0 95 60t59 159l3 19q-37 40 -102 40q-54 0 -88.5 -58.5t-34.5 -129.5q0 -42 17.5 -66t50.5 -24z" />
    <glyph glyph-name="e" unicode="e" horiz-adv-x="478" 
d="M244 102q56 0 101 51l97 -63q-43 -50 -90.5 -74t-115.5 -24q-92 0 -146.5 54.5t-54.5 149.5q0 126 71.5 213t189.5 87q66 0 114 -35t48 -98q-1 -156 -298 -188q6 -36 29.5 -54.5t54.5 -18.5zM288 386q-39 0 -74 -31.5t-49 -90.5q167 19 168 87q0 35 -45 35z" />
    <glyph glyph-name="f" unicode="f" horiz-adv-x="317" 
d="M41 0l46 383h-44l13 106h45l11 92q20 164 154 164q65 0 114 -35l-33 -99q-32 21 -58 21q-22 0 -34.5 -16t-18.5 -60l-8 -67h89l-13 -106h-90l-47 -383h-126z" />
    <glyph glyph-name="g" unicode="g" horiz-adv-x="559" 
d="M195 -206q-95 0 -170 47l41 105q63 -40 130 -40q69 0 106.5 37.5t48.5 147.5l16 4l-17 6q-65 -94 -151 -94q-80 0 -122 55t-42 140q0 117 67.5 205.5t168.5 88.5q79 0 123 -44l2 1l4 36h127l-52 -427q-10 -79 -35.5 -133.5t-65 -83t-82.5 -40t-97 -11.5zM231 120
q47 0 91.5 55t57.5 141l4 25q-41 41 -97 41q-55 0 -89.5 -56t-34.5 -119q0 -41 18 -64t50 -23z" />
    <glyph glyph-name="h" unicode="h" horiz-adv-x="552" 
d="M35 0l91 736h126l-40 -325l2 -1q70 86 170 86q75 0 103.5 -49t14.5 -151l-40 -296h-127l38 276q7 55 -1.5 80.5t-38.5 25.5q-44 0 -91.5 -58.5t-58.5 -145.5l-21 -178h-127z" />
    <glyph glyph-name="i" unicode="i" horiz-adv-x="262" 
d="M181 557q-34 0 -56.5 22.5t-22.5 55.5q0 35 23 57.5t59 22.5q34 0 57 -22t23 -55q0 -35 -23.5 -58t-59.5 -23zM37 0l61 489h127l-60 -489h-128z" />
    <glyph glyph-name="j" unicode="j" horiz-adv-x="245" 
d="M167 557q-34 0 -56.5 22.5t-22.5 55.5q0 35 23 57.5t59 22.5q34 0 57 -22t23 -55q0 -35 -23.5 -58t-59.5 -23zM-8 -206q-52 0 -95 23l32 99q18 -14 41 -14t35 20t17 68l62 499h127l-63 -517q-23 -178 -156 -178z" />
    <glyph glyph-name="k" unicode="k" horiz-adv-x="516" 
d="M435 -7q-18 -2 -32 -2q-53 1 -80.5 35t-56.5 111l-10 27q-46 -30 -82 -45l-14 -119h-125l91 736h126l-59 -485l2 -1q130 85 174 239h130q-28 -138 -143 -250l21 -55q19 -50 38 -67.5t53 -22.5z" />
    <glyph glyph-name="l" unicode="l" horiz-adv-x="262" 
d="M40 0l90 736h127l-91 -736h-126z" />
    <glyph glyph-name="m" unicode="m" horiz-adv-x="824" 
d="M36 0l60 489h127l-9 -73l3 -1q69 81 157 81q90 0 110 -82h5q67 82 167 82q74 0 102.5 -49.5t14.5 -152.5l-40 -294h-127l38 276q14 106 -34 106q-37 0 -82 -56t-57 -141l-24 -185h-126l36 276q8 52 0.5 79t-33.5 27q-37 0 -83 -57t-56 -139l-22 -186h-127z" />
    <glyph glyph-name="n" unicode="n" horiz-adv-x="552" 
d="M35 0l61 489h126l-9 -78l2 -1q71 86 169 86q75 0 103.5 -49t14.5 -151l-40 -296h-126l37 276q7 55 -1.5 80.5t-38.5 25.5q-44 0 -91 -57.5t-58 -143.5l-22 -181h-127z" />
    <glyph glyph-name="o" unicode="o" horiz-adv-x="543" 
d="M241 -9q-94 0 -149.5 55t-55.5 153q0 123 71.5 210t191.5 87q95 0 151.5 -53.5t56.5 -150.5q0 -130 -69.5 -215.5t-196.5 -85.5zM248 106q57 0 94 51.5t37 124.5q0 55 -27 77.5t-62 22.5q-56 0 -91.5 -52.5t-35.5 -119.5q0 -47 23.5 -75.5t61.5 -28.5z" />
    <glyph glyph-name="p" unicode="p" horiz-adv-x="565" 
d="M11 -198l85 687h126l-10 -84l2 -2q62 93 160 93q75 0 116 -56.5t41 -142.5q0 -125 -68 -215.5t-171 -90.5q-77 0 -123 39l-3 -1l-28 -227h-127zM259 105q66 0 105 54t39 127q0 42 -17 69.5t-48 27.5q-52 0 -98.5 -60.5t-59.5 -157.5l-2 -19q26 -41 81 -41z" />
    <glyph glyph-name="q" unicode="q" horiz-adv-x="558" 
d="M316 -198l35 281l-3 1q-65 -93 -150 -93q-80 0 -122 56t-42 143q0 125 67.5 215.5t168.5 90.5q79 0 123 -44l2 1l5 36h127l-84 -687h-127zM231 104q48 0 93 61t57 155l3 21q-40 42 -98 42q-55 0 -89.5 -58.5t-34.5 -130.5q0 -42 18 -66t51 -24z" />
    <glyph glyph-name="r" unicode="r" horiz-adv-x="355" 
d="M36 0l60 489h127l-10 -80h2q63 87 152 87l-18 -142q-64 15 -107.5 -31.5t-56.5 -137.5l-22 -185h-127z" />
    <glyph glyph-name="s" unicode="s" horiz-adv-x="424" 
d="M190 -9q-54 0 -105 23t-79 61l77 79q46 -59 109 -59q27 0 45 10.5t18 28.5q0 15 -15 25.5t-55 29.5q-9 4 -13 6q-58 27 -89 61t-31 85q0 69 50 112t124 43q109 0 172 -73l-80 -79q-36 48 -92 50q-21 0 -35 -11t-14 -29q0 -26 75 -63q31 -15 48.5 -25.5t38.5 -28
t31.5 -39.5t10.5 -49q1 -74 -51 -116t-140 -42z" />
    <glyph glyph-name="t" unicode="t" horiz-adv-x="340" 
d="M169 -9q-61 0 -90 38.5t-21 110.5l30 243h-51l13 106h50l20 148l129 25l-21 -173h111l-13 -106h-111l-27 -223q-7 -50 28 -50q25 0 61 21l19 -105q-59 -35 -127 -35z" />
    <glyph glyph-name="u" unicode="u" horiz-adv-x="542" 
d="M178 -9q-76 0 -109 46.5t-19 149.5l43 302h126l-38 -277q-9 -59 1 -82.5t41 -23.5q39 0 82.5 50.5t52.5 116.5l26 216h127l-60 -489h-126l9 80h-2q-63 -89 -154 -89z" />
    <glyph glyph-name="v" unicode="v" horiz-adv-x="505" 
d="M197 -9q-174 0 -147 216l35 282h126l-32 -264q-9 -59 -1 -89t37 -30q38 0 77 48t55 146q15 91 0 189h128q19 -106 -1 -219q-25 -143 -100.5 -211t-176.5 -68z" />
    <glyph glyph-name="w" unicode="w" horiz-adv-x="773" 
d="M173 -9q-74 0 -106.5 53t-18.5 153l40 292h126l-36 -272q-14 -111 41 -111q33 0 68.5 41.5t46.5 131.5l26 210h125l-34 -281q-7 -55 2 -78.5t35 -23.5q36 0 73.5 48.5t52.5 145.5q15 85 1 189h129q18 -108 -2 -219q-25 -143 -99.5 -211t-171.5 -68q-56 0 -91.5 26.5
t-44.5 67.5h-2q-24 -43 -71.5 -68.5t-88.5 -25.5z" />
    <glyph glyph-name="x" unicode="x" horiz-adv-x="479" 
d="M-13 0l181 251l-117 238h142l58 -141h2l91 141h149l-180 -244l121 -245h-141l-63 144h-2l-100 -144h-141z" />
    <glyph glyph-name="y" unicode="y" horiz-adv-x="540" 
d="M385 489h125l-52 -426q-32 -269 -270 -269q-97 0 -172 47l40 103q64 -41 128 -41q63 0 99.5 34.5t49.5 131.5l1 10l-2 1q-64 -89 -157 -89q-155 0 -127 196l41 302h126l-37 -277q-7 -59 2.5 -82t40.5 -24q41 0 85.5 53t52.5 121z" />
    <glyph glyph-name="z" unicode="z" horiz-adv-x="458" 
d="M372 -28q-105 28 -365 28l10 87l241 296v1h-187l12 105h359l-9 -87l-245 -296v-2q130 -4 216 -31z" />
    <glyph glyph-name="braceleft" unicode="{" horiz-adv-x="341" 
d="M183 -147q-46 0 -74 36t-21 92l24 187q2 21 2 37.5t-16 27t-50 11.5l7 95q26 1 44 8t26.5 20.5t11.5 24.5t5 27l24 191q6 53 39 88t81 35h74l-10 -85h-21q-27 0 -41.5 -21t-17.5 -46l-24 -185q-10 -83 -59 -105v-2q24 -12 32 -33t0 -75l-21 -175q-3 -37 4.5 -52.5
t35.5 -15.5h25l-11 -85h-69z" />
    <glyph glyph-name="bar" unicode="|" horiz-adv-x="323" 
d="M65 -115l104 852h106l-104 -852h-106z" />
    <glyph glyph-name="braceright" unicode="}" horiz-adv-x="342" 
d="M-7 -147l11 85h21q29 0 42.5 18.5t18.5 54.5l21 176q6 55 18.5 74.5t42.5 30.5v2q-45 23 -34 107l22 184q7 63 -40 63h-24l10 85h68q49 0 75.5 -37.5t20.5 -91.5l-24 -190q-1 -18 -2 -34t15.5 -28t50.5 -13l-8 -95q-35 -1 -54.5 -14t-24.5 -27.5t-8 -39.5l-22 -186
q-7 -57 -41.5 -90.5t-80.5 -33.5h-74z" />
    <glyph glyph-name="asciitilde" unicode="~" horiz-adv-x="532" 
d="M349 197q-37 0 -83 23q-43 23 -60 23q-39 0 -69 -49l-86 41q25 56 61.5 90t80.5 34q12 0 22.5 -1.5t21 -5.5t15 -6t15.5 -8l11 -6q35 -19 57 -19q39 0 69 48l86 -34q-23 -58 -60.5 -94t-80.5 -36z" />
    <glyph glyph-name="uni00A0" unicode="&#xa0;" horiz-adv-x="192" 
 />
    <glyph glyph-name="exclamdown" unicode="&#xa1;" horiz-adv-x="276" 
d="M150 497q35 0 56.5 -22t21.5 -55q0 -35 -22.5 -58t-58.5 -23q-34 0 -56 22t-22 56q0 35 22.5 57.5t58.5 22.5zM179 257l-39 -505h-137l84 505h92z" />
    <glyph glyph-name="cent" unicode="&#xa2;" horiz-adv-x="498" 
d="M252 160q57 0 103 50l99 -66q-70 -81 -159 -94l-12 -98h-85l12 96q-77 11 -121 64t-44 141q0 111 61 194.5t162 99.5l11 96h85l-11 -96q90 -14 132 -79l-98 -73q-28 42 -80 42q-58 -1 -96 -52.5t-38 -125.5q0 -48 24 -73.5t55 -25.5z" />
    <glyph glyph-name="sterling" unicode="&#xa3;" horiz-adv-x="516" 
d="M15 0l15 121h56l24 197h-47l11 92h47l7 54q15 121 73 176t136 55q54 0 101 -27t74 -74l-77 -84q-16 29 -38.5 45t-44.5 16q-76 0 -91 -122l-5 -39h133l-11 -92h-132l-24 -197h251l-15 -121h-443z" />
    <glyph glyph-name="currency" unicode="&#xa4;" horiz-adv-x="470" 
d="M421 411q0 -67 -38 -122l61 -79l-64 -58l-62 78q-41 -23 -90 -23q-48 0 -84 22l-76 -76l-54 58l79 78q-13 27 -13 66q0 76 39 132l-62 77l66 58l60 -75q41 23 89 23q49 0 85 -25l77 78l54 -58l-81 -81q14 -33 14 -73zM239 294q41 0 68 31.5t27 74.5q0 38 -20.5 61
t-51.5 23q-41 0 -68 -33t-27 -80q0 -35 19.5 -56t52.5 -21z" />
    <glyph glyph-name="yen" unicode="&#xa5;" horiz-adv-x="551" 
d="M599 687l-203 -324h92l-9 -76h-130l-7 -59h130l-10 -76h-130l-19 -152h-138l19 152h-134l9 76h135l7 59h-134l9 76h97l-121 324h154l79 -266h3l141 266h160z" />
    <glyph glyph-name="brokenbar" unicode="&#xa6;" horiz-adv-x="323" 
d="M126 385l43 352h106l-43 -352h-106zM65 -114l43 352h106l-43 -352h-106z" />
    <glyph glyph-name="section" unicode="&#xa7;" horiz-adv-x="514" 
d="M321 436q81 -39 104 -59q41 -37 41 -95q0 -99 -86 -145q39 -36 39 -96q0 -86 -58.5 -140t-149.5 -54q-123 0 -196 97l80 85q24 -34 57 -50.5t62 -16.5q31 0 50.5 18.5t19.5 45.5q0 24 -19.5 39t-75.5 42q-64 31 -97.5 64t-33.5 93q0 96 85 140q-41 39 -41 101
q0 81 56.5 132t142.5 51q55 0 106.5 -22.5t80.5 -57.5l-78 -86q-51 48 -105 48q-33 0 -50 -15.5t-17 -41.5q0 -21 17 -36.5t66 -40.5zM260 205q5 -2 14 -6.5l13 -6.5q52 16 52 70q0 23 -16 37t-67 38l-23 11q-23 -6 -35.5 -25.5t-12.5 -42.5t16 -38t59 -37z" />
    <glyph glyph-name="dieresis" unicode="&#xa8;" horiz-adv-x="479" 
d="M183 537q-34 0 -56.5 22.5t-22.5 55.5q0 35 23 57.5t59 22.5q34 0 56.5 -22t22.5 -55q0 -35 -23 -58t-59 -23zM385 537q-35 0 -57.5 22.5t-22.5 55.5q0 35 23.5 57.5t59.5 22.5q34 0 56.5 -22t22.5 -55q0 -35 -23 -58t-59 -23z" />
    <glyph glyph-name="copyright" unicode="&#xa9;" horiz-adv-x="722" 
d="M359 -1q-132 0 -224.5 94t-92.5 226q0 131 93 225.5t225 94.5q133 0 225 -94t92 -226t-92.5 -226t-225.5 -94zM359 83q98 0 165.5 69t67.5 167t-67 166.5t-165 68.5q-99 0 -166 -69.5t-67 -167.5q0 -97 67 -165.5t165 -68.5zM366 153q-70 0 -117.5 43t-47.5 120
q0 70 44 117t121 47q78 0 130 -62l-55 -47q-31 37 -75 37q-37 0 -61.5 -25t-24.5 -67q0 -39 23.5 -64.5t62.5 -25.5q47 0 75 36l55 -48q-50 -61 -130 -61z" />
    <glyph glyph-name="ordfeminine" unicode="&#xaa;" horiz-adv-x="364" 
d="M158 388q-42 0 -71 31.5t-29 90.5q0 76 45 129t107 53q42 0 65 -25h2l3 20h87l-36 -294h-88l6 43h-3q-39 -48 -88 -48zM182 469q27 0 53 30.5t33 81.5l1 9q-14 20 -48 20q-31 0 -51.5 -30t-20.5 -67q0 -44 33 -44z" />
    <glyph glyph-name="guillemotleft" unicode="&#xab;" horiz-adv-x="489" 
d="M122 39l-81 208l134 211h119l-133 -211l81 -208h-120zM319 39l-82 208l135 211h118l-133 -211l80 -208h-118z" />
    <glyph glyph-name="logicalnot" unicode="&#xac;" horiz-adv-x="509" 
d="M337 148l20 161h-300l13 110h411l-33 -271h-111z" />
    <glyph glyph-name="registered" unicode="&#xae;" horiz-adv-x="722" 
d="M360 639q133 0 225 -94t92 -226t-92.5 -226t-225.5 -94q-132 0 -224.5 94t-92.5 226q0 131 93 225.5t225 94.5zM359 83q98 0 165.5 69t67.5 167t-67 166.5t-165 68.5q-99 0 -166 -69.5t-67 -167.5q0 -97 67 -165.5t165 -68.5zM485 372q0 -73 -60 -98l76 -115h-86l-67 105
h-30v-105h-72v324h125q57 0 85.5 -30.5t28.5 -80.5zM319 416v-86h35q26 0 40 11.5t14 31.5q0 19 -13.5 31t-38.5 12h-37z" />
    <glyph glyph-name="macron" unicode="&#xaf;" horiz-adv-x="399" 
d="M100 563l12 102h279l-13 -102h-278z" />
    <glyph glyph-name="degree" unicode="&#xb0;" horiz-adv-x="371" 
d="M209 441q-55 0 -86 31t-31 83q0 68 42.5 115.5t108.5 47.5q52 0 85 -33t33 -88q0 -64 -42.5 -110t-109.5 -46zM218 520q27 0 45 20t18 49q0 23 -12.5 37t-34.5 14q-27 0 -44.5 -21t-17.5 -53q0 -46 46 -46z" />
    <glyph glyph-name="plusminus" unicode="&#xb1;" horiz-adv-x="549" 
d="M212 176l21 180h-157l14 112h158l21 181h114l-23 -181h158l-14 -112h-158l-22 -180h-112zM32 -2l14 112h428l-13 -112h-429z" />
    <glyph glyph-name="uni00B2" unicode="&#xb2;" horiz-adv-x="313" 
d="M48 436l6 67l128 130q20 22 30 33.5t20 30t10 34.5q0 30 -28 30q-31 0 -59 -40l-71 58q23 34 60.5 55t82.5 21q53 0 85.5 -30t32.5 -79q0 -45 -19 -79.5t-60 -76.5l-62 -61l1 -2h118l-11 -91h-264z" />
    <glyph glyph-name="uni00B3" unicode="&#xb3;" horiz-adv-x="319" 
d="M186 429q-54 0 -91 28.5t-46 71.5l93 31q6 -43 38 -43q22 0 36 17.5t14 41.5q0 33 -39 33h-26l9 74h28q19 0 32.5 16.5t13.5 37.5q0 13 -7.5 20.5t-19.5 7.5q-33 0 -48 -37l-79 49q16 34 52.5 56t79.5 22q53 0 85.5 -27t32.5 -75q0 -69 -58 -104v-2q48 -26 48 -83
q0 -62 -42 -98.5t-106 -36.5z" />
    <glyph glyph-name="acute" unicode="&#xb4;" horiz-adv-x="447" 
d="M159 536l119 146l134 1l-129 -147h-124z" />
    <glyph glyph-name="uni00B5" unicode="&#xb5;" horiz-adv-x="563" 
d="M514 104l18 -87q-36 -26 -92 -26q-85 0 -98 82h-1q-50 -82 -121 -82q-47 0 -69 32l-2 -1q7 -67 0 -119l-13 -101h-125l84 687h126l-35 -281q-12 -102 50 -102q39 0 71.5 35.5t41.5 104.5l29 243h127l-41 -335q-5 -30 0 -41t24 -11q8 0 26 2z" />
    <glyph glyph-name="paragraph" unicode="&#xb6;" horiz-adv-x="526" 
d="M315 -152l91 740h-57l-72 -588h-79l39 303q-76 1 -123 41t-47 110q0 90 62 153t169 63h194l-101 -822h-76z" />
    <glyph glyph-name="periodcentered" unicode="&#xb7;" horiz-adv-x="278" 
d="M147 165q-35 0 -56.5 22t-21.5 55q0 35 22.5 58t58.5 23q34 0 56 -22t22 -56q0 -35 -22.5 -57.5t-58.5 -22.5z" />
    <glyph glyph-name="cedilla" unicode="&#xb8;" horiz-adv-x="294" 
d="M62 -192q-21 0 -51 6l3 58q15 -6 37 -6q56 0 56 36q0 25 -67 25l2 37l25 42h70l-25 -36l1 -1q75 -3 75 -67q0 -45 -34 -69.5t-92 -24.5z" />
    <glyph glyph-name="uni00B9" unicode="&#xb9;" horiz-adv-x="272" 
d="M212 848h78l-51 -412h-100l36 282l-57 -39l-41 77z" />
    <glyph glyph-name="ordmasculine" unicode="&#xba;" horiz-adv-x="332" 
d="M184 389q-57 0 -90.5 32.5t-33.5 92.5q0 74 43 126t119 52q55 0 89 -31t34 -92q0 -74 -41.5 -127t-119.5 -53zM190 470q26 0 45 27t19 64q0 27 -12.5 38.5t-26.5 11.5q-27 0 -45.5 -27t-18.5 -61q0 -24 11 -38.5t28 -14.5z" />
    <glyph glyph-name="guillemotright" unicode="&#xbb;" horiz-adv-x="488" 
d="M-1 39l133 208l-82 211h119l83 -211l-132 -208h-121zM198 39l132 208l-81 211h119l83 -211l-133 -208h-120z" />
    <glyph glyph-name="onequarter" unicode="&#xbc;" horiz-adv-x="748" 
d="M520 728l96 -45l-371 -706l-95 44zM228 299h-100l36 282l-57 -39l-41 77l135 92h78zM673 149h48l-10 -86h-49l-7 -63h-101l8 63h-145l6 61l203 288h79zM524 141h63l16 121z" />
    <glyph glyph-name="onehalf" unicode="&#xbd;" horiz-adv-x="784" 
d="M520 728l96 -45l-371 -706l-95 44zM228 299h-100l36 282l-57 -39l-41 77l135 92h78zM626 93l1 -2h118l-11 -91h-264l6 67l128 130q20 22 30 33.5t20 30t10 34.5q0 30 -28 30q-31 0 -59 -40l-71 58q23 34 60.5 55t82.5 21q53 0 85.5 -30t32.5 -79q0 -45 -19 -79.5
t-60 -76.5z" />
    <glyph glyph-name="threequarters" unicode="&#xbe;" horiz-adv-x="779" 
d="M549 728l96 -45l-371 -706l-95 44zM323 427q0 -62 -42 -98.5t-106 -36.5q-54 0 -91 28.5t-46 71.5l93 31q6 -43 38 -43q22 0 36 17.5t14 41.5q0 33 -39 33h-26l9 74h28q19 0 32.5 16.5t13.5 37.5q0 13 -7.5 20.5t-19.5 7.5q-33 0 -48 -37l-79 49q16 34 52.5 56t79.5 22
q53 0 85.5 -27t32.5 -75q0 -69 -58 -104v-2q48 -26 48 -83zM705 149h48l-10 -86h-49l-7 -63h-101l8 63h-145l6 61l203 288h79zM556 141h63l16 121z" />
    <glyph glyph-name="questiondown" unicode="&#xbf;" horiz-adv-x="418" 
d="M267 497q35 0 56.5 -22t21.5 -55q0 -35 -22.5 -58t-58.5 -23q-34 0 -56 22t-22 56q0 35 22.5 57.5t58.5 22.5zM312 258l-5 -46q-3 -26 -18 -53t-28.5 -42.5t-47.5 -51.5q-35 -37 -53 -66t-18 -66q0 -32 16 -50t45 -18q48 0 90 53l81 -81q-34 -44 -88.5 -69t-115.5 -25
q-73 0 -121.5 42t-48.5 119q0 104 107 203q74 68 81 106l10 45h114z" />
    <glyph glyph-name="Agrave" unicode="&#xc0;" horiz-adv-x="642" 
d="M330 769l-96 135l134 -1l83 -134h-121zM-12 0l322 710h136l149 -710h-142l-26 144h-237l-61 -144h-141zM237 261h170l-51 281h-2z" />
    <glyph glyph-name="Aacute" unicode="&#xc1;" horiz-adv-x="642" 
d="M330 769l115 134l136 1l-130 -135h-121zM-12 0l322 710h136l149 -710h-142l-26 144h-237l-61 -144h-141zM237 261h170l-51 281h-2z" />
    <glyph glyph-name="Acircumflex" unicode="&#xc2;" horiz-adv-x="642" 
d="M231 769l115 135h125l79 -135h-113l-37 66h-3l-54 -66h-112zM-12 0l322 710h136l149 -710h-142l-26 144h-237l-61 -144h-141zM237 261h170l-51 281h-2z" />
    <glyph glyph-name="Atilde" unicode="&#xc3;" horiz-adv-x="642" 
d="M472 768q-34 0 -78 31q-28 21 -45 21q-33 0 -57 -53l-75 38q51 103 121 103q8 0 15.5 -0.5t14.5 -3t11 -3.5t11 -5t8.5 -5t9.5 -6l7 -5q30 -22 45 -22q35 0 59 51l74 -29q-21 -51 -52.5 -81.5t-68.5 -30.5zM-12 0l322 710h136l149 -710h-142l-26 144h-237l-61 -144h-141z
M237 261h170l-51 281h-2z" />
    <glyph glyph-name="Adieresis" unicode="&#xc4;" horiz-adv-x="642" 
d="M296 767q-34 0 -56.5 22.5t-22.5 55.5q0 35 23 57.5t59 22.5q34 0 56.5 -22t22.5 -55q0 -35 -23 -58t-59 -23zM498 767q-35 0 -57.5 22.5t-22.5 55.5q0 35 23.5 57.5t59.5 22.5q34 0 56.5 -22t22.5 -55q0 -35 -23 -58t-59 -23zM-12 0l322 710h136l149 -710h-142l-26 144
h-237l-61 -144h-141zM237 261h170l-51 281h-2z" />
    <glyph glyph-name="Aring" unicode="&#xc5;" horiz-adv-x="642" 
d="M397 756q-44 0 -73.5 29.5t-29.5 73.5q0 46 30.5 76t76.5 30q44 0 73.5 -29t29.5 -73q0 -46 -30.5 -76.5t-76.5 -30.5zM399 823q16 0 27 11t11 27t-10.5 26.5t-26.5 10.5t-27 -11t-11 -27t10.5 -26.5t26.5 -10.5zM-12 0l322 710h136l149 -710h-142l-26 144h-237l-61 -144
h-141zM237 261h170l-51 281h-2z" />
    <glyph glyph-name="AE" unicode="&#xc6;" horiz-adv-x="872" 
d="M-26 0l400 710h488l-15 -122h-283l-23 -175h231l-15 -120h-230l-21 -171h302l-15 -122h-434l18 144h-177l-79 -144h-147zM262 261h130l36 301h-2z" />
    <glyph glyph-name="Ccedilla" unicode="&#xc7;" horiz-adv-x="669" 
d="M355 121q43 0 85.5 22t72.5 59l99 -89q-103 -118 -253 -122l-15 -21l1 -1q75 -3 75 -67q0 -45 -34 -69.5t-92 -24.5q-21 0 -51 6l3 58q15 -6 37 -6q56 0 56 36q0 25 -67 25l2 37l18 31q-106 16 -169 91.5t-63 203.5q0 180 104 304.5t268 124.5q157 0 246 -149l-111 -81
q-53 100 -142 100q-98 0 -160.5 -89.5t-62.5 -207.5q0 -81 40 -126t113 -45z" />
    <glyph glyph-name="Egrave" unicode="&#xc8;" horiz-adv-x="563" 
d="M335 768l-96 135l134 -1l83 -134h-121zM51 0l87 710h415l-16 -122h-280l-21 -176h224l-15 -120h-224l-21 -170h299l-15 -122h-433z" />
    <glyph glyph-name="Eacute" unicode="&#xc9;" horiz-adv-x="563" 
d="M256 768l115 134l136 1l-130 -135h-121zM51 0l87 710h415l-16 -122h-280l-21 -176h224l-15 -120h-224l-21 -170h299l-15 -122h-433z" />
    <glyph glyph-name="Ecircumflex" unicode="&#xca;" horiz-adv-x="563" 
d="M198 768l115 135h125l79 -135h-113l-37 66h-3l-54 -66h-112zM51 0l87 710h415l-16 -122h-280l-21 -176h224l-15 -120h-224l-21 -170h299l-15 -122h-433z" />
    <glyph glyph-name="Edieresis" unicode="&#xcb;" horiz-adv-x="563" 
d="M263 766q-34 0 -56.5 22.5t-22.5 55.5q0 35 23 57.5t59 22.5q34 0 56.5 -22t22.5 -55q0 -35 -23 -58t-59 -23zM465 766q-35 0 -57.5 22.5t-22.5 55.5q0 35 23.5 57.5t59.5 22.5q34 0 56.5 -22t22.5 -55q0 -35 -23 -58t-59 -23zM51 0l87 710h415l-16 -122h-280l-21 -176
h224l-15 -120h-224l-21 -170h299l-15 -122h-433z" />
    <glyph glyph-name="Igrave" unicode="&#xcc;" horiz-adv-x="310" 
d="M163 769l-96 135l134 -1l83 -134h-121zM56 0l87 710h138l-87 -710h-138z" />
    <glyph glyph-name="Iacute" unicode="&#xcd;" horiz-adv-x="310" 
d="M161 769l115 134l136 1l-130 -135h-121zM56 0l87 710h138l-87 -710h-138z" />
    <glyph glyph-name="Icircumflex" unicode="&#xce;" horiz-adv-x="310" 
d="M59 768l115 135h125l79 -135h-113l-37 66h-3l-54 -66h-112zM56 0l87 710h138l-87 -710h-138z" />
    <glyph glyph-name="Idieresis" unicode="&#xcf;" horiz-adv-x="310" 
d="M124 766q-34 0 -56.5 22.5t-22.5 55.5q0 35 23 57.5t59 22.5q34 0 56.5 -22t22.5 -55q0 -35 -23 -58t-59 -23zM326 766q-35 0 -57.5 22.5t-22.5 55.5q0 35 23.5 57.5t59.5 22.5q34 0 56.5 -22t22.5 -55q0 -35 -23 -58t-59 -23zM56 0l87 710h138l-87 -710h-138z" />
    <glyph glyph-name="Eth" unicode="&#xd0;" horiz-adv-x="683" 
d="M358 710q143 0 217.5 -78t74.5 -216q0 -188 -102 -302t-277 -114h-217l36 294h-53l16 115h51l37 301h217zM285 122q103 0 163 82t60 211q0 81 -41.5 127t-121.5 46h-85l-22 -179h129l-16 -115h-127l-21 -172h82z" />
    <glyph glyph-name="Ntilde" unicode="&#xd1;" horiz-adv-x="707" 
d="M507 768q-34 0 -78 31q-28 21 -45 21q-33 0 -57 -53l-75 38q51 103 121 103q8 0 15.5 -0.5t14.5 -3t11 -3.5t11 -5t8.5 -5t8.5 -6l8 -5q30 -22 45 -22q35 0 59 51l74 -29q-21 -51 -52.5 -81.5t-68.5 -30.5zM52 0l87 710h132l216 -481l3 2l59 479h134l-88 -710h-135
l-213 472h-3l-58 -472h-134z" />
    <glyph glyph-name="Ograve" unicode="&#xd2;" horiz-adv-x="754" 
d="M400 769l-96 135l134 -1l83 -134h-121zM346 -9q-131 0 -208.5 80t-77.5 221q0 113 45.5 209.5t132 157t196.5 60.5q130 0 208.5 -79.5t78.5 -219.5q0 -180 -102 -304.5t-273 -124.5zM357 119q96 0 159 87.5t63 207.5q0 88 -42.5 133t-116.5 45q-93 0 -156 -89.5
t-63 -205.5q0 -88 42 -133t114 -45z" />
    <glyph glyph-name="Oacute" unicode="&#xd3;" horiz-adv-x="754" 
d="M388 769l115 134l136 1l-130 -135h-121zM346 -9q-131 0 -208.5 80t-77.5 221q0 113 45.5 209.5t132 157t196.5 60.5q130 0 208.5 -79.5t78.5 -219.5q0 -180 -102 -304.5t-273 -124.5zM357 119q96 0 159 87.5t63 207.5q0 88 -42.5 133t-116.5 45q-93 0 -156 -89.5
t-63 -205.5q0 -88 42 -133t114 -45z" />
    <glyph glyph-name="Ocircumflex" unicode="&#xd4;" horiz-adv-x="754" 
d="M307 769l115 135h125l79 -135h-113l-37 66h-3l-54 -66h-112zM346 -9q-131 0 -208.5 80t-77.5 221q0 113 45.5 209.5t132 157t196.5 60.5q130 0 208.5 -79.5t78.5 -219.5q0 -180 -102 -304.5t-273 -124.5zM357 119q96 0 159 87.5t63 207.5q0 88 -42.5 133t-116.5 45
q-93 0 -156 -89.5t-63 -205.5q0 -88 42 -133t114 -45z" />
    <glyph glyph-name="Otilde" unicode="&#xd5;" horiz-adv-x="754" 
d="M548 768q-34 0 -78 31q-28 21 -45 21q-33 0 -57 -53l-75 38q51 103 121 103q8 0 15.5 -0.5t14.5 -3t11 -3.5t11 -5t8.5 -5t9.5 -6l7 -5q30 -22 45 -22q35 0 59 51l74 -29q-21 -51 -52.5 -81.5t-68.5 -30.5zM346 -9q-131 0 -208.5 80t-77.5 221q0 113 45.5 209.5t132 157
t196.5 60.5q130 0 208.5 -79.5t78.5 -219.5q0 -180 -102 -304.5t-273 -124.5zM357 119q96 0 159 87.5t63 207.5q0 88 -42.5 133t-116.5 45q-93 0 -156 -89.5t-63 -205.5q0 -88 42 -133t114 -45z" />
    <glyph glyph-name="Odieresis" unicode="&#xd6;" horiz-adv-x="754" 
d="M372 767q-34 0 -56.5 22.5t-22.5 55.5q0 35 23 57.5t59 22.5q34 0 56.5 -22t22.5 -55q0 -35 -23 -58t-59 -23zM574 767q-35 0 -57.5 22.5t-22.5 55.5q0 35 23.5 57.5t59.5 22.5q34 0 56.5 -22t22.5 -55q0 -35 -23 -58t-59 -23zM346 -9q-131 0 -208.5 80t-77.5 221
q0 113 45.5 209.5t132 157t196.5 60.5q130 0 208.5 -79.5t78.5 -219.5q0 -180 -102 -304.5t-273 -124.5zM357 119q96 0 159 87.5t63 207.5q0 88 -42.5 133t-116.5 45q-93 0 -156 -89.5t-63 -205.5q0 -88 42 -133t114 -45z" />
    <glyph glyph-name="multiply" unicode="&#xd7;" horiz-adv-x="494" 
d="M107 62l-72 78l137 137l-104 138l89 78l102 -137l136 137l73 -78l-138 -139l103 -137l-87 -77l-103 137z" />
    <glyph glyph-name="Oslash" unicode="&#xd8;" horiz-adv-x="756" 
d="M752 681l-76 -81q47 -74 47 -180q0 -180 -102 -304.5t-273 -124.5q-115 0 -189 62l-79 -84l-60 61l84 88q-42 73 -42 174q0 113 45.5 209.5t132 157t196.5 60.5q109 0 183 -57l73 78zM203 297q0 -34 8 -66l312 330q-38 31 -101 31q-93 0 -156 -89.5t-63 -205.5zM581 414
q0 40 -10 75l-316 -335q41 -35 104 -35q96 0 159 87.5t63 207.5z" />
    <glyph glyph-name="Ugrave" unicode="&#xd9;" horiz-adv-x="669" 
d="M344 769l-96 135l134 -1l83 -134h-121zM306 -9q-132 0 -188.5 85t-38.5 233l50 401h136l-50 -405q-11 -84 12 -134.5t88 -50.5q130 0 152 175l51 415h136l-51 -416q-19 -158 -92 -230.5t-205 -72.5z" />
    <glyph glyph-name="Uacute" unicode="&#xda;" horiz-adv-x="669" 
d="M331 769l115 134l136 1l-130 -135h-121zM306 -9q-132 0 -188.5 85t-38.5 233l50 401h136l-50 -405q-11 -84 12 -134.5t88 -50.5q130 0 152 175l51 415h136l-51 -416q-19 -158 -92 -230.5t-205 -72.5z" />
    <glyph glyph-name="Ucircumflex" unicode="&#xdb;" horiz-adv-x="669" 
d="M244 769l115 135h125l79 -135h-113l-37 66h-3l-54 -66h-112zM306 -9q-132 0 -188.5 85t-38.5 233l50 401h136l-50 -405q-11 -84 12 -134.5t88 -50.5q130 0 152 175l51 415h136l-51 -416q-19 -158 -92 -230.5t-205 -72.5z" />
    <glyph glyph-name="Udieresis" unicode="&#xdc;" horiz-adv-x="669" 
d="M309 767q-34 0 -56.5 22.5t-22.5 55.5q0 35 23 57.5t59 22.5q34 0 56.5 -22t22.5 -55q0 -35 -23 -58t-59 -23zM511 767q-35 0 -57.5 22.5t-22.5 55.5q0 35 23.5 57.5t59.5 22.5q34 0 56.5 -22t22.5 -55q0 -35 -23 -58t-59 -23zM306 -9q-132 0 -188.5 85t-38.5 233l50 401
h136l-50 -405q-11 -84 12 -134.5t88 -50.5q130 0 152 175l51 415h136l-51 -416q-19 -158 -92 -230.5t-205 -72.5z" />
    <glyph glyph-name="Yacute" unicode="&#xdd;" horiz-adv-x="581" 
d="M288 769l115 134l136 1l-130 -135h-121zM191 0l39 312l-163 398h150l94 -269h3l160 269h157l-264 -398l-39 -312h-137z" />
    <glyph glyph-name="Thorn" unicode="&#xde;" horiz-adv-x="605" 
d="M52 0l87 710h135l-16 -125h124q199 0 199 -193q0 -125 -73.5 -198t-207.5 -73h-99l-14 -121h-135zM216 242h97q58 0 92.5 38t34.5 104q0 38 -24.5 59t-63.5 21h-109z" />
    <glyph glyph-name="germandbls" unicode="&#xdf;" horiz-adv-x="625" 
d="M414 -9q-55 0 -105 22.5t-79 61.5l79 78q44 -58 103 -58q26 0 43.5 12.5t17.5 31.5q0 15 -13 26t-51 32l-3 1.5l-3 1.5t-3 2q-57 32 -86.5 63.5t-29.5 78.5q0 23 10.5 45t20.5 33.5t33 34t30 29.5q44 44 44 88q1 27 -20.5 43t-58.5 16q-102 0 -117 -116l-63 -517h-127
l65 530q13 108 76.5 161.5t159.5 53.5q102 0 158 -44.5t54 -122.5q0 -45 -20 -77t-57 -65q-3 -3 -11.5 -10t-12 -10t-10 -9t-9.5 -9.5t-7 -9t-6 -9t-3.5 -8.5t-1.5 -9q0 -25 61 -63q32 -19 41.5 -24.5t32 -22t30 -28.5t15 -31.5t7.5 -43.5q0 -76 -50.5 -117t-133.5 -41z" />
    <glyph glyph-name="agrave" unicode="&#xe0;" horiz-adv-x="558" 
d="M280 557l-93 147l134 -1l82 -146h-123zM198 -9q-80 0 -122 56t-42 143q0 125 67.5 215.5t168.5 90.5q80 0 122 -45l3 1l5 36h127l-60 -488h-127l10 82l-3 1q-64 -92 -149 -92zM231 104q49 0 93.5 61t57.5 160l2 16q-41 41 -98 41q-55 0 -89.5 -58t-34.5 -130
q0 -42 18 -66t51 -24z" />
    <glyph glyph-name="aacute" unicode="&#xe1;" horiz-adv-x="558" 
d="M249 556l119 146l134 1l-129 -147h-124zM198 -9q-80 0 -122 56t-42 143q0 125 67.5 215.5t168.5 90.5q80 0 122 -45l3 1l5 36h127l-60 -488h-127l10 82l-3 1q-64 -92 -149 -92zM231 104q49 0 93.5 61t57.5 160l2 16q-41 41 -98 41q-55 0 -89.5 -58t-34.5 -130
q0 -42 18 -66t51 -24z" />
    <glyph glyph-name="acircumflex" unicode="&#xe2;" horiz-adv-x="558" 
d="M166 554l116 149h116l85 -149h-116l-30 75h-2l-49 -75h-120zM198 -9q-80 0 -122 56t-42 143q0 125 67.5 215.5t168.5 90.5q80 0 122 -45l3 1l5 36h127l-60 -488h-127l10 82l-3 1q-64 -92 -149 -92zM231 104q49 0 93.5 61t57.5 160l2 16q-41 41 -98 41q-55 0 -89.5 -58
t-34.5 -130q0 -42 18 -66t51 -24z" />
    <glyph glyph-name="atilde" unicode="&#xe3;" horiz-adv-x="558" 
d="M407 552q-11 0 -20.5 2t-18 6t-13.5 7t-13.5 9t-10.5 7q-27 20 -45 20q-36 0 -60 -52l-75 38q48 112 123 112q11 0 21 -1.5t18 -5.5t12.5 -6.5t12.5 -8t10 -6.5q31 -22 45 -22q36 0 60 52l75 -30q-21 -57 -52.5 -89t-68.5 -32zM198 -9q-80 0 -122 56t-42 143
q0 125 67.5 215.5t168.5 90.5q80 0 122 -45l3 1l5 36h127l-60 -488h-127l10 82l-3 1q-64 -92 -149 -92zM231 104q49 0 93.5 61t57.5 160l2 16q-41 41 -98 41q-55 0 -89.5 -58t-34.5 -130q0 -42 18 -66t51 -24z" />
    <glyph glyph-name="adieresis" unicode="&#xe4;" horiz-adv-x="558" 
d="M233 557q-34 0 -56.5 22.5t-22.5 55.5q0 35 23 57.5t59 22.5q34 0 56.5 -22t22.5 -55q0 -35 -23 -58t-59 -23zM435 557q-35 0 -57.5 22.5t-22.5 55.5q0 35 23.5 57.5t59.5 22.5q34 0 56.5 -22t22.5 -55q0 -35 -23 -58t-59 -23zM198 -9q-80 0 -122 56t-42 143
q0 125 67.5 215.5t168.5 90.5q80 0 122 -45l3 1l5 36h127l-60 -488h-127l10 82l-3 1q-64 -92 -149 -92zM231 104q49 0 93.5 61t57.5 160l2 16q-41 41 -98 41q-55 0 -89.5 -58t-34.5 -130q0 -42 18 -66t51 -24z" />
    <glyph glyph-name="aring" unicode="&#xe5;" horiz-adv-x="558" 
d="M336 539q-44 0 -73.5 29.5t-29.5 73.5q0 46 30.5 76t76.5 30q44 0 73.5 -29t29.5 -73q0 -46 -30.5 -76.5t-76.5 -30.5zM338 606q16 0 27 11t11 27t-10.5 26.5t-26.5 10.5t-27 -11t-11 -27t10.5 -26.5t26.5 -10.5zM198 -9q-80 0 -122 56t-42 143q0 125 67.5 215.5
t168.5 90.5q80 0 122 -45l3 1l5 36h127l-60 -488h-127l10 82l-3 1q-64 -92 -149 -92zM231 104q49 0 93.5 61t57.5 160l2 16q-41 41 -98 41q-55 0 -89.5 -58t-34.5 -130q0 -42 18 -66t51 -24z" />
    <glyph glyph-name="ae" unicode="&#xe6;" horiz-adv-x="693" 
d="M481 103q50 0 89 50l96 -64q-74 -96 -190 -96q-128 0 -166 99q-49 -101 -143 -101q-68 0 -108.5 51t-38.5 133q2 131 73 222.5t187 91.5q72 0 121 -30q55 37 129 37q64 0 108.5 -35t44.5 -95q0 -81 -79.5 -130.5t-211.5 -61.5q7 -35 31.5 -53t57.5 -18zM517 386
q-35 0 -70.5 -34.5t-49.5 -91.5q161 23 161 96q0 12 -10.5 21t-30.5 9zM188 101q18 0 34 15.5t28.5 47.5t19.5 53.5t17 59.5q14 56 39 100q-16 3 -30 3q-66 0 -107 -62.5t-41 -147.5q0 -33 11.5 -51t28.5 -18z" />
    <glyph glyph-name="ccedilla" unicode="&#xe7;" horiz-adv-x="487" 
d="M247 107q55 0 99 50l99 -67q-78 -93 -189 -98l-16 -22l1 -1q75 -3 75 -67q0 -45 -34 -69.5t-92 -24.5q-21 0 -51 6l3 58q15 -6 37 -6q56 0 56 36q0 25 -67 25l2 37l19 32q-73 14 -113 66t-40 140q0 122 69.5 208t188.5 86q125 0 182 -85l-98 -74q-28 45 -84 45
q-57 0 -93.5 -50.5t-36.5 -122.5q0 -50 23 -76t60 -26z" />
    <glyph glyph-name="egrave" unicode="&#xe8;" horiz-adv-x="478" 
d="M380 557h-123l-93 147l134 -1zM244 102q56 0 101 51l97 -63q-43 -50 -90.5 -74t-115.5 -24q-92 0 -146.5 54.5t-54.5 149.5q0 126 71.5 213t189.5 87q66 0 114 -35t48 -98q-1 -156 -298 -188q6 -36 29.5 -54.5t54.5 -18.5zM288 386q-39 0 -74 -31.5t-49 -90.5
q167 19 168 87q0 35 -45 35z" />
    <glyph glyph-name="eacute" unicode="&#xe9;" horiz-adv-x="478" 
d="M486 703l-129 -147h-124l119 146zM458 363q-1 -156 -298 -188q6 -36 29.5 -54.5t54.5 -18.5q56 0 101 51l97 -63q-43 -50 -90.5 -74t-115.5 -24q-92 0 -146.5 54.5t-54.5 149.5q0 126 71.5 213t189.5 87q66 0 114 -35t48 -98zM165 264q167 19 168 87q0 35 -45 35
q-39 0 -74 -31.5t-49 -90.5z" />
    <glyph glyph-name="ecircumflex" unicode="&#xea;" horiz-adv-x="478" 
d="M300 629l-49 -75h-120l116 149h116l85 -149h-116l-30 75h-2zM244 102q56 0 101 51l97 -63q-43 -50 -90.5 -74t-115.5 -24q-92 0 -146.5 54.5t-54.5 149.5q0 126 71.5 213t189.5 87q66 0 114 -35t48 -98q-1 -156 -298 -188q6 -36 29.5 -54.5t54.5 -18.5zM288 386
q-39 0 -74 -31.5t-49 -90.5q167 19 168 87q0 35 -45 35z" />
    <glyph glyph-name="edieresis" unicode="&#xeb;" horiz-adv-x="478" 
d="M198 557q-34 0 -56.5 22.5t-22.5 55.5q0 35 23 57.5t59 22.5q34 0 56.5 -22t22.5 -55q0 -35 -23 -58t-59 -23zM403 715q34 0 56.5 -22t22.5 -55q0 -35 -23 -58t-59 -23q-35 0 -57.5 22.5t-22.5 55.5q0 35 23.5 57.5t59.5 22.5zM458 363q-1 -156 -298 -188
q6 -36 29.5 -54.5t54.5 -18.5q56 0 101 51l97 -63q-43 -50 -90.5 -74t-115.5 -24q-92 0 -146.5 54.5t-54.5 149.5q0 126 71.5 213t189.5 87q66 0 114 -35t48 -98zM165 264q167 19 168 87q0 35 -45 35q-39 0 -74 -31.5t-49 -90.5z" />
    <glyph glyph-name="igrave" unicode="&#xec;" horiz-adv-x="263" 
d="M106 563l-57 147l134 -1l47 -146h-124zM37 0l61 489h127l-60 -489h-128z" />
    <glyph glyph-name="iacute" unicode="&#xed;" horiz-adv-x="262" 
d="M111 556l119 146l134 1l-129 -147h-124zM37 0l61 489h127l-60 -489h-128z" />
    <glyph glyph-name="icircumflex" unicode="&#xee;" horiz-adv-x="262" 
d="M13 554l116 149h116l85 -149h-116l-30 75h-2l-49 -75h-120zM37 0l61 489h127l-60 -489h-128z" />
    <glyph glyph-name="idieresis" unicode="&#xef;" horiz-adv-x="262" 
d="M222 714q30 0 51.5 -21.5t21.5 -54.5q0 -34 -22 -57.5t-54 -23.5q-19 0 -36 9q-17 -9 -36 -9q-32 0 -53.5 22.5t-21.5 55.5q0 34 22.5 56.5t55.5 22.5q18 0 35 -9q16 9 37 9zM37 0l61 489h127l-60 -489h-128z" />
    <glyph glyph-name="eth" unicode="&#xf0;" horiz-adv-x="540" 
d="M451 547q57 -101 56 -232q-1 -89 -27 -159.5t-86.5 -117t-149.5 -46.5q-95 0 -151.5 55.5t-56.5 148.5q0 116 69.5 197.5t165.5 81.5q54 0 94 -26q-6 22 -19 47q-7 14 -15 26t-18.5 23.5t-17.5 19.5t-21.5 19t-20 16t-23.5 16t-21.5 13t-23.5 13.5t-21 12.5l56 87
q72 -30 126 -72l74 90l68 -63l-77 -91q23 -29 40 -59zM247 106q69 0 102.5 65.5t32.5 160.5v4q-33 28 -82 28q-58 0 -97.5 -46.5t-39.5 -110.5q0 -48 25 -74.5t59 -26.5z" />
    <glyph glyph-name="ntilde" unicode="&#xf1;" horiz-adv-x="552" 
d="M409 552q-11 0 -20.5 2t-18 6t-13.5 7t-13.5 9t-10.5 7q-27 20 -45 20q-36 0 -60 -52l-75 38q48 112 123 112q11 0 21 -1.5t18 -5.5t12.5 -6.5t12.5 -8t10 -6.5q31 -22 45 -22q36 0 60 52l75 -30q-21 -57 -52.5 -89t-68.5 -32zM35 0l61 489h126l-9 -78l2 -1q71 86 169 86
q75 0 103.5 -49t14.5 -151l-40 -296h-126l37 276q7 55 -1.5 80.5t-38.5 25.5q-44 0 -91 -57.5t-58 -143.5l-22 -181h-127z" />
    <glyph glyph-name="ograve" unicode="&#xf2;" horiz-adv-x="543" 
d="M257 557l-93 147l134 -1l82 -146h-123zM241 -9q-94 0 -149.5 55t-55.5 153q0 123 71.5 210t191.5 87q95 0 151.5 -53.5t56.5 -150.5q0 -130 -69.5 -215.5t-196.5 -85.5zM248 106q57 0 94 51.5t37 124.5q0 55 -27 77.5t-62 22.5q-56 0 -91.5 -52.5t-35.5 -119.5
q0 -47 23.5 -75.5t61.5 -28.5z" />
    <glyph glyph-name="oacute" unicode="&#xf3;" horiz-adv-x="543" 
d="M252 556l119 146l134 1l-129 -147h-124zM241 -9q-94 0 -149.5 55t-55.5 153q0 123 71.5 210t191.5 87q95 0 151.5 -53.5t56.5 -150.5q0 -130 -69.5 -215.5t-196.5 -85.5zM248 106q57 0 94 51.5t37 124.5q0 55 -27 77.5t-62 22.5q-56 0 -91.5 -52.5t-35.5 -119.5
q0 -47 23.5 -75.5t61.5 -28.5z" />
    <glyph glyph-name="ocircumflex" unicode="&#xf4;" horiz-adv-x="543" 
d="M157 554l116 149h116l85 -149h-116l-30 75h-2l-49 -75h-120zM241 -9q-94 0 -149.5 55t-55.5 153q0 123 71.5 210t191.5 87q95 0 151.5 -53.5t56.5 -150.5q0 -130 -69.5 -215.5t-196.5 -85.5zM248 106q57 0 94 51.5t37 124.5q0 55 -27 77.5t-62 22.5q-56 0 -91.5 -52.5
t-35.5 -119.5q0 -47 23.5 -75.5t61.5 -28.5z" />
    <glyph glyph-name="otilde" unicode="&#xf5;" horiz-adv-x="543" 
d="M398 552q-11 0 -20.5 2t-18 6t-13.5 7t-13.5 9t-10.5 7q-27 20 -45 20q-36 0 -60 -52l-75 38q48 112 123 112q11 0 21 -1.5t18 -5.5t12.5 -6.5t12.5 -8t10 -6.5q31 -22 45 -22q36 0 60 52l75 -30q-21 -57 -52.5 -89t-68.5 -32zM241 -9q-94 0 -149.5 55t-55.5 153
q0 123 71.5 210t191.5 87q95 0 151.5 -53.5t56.5 -150.5q0 -130 -69.5 -215.5t-196.5 -85.5zM248 106q57 0 94 51.5t37 124.5q0 55 -27 77.5t-62 22.5q-56 0 -91.5 -52.5t-35.5 -119.5q0 -47 23.5 -75.5t61.5 -28.5z" />
    <glyph glyph-name="odieresis" unicode="&#xf6;" horiz-adv-x="543" 
d="M224 557q-34 0 -56.5 22.5t-22.5 55.5q0 35 23 57.5t59 22.5q34 0 56.5 -22t22.5 -55q0 -35 -23 -58t-59 -23zM426 557q-35 0 -57.5 22.5t-22.5 55.5q0 35 23.5 57.5t59.5 22.5q34 0 56.5 -22t22.5 -55q0 -35 -23 -58t-59 -23zM241 -9q-94 0 -149.5 55t-55.5 153
q0 123 71.5 210t191.5 87q95 0 151.5 -53.5t56.5 -150.5q0 -130 -69.5 -215.5t-196.5 -85.5zM248 106q57 0 94 51.5t37 124.5q0 55 -27 77.5t-62 22.5q-56 0 -91.5 -52.5t-35.5 -119.5q0 -47 23.5 -75.5t61.5 -28.5z" />
    <glyph glyph-name="divide" unicode="&#xf7;" horiz-adv-x="529" 
d="M303 396q-33 0 -55 22t-22 54q0 34 22.5 56t56.5 22t56 -21.5t22 -53.5q0 -34 -23 -56.5t-57 -22.5zM62 221l14 112h428l-13 -112h-429zM256 -5q-33 0 -55 22t-22 54q0 34 22.5 56t56.5 22t56 -21.5t22 -53.5q0 -34 -23 -56.5t-57 -22.5z" />
    <glyph glyph-name="oslash" unicode="&#xf8;" horiz-adv-x="545" 
d="M529 462l-51 -54q29 -47 29 -116q0 -130 -69.5 -215.5t-196.5 -85.5q-75 0 -127 36l-49 -51l-48 48l50 53q-31 50 -31 122q0 123 71.5 210t191.5 87q80 0 133 -38l49 51zM163 210q0 -16 3 -30l178 186q-23 16 -54 16q-56 0 -91.5 -52.5t-35.5 -119.5zM379 282q0 15 -1 21
l-176 -183q20 -14 46 -14q57 0 94 51.5t37 124.5z" />
    <glyph glyph-name="ugrave" unicode="&#xf9;" horiz-adv-x="542" 
d="M253 557l-93 147l134 -1l82 -146h-123zM178 -9q-76 0 -109 46.5t-19 149.5l43 302h126l-38 -277q-9 -59 1 -82.5t41 -23.5q39 0 82.5 50.5t52.5 116.5l26 216h127l-60 -489h-126l9 80h-2q-63 -89 -154 -89z" />
    <glyph glyph-name="uacute" unicode="&#xfa;" horiz-adv-x="542" 
d="M246 556l119 146l134 1l-129 -147h-124zM178 -9q-76 0 -109 46.5t-19 149.5l43 302h126l-38 -277q-9 -59 1 -82.5t41 -23.5q39 0 82.5 50.5t52.5 116.5l26 216h127l-60 -489h-126l9 80h-2q-63 -89 -154 -89z" />
    <glyph glyph-name="ucircumflex" unicode="&#xfb;" horiz-adv-x="542" 
d="M152 554l116 149h116l85 -149h-116l-30 75h-2l-49 -75h-120zM178 -9q-76 0 -109 46.5t-19 149.5l43 302h126l-38 -277q-9 -59 1 -82.5t41 -23.5q39 0 82.5 50.5t52.5 116.5l26 216h127l-60 -489h-126l9 80h-2q-63 -89 -154 -89z" />
    <glyph glyph-name="udieresis" unicode="&#xfc;" horiz-adv-x="542" 
d="M219 557q-34 0 -56.5 22.5t-22.5 55.5q0 35 23 57.5t59 22.5q34 0 56.5 -22t22.5 -55q0 -35 -23 -58t-59 -23zM421 557q-35 0 -57.5 22.5t-22.5 55.5q0 35 23.5 57.5t59.5 22.5q34 0 56.5 -22t22.5 -55q0 -35 -23 -58t-59 -23zM178 -9q-76 0 -109 46.5t-19 149.5l43 302
h126l-38 -277q-9 -59 1 -82.5t41 -23.5q39 0 82.5 50.5t52.5 116.5l26 216h127l-60 -489h-126l9 80h-2q-63 -89 -154 -89z" />
    <glyph glyph-name="yacute" unicode="&#xfd;" horiz-adv-x="540" 
d="M489 703l-129 -147h-124l119 146zM385 489h125l-52 -426q-32 -269 -270 -269q-97 0 -172 47l40 103q64 -41 128 -41q63 0 99.5 34.5t49.5 131.5l1 10l-2 1q-64 -89 -157 -89q-155 0 -127 196l41 302h126l-37 -277q-7 -59 2.5 -82t40.5 -24q41 0 85.5 53t52.5 121z" />
    <glyph glyph-name="thorn" unicode="&#xfe;" horiz-adv-x="565" 
d="M11 -198l115 934h126l-41 -331l3 -2q62 93 160 93q75 0 116 -56.5t41 -142.5q0 -125 -68 -215.5t-171 -90.5q-77 0 -123 39l-3 -1l-28 -227h-127zM259 105q66 0 105 54t39 127q0 42 -17 69.5t-48 27.5q-52 0 -98.5 -60.5t-59.5 -157.5l-2 -19q26 -41 81 -41z" />
    <glyph glyph-name="ydieresis" unicode="&#xff;" horiz-adv-x="540" 
d="M216 557q-34 0 -56.5 22.5t-22.5 55.5q0 35 23 57.5t59 22.5q34 0 56.5 -22t22.5 -55q0 -35 -23 -58t-59 -23zM418 557q-35 0 -57.5 22.5t-22.5 55.5q0 35 23.5 57.5t59.5 22.5q34 0 56.5 -22t22.5 -55q0 -35 -23 -58t-59 -23zM385 489h125l-52 -426q-32 -269 -270 -269
q-97 0 -172 47l40 103q64 -41 128 -41q63 0 99.5 34.5t49.5 131.5l1 10l-2 1q-64 -89 -157 -89q-155 0 -127 196l41 302h126l-37 -277q-7 -59 2.5 -82t40.5 -24q41 0 85.5 53t52.5 121z" />
    <glyph glyph-name="Amacron" unicode="&#x100;" horiz-adv-x="642" 
d="M254 790l12 98h279l-13 -98h-278zM-12 0l322 710h136l149 -710h-142l-26 144h-237l-61 -144h-141zM237 261h170l-51 281h-2z" />
    <glyph glyph-name="amacron" unicode="&#x101;" horiz-adv-x="558" 
d="M190 583l12 102h279l-13 -102h-278zM198 -9q-80 0 -122 56t-42 143q0 125 67.5 215.5t168.5 90.5q80 0 122 -45l3 1l5 36h127l-60 -488h-127l10 82l-3 1q-64 -92 -149 -92zM231 104q49 0 93.5 61t57.5 160l2 16q-41 41 -98 41q-55 0 -89.5 -58t-34.5 -130q0 -42 18 -66
t51 -24z" />
    <glyph glyph-name="Abreve" unicode="&#x102;" horiz-adv-x="642" 
d="M392 762q-70 0 -104.5 37.5t-29.5 104.5h95q-3 -21 8.5 -36t36.5 -15t43.5 15.5t24.5 35.5h95q-13 -64 -57 -103t-112 -39zM-12 0l322 710h136l149 -710h-142l-26 144h-237l-61 -144h-141zM237 261h170l-51 281h-2z" />
    <glyph glyph-name="abreve" unicode="&#x103;" horiz-adv-x="558" 
d="M326 544q-69 0 -104 39.5t-29 112.5h95q-3 -25 8 -41t36 -16t44 16.5t25 40.5h95q-13 -70 -57.5 -111t-112.5 -41zM198 -9q-80 0 -122 56t-42 143q0 125 67.5 215.5t168.5 90.5q80 0 122 -45l3 1l5 36h127l-60 -488h-127l10 82l-3 1q-64 -92 -149 -92zM231 104
q49 0 93.5 61t57.5 160l2 16q-41 41 -98 41q-55 0 -89.5 -58t-34.5 -130q0 -42 18 -66t51 -24z" />
    <glyph glyph-name="Aogonek" unicode="&#x104;" horiz-adv-x="642" 
d="M582 0q-40 -6 -67.5 -32t-27.5 -54t27 -28q23 0 37 8l2 -72q-24 -11 -72 -11q-94 0 -94 76q0 65 66 114l-26 143h-237l-61 -144h-141l322 710h136l149 -710h-13zM237 261h170l-51 281h-2z" />
    <glyph glyph-name="aogonek" unicode="&#x105;" horiz-adv-x="558" 
d="M400 488h127l-60 -488h-6q-40 -6 -67.5 -32t-27.5 -54t27 -28q23 0 37 8l2 -72q-24 -11 -72 -11q-94 0 -94 76q0 34 21 66.5t54 53.5l9 75l-3 1q-64 -92 -149 -92q-80 0 -122 56t-42 143q0 125 67.5 215.5t168.5 90.5q80 0 122 -45l3 1zM231 104q49 0 93.5 61t57.5 160
l2 16q-41 41 -98 41q-55 0 -89.5 -58t-34.5 -130q0 -42 18 -66t51 -24z" />
    <glyph glyph-name="Cacute" unicode="&#x106;" horiz-adv-x="669" 
d="M370 769l115 134l136 1l-130 -135h-121zM348 -9q-128 0 -208 77.5t-80 221.5q0 180 104 304.5t268 124.5q157 0 246 -149l-111 -81q-53 100 -142 100q-98 0 -160.5 -89.5t-62.5 -207.5q0 -81 40 -126t113 -45q43 0 85.5 22t72.5 59l99 -89q-107 -122 -264 -122z" />
    <glyph glyph-name="cacute" unicode="&#x107;" horiz-adv-x="487" 
d="M239 556l119 146l134 1l-129 -147h-124zM240 -8q-96 0 -150 54t-54 156q0 122 69.5 208t188.5 86q125 0 182 -85l-98 -74q-28 45 -84 45q-57 0 -93.5 -50.5t-36.5 -122.5q0 -50 23 -76t60 -26q55 0 99 50l99 -67q-82 -98 -205 -98z" />
    <glyph glyph-name="Ccircumflex" unicode="&#x108;" horiz-adv-x="669" 
d="M297 769l115 135h125l79 -135h-113l-37 66h-3l-54 -66h-112zM348 -9q-128 0 -208 77.5t-80 221.5q0 180 104 304.5t268 124.5q157 0 246 -149l-111 -81q-53 100 -142 100q-98 0 -160.5 -89.5t-62.5 -207.5q0 -81 40 -126t113 -45q43 0 85.5 22t72.5 59l99 -89
q-107 -122 -264 -122z" />
    <glyph glyph-name="ccircumflex" unicode="&#x109;" horiz-adv-x="487" 
d="M158 554l116 149h116l85 -149h-116l-30 75h-2l-49 -75h-120zM240 -8q-96 0 -150 54t-54 156q0 122 69.5 208t188.5 86q125 0 182 -85l-98 -74q-28 45 -84 45q-57 0 -93.5 -50.5t-36.5 -122.5q0 -50 23 -76t60 -26q55 0 99 50l99 -67q-82 -98 -205 -98z" />
    <glyph glyph-name="Cdotaccent" unicode="&#x10a;" horiz-adv-x="669" 
d="M462 767q-34 0 -56.5 22.5t-22.5 55.5q0 35 23 57.5t59 22.5q34 0 57 -22t23 -55q0 -35 -23.5 -58t-59.5 -23zM348 -9q-128 0 -208 77.5t-80 221.5q0 180 104 304.5t268 124.5q157 0 246 -149l-111 -81q-53 100 -142 100q-98 0 -160.5 -89.5t-62.5 -207.5q0 -81 40 -126
t113 -45q43 0 85.5 22t72.5 59l99 -89q-107 -122 -264 -122z" />
    <glyph glyph-name="cdotaccent" unicode="&#x10b;" horiz-adv-x="487" 
d="M326 557q-34 0 -56.5 22.5t-22.5 55.5q0 35 23 57.5t59 22.5q34 0 57 -22t23 -55q0 -35 -23.5 -58t-59.5 -23zM240 -8q-96 0 -150 54t-54 156q0 122 69.5 208t188.5 86q125 0 182 -85l-98 -74q-28 45 -84 45q-57 0 -93.5 -50.5t-36.5 -122.5q0 -50 23 -76t60 -26
q55 0 99 50l99 -67q-82 -98 -205 -98z" />
    <glyph glyph-name="Ccaron" unicode="&#x10c;" horiz-adv-x="669" 
d="M393 769l-80 135h113l38 -66h2l54 66h112l-114 -135h-125zM348 -9q-128 0 -208 77.5t-80 221.5q0 180 104 304.5t268 124.5q157 0 246 -149l-111 -81q-53 100 -142 100q-98 0 -160.5 -89.5t-62.5 -207.5q0 -81 40 -126t113 -45q43 0 85.5 22t72.5 59l99 -89
q-107 -122 -264 -122z" />
    <glyph glyph-name="ccaron" unicode="&#x10d;" horiz-adv-x="487" 
d="M254 549l-75 147h112l34 -73h3l52 73h112l-113 -147h-125zM240 -8q-96 0 -150 54t-54 156q0 122 69.5 208t188.5 86q125 0 182 -85l-98 -74q-28 45 -84 45q-57 0 -93.5 -50.5t-36.5 -122.5q0 -50 23 -76t60 -26q55 0 99 50l99 -67q-82 -98 -205 -98z" />
    <glyph glyph-name="Dcaron" unicode="&#x10e;" horiz-adv-x="682" 
d="M338 768l-80 135h113l38 -66h2l54 66h112l-114 -135h-125zM52 0l87 710h217q143 0 217.5 -78t74.5 -216q0 -188 -102 -302t-277 -114h-217zM201 122h82q103 0 163 82t60 211q0 81 -41.5 127t-121.5 46h-85z" />
    <glyph glyph-name="dcaron" unicode="&#x10f;" horiz-adv-x="617" 
d="M595 580l54 206h126l-87 -206h-93zM199 -9q-80 0 -122 56t-42 143q0 125 67 215.5t169 90.5q79 0 125 -45l3 1l35 284h127l-91 -736h-127l11 83l-3 1q-64 -93 -152 -93zM231 104q50 0 95 60t59 159l3 19q-37 40 -102 40q-54 0 -88.5 -58.5t-34.5 -129.5q0 -42 17.5 -66
t50.5 -24z" />
    <glyph glyph-name="Dcroat" unicode="&#x110;" horiz-adv-x="683" 
d="M358 710q143 0 217.5 -78t74.5 -216q0 -188 -102 -302t-277 -114h-217l36 294h-53l16 115h51l37 301h217zM285 122q103 0 163 82t60 211q0 81 -41.5 127t-121.5 46h-85l-22 -179h129l-16 -115h-127l-21 -172h82z" />
    <glyph glyph-name="dcroat" unicode="&#x111;" horiz-adv-x="546" 
d="M597 637l-10 -82h-48l-69 -555h-127l11 83l-3 1q-64 -93 -152 -93q-80 0 -122 56t-42 143q0 125 67 215.5t169 90.5q79 0 125 -45l3 1l13 103h-166l10 82h166l12 99h127l-12 -99h48zM385 323l3 19q-37 40 -102 40q-54 0 -88.5 -58.5t-34.5 -129.5q0 -42 17.5 -66
t50.5 -24q50 0 95 60t59 159z" />
    <glyph glyph-name="Emacron" unicode="&#x112;" horiz-adv-x="563" 
d="M221 789l12 98h279l-13 -98h-278zM51 0l87 710h415l-16 -122h-280l-21 -176h224l-15 -120h-224l-21 -170h299l-15 -122h-433z" />
    <glyph glyph-name="emacron" unicode="&#x113;" horiz-adv-x="478" 
d="M446 685l-13 -102h-278l12 102h279zM244 102q56 0 101 51l97 -63q-43 -50 -90.5 -74t-115.5 -24q-92 0 -146.5 54.5t-54.5 149.5q0 126 71.5 213t189.5 87q66 0 114 -35t48 -98q-1 -156 -298 -188q6 -36 29.5 -54.5t54.5 -18.5zM288 386q-39 0 -74 -31.5t-49 -90.5
q167 19 168 87q0 35 -45 35z" />
    <glyph glyph-name="Ebreve" unicode="&#x114;" horiz-adv-x="563" 
d="M359 761q-70 0 -104.5 37.5t-29.5 104.5h95q-3 -21 8.5 -36t36.5 -15t43.5 15.5t24.5 35.5h95q-13 -64 -57 -103t-112 -39zM51 0l87 710h415l-16 -122h-280l-21 -176h224l-15 -120h-224l-21 -170h299l-15 -122h-433z" />
    <glyph glyph-name="ebreve" unicode="&#x115;" horiz-adv-x="478" 
d="M291 544q-69 0 -104 39.5t-29 112.5h95q-3 -25 8 -41t36 -16t44 16.5t25 40.5h95q-13 -70 -57.5 -111t-112.5 -41zM458 363q-1 -156 -298 -188q6 -36 29.5 -54.5t54.5 -18.5q56 0 101 51l97 -63q-43 -50 -90.5 -74t-115.5 -24q-92 0 -146.5 54.5t-54.5 149.5
q0 126 71.5 213t189.5 87q66 0 114 -35t48 -98zM165 264q167 19 168 87q0 35 -45 35q-39 0 -74 -31.5t-49 -90.5z" />
    <glyph glyph-name="Edotaccent" unicode="&#x116;" horiz-adv-x="563" 
d="M363 766q-34 0 -56.5 22.5t-22.5 55.5q0 35 23 57.5t59 22.5q34 0 57 -22t23 -55q0 -35 -23.5 -58t-59.5 -23zM51 0l87 710h415l-16 -122h-280l-21 -176h224l-15 -120h-224l-21 -170h299l-15 -122h-433z" />
    <glyph glyph-name="edotaccent" unicode="&#x117;" horiz-adv-x="478" 
d="M299 557q-34 0 -56.5 22.5t-22.5 55.5q0 35 23 57.5t59 22.5q34 0 57 -22t23 -55q0 -35 -23.5 -58t-59.5 -23zM244 102q56 0 101 51l97 -63q-43 -50 -90.5 -74t-115.5 -24q-92 0 -146.5 54.5t-54.5 149.5q0 126 71.5 213t189.5 87q66 0 114 -35t48 -98q-1 -156 -298 -188
q6 -36 29.5 -54.5t54.5 -18.5zM288 386q-39 0 -74 -31.5t-49 -90.5q167 19 168 87q0 35 -45 35z" />
    <glyph glyph-name="Eogonek" unicode="&#x118;" horiz-adv-x="563" 
d="M537 588h-280l-21 -176h224l-15 -120h-224l-21 -170h299l-15 -122h-2q-40 -6 -67.5 -32t-27.5 -54t27 -28q23 0 37 8l2 -72q-24 -11 -72 -11q-94 0 -94 76q0 32 18 62t47 51h-301l87 710h415z" />
    <glyph glyph-name="eogonek" unicode="&#x119;" horiz-adv-x="478" 
d="M244 102q56 0 101 51l97 -63q-61 -70 -131 -89q-38 -15 -62 -38.5t-24 -48.5q0 -28 29 -28q20 0 34 8l2 -72q-24 -11 -71 -11q-94 0 -94 76q0 60 58 108l-1 3q-69 14 -108 66t-39 132q0 126 71.5 213t189.5 87q66 0 114 -35t48 -98q-1 -156 -298 -188q6 -36 29.5 -54.5
t54.5 -18.5zM288 386q-39 0 -74 -31.5t-49 -90.5q167 19 168 87q0 35 -45 35z" />
    <glyph glyph-name="Ecaron" unicode="&#x11a;" horiz-adv-x="563" 
d="M294 768l-80 135h113l38 -66h2l54 66h112l-114 -135h-125zM51 0l87 710h415l-16 -122h-280l-21 -176h224l-15 -120h-224l-21 -170h299l-15 -122h-433z" />
    <glyph glyph-name="ecaron" unicode="&#x11b;" horiz-adv-x="478" 
d="M352 549h-125l-75 147h112l34 -73h3l52 73h112zM458 363q-1 -156 -298 -188q6 -36 29.5 -54.5t54.5 -18.5q56 0 101 51l97 -63q-43 -50 -90.5 -74t-115.5 -24q-92 0 -146.5 54.5t-54.5 149.5q0 126 71.5 213t189.5 87q66 0 114 -35t48 -98zM165 264q167 19 168 87
q0 35 -45 35q-39 0 -74 -31.5t-49 -90.5z" />
    <glyph glyph-name="Gcircumflex" unicode="&#x11c;" horiz-adv-x="695" 
d="M283 768l115 135h125l79 -135h-113l-37 66h-3l-54 -66h-112zM350 -9q-129 0 -209.5 76.5t-80.5 221.5q0 180 104 305t264 125q164 0 243 -125l-109 -82q-50 78 -141 78q-94 0 -156 -87t-62 -209q0 -85 40 -131t114 -46q67 0 129 42l15 108h-135l15 118h268l-36 -306
q-48 -40 -119 -64t-144 -24z" />
    <glyph glyph-name="gcircumflex" unicode="&#x11d;" horiz-adv-x="559" 
d="M166 554l116 149h116l85 -149h-116l-30 75h-2l-49 -75h-120zM195 -206q-95 0 -170 47l41 105q63 -40 130 -40q69 0 106.5 37.5t48.5 147.5l16 4l-17 6q-65 -94 -151 -94q-80 0 -122 55t-42 140q0 117 67.5 205.5t168.5 88.5q79 0 123 -44l2 1l4 36h127l-52 -427
q-10 -79 -35.5 -133.5t-65 -83t-82.5 -40t-97 -11.5zM231 120q47 0 91.5 55t57.5 141l4 25q-41 41 -97 41q-55 0 -89.5 -56t-34.5 -119q0 -41 18 -64t50 -23z" />
    <glyph glyph-name="Gbreve" unicode="&#x11e;" horiz-adv-x="695" 
d="M444 761q-70 0 -104.5 37.5t-29.5 104.5h95q-3 -21 8.5 -36t36.5 -15t43.5 15.5t24.5 35.5h95q-13 -64 -57 -103t-112 -39zM350 -9q-129 0 -209.5 76.5t-80.5 221.5q0 180 104 305t264 125q164 0 243 -125l-109 -82q-50 78 -141 78q-94 0 -156 -87t-62 -209
q0 -85 40 -131t114 -46q67 0 129 42l15 108h-135l15 118h268l-36 -306q-48 -40 -119 -64t-144 -24z" />
    <glyph glyph-name="gbreve" unicode="&#x11f;" horiz-adv-x="559" 
d="M326 544q-69 0 -104 39.5t-29 112.5h95q-3 -25 8 -41t36 -16t44 16.5t25 40.5h95q-13 -70 -57.5 -111t-112.5 -41zM195 -206q-95 0 -170 47l41 105q63 -40 130 -40q69 0 106.5 37.5t48.5 147.5l16 4l-17 6q-65 -94 -151 -94q-80 0 -122 55t-42 140q0 117 67.5 205.5
t168.5 88.5q79 0 123 -44l2 1l4 36h127l-52 -427q-10 -79 -35.5 -133.5t-65 -83t-82.5 -40t-97 -11.5zM231 120q47 0 91.5 55t57.5 141l4 25q-41 41 -97 41q-55 0 -89.5 -56t-34.5 -119q0 -41 18 -64t50 -23z" />
    <glyph glyph-name="Gdotaccent" unicode="&#x120;" horiz-adv-x="695" 
d="M448 766q-34 0 -56.5 22.5t-22.5 55.5q0 35 23 57.5t59 22.5q34 0 57 -22t23 -55q0 -35 -23.5 -58t-59.5 -23zM350 -9q-129 0 -209.5 76.5t-80.5 221.5q0 180 104 305t264 125q164 0 243 -125l-109 -82q-50 78 -141 78q-94 0 -156 -87t-62 -209q0 -85 40 -131t114 -46
q67 0 129 42l15 108h-135l15 118h268l-36 -306q-48 -40 -119 -64t-144 -24z" />
    <glyph glyph-name="gdotaccent" unicode="&#x121;" horiz-adv-x="559" 
d="M334 557q-34 0 -56.5 22.5t-22.5 55.5q0 35 23 57.5t59 22.5q34 0 57 -22t23 -55q0 -35 -23.5 -58t-59.5 -23zM195 -206q-95 0 -170 47l41 105q63 -40 130 -40q69 0 106.5 37.5t48.5 147.5l16 4l-17 6q-65 -94 -151 -94q-80 0 -122 55t-42 140q0 117 67.5 205.5
t168.5 88.5q79 0 123 -44l2 1l4 36h127l-52 -427q-10 -79 -35.5 -133.5t-65 -83t-82.5 -40t-97 -11.5zM231 120q47 0 91.5 55t57.5 141l4 25q-41 41 -97 41q-55 0 -89.5 -56t-34.5 -119q0 -41 18 -64t50 -23z" />
    <glyph glyph-name="Gcommaaccent" unicode="&#x122;" horiz-adv-x="695" 
d="M350 -9q-129 0 -209.5 76.5t-80.5 221.5q0 180 104 305t264 125q164 0 243 -125l-109 -82q-50 78 -141 78q-94 0 -156 -87t-62 -209q0 -85 40 -131t114 -46q67 0 129 42l15 108h-135l15 118h268l-36 -306q-48 -40 -119 -64t-144 -24zM244 -220l-15 74q32 10 44.5 25
t12.5 44q0 4 -2 24h108v-23q0 -64 -38.5 -101.5t-109.5 -42.5z" />
    <glyph glyph-name="gcommaaccent" unicode="&#x123;" horiz-adv-x="559" 
d="M426 729l15 -74q-32 -10 -44.5 -25t-12.5 -44q0 -4 2 -24h-108v23q0 64 38.5 101.5t109.5 42.5zM195 -206q-95 0 -170 47l41 105q63 -40 130 -40q69 0 106.5 37.5t48.5 147.5l16 4l-17 6q-65 -94 -151 -94q-80 0 -122 55t-42 140q0 117 67.5 205.5t168.5 88.5
q79 0 123 -44l2 1l4 36h127l-52 -427q-10 -79 -35.5 -133.5t-65 -83t-82.5 -40t-97 -11.5zM231 120q47 0 91.5 55t57.5 141l4 25q-41 41 -97 41q-55 0 -89.5 -56t-34.5 -119q0 -41 18 -64t50 -23z" />
    <glyph glyph-name="Hcircumflex" unicode="&#x124;" horiz-adv-x="686" 
d="M250 769l115 135h125l79 -135h-113l-37 66h-3l-54 -66h-112zM52 0l87 710h136l-38 -309h251l38 309h136l-87 -710h-137l35 279h-251l-34 -279h-136z" />
    <glyph glyph-name="hcircumflex" unicode="&#x125;" horiz-adv-x="552" 
d="M180 780l115 135h125l79 -135h-113l-37 66h-3l-54 -66h-112zM35 0l91 736h126l-40 -325l2 -1q70 86 170 86q75 0 103.5 -49t14.5 -151l-40 -296h-127l38 276q7 55 -1.5 80.5t-38.5 25.5q-44 0 -91.5 -58.5t-58.5 -145.5l-21 -178h-127z" />
    <glyph glyph-name="Hbar" unicode="&#x126;" horiz-adv-x="691" 
d="M694 606l-10 -90h-44l-63 -516h-137l35 279h-251l-34 -279h-136l63 516h-44l11 90h44l13 104h136l-13 -104h251l13 104h136l-13 -104h43zM490 401l14 115h-251l-14 -115h251z" />
    <glyph glyph-name="hbar" unicode="&#x127;" horiz-adv-x="552" 
d="M384 496q75 0 103.5 -49t14.5 -151l-40 -296h-127l38 276q7 55 -1.5 80.5t-38.5 25.5q-44 0 -91.5 -58.5t-58.5 -145.5l-21 -178h-127l69 555h-53l9 82h54l12 99h126l-12 -99h161l-9 -82h-162l-18 -144l2 -1q70 86 170 86z" />
    <glyph glyph-name="Itilde" unicode="&#x128;" horiz-adv-x="310" 
d="M300 767q-34 0 -78 31q-28 21 -45 21q-33 0 -57 -53l-75 38q51 103 121 103q8 0 15.5 -0.5t14.5 -3t11 -3.5t11 -5t8.5 -5t9.5 -6l7 -5q30 -22 45 -22q35 0 59 51l74 -29q-21 -51 -52.5 -81.5t-68.5 -30.5zM56 0l87 710h138l-87 -710h-138z" />
    <glyph glyph-name="itilde" unicode="&#x129;" horiz-adv-x="262" 
d="M246 550q-9 0 -17.5 2t-16 6t-11.5 7t-11.5 8.5t-9.5 7.5q-25 20 -41 20q-32 0 -56 -51l-69 36q45 104 115 104q33 0 71 -27q4 -3 11.5 -8.5t11.5 -8t9.5 -5t10.5 -2.5q30 0 54 53l70 -30q-21 -51 -53 -81.5t-68 -30.5zM37 0l61 489h127l-60 -489h-128z" />
    <glyph glyph-name="Imacron" unicode="&#x12a;" horiz-adv-x="310" 
d="M82 789l12 98h279l-13 -98h-278zM56 0l87 710h138l-87 -710h-138z" />
    <glyph glyph-name="imacron" unicode="&#x12b;" horiz-adv-x="262" 
d="M37 583l12 102h279l-13 -102h-278zM37 0l61 489h127l-60 -489h-128z" />
    <glyph glyph-name="Ibreve" unicode="&#x12c;" horiz-adv-x="310" 
d="M220 761q-70 0 -104.5 37.5t-29.5 104.5h95q-3 -21 8.5 -36t36.5 -15t43.5 15.5t24.5 35.5h95q-13 -64 -57 -103t-112 -39zM56 0l87 710h138l-87 -710h-138z" />
    <glyph glyph-name="ibreve" unicode="&#x12d;" horiz-adv-x="262" 
d="M179 550q-57 0 -91 40t-30 110h89q-4 -30 5.5 -47t30.5 -17q22 0 36 18t16 46h91q-12 -68 -50.5 -109t-96.5 -41zM37 0l61 489h127l-60 -489h-128z" />
    <glyph glyph-name="Iogonek" unicode="&#x12e;" horiz-adv-x="310" 
d="M143 710h138l-87 -710h-9q-40 -6 -67.5 -32t-27.5 -54t27 -28q23 0 37 8l2 -72q-24 -11 -72 -11q-94 0 -94 76q0 31 18.5 62t47.5 52z" />
    <glyph glyph-name="iogonek" unicode="&#x12f;" horiz-adv-x="262" 
d="M184 715q34 0 57 -22t23 -55q0 -35 -23.5 -58t-59.5 -23q-34 0 -56.5 22.5t-22.5 55.5q0 35 23 57.5t59 22.5zM38 6l60 483h127l-60 -489h-6q-40 -6 -67.5 -32t-27.5 -54t27 -28q23 0 37 8l2 -72q-24 -11 -72 -11q-94 0 -94 76q0 34 20.5 66t53.5 53z" />
    <glyph glyph-name="Idotaccent" unicode="&#x130;" horiz-adv-x="310" 
d="M224 766q-34 0 -56.5 22.5t-22.5 55.5q0 35 23 57.5t59 22.5q34 0 57 -22t23 -55q0 -35 -23.5 -58t-59.5 -23zM56 0l87 710h138l-87 -710h-138z" />
    <glyph glyph-name="dotlessi" unicode="&#x131;" horiz-adv-x="262" 
d="M37 0l61 489h127l-60 -489h-128z" />
    <glyph glyph-name="IJ" unicode="&#x132;" horiz-adv-x="786" 
d="M56 0l87 710h138l-87 -710h-138zM484 -9q-51 0 -96.5 25t-72.5 70l92 93q31 -58 76 -58q79 0 97 144l55 445h137l-56 -452q-16 -135 -71 -201t-161 -66z" />
    <glyph glyph-name="ij" unicode="&#x133;" horiz-adv-x="507" 
d="M181 557q-34 0 -56.5 22.5t-22.5 55.5q0 35 23 57.5t59 22.5q34 0 57 -22t23 -55q0 -35 -23.5 -58t-59.5 -23zM429 557q-34 0 -56.5 22.5t-22.5 55.5q0 35 23 57.5t59 22.5q34 0 57 -22t23 -55q0 -35 -23.5 -58t-59.5 -23zM37 0l61 489h127l-60 -489h-128zM254 -206
q-52 0 -95 23l32 99q18 -14 41 -14t35 20t17 68l62 499h127l-63 -517q-23 -178 -156 -178z" />
    <glyph glyph-name="Jcircumflex" unicode="&#x134;" horiz-adv-x="476" 
d="M240 769l115 135h125l79 -135h-113l-37 66h-3l-54 -66h-112zM174 -9q-51 0 -96.5 25t-72.5 70l92 93q31 -58 76 -58q79 0 97 144l55 445h137l-56 -452q-16 -135 -71 -201t-161 -66z" />
    <glyph glyph-name="jcircumflex" unicode="&#x135;" horiz-adv-x="245" 
d="M-1 554l116 149h116l85 -149h-116l-30 75h-2l-49 -75h-120zM-8 -206q-52 0 -95 23l32 99q18 -14 41 -14t35 20t17 68l62 499h127l-63 -517q-23 -178 -156 -178z" />
    <glyph glyph-name="Kcommaaccent" unicode="&#x136;" horiz-adv-x="621" 
d="M662 710l-263 -317l181 -393h-155l-129 295l-85 -100l-24 -195h-135l87 710h135l-39 -319l3 -1l257 320h167zM232 -77q0 4 -2 24h108v-23q0 -64 -38.5 -101.5t-109.5 -42.5l-15 74q32 10 44.5 25t12.5 44z" />
    <glyph glyph-name="kcommaaccent" unicode="&#x137;" horiz-adv-x="516" 
d="M435 -7q-18 -2 -32 -2q-53 1 -80.5 35t-56.5 111l-10 27q-46 -30 -82 -45l-14 -119h-125l91 736h126l-59 -485l2 -1q130 85 174 239h130q-28 -138 -143 -250l21 -55q19 -50 38 -67.5t53 -22.5zM134 -220l-15 74q32 10 44.5 25t12.5 44q0 4 -2 24h108v-23
q0 -64 -38.5 -101.5t-109.5 -42.5z" />
    <glyph glyph-name="kgreenlandic" unicode="&#x138;" horiz-adv-x="515" 
d="M434 -7q-18 -2 -32 -2q-52 1 -80 35.5t-57 110.5l-9 25q-34 -23 -81 -45l-14 -117h-126l61 489h125l-28 -231l4 -2q130 83 171 233h130q-27 -137 -142 -250l20 -55q19 -50 38 -67.5t53 -22.5z" />
    <glyph glyph-name="Lacute" unicode="&#x139;" horiz-adv-x="535" 
d="M265 769l115 134l136 1l-130 -135h-121zM52 0l87 710h136l-72 -588h280l-15 -122h-416z" />
    <glyph glyph-name="lacute" unicode="&#x13a;" horiz-adv-x="262" 
d="M143 782l115 134l136 1l-130 -135h-121zM40 0l90 736h127l-91 -736h-126z" />
    <glyph glyph-name="Lcommaaccent" unicode="&#x13b;" horiz-adv-x="535" 
d="M52 0l87 710h136l-72 -588h280l-15 -122h-416zM156 -220l-15 74q32 10 44.5 25t12.5 44q0 4 -2 24h108v-23q0 -64 -38.5 -101.5t-109.5 -42.5z" />
    <glyph glyph-name="lcommaaccent" unicode="&#x13c;" horiz-adv-x="262" 
d="M40 0l90 736h127l-91 -736h-126zM1 -220l-15 74q32 10 44.5 25t12.5 44q0 4 -2 24h108v-23q0 -64 -38.5 -101.5t-109.5 -42.5z" />
    <glyph glyph-name="Lcaron" unicode="&#x13d;" horiz-adv-x="539" 
d="M352 580l54 206h126l-87 -206h-93zM52 0l87 710h136l-72 -588h280l-15 -122h-416z" />
    <glyph glyph-name="lcaron" unicode="&#x13e;" horiz-adv-x="320" 
d="M301 580l54 206h125l-86 -206h-93zM40 0l90 736h127l-91 -736h-126z" />
    <glyph glyph-name="Ldot" unicode="&#x13f;" horiz-adv-x="536" 
d="M52 0l87 710h136l-72 -588h280l-15 -122h-416zM424 261q-35 0 -56.5 22t-21.5 55q0 35 22.5 58t58.5 23q34 0 56 -22t22 -56q0 -35 -22.5 -57.5t-58.5 -22.5z" />
    <glyph glyph-name="ldot" unicode="&#x140;" horiz-adv-x="443" 
d="M40 0l90 736h127l-91 -736h-126zM352 175q-35 0 -56.5 22t-21.5 55q0 35 22.5 58t58.5 23q34 0 56 -22t22 -56q0 -35 -22.5 -57.5t-58.5 -22.5z" />
    <glyph glyph-name="Lslash" unicode="&#x141;" horiz-adv-x="536" 
d="M204 122h280l-15 -122h-416l33 265l-73 -31l14 107l72 31l41 338h136l-34 -275l102 44l-14 -108l-101 -44z" />
    <glyph glyph-name="lslash" unicode="&#x142;" horiz-adv-x="307" 
d="M305 429l-12 -96l-69 -30l-37 -303h-126l30 244l-66 -29l12 95l65 29l49 397h127l-42 -338z" />
    <glyph glyph-name="Nacute" unicode="&#x143;" horiz-adv-x="707" 
d="M324 769l115 134l136 1l-130 -135h-121zM52 0l87 710h132l216 -481l3 2l59 479h134l-88 -710h-135l-213 472h-3l-58 -472h-134z" />
    <glyph glyph-name="nacute" unicode="&#x144;" horiz-adv-x="552" 
d="M226 556l119 146l134 1l-129 -147h-124zM35 0l61 489h126l-9 -78l2 -1q71 86 169 86q75 0 103.5 -49t14.5 -151l-40 -296h-126l37 276q7 55 -1.5 80.5t-38.5 25.5q-44 0 -91 -57.5t-58 -143.5l-22 -181h-127z" />
    <glyph glyph-name="Ncommaaccent" unicode="&#x145;" horiz-adv-x="707" 
d="M52 0l87 710h132l216 -481l3 2l59 479h134l-88 -710h-135l-213 472h-3l-58 -472h-134zM228 -220l-15 74q32 10 44.5 25t12.5 44q0 4 -2 24h108v-23q0 -64 -38.5 -101.5t-109.5 -42.5z" />
    <glyph glyph-name="ncommaaccent" unicode="&#x146;" horiz-adv-x="552" 
d="M35 0l61 489h126l-9 -78l2 -1q71 86 169 86q75 0 103.5 -49t14.5 -151l-40 -296h-126l37 276q7 55 -1.5 80.5t-38.5 25.5q-44 0 -91 -57.5t-58 -143.5l-22 -181h-127zM149 -220l-15 74q32 10 44.5 25t12.5 44q0 4 -2 24h108v-23q0 -64 -38.5 -101.5t-109.5 -42.5z" />
    <glyph glyph-name="Ncaron" unicode="&#x147;" horiz-adv-x="707" 
d="M362 769l-80 135h113l38 -66h2l54 66h112l-114 -135h-125zM52 0l87 710h132l216 -481l3 2l59 479h134l-88 -710h-135l-213 472h-3l-58 -472h-134z" />
    <glyph glyph-name="ncaron" unicode="&#x148;" horiz-adv-x="552" 
d="M264 549l-75 147h112l34 -73h3l52 73h112l-113 -147h-125zM35 0l61 489h126l-9 -78l2 -1q71 86 169 86q75 0 103.5 -49t14.5 -151l-40 -296h-126l37 276q7 55 -1.5 80.5t-38.5 25.5q-44 0 -91 -57.5t-58 -143.5l-22 -181h-127z" />
    <glyph glyph-name="napostrophe" unicode="&#x149;" horiz-adv-x="669" 
d="M13 496l54 214h125l-87 -214h-92zM152 0l61 489h126l-9 -78l2 -1q71 86 169 86q75 0 103.5 -49t14.5 -151l-40 -296h-126l37 276q7 55 -1.5 80.5t-38.5 25.5q-44 0 -91 -57.5t-58 -143.5l-22 -181h-127z" />
    <glyph glyph-name="Eng" unicode="&#x14a;" horiz-adv-x="707" 
d="M549 710h134l-88 -710q-13 -111 -71 -157.5t-154 -46.5q-33 0 -62 7l18 107q22 -5 36 -5q45 0 68 23.5t29 71.5v2l-212 470h-3l-58 -472h-134l87 710h132l216 -481l3 2z" />
    <glyph glyph-name="eng" unicode="&#x14b;" horiz-adv-x="547" 
d="M254 -205q-33 0 -61 8l22 97q12 -3 23 -3q78 0 96 126l34 253q7 55 -1.5 80.5t-38.5 25.5q-43 0 -88 -57.5t-56 -143.5l-22 -181h-127l61 489h126l-9 -78l2 -1q64 86 164 86q75 0 103.5 -49t14.5 -151l-39 -296q-13 -102 -66.5 -153.5t-137.5 -51.5z" />
    <glyph glyph-name="Omacron" unicode="&#x14c;" horiz-adv-x="754" 
d="M330 790l12 98h279l-13 -98h-278zM346 -9q-131 0 -208.5 80t-77.5 221q0 113 45.5 209.5t132 157t196.5 60.5q130 0 208.5 -79.5t78.5 -219.5q0 -180 -102 -304.5t-273 -124.5zM357 119q96 0 159 87.5t63 207.5q0 88 -42.5 133t-116.5 45q-93 0 -156 -89.5t-63 -205.5
q0 -88 42 -133t114 -45z" />
    <glyph glyph-name="omacron" unicode="&#x14d;" horiz-adv-x="543" 
d="M181 583l12 102h279l-13 -102h-278zM241 -9q-94 0 -149.5 55t-55.5 153q0 123 71.5 210t191.5 87q95 0 151.5 -53.5t56.5 -150.5q0 -130 -69.5 -215.5t-196.5 -85.5zM248 106q57 0 94 51.5t37 124.5q0 55 -27 77.5t-62 22.5q-56 0 -91.5 -52.5t-35.5 -119.5
q0 -47 23.5 -75.5t61.5 -28.5z" />
    <glyph glyph-name="Obreve" unicode="&#x14e;" horiz-adv-x="754" 
d="M468 762q-70 0 -104.5 37.5t-29.5 104.5h95q-3 -21 8.5 -36t36.5 -15t43.5 15.5t24.5 35.5h95q-13 -64 -57 -103t-112 -39zM346 -9q-131 0 -208.5 80t-77.5 221q0 113 45.5 209.5t132 157t196.5 60.5q130 0 208.5 -79.5t78.5 -219.5q0 -180 -102 -304.5t-273 -124.5z
M357 119q96 0 159 87.5t63 207.5q0 88 -42.5 133t-116.5 45q-93 0 -156 -89.5t-63 -205.5q0 -88 42 -133t114 -45z" />
    <glyph glyph-name="obreve" unicode="&#x14f;" horiz-adv-x="543" 
d="M317 544q-69 0 -104 39.5t-29 112.5h95q-3 -25 8 -41t36 -16t44 16.5t25 40.5h95q-13 -70 -57.5 -111t-112.5 -41zM241 -9q-94 0 -149.5 55t-55.5 153q0 123 71.5 210t191.5 87q95 0 151.5 -53.5t56.5 -150.5q0 -130 -69.5 -215.5t-196.5 -85.5zM248 106q57 0 94 51.5
t37 124.5q0 55 -27 77.5t-62 22.5q-56 0 -91.5 -52.5t-35.5 -119.5q0 -47 23.5 -75.5t61.5 -28.5z" />
    <glyph glyph-name="Ohungarumlaut" unicode="&#x150;" horiz-adv-x="754" 
d="M302 766l118 146l129 1l-129 -147h-118zM496 766l117 146l129 1l-129 -147h-117zM346 -9q-131 0 -208.5 80t-77.5 221q0 113 45.5 209.5t132 157t196.5 60.5q130 0 208.5 -79.5t78.5 -219.5q0 -180 -102 -304.5t-273 -124.5zM357 119q96 0 159 87.5t63 207.5
q0 88 -42.5 133t-116.5 45q-93 0 -156 -89.5t-63 -205.5q0 -88 42 -133t114 -45z" />
    <glyph glyph-name="ohungarumlaut" unicode="&#x151;" horiz-adv-x="543" 
d="M163 556l118 146l129 1l-129 -147h-118zM357 556l117 146l129 1l-129 -147h-117zM241 -9q-94 0 -149.5 55t-55.5 153q0 123 71.5 210t191.5 87q95 0 151.5 -53.5t56.5 -150.5q0 -130 -69.5 -215.5t-196.5 -85.5zM248 106q57 0 94 51.5t37 124.5q0 55 -27 77.5t-62 22.5
q-56 0 -91.5 -52.5t-35.5 -119.5q0 -47 23.5 -75.5t61.5 -28.5z" />
    <glyph glyph-name="OE" unicode="&#x152;" horiz-adv-x="882" 
d="M857 588h-276l-22 -176h220l-15 -120h-219l-21 -170h294l-15 -122h-457q-130 0 -208 78t-78 213q0 176 104.5 297.5t272.5 121.5h435zM357 127h33l56 457h-23q-95 1 -158.5 -84.5t-63.5 -201.5q0 -83 42 -127t114 -44z" />
    <glyph glyph-name="oe" unicode="&#x153;" horiz-adv-x="732" 
d="M524 102q52 0 89 51l96 -64q-72 -97 -192 -97q-103 0 -155 73h-3q-63 -73 -158 -73q-83 0 -130.5 55t-47.5 147q0 126 67.5 214t177.5 88q94 0 136 -73h4q68 73 165 73q66 0 109.5 -32t43.5 -92q0 -81 -74.5 -133.5t-203.5 -77.5q9 -29 30.5 -44t45.5 -15zM561 386
q-34 0 -68 -37.5t-45 -97.5q153 39 153 105q0 12 -10.5 21t-29.5 9zM215 107q44 0 77.5 52t33.5 129q0 45 -17.5 70t-44.5 25q-48 0 -81 -54.5t-33 -126.5q0 -49 19 -72t46 -23z" />
    <glyph glyph-name="Racute" unicode="&#x154;" horiz-adv-x="617" 
d="M271 769l115 134l136 1l-130 -135h-121zM52 0l87 710h248q197 0 197 -193q0 -90 -39.5 -155t-115.5 -95l124 -267h-150l-106 245h-81l-29 -245h-135zM231 366h83q59 0 93.5 38.5t34.5 104.5q0 38 -24.5 59t-63.5 21h-95z" />
    <glyph glyph-name="racute" unicode="&#x155;" horiz-adv-x="355" 
d="M136 556l119 146l134 1l-129 -147h-124zM36 0l60 489h127l-10 -80h2q63 87 152 87l-18 -142q-64 15 -107.5 -31.5t-56.5 -137.5l-22 -185h-127z" />
    <glyph glyph-name="Rcommaaccent" unicode="&#x156;" horiz-adv-x="617" 
d="M52 0l87 710h248q197 0 197 -193q0 -90 -39.5 -155t-115.5 -95l124 -267h-150l-106 245h-81l-29 -245h-135zM231 366h83q59 0 93.5 38.5t34.5 104.5q0 38 -24.5 59t-63.5 21h-95zM185 -220l-15 74q32 10 44.5 25t12.5 44q0 4 -2 24h108v-23q0 -64 -38.5 -101.5
t-109.5 -42.5z" />
    <glyph glyph-name="rcommaaccent" unicode="&#x157;" horiz-adv-x="355" 
d="M36 0l60 489h127l-10 -80h2q63 87 152 87l-18 -142q-64 15 -107.5 -31.5t-56.5 -137.5l-22 -185h-127zM-4 -220l-15 74q32 10 44.5 25t12.5 44q0 4 -2 24h108v-23q0 -64 -38.5 -101.5t-109.5 -42.5z" />
    <glyph glyph-name="Rcaron" unicode="&#x158;" horiz-adv-x="617" 
d="M309 769l-80 135h113l38 -66h2l54 66h112l-114 -135h-125zM52 0l87 710h248q197 0 197 -193q0 -90 -39.5 -155t-115.5 -95l124 -267h-150l-106 245h-81l-29 -245h-135zM231 366h83q59 0 93.5 38.5t34.5 104.5q0 38 -24.5 59t-63.5 21h-95z" />
    <glyph glyph-name="rcaron" unicode="&#x159;" horiz-adv-x="355" 
d="M192 549l-75 147h112l34 -73h3l52 73h112l-113 -147h-125zM36 0l60 489h127l-10 -80h2q63 87 152 87l-18 -142q-64 15 -107.5 -31.5t-56.5 -137.5l-22 -185h-127z" />
    <glyph glyph-name="Sacute" unicode="&#x15a;" horiz-adv-x="556" 
d="M271 769l115 134l136 1l-130 -135h-121zM261 -9q-76 0 -140.5 32.5t-101.5 91.5l98 88q22 -42 60 -65t79 -23q49 0 80 25t31 61q0 9 -2.5 17t-8.5 15.5t-11 12.5t-16.5 12.5t-19.5 12t-25.5 14.5t-27.5 16q-87 51 -115 75q-61 54 -61 130q0 96 68 154.5t169 58.5
q62 0 119 -28t93 -78l-98 -84q-47 68 -121 68q-40 0 -64.5 -22t-23.5 -53q1 -26 20.5 -44.5t72.5 -50.5q14 -8 47.5 -27t47.5 -27.5t37.5 -27t34 -34t19 -39.5t8.5 -52q0 -109 -69.5 -169t-178.5 -60z" />
    <glyph glyph-name="sacute" unicode="&#x15b;" horiz-adv-x="424" 
d="M168 556l119 146l134 1l-129 -147h-124zM190 -9q-54 0 -105 23t-79 61l77 79q46 -59 109 -59q27 0 45 10.5t18 28.5q0 15 -15 25.5t-55 29.5q-9 4 -13 6q-58 27 -89 61t-31 85q0 69 50 112t124 43q109 0 172 -73l-80 -79q-36 48 -92 50q-21 0 -35 -11t-14 -29
q0 -26 75 -63q31 -15 48.5 -25.5t38.5 -28t31.5 -39.5t10.5 -49q1 -74 -51 -116t-140 -42z" />
    <glyph glyph-name="Scircumflex" unicode="&#x15c;" horiz-adv-x="556" 
d="M175 769l115 135h125l79 -135h-113l-37 66h-3l-54 -66h-112zM261 -9q-76 0 -140.5 32.5t-101.5 91.5l98 88q22 -42 60 -65t79 -23q49 0 80 25t31 61q0 9 -2.5 17t-8.5 15.5t-11 12.5t-16.5 12.5t-19.5 12t-25.5 14.5t-27.5 16q-87 51 -115 75q-61 54 -61 130
q0 96 68 154.5t169 58.5q62 0 119 -28t93 -78l-98 -84q-47 68 -121 68q-40 0 -64.5 -22t-23.5 -53q1 -26 20.5 -44.5t72.5 -50.5q14 -8 47.5 -27t47.5 -27.5t37.5 -27t34 -34t19 -39.5t8.5 -52q0 -109 -69.5 -169t-178.5 -60z" />
    <glyph glyph-name="scircumflex" unicode="&#x15d;" horiz-adv-x="424" 
d="M91 554l116 149h116l85 -149h-116l-30 75h-2l-49 -75h-120zM190 -9q-54 0 -105 23t-79 61l77 79q46 -59 109 -59q27 0 45 10.5t18 28.5q0 15 -15 25.5t-55 29.5q-9 4 -13 6q-58 27 -89 61t-31 85q0 69 50 112t124 43q109 0 172 -73l-80 -79q-36 48 -92 50q-21 0 -35 -11
t-14 -29q0 -26 75 -63q31 -15 48.5 -25.5t38.5 -28t31.5 -39.5t10.5 -49q1 -74 -51 -116t-140 -42z" />
    <glyph glyph-name="Scedilla" unicode="&#x15e;" horiz-adv-x="556" 
d="M315 427q14 -8 47.5 -27t47.5 -27.5t37.5 -27t34 -34t19 -39.5t8.5 -52q0 -108 -69 -168t-177 -61l-15 -21l1 -1q75 -3 75 -67q0 -45 -34 -69.5t-92 -24.5q-21 0 -51 6l3 58q15 -6 37 -6q56 0 56 36q0 25 -67 25l2 37l20 33q-121 25 -179 118l98 88q22 -42 60 -65t79 -23
q49 0 80 25t31 61q0 9 -2.5 17t-8.5 15.5t-11 12.5t-16.5 12.5t-19.5 12t-25.5 14.5t-27.5 16q-87 51 -115 75q-61 54 -61 130q0 96 68 154.5t169 58.5q62 0 119 -28t93 -78l-98 -84q-47 68 -121 68q-40 0 -64.5 -22t-23.5 -53q1 -26 20.5 -44.5t72.5 -50.5z" />
    <glyph glyph-name="scedilla" unicode="&#x15f;" horiz-adv-x="424" 
d="M252 291q31 -15 48.5 -25.5t38.5 -28t31.5 -39.5t10.5 -49q1 -74 -51 -116t-140 -42h-2l-15 -21l1 -1q75 -3 75 -67q0 -45 -34 -69.5t-92 -24.5q-21 0 -51 6l3 58q15 -6 37 -6q56 0 56 36q0 25 -67 25l2 37l21 36q-79 21 -118 75l77 79q46 -59 109 -59q27 0 45 10.5
t18 28.5q0 15 -15 25.5t-55 29.5q-9 4 -13 6q-58 27 -89 61t-31 85q0 69 50 112t124 43q109 0 172 -73l-80 -79q-36 48 -92 50q-21 0 -35 -11t-14 -29q0 -26 75 -63z" />
    <glyph glyph-name="Scaron" unicode="&#x160;" horiz-adv-x="556" 
d="M271 769l-80 135h113l38 -66h2l54 66h112l-114 -135h-125zM261 -9q-76 0 -140.5 32.5t-101.5 91.5l98 88q22 -42 60 -65t79 -23q49 0 80 25t31 61q0 9 -2.5 17t-8.5 15.5t-11 12.5t-16.5 12.5t-19.5 12t-25.5 14.5t-27.5 16q-87 51 -115 75q-61 54 -61 130q0 96 68 154.5
t169 58.5q62 0 119 -28t93 -78l-98 -84q-47 68 -121 68q-40 0 -64.5 -22t-23.5 -53q1 -26 20.5 -44.5t72.5 -50.5q14 -8 47.5 -27t47.5 -27.5t37.5 -27t34 -34t19 -39.5t8.5 -52q0 -109 -69.5 -169t-178.5 -60z" />
    <glyph glyph-name="scaron" unicode="&#x161;" horiz-adv-x="424" 
d="M187 549l-75 147h112l34 -73h3l52 73h112l-113 -147h-125zM190 -9q-54 0 -105 23t-79 61l77 79q46 -59 109 -59q27 0 45 10.5t18 28.5q0 15 -15 25.5t-55 29.5q-9 4 -13 6q-58 27 -89 61t-31 85q0 69 50 112t124 43q109 0 172 -73l-80 -79q-36 48 -92 50q-21 0 -35 -11
t-14 -29q0 -26 75 -63q31 -15 48.5 -25.5t38.5 -28t31.5 -39.5t10.5 -49q1 -74 -51 -116t-140 -42z" />
    <glyph glyph-name="uni0162" unicode="&#x162;" horiz-adv-x="543" 
d="M86 710h485l-15 -122h-175l-72 -588h-54l-21 -30l1 -1q75 -3 75 -67q0 -45 -34 -69.5t-92 -24.5q-21 0 -51 6l3 58q15 -6 37 -6q56 0 56 36q0 25 -67 25l2 37l21 36h-12l72 588h-173z" />
    <glyph glyph-name="uni0163" unicode="&#x163;" horiz-adv-x="340" 
d="M215 383l-27 -223q-7 -50 28 -50q25 0 61 21l19 -105q-58 -33 -122 -35l-15 -21l1 -1q75 -3 75 -67q0 -45 -34 -69.5t-92 -24.5q-21 0 -51 6l3 58q15 -6 37 -6q56 0 56 36q0 25 -67 25l2 37l23 39q-66 31 -54 137l30 243h-51l13 106h50l20 148l129 25l-21 -173h111
l-13 -106h-111z" />
    <glyph glyph-name="Tcaron" unicode="&#x164;" horiz-adv-x="543" 
d="M271 769l-80 135h113l38 -66h2l54 66h112l-114 -135h-125zM173 0l72 588h-173l14 122h485l-15 -122h-175l-72 -588h-136z" />
    <glyph glyph-name="tcaron" unicode="&#x165;" horiz-adv-x="357" 
d="M291 580l54 206h124l-86 -206h-92zM169 -9q-61 0 -90 38.5t-21 110.5l30 243h-51l13 106h50l20 148l129 25l-21 -173h111l-13 -106h-111l-27 -223q-7 -50 28 -50q25 0 61 21l19 -105q-59 -35 -127 -35z" />
    <glyph glyph-name="Tbar" unicode="&#x166;" horiz-adv-x="543" 
d="M556 588h-175l-25 -206h104l-13 -99h-103l-35 -283h-136l35 283h-100l12 99h100l25 206h-173l14 122h485z" />
    <glyph glyph-name="tbar" unicode="&#x167;" horiz-adv-x="340" 
d="M326 383h-111l-10 -79h91l-11 -82h-89l-8 -62q-7 -50 28 -50q25 0 61 21l19 -105q-59 -35 -127 -35q-61 0 -90 38.5t-21 110.5l10 82h-44l10 82h44l10 79h-51l13 106h50l20 148l129 25l-21 -173h111z" />
    <glyph glyph-name="Utilde" unicode="&#x168;" horiz-adv-x="669" 
d="M485 768q-34 0 -78 31q-28 21 -45 21q-33 0 -57 -53l-75 38q51 103 121 103q8 0 15.5 -0.5t14.5 -3t11 -3.5t11 -5t8.5 -5t8.5 -6l8 -5q30 -22 45 -22q35 0 59 51l74 -29q-21 -51 -52.5 -81.5t-68.5 -30.5zM306 -9q-132 0 -188.5 85t-38.5 233l50 401h136l-50 -405
q-11 -84 12 -134.5t88 -50.5q130 0 152 175l51 415h136l-51 -416q-19 -158 -92 -230.5t-205 -72.5z" />
    <glyph glyph-name="utilde" unicode="&#x169;" horiz-adv-x="542" 
d="M393 552q-11 0 -20.5 2t-18 6t-13.5 7t-13.5 9t-10.5 7q-27 20 -45 20q-36 0 -60 -52l-75 38q48 112 123 112q11 0 21 -1.5t18 -5.5t12.5 -6.5t12.5 -8t10 -6.5q31 -22 45 -22q36 0 60 52l75 -30q-21 -57 -52.5 -89t-68.5 -32zM178 -9q-76 0 -109 46.5t-19 149.5l43 302
h126l-38 -277q-9 -59 1 -82.5t41 -23.5q39 0 82.5 50.5t52.5 116.5l26 216h127l-60 -489h-126l9 80h-2q-63 -89 -154 -89z" />
    <glyph glyph-name="Umacron" unicode="&#x16a;" horiz-adv-x="669" 
d="M267 790l12 98h279l-13 -98h-278zM306 -9q-132 0 -188.5 85t-38.5 233l50 401h136l-50 -405q-11 -84 12 -134.5t88 -50.5q130 0 152 175l51 415h136l-51 -416q-19 -158 -92 -230.5t-205 -72.5z" />
    <glyph glyph-name="umacron" unicode="&#x16b;" horiz-adv-x="542" 
d="M176 583l12 102h279l-13 -102h-278zM178 -9q-76 0 -109 46.5t-19 149.5l43 302h126l-38 -277q-9 -59 1 -82.5t41 -23.5q39 0 82.5 50.5t52.5 116.5l26 216h127l-60 -489h-126l9 80h-2q-63 -89 -154 -89z" />
    <glyph glyph-name="Ubreve" unicode="&#x16c;" horiz-adv-x="669" 
d="M405 762q-70 0 -104.5 37.5t-29.5 104.5h95q-3 -21 8.5 -36t36.5 -15t43.5 15.5t24.5 35.5h95q-13 -64 -57 -103t-112 -39zM306 -9q-132 0 -188.5 85t-38.5 233l50 401h136l-50 -405q-11 -84 12 -134.5t88 -50.5q130 0 152 175l51 415h136l-51 -416q-19 -158 -92 -230.5
t-205 -72.5z" />
    <glyph glyph-name="ubreve" unicode="&#x16d;" horiz-adv-x="542" 
d="M312 544q-69 0 -104 39.5t-29 112.5h95q-3 -25 8 -41t36 -16t44 16.5t25 40.5h95q-13 -70 -57.5 -111t-112.5 -41zM178 -9q-76 0 -109 46.5t-19 149.5l43 302h126l-38 -277q-9 -59 1 -82.5t41 -23.5q39 0 82.5 50.5t52.5 116.5l26 216h127l-60 -489h-126l9 80h-2
q-63 -89 -154 -89z" />
    <glyph glyph-name="Uring" unicode="&#x16e;" horiz-adv-x="669" 
d="M410 756q-44 0 -73.5 29.5t-29.5 73.5q0 46 30.5 76t76.5 30q44 0 73.5 -29t29.5 -73q0 -46 -30.5 -76.5t-76.5 -30.5zM412 823q16 0 27 11t11 27t-10.5 26.5t-26.5 10.5t-27 -11t-11 -27t10.5 -26.5t26.5 -10.5zM306 -9q-132 0 -188.5 85t-38.5 233l50 401h136l-50 -405
q-11 -84 12 -134.5t88 -50.5q130 0 152 175l51 415h136l-51 -416q-19 -158 -92 -230.5t-205 -72.5z" />
    <glyph glyph-name="uring" unicode="&#x16f;" horiz-adv-x="542" 
d="M322 539q-44 0 -73.5 29.5t-29.5 73.5q0 46 30.5 76t76.5 30q44 0 73.5 -29t29.5 -73q0 -46 -30.5 -76.5t-76.5 -30.5zM324 606q16 0 27 11t11 27t-10.5 26.5t-26.5 10.5t-27 -11t-11 -27t10.5 -26.5t26.5 -10.5zM178 -9q-76 0 -109 46.5t-19 149.5l43 302h126l-38 -277
q-9 -59 1 -82.5t41 -23.5q39 0 82.5 50.5t52.5 116.5l26 216h127l-60 -489h-126l9 80h-2q-63 -89 -154 -89z" />
    <glyph glyph-name="Uhungarumlaut" unicode="&#x170;" horiz-adv-x="669" 
d="M239 766l118 146l129 1l-129 -147h-118zM433 766l117 146l129 1l-129 -147h-117zM306 -9q-132 0 -188.5 85t-38.5 233l50 401h136l-50 -405q-11 -84 12 -134.5t88 -50.5q130 0 152 175l51 415h136l-51 -416q-19 -158 -92 -230.5t-205 -72.5z" />
    <glyph glyph-name="uhungarumlaut" unicode="&#x171;" horiz-adv-x="542" 
d="M158 556l118 146l129 1l-129 -147h-118zM352 556l117 146l129 1l-129 -147h-117zM178 -9q-76 0 -109 46.5t-19 149.5l43 302h126l-38 -277q-9 -59 1 -82.5t41 -23.5q39 0 82.5 50.5t52.5 116.5l26 216h127l-60 -489h-126l9 80h-2q-63 -89 -154 -89z" />
    <glyph glyph-name="Uogonek" unicode="&#x172;" horiz-adv-x="669" 
d="M518 710h136l-51 -416q-30 -249 -205 -293q-39 -14 -64.5 -38t-25.5 -49q0 -13 7.5 -20.5t18.5 -7.5q19 0 38 8l1 -72q-24 -11 -71 -11q-94 0 -94 76q0 56 55 104l-1 3q-109 14 -154 97t-29 218l50 401h136l-50 -405q-11 -84 12 -134.5t88 -50.5q130 0 152 175z" />
    <glyph glyph-name="uogonek" unicode="&#x173;" horiz-adv-x="542" 
d="M384 489h127l-60 -489h-5q-40 -6 -67.5 -32t-27.5 -54t27 -28q23 0 37 8l2 -72q-24 -11 -72 -11q-94 0 -94 76q0 34 21 66.5t54 53.5l8 73h-2q-63 -89 -154 -89q-76 0 -109 46.5t-19 149.5l43 302h126l-38 -277q-9 -59 1 -82.5t41 -23.5q39 0 82.5 50.5t52.5 116.5z" />
    <glyph glyph-name="Wcircumflex" unicode="&#x174;" horiz-adv-x="942" 
d="M375 769l115 135h125l79 -135h-113l-37 66h-3l-54 -66h-112zM197 0l-113 710h141l64 -486h3l164 486h145l48 -473h3l175 473h147l-288 -710h-130l-56 493h-2l-173 -493h-128z" />
    <glyph glyph-name="wcircumflex" unicode="&#x175;" horiz-adv-x="773" 
d="M272 554l116 149h116l85 -149h-116l-30 75h-2l-49 -75h-120zM173 -9q-74 0 -106.5 53t-18.5 153l40 292h126l-36 -272q-14 -111 41 -111q33 0 68.5 41.5t46.5 131.5l26 210h125l-34 -281q-7 -55 2 -78.5t35 -23.5q36 0 73.5 48.5t52.5 145.5q15 85 1 189h129
q18 -108 -2 -219q-25 -143 -99.5 -211t-171.5 -68q-56 0 -91.5 26.5t-44.5 67.5h-2q-24 -43 -71.5 -68.5t-88.5 -25.5z" />
    <glyph glyph-name="Ycircumflex" unicode="&#x176;" horiz-adv-x="581" 
d="M193 769l115 135h125l79 -135h-113l-37 66h-3l-54 -66h-112zM191 0l39 312l-163 398h150l94 -269h3l160 269h157l-264 -398l-39 -312h-137z" />
    <glyph glyph-name="ycircumflex" unicode="&#x177;" horiz-adv-x="540" 
d="M318 629l-49 -75h-120l116 149h116l85 -149h-116l-30 75h-2zM385 489h125l-52 -426q-32 -269 -270 -269q-97 0 -172 47l40 103q64 -41 128 -41q63 0 99.5 34.5t49.5 131.5l1 10l-2 1q-64 -89 -157 -89q-155 0 -127 196l41 302h126l-37 -277q-7 -59 2.5 -82t40.5 -24
q41 0 85.5 53t52.5 121z" />
    <glyph glyph-name="Ydieresis" unicode="&#x178;" horiz-adv-x="581" 
d="M258 767q-34 0 -56.5 22.5t-22.5 55.5q0 35 23 57.5t59 22.5q34 0 56.5 -22t22.5 -55q0 -35 -23 -58t-59 -23zM460 767q-35 0 -57.5 22.5t-22.5 55.5q0 35 23.5 57.5t59.5 22.5q34 0 56.5 -22t22.5 -55q0 -35 -23 -58t-59 -23zM191 0l39 312l-163 398h150l94 -269h3
l160 269h157l-264 -398l-39 -312h-137z" />
    <glyph glyph-name="Zacute" unicode="&#x179;" horiz-adv-x="581" 
d="M255 769l115 134l136 1l-130 -135h-121zM23 0l12 107l359 478l-1 3h-287l14 122h463l-12 -104l-366 -480l2 -4h304l-15 -122h-473z" />
    <glyph glyph-name="zacute" unicode="&#x17a;" horiz-adv-x="458" 
d="M169 556l119 146l134 1l-129 -147h-124zM372 -28q-105 28 -365 28l10 87l241 296v1h-187l12 105h359l-9 -87l-245 -296v-2q130 -4 216 -31z" />
    <glyph glyph-name="Zdotaccent" unicode="&#x17b;" horiz-adv-x="581" 
d="M362 767q-34 0 -56.5 22.5t-22.5 55.5q0 35 23 57.5t59 22.5q34 0 57 -22t23 -55q0 -35 -23.5 -58t-59.5 -23zM23 0l12 107l359 478l-1 3h-287l14 122h463l-12 -104l-366 -480l2 -4h304l-15 -122h-473z" />
    <glyph glyph-name="zdotaccent" unicode="&#x17c;" horiz-adv-x="458" 
d="M278 557q-34 0 -56.5 22.5t-22.5 55.5q0 35 23 57.5t59 22.5q34 0 57 -22t23 -55q0 -35 -23.5 -58t-59.5 -23zM372 -28q-105 28 -365 28l10 87l241 296v1h-187l12 105h359l-9 -87l-245 -296v-2q130 -4 216 -31z" />
    <glyph glyph-name="Zcaron" unicode="&#x17d;" horiz-adv-x="581" 
d="M293 769l-80 135h113l38 -66h2l54 66h112l-114 -135h-125zM23 0l12 107l359 478l-1 3h-287l14 122h463l-12 -104l-366 -480l2 -4h304l-15 -122h-473z" />
    <glyph glyph-name="zcaron" unicode="&#x17e;" horiz-adv-x="458" 
d="M206 549l-75 147h112l34 -73h3l52 73h112l-113 -147h-125zM372 -28q-105 28 -365 28l10 87l241 296v1h-187l12 105h359l-9 -87l-245 -296v-2q130 -4 216 -31z" />
    <glyph glyph-name="longs" unicode="&#x17f;" horiz-adv-x="315" 
d="M41 0l46 383h-44l13 106h45l11 92q20 164 154 164q65 0 114 -35l-33 -99q-32 21 -58 21q-22 0 -34.5 -16t-18.5 -60l-69 -556h-126z" />
    <glyph glyph-name="uni018F" unicode="&#x18f;" horiz-adv-x="713" 
d="M401 719q129 0 205.5 -79.5t76.5 -219.5q0 -117 -42 -213.5t-124.5 -156t-191.5 -59.5q-127 0 -203.5 79t-76.5 215q0 42 14 104h483q1 8 1 25q0 86 -43.5 132t-113.5 46q-84 0 -158 -62l-80 101q115 88 253 88zM333 119q61 0 109.5 41.5t75.5 111.5h-338
q4 -74 45.5 -113.5t107.5 -39.5z" />
    <glyph glyph-name="florin" unicode="&#x192;" horiz-adv-x="492" 
d="M50 -152q-55 0 -89 14t-46 31l53 84q31 -16 61 -16q35 0 55.5 20.5t31.5 69.5l73 312h-70l28 107h71l25 107q40 168 180 168q97 0 136 -45l-54 -84q-34 16 -61 16q-60 0 -79 -91l-16 -71h117l-28 -107h-118l-82 -347q-20 -86 -66 -127t-122 -41z" />
    <glyph glyph-name="uni019D" unicode="&#x19d;" horiz-adv-x="705" 
d="M8 -204q-38 0 -69 7l18 107q22 -5 34 -5q31 0 42.5 22t18.5 76l87 707h132l210 -481l3 2l63 479h134l-92 -710h-135l-207 472h-3l-61 -493q-13 -105 -56 -144t-119 -39z" />
    <glyph glyph-name="Ohorn" unicode="&#x1a0;" horiz-adv-x="804" 
d="M730 774h111l-11 -89q-19 -148 -120 -172q11 -44 11 -93q0 -180 -102 -304.5t-273 -124.5q-131 0 -208.5 80t-77.5 221q0 113 45.5 209.5t132 157t196.5 60.5q85 0 149.5 -35t100.5 -101q15 11 22 37.5t14 78.5zM357 119q96 0 159 87.5t63 207.5q0 88 -42.5 133
t-116.5 45q-93 0 -156 -89.5t-63 -205.5q0 -88 42 -133t114 -45z" />
    <glyph glyph-name="ohorn" unicode="&#x1a1;" horiz-adv-x="635" 
d="M547 565h111l-11 -89q-22 -164 -140 -175v-9q0 -130 -69.5 -215.5t-196.5 -85.5q-94 0 -149.5 55t-55.5 153q0 123 71.5 210t191.5 87q73 0 124.5 -32.5t71.5 -92.5q19 8 26.5 35t15.5 84zM248 106q57 0 94 51.5t37 124.5q0 55 -27 77.5t-62 22.5q-56 0 -91.5 -52.5
t-35.5 -119.5q0 -47 23.5 -75.5t61.5 -28.5z" />
    <glyph glyph-name="Uhorn" unicode="&#x1af;" horiz-adv-x="768" 
d="M719 774h111l-11 -89q-12 -88 -52.5 -132t-103.5 -44q-17 0 -33 3l-27 -218q-19 -158 -92 -230.5t-205 -72.5t-188.5 85t-38.5 233l50 401h136l-50 -405q-11 -84 12 -134.5t88 -50.5q130 0 152 175l51 415h136l-16 -131q10 -2 14 -2q10 0 17.5 4t13.5 13.5t9.5 17.5
t7 25.5t5 28t4.5 33.5z" />
    <glyph glyph-name="uhorn" unicode="&#x1b0;" horiz-adv-x="654" 
d="M573 565h111l-11 -89q-12 -88 -52.5 -132t-103.5 -44q-9 0 -29 2l-37 -302h-126l9 80h-2q-63 -89 -154 -89q-76 0 -109 46.5t-19 149.5l43 302h126l-38 -277q-9 -59 1 -82.5t41 -23.5q39 0 82.5 50.5t52.5 116.5l26 216h127l-15 -120q4 -1 10 -1q10 0 17.5 4t13.5 13.5
t9.5 17.5t7 25.5t5 28t4.5 33.5z" />
    <glyph glyph-name="uni01CD" unicode="&#x1cd;" horiz-adv-x="642" 
d="M327 769l-80 135h113l38 -66h2l54 66h112l-114 -135h-125zM-12 0l322 710h136l149 -710h-142l-26 144h-237l-61 -144h-141zM237 261h170l-51 281h-2z" />
    <glyph glyph-name="uni01CE" unicode="&#x1ce;" horiz-adv-x="558" 
d="M262 549l-75 147h112l34 -73h3l52 73h112l-113 -147h-125zM198 -9q-80 0 -122 56t-42 143q0 125 67.5 215.5t168.5 90.5q80 0 122 -45l3 1l5 36h127l-60 -488h-127l10 82l-3 1q-64 -92 -149 -92zM231 104q49 0 93.5 61t57.5 160l2 16q-41 41 -98 41q-55 0 -89.5 -58
t-34.5 -130q0 -42 18 -66t51 -24z" />
    <glyph glyph-name="uni01CF" unicode="&#x1cf;" horiz-adv-x="310" 
d="M155 768l-80 135h113l38 -66h2l54 66h112l-114 -135h-125zM56 0l87 710h138l-87 -710h-138z" />
    <glyph glyph-name="uni01D0" unicode="&#x1d0;" horiz-adv-x="262" 
d="M109 549l-75 147h112l34 -73h3l52 73h112l-113 -147h-125zM37 0l61 489h127l-60 -489h-128z" />
    <glyph glyph-name="uni01D1" unicode="&#x1d1;" horiz-adv-x="754" 
d="M403 769l-80 135h113l38 -66h2l54 66h112l-114 -135h-125zM346 -9q-131 0 -208.5 80t-77.5 221q0 113 45.5 209.5t132 157t196.5 60.5q130 0 208.5 -79.5t78.5 -219.5q0 -180 -102 -304.5t-273 -124.5zM357 119q96 0 159 87.5t63 207.5q0 88 -42.5 133t-116.5 45
q-93 0 -156 -89.5t-63 -205.5q0 -88 42 -133t114 -45z" />
    <glyph glyph-name="uni01D2" unicode="&#x1d2;" horiz-adv-x="543" 
d="M253 549l-75 147h112l34 -73h3l52 73h112l-113 -147h-125zM241 -9q-94 0 -149.5 55t-55.5 153q0 123 71.5 210t191.5 87q95 0 151.5 -53.5t56.5 -150.5q0 -130 -69.5 -215.5t-196.5 -85.5zM248 106q57 0 94 51.5t37 124.5q0 55 -27 77.5t-62 22.5q-56 0 -91.5 -52.5
t-35.5 -119.5q0 -47 23.5 -75.5t61.5 -28.5z" />
    <glyph glyph-name="uni01D3" unicode="&#x1d3;" horiz-adv-x="669" 
d="M340 769l-80 135h113l38 -66h2l54 66h112l-114 -135h-125zM306 -9q-132 0 -188.5 85t-38.5 233l50 401h136l-50 -405q-11 -84 12 -134.5t88 -50.5q130 0 152 175l51 415h136l-51 -416q-19 -158 -92 -230.5t-205 -72.5z" />
    <glyph glyph-name="uni01D4" unicode="&#x1d4;" horiz-adv-x="542" 
d="M248 549l-75 147h112l34 -73h3l52 73h112l-113 -147h-125zM178 -9q-76 0 -109 46.5t-19 149.5l43 302h126l-38 -277q-9 -59 1 -82.5t41 -23.5q39 0 82.5 50.5t52.5 116.5l26 216h127l-60 -489h-126l9 80h-2q-63 -89 -154 -89z" />
    <glyph glyph-name="uni01D5" unicode="&#x1d5;" horiz-adv-x="669" 
d="M277 938l10 77h279l-10 -77h-279zM308 767q-30 0 -49.5 18.5t-19.5 46.5q0 29 20.5 48.5t51.5 19.5q30 0 50 -18.5t20 -46.5q0 -29 -21 -48.5t-52 -19.5zM501 767q-30 0 -49.5 18.5t-19.5 46.5q0 29 20.5 48.5t51.5 19.5q30 0 50 -18.5t20 -46.5q0 -29 -21 -48.5
t-52 -19.5zM306 -9q-132 0 -188.5 85t-38.5 233l50 401h136l-50 -405q-11 -84 12 -134.5t88 -50.5q130 0 152 175l51 415h136l-51 -416q-19 -158 -92 -230.5t-205 -72.5z" />
    <glyph glyph-name="uni01D6" unicode="&#x1d6;" horiz-adv-x="542" 
d="M189 752l11 84h279l-11 -84h-279zM218 557q-32 0 -53.5 21t-21.5 52q0 33 22 54.5t56 21.5q32 0 53.5 -21t21.5 -52q0 -33 -22 -54.5t-56 -21.5zM410 557q-33 0 -54 21t-21 52q0 33 21.5 54.5t55.5 21.5q32 0 53.5 -21t21.5 -52q0 -33 -22 -54.5t-55 -21.5zM178 -9
q-76 0 -109 46.5t-19 149.5l43 302h126l-38 -277q-9 -59 1 -82.5t41 -23.5q39 0 82.5 50.5t52.5 116.5l26 216h127l-60 -489h-126l9 80h-2q-63 -89 -154 -89z" />
    <glyph glyph-name="uni01D7" unicode="&#x1d7;" horiz-adv-x="669" 
d="M366 913l105 131l130 1l-149 -132h-86zM308 767q-30 0 -49.5 18.5t-19.5 46.5q0 29 20.5 48.5t51.5 19.5q30 0 50 -18.5t20 -46.5q0 -29 -21 -48.5t-52 -19.5zM501 767q-30 0 -49.5 18.5t-19.5 46.5q0 29 20.5 48.5t51.5 19.5q30 0 50 -18.5t20 -46.5q0 -29 -21 -48.5
t-52 -19.5zM306 -9q-132 0 -188.5 85t-38.5 233l50 401h136l-50 -405q-11 -84 12 -134.5t88 -50.5q130 0 152 175l51 415h136l-51 -416q-19 -158 -92 -230.5t-205 -72.5z" />
    <glyph glyph-name="uni01D8" unicode="&#x1d8;" horiz-adv-x="542" 
d="M276 723l113 141h130l-149 -141h-94zM218 557q-32 0 -53.5 21t-21.5 52q0 33 22 54.5t56 21.5q32 0 53.5 -21t21.5 -52q0 -33 -22 -54.5t-56 -21.5zM410 557q-33 0 -54 21t-21 52q0 33 21.5 54.5t55.5 21.5q32 0 53.5 -21t21.5 -52q0 -33 -22 -54.5t-55 -21.5zM178 -9
q-76 0 -109 46.5t-19 149.5l43 302h126l-38 -277q-9 -59 1 -82.5t41 -23.5q39 0 82.5 50.5t52.5 116.5l26 216h127l-60 -489h-126l9 80h-2q-63 -89 -154 -89z" />
    <glyph glyph-name="uni01D9" unicode="&#x1d9;" horiz-adv-x="669" 
d="M347 919l-80 121h113l38 -59h2l54 59h112l-114 -121h-125zM308 767q-30 0 -49.5 18.5t-19.5 46.5q0 29 20.5 48.5t51.5 19.5q30 0 50 -18.5t20 -46.5q0 -29 -21 -48.5t-52 -19.5zM501 767q-30 0 -49.5 18.5t-19.5 46.5q0 29 20.5 48.5t51.5 19.5q30 0 50 -18.5t20 -46.5
q0 -29 -21 -48.5t-52 -19.5zM306 -9q-132 0 -188.5 85t-38.5 233l50 401h136l-50 -405q-11 -84 12 -134.5t88 -50.5q130 0 152 175l51 415h136l-51 -416q-19 -158 -92 -230.5t-205 -72.5z" />
    <glyph glyph-name="uni01DA" unicode="&#x1da;" horiz-adv-x="542" 
d="M265 720l-75 143h112l34 -71h3l52 71h112l-113 -143h-125zM218 557q-32 0 -53.5 21t-21.5 52q0 33 22 54.5t56 21.5q32 0 53.5 -21t21.5 -52q0 -33 -22 -54.5t-56 -21.5zM410 557q-33 0 -54 21t-21 52q0 33 21.5 54.5t55.5 21.5q32 0 53.5 -21t21.5 -52q0 -33 -22 -54.5
t-55 -21.5zM178 -9q-76 0 -109 46.5t-19 149.5l43 302h126l-38 -277q-9 -59 1 -82.5t41 -23.5q39 0 82.5 50.5t52.5 116.5l26 216h127l-60 -489h-126l9 80h-2q-63 -89 -154 -89z" />
    <glyph glyph-name="uni01DB" unicode="&#x1db;" horiz-adv-x="669" 
d="M375 913l-103 129h114l66 -129h-77zM308 767q-30 0 -49.5 18.5t-19.5 46.5q0 29 20.5 48.5t51.5 19.5q30 0 50 -18.5t20 -46.5q0 -29 -21 -48.5t-52 -19.5zM501 767q-30 0 -49.5 18.5t-19.5 46.5q0 29 20.5 48.5t51.5 19.5q30 0 50 -18.5t20 -46.5q0 -29 -21 -48.5
t-52 -19.5zM306 -9q-132 0 -188.5 85t-38.5 233l50 401h136l-50 -405q-11 -84 12 -134.5t88 -50.5q130 0 152 175l51 415h136l-51 -416q-19 -158 -92 -230.5t-205 -72.5z" />
    <glyph glyph-name="uni01DC" unicode="&#x1dc;" horiz-adv-x="542" 
d="M274 723l-103 141h128l67 -141h-92zM218 557q-32 0 -53.5 21t-21.5 52q0 33 22 54.5t56 21.5q32 0 53.5 -21t21.5 -52q0 -33 -22 -54.5t-56 -21.5zM410 557q-33 0 -54 21t-21 52q0 33 21.5 54.5t55.5 21.5q32 0 53.5 -21t21.5 -52q0 -33 -22 -54.5t-55 -21.5zM178 -9
q-76 0 -109 46.5t-19 149.5l43 302h126l-38 -277q-9 -59 1 -82.5t41 -23.5q39 0 82.5 50.5t52.5 116.5l26 216h127l-60 -489h-126l9 80h-2q-63 -89 -154 -89z" />
    <glyph glyph-name="Gcaron" unicode="&#x1e6;" horiz-adv-x="695" 
d="M379 768l-80 135h113l38 -66h2l54 66h112l-114 -135h-125zM350 -9q-129 0 -209.5 76.5t-80.5 221.5q0 180 104 305t264 125q164 0 243 -125l-109 -82q-50 78 -141 78q-94 0 -156 -87t-62 -209q0 -85 40 -131t114 -46q67 0 129 42l15 108h-135l15 118h268l-36 -306
q-48 -40 -119 -64t-144 -24z" />
    <glyph glyph-name="gcaron" unicode="&#x1e7;" horiz-adv-x="559" 
d="M262 549l-75 147h112l34 -73h3l52 73h112l-113 -147h-125zM195 -206q-95 0 -170 47l41 105q63 -40 130 -40q69 0 106.5 37.5t48.5 147.5l16 4l-17 6q-65 -94 -151 -94q-80 0 -122 55t-42 140q0 117 67.5 205.5t168.5 88.5q79 0 123 -44l2 1l4 36h127l-52 -427
q-10 -79 -35.5 -133.5t-65 -83t-82.5 -40t-97 -11.5zM231 120q47 0 91.5 55t57.5 141l4 25q-41 41 -97 41q-55 0 -89.5 -56t-34.5 -119q0 -41 18 -64t50 -23z" />
    <glyph glyph-name="uni01EA" unicode="&#x1ea;" horiz-adv-x="754" 
d="M405 -5q-33 -10 -54 -33.5t-21 -47.5q0 -28 27 -28q23 0 37 8l2 -72q-24 -11 -72 -11q-94 0 -94 76q0 60 58 108v1q-106 17 -167 94.5t-61 201.5q0 113 45.5 209.5t132 157t196.5 60.5q130 0 208.5 -79.5t78.5 -219.5q0 -163 -85 -283t-231 -142zM201 297q0 -88 42 -133
t114 -45q96 0 159 87.5t63 207.5q0 88 -42.5 133t-116.5 45q-93 0 -156 -89.5t-63 -205.5z" />
    <glyph glyph-name="uni01EB" unicode="&#x1eb;" horiz-adv-x="543" 
d="M282 -6q-31 -11 -50.5 -34t-19.5 -46q0 -28 27 -28q23 0 37 8l2 -72q-24 -11 -72 -11q-94 0 -94 76q0 63 62 111l-1 2q-65 17 -101 69t-36 130q0 123 71.5 210t191.5 87q95 0 151.5 -53.5t56.5 -150.5q0 -119 -58.5 -201.5t-166.5 -96.5zM290 382q-56 0 -91.5 -52.5
t-35.5 -119.5q0 -47 23.5 -75.5t61.5 -28.5q57 0 94 51.5t37 124.5q0 55 -27 77.5t-62 22.5z" />
    <glyph glyph-name="Aringacute" unicode="&#x1fa;" horiz-adv-x="642" 
d="M397 756q-44 0 -73.5 29.5t-29.5 73.5q0 46 30.5 76t76.5 30q42 0 73 -28l58 45h133l-161 -121q-1 -46 -31.5 -75.5t-75.5 -29.5zM400 898q-16 0 -27 -11t-11 -27t10.5 -26.5t26.5 -10.5t27 11t11 27t-10.5 26.5t-26.5 10.5zM310 710h136l149 -710h-142l-26 144h-237
l-61 -144h-141zM237 261h170l-51 281h-2z" />
    <glyph glyph-name="aringacute" unicode="&#x1fb;" horiz-adv-x="558" 
d="M336 539q-44 0 -73.5 29.5t-29.5 73.5q0 46 30.5 76t76.5 30q42 0 71 -27l57 43h136l-161 -120q-1 -46 -31.5 -75.5t-75.5 -29.5zM339 681q-16 0 -27 -11t-11 -27t10.5 -26.5t26.5 -10.5t27 11t11 27t-10.5 26.5t-26.5 10.5zM395 452l5 36h127l-60 -488h-127l10 82l-3 1
q-64 -92 -149 -92q-80 0 -122 56t-42 143q0 125 67.5 215.5t168.5 90.5q80 0 122 -45zM382 325l2 16q-41 41 -98 41q-55 0 -89.5 -58t-34.5 -130q0 -42 18 -66t51 -24q49 0 93.5 61t57.5 160z" />
    <glyph glyph-name="AEacute" unicode="&#x1fc;" horiz-adv-x="872" 
d="M413 769l115 134l136 1l-130 -135h-121zM-26 0l400 710h488l-15 -122h-283l-23 -175h231l-15 -120h-230l-21 -171h302l-15 -122h-434l18 144h-177l-79 -144h-147zM262 261h130l36 301h-2z" />
    <glyph glyph-name="aeacute" unicode="&#x1fd;" horiz-adv-x="693" 
d="M599 703l-129 -147h-124l119 146zM481 103q50 0 89 50l96 -64q-74 -96 -190 -96q-128 0 -166 99q-49 -101 -143 -101q-68 0 -108.5 51t-38.5 133q2 131 73 222.5t187 91.5q72 0 121 -30q55 37 129 37q64 0 108.5 -35t44.5 -95q0 -81 -79.5 -130.5t-211.5 -61.5
q7 -35 31.5 -53t57.5 -18zM517 386q-35 0 -70.5 -34.5t-49.5 -91.5q161 23 161 96q0 12 -10.5 21t-30.5 9zM188 101q18 0 34 15.5t28.5 47.5t19.5 53.5t17 59.5q14 56 39 100q-16 3 -30 3q-66 0 -107 -62.5t-41 -147.5q0 -33 11.5 -51t28.5 -18z" />
    <glyph glyph-name="Oslashacute" unicode="&#x1fe;" horiz-adv-x="756" 
d="M634 903l-130 -135h-121l115 134zM752 681l-76 -81q47 -74 47 -180q0 -180 -102 -304.5t-273 -124.5q-115 0 -189 62l-79 -84l-60 61l84 88q-42 73 -42 174q0 113 45.5 209.5t132 157t196.5 60.5q109 0 183 -57l73 78zM203 297q0 -34 8 -66l312 330q-38 31 -101 31
q-93 0 -156 -89.5t-63 -205.5zM581 414q0 40 -10 75l-316 -335q41 -35 104 -35q96 0 159 87.5t63 207.5z" />
    <glyph glyph-name="oslashacute" unicode="&#x1ff;" horiz-adv-x="545" 
d="M505 703l-129 -147h-124l119 146zM529 462l-51 -54q29 -47 29 -116q0 -130 -69.5 -215.5t-196.5 -85.5q-75 0 -127 36l-49 -51l-48 48l50 53q-31 50 -31 122q0 123 71.5 210t191.5 87q80 0 133 -38l49 51zM163 210q0 -16 3 -30l178 186q-23 16 -54 16q-56 0 -91.5 -52.5
t-35.5 -119.5zM379 282q0 15 -1 21l-176 -183q20 -14 46 -14q57 0 94 51.5t37 124.5z" />
    <glyph glyph-name="Scommaaccent" unicode="&#x218;" horiz-adv-x="556" 
d="M261 -9q-76 0 -140.5 32.5t-101.5 91.5l98 88q22 -42 60 -65t79 -23q49 0 80 25t31 61q0 9 -2.5 17t-8.5 15.5t-11 12.5t-16.5 12.5t-19.5 12t-25.5 14.5t-27.5 16q-87 51 -115 75q-61 54 -61 130q0 96 68 154.5t169 58.5q62 0 119 -28t93 -78l-98 -84q-47 68 -121 68
q-40 0 -64.5 -22t-23.5 -53q1 -26 20.5 -44.5t72.5 -50.5q14 -8 47.5 -27t47.5 -27.5t37.5 -27t34 -34t19 -39.5t8.5 -52q0 -109 -69.5 -169t-178.5 -60zM152 -220l-15 74q32 10 44.5 25t12.5 44q0 4 -2 24h108v-23q0 -64 -38.5 -101.5t-109.5 -42.5z" />
    <glyph glyph-name="scommaaccent" unicode="&#x219;" horiz-adv-x="424" 
d="M190 -9q-54 0 -105 23t-79 61l77 79q46 -59 109 -59q27 0 45 10.5t18 28.5q0 15 -15 25.5t-55 29.5q-9 4 -13 6q-58 27 -89 61t-31 85q0 69 50 112t124 43q109 0 172 -73l-80 -79q-36 48 -92 50q-21 0 -35 -11t-14 -29q0 -26 75 -63q31 -15 48.5 -25.5t38.5 -28
t31.5 -39.5t10.5 -49q1 -74 -51 -116t-140 -42zM77 -220l-15 74q32 10 44.5 25t12.5 44q0 4 -2 24h108v-23q0 -64 -38.5 -101.5t-109.5 -42.5z" />
    <glyph glyph-name="uni021A" unicode="&#x21a;" horiz-adv-x="543" 
d="M173 0l72 588h-173l14 122h485l-15 -122h-175l-72 -588h-136zM138 -220l-15 74q32 10 44.5 25t12.5 44q0 4 -2 24h108v-23q0 -64 -38.5 -101.5t-109.5 -42.5z" />
    <glyph glyph-name="uni021B" unicode="&#x21b;" horiz-adv-x="340" 
d="M169 -9q-61 0 -90 38.5t-21 110.5l30 243h-51l13 106h50l20 148l129 25l-21 -173h111l-13 -106h-111l-27 -223q-7 -50 28 -50q25 0 61 21l19 -105q-59 -35 -127 -35zM63 -220l-15 74q32 10 44.5 25t12.5 44q0 4 -2 24h108v-23q0 -64 -38.5 -101.5t-109.5 -42.5z" />
    <glyph glyph-name="uni0232" unicode="&#x232;" horiz-adv-x="581" 
d="M216 790l12 98h279l-13 -98h-278zM191 0l39 312l-163 398h150l94 -269h3l160 269h157l-264 -398l-39 -312h-137z" />
    <glyph glyph-name="uni0233" unicode="&#x233;" horiz-adv-x="540" 
d="M464 685l-13 -102h-278l12 102h279zM385 489h125l-52 -426q-32 -269 -270 -269q-97 0 -172 47l40 103q64 -41 128 -41q63 0 99.5 34.5t49.5 131.5l1 10l-2 1q-64 -89 -157 -89q-155 0 -127 196l41 302h126l-37 -277q-7 -59 2.5 -82t40.5 -24q41 0 85.5 53t52.5 121z" />
    <glyph glyph-name="uni0237" unicode="&#x237;" horiz-adv-x="245" 
d="M-8 -206q-52 0 -95 23l32 99q18 -14 41 -14t35 20t17 68l62 499h127l-63 -517q-23 -178 -156 -178z" />
    <glyph glyph-name="uni0251" unicode="&#x251;" horiz-adv-x="558" 
d="M198 -9q-80 0 -122 56t-42 143q0 125 67.5 215.5t168.5 90.5q80 0 122 -45l3 1l5 36h127l-60 -488h-127l10 82l-3 1q-64 -92 -149 -92zM231 104q49 0 93.5 61t57.5 160l2 16q-41 41 -98 41q-55 0 -89.5 -58t-34.5 -130q0 -42 18 -66t51 -24z" />
    <glyph glyph-name="uni0259" unicode="&#x259;" horiz-adv-x="466" 
d="M236 496q93 0 148 -56.5t55 -153.5q0 -129 -69 -211.5t-195 -82.5q-70 0 -115 36.5t-45 100.5q0 46 24.5 81.5t67.5 57.5t94 35t113 19q-14 64 -85 64q-52 0 -101 -40l-69 85q34 30 82 47.5t95 17.5zM187 103q49 0 80.5 34t43.5 92q-171 -20 -171 -90q0 -36 47 -36z" />
    <glyph glyph-name="uni0261" unicode="&#x261;" horiz-adv-x="559" 
d="M195 -206q-95 0 -170 47l41 105q63 -40 130 -40q69 0 106.5 37.5t48.5 147.5l16 4l-17 6q-65 -94 -151 -94q-80 0 -122 55t-42 140q0 117 67.5 205.5t168.5 88.5q79 0 123 -44l2 1l4 36h127l-52 -427q-10 -79 -35.5 -133.5t-65 -83t-82.5 -40t-97 -11.5zM231 120
q47 0 91.5 55t57.5 141l4 25q-41 41 -97 41q-55 0 -89.5 -56t-34.5 -119q0 -41 18 -64t50 -23z" />
    <glyph glyph-name="uni0272" unicode="&#x272;" horiz-adv-x="552" 
d="M384 496q75 0 103.5 -49t14.5 -151l-40 -296h-126l37 276q7 55 -1.5 80.5t-38.5 25.5q-42 0 -88.5 -54.5t-59.5 -137.5l-23 -190q-14 -110 -58.5 -157.5t-129.5 -47.5q-33 0 -60 8l21 97q3 0 10.5 -1.5t11.5 -1.5q36 0 53 25t26 89l9 66l50 412h127l-9 -78l2 -1
q71 86 169 86z" />
    <glyph glyph-name="uni02BB" unicode="&#x2bb;" horiz-adv-x="225" 
d="M81 410l47 261h92l-17 -261h-122z" />
    <glyph glyph-name="uni02BC" unicode="&#x2bc;" horiz-adv-x="208" 
d="M62 494l54 214h125l-87 -214h-92z" />
    <glyph glyph-name="uni02BE" unicode="&#x2be;" horiz-adv-x="236" 
d="M101 759q68 0 109 -39.5t41 -103.5q0 -81 -51 -132t-131 -51l-4 89q37 1 59 26.5t22 62.5q0 55 -61 58z" />
    <glyph glyph-name="uni02BF" unicode="&#x2bf;" horiz-adv-x="251" 
d="M237 433q-68 0 -109 39.5t-41 103.5q0 81 51 132t131 51l4 -89q-37 -1 -59 -26.5t-22 -62.5q0 -55 61 -58z" />
    <glyph glyph-name="circumflex" unicode="&#x2c6;" horiz-adv-x="419" 
d="M85 534l116 149h116l85 -149h-116l-30 75h-2l-49 -75h-120z" />
    <glyph glyph-name="caron" unicode="&#x2c7;" horiz-adv-x="419" 
d="M181 529l-75 147h112l34 -73h3l52 73h112l-113 -147h-125z" />
    <glyph glyph-name="uni02C8" unicode="&#x2c8;" horiz-adv-x="192" 
d="M66 372l31 279h95l-33 -278z" />
    <glyph glyph-name="uni02C9" unicode="&#x2c9;" horiz-adv-x="337" 
d="M71 584l12 102h279l-13 -102h-278z" />
    <glyph glyph-name="uni02CA" unicode="&#x2ca;" horiz-adv-x="307" 
d="M87 557l119 146l134 1l-129 -147h-124z" />
    <glyph glyph-name="uni02CB" unicode="&#x2cb;" horiz-adv-x="304" 
d="M177 557l-93 147l134 -1l82 -146h-123z" />
    <glyph glyph-name="uni02CC" unicode="&#x2cc;" horiz-adv-x="192" 
d="M0 -186l31 279h95l-33 -278z" />
    <glyph glyph-name="breve" unicode="&#x2d8;" horiz-adv-x="414" 
d="M242 524q-69 0 -104 39.5t-29 112.5h95q-3 -25 8 -41t36 -16t44 16.5t25 40.5h95q-13 -70 -57.5 -111t-112.5 -41z" />
    <glyph glyph-name="dotaccent" unicode="&#x2d9;" horiz-adv-x="464" 
d="M275 537q-34 0 -56.5 22.5t-22.5 55.5q0 35 23 57.5t59 22.5q34 0 57 -22t23 -55q0 -35 -23.5 -58t-59.5 -23z" />
    <glyph glyph-name="ring" unicode="&#x2da;" horiz-adv-x="430" 
d="M259 513q-44 0 -73.5 29.5t-29.5 73.5q0 46 30.5 76t76.5 30q44 0 73.5 -29t29.5 -73q0 -46 -30.5 -76.5t-76.5 -30.5zM261 580q16 0 27 11t11 27t-10.5 26.5t-26.5 10.5t-27 -11t-11 -27t10.5 -26.5t26.5 -10.5z" />
    <glyph glyph-name="ogonek" unicode="&#x2db;" horiz-adv-x="436" 
d="M196 -189q-94 0 -94 76q0 37 25 72.5t62 54.5l108 -14q-40 -6 -67.5 -32t-27.5 -54t27 -28q23 0 37 8l2 -72q-24 -11 -72 -11z" />
    <glyph glyph-name="tilde" unicode="&#x2dc;" horiz-adv-x="447" 
d="M336 532q-11 0 -20.5 2t-18 6t-13.5 7t-13.5 9t-10.5 7q-27 20 -45 20q-36 0 -60 -52l-75 38q48 112 123 112q11 0 21 -1.5t18 -5.5t12.5 -6.5t12.5 -8t10 -6.5q31 -22 45 -22q36 0 60 52l75 -30q-21 -57 -52.5 -89t-68.5 -32z" />
    <glyph glyph-name="hungarumlaut" unicode="&#x2dd;" horiz-adv-x="482" 
d="M70 536l118 146l129 1l-129 -147h-118zM264 536l117 146l129 1l-129 -147h-117z" />
    <glyph glyph-name="gravecomb" unicode="&#x300;" 
d="M-486 536l-93 147l134 -1l82 -146h-123z" />
    <glyph glyph-name="acutecomb" unicode="&#x301;" 
d="M-565 536l119 146l134 1l-129 -147h-124z" />
    <glyph glyph-name="uni0302" unicode="&#x302;" 
d="M-624 534l116 149h116l85 -149h-116l-30 75h-2l-49 -75h-120z" />
    <glyph glyph-name="tildecomb" unicode="&#x303;" 
d="M-384 532q-11 0 -20.5 2t-18 6t-13.5 7t-13.5 9t-10.5 7q-27 20 -45 20q-36 0 -60 -52l-75 38q48 112 123 112q11 0 21 -1.5t18 -5.5t12.5 -6.5t12.5 -8t10 -6.5q31 -22 45 -22q36 0 60 52l75 -30q-21 -57 -52.5 -89t-68.5 -32z" />
    <glyph glyph-name="uni0304" unicode="&#x304;" 
d="M-600 563l12 102h279l-13 -102h-278z" />
    <glyph glyph-name="uni0306" unicode="&#x306;" 
d="M-465 524q-69 0 -104 39.5t-29 112.5h95q-3 -25 8 -41t36 -16t44 16.5t25 40.5h95q-13 -70 -57.5 -111t-112.5 -41z" />
    <glyph glyph-name="uni0307" unicode="&#x307;" 
d="M-455 537q-34 0 -56.5 22.5t-22.5 55.5q0 35 23 57.5t59 22.5q34 0 57 -22t23 -55q0 -35 -23.5 -58t-59.5 -23z" />
    <glyph glyph-name="uni0308" unicode="&#x308;" 
d="M-557 537q-34 0 -56.5 22.5t-22.5 55.5q0 35 23 57.5t59 22.5q34 0 56.5 -22t22.5 -55q0 -35 -23 -58t-59 -23zM-355 537q-35 0 -57.5 22.5t-22.5 55.5q0 35 23.5 57.5t59.5 22.5q34 0 56.5 -22t22.5 -55q0 -35 -23 -58t-59 -23z" />
    <glyph glyph-name="hookabovecomb" unicode="&#x309;" 
d="M-437 529l-76 1q66 49 67 86q1 8 -5 13.5t-18 5.5q-33 0 -76 -29l-18 59q59 52 137 52q36 0 57.5 -17t21.5 -49q0 -39 -27.5 -72.5t-62.5 -49.5z" />
    <glyph glyph-name="uni030A" unicode="&#x30a;" 
d="M-454 519q-44 0 -73.5 29.5t-29.5 73.5q0 46 30.5 76t76.5 30q44 0 73.5 -29t29.5 -73q0 -46 -30.5 -76.5t-76.5 -30.5zM-452 586q16 0 27 11t11 27t-10.5 26.5t-26.5 10.5t-27 -11t-11 -27t10.5 -26.5t26.5 -10.5z" />
    <glyph glyph-name="uni030B" unicode="&#x30b;" 
d="M-618 536l118 146l129 1l-129 -147h-118zM-424 536l117 146l129 1l-129 -147h-117z" />
    <glyph glyph-name="uni030C" unicode="&#x30c;" 
d="M-528 529l-75 147h112l34 -73h3l52 73h112l-113 -147h-125z" />
    <glyph glyph-name="uni0312" unicode="&#x312;" 
d="M-512 542q-1 5 -1 22q0 64 39 102t109 42l16 -73q-31 -10 -44 -25.5t-13 -44.5q0 -14 1 -23h-107z" />
    <glyph glyph-name="uni0313" unicode="&#x313;" 
d="M-478 698q1 -5 1 -22q0 -64 -39 -102t-109 -42l-16 73q31 10 44 25.5t13 44.5q0 14 -1 23h107z" />
    <glyph glyph-name="uni031B" unicode="&#x31b;" 
d="M-448 445q-28 0 -57 10l16 65q17 -7 30 -7q10 0 17.5 4t13.5 13.5t9.5 17.5t7 25.5t5 28t4.5 33.5l10 75h111l-11 -89q-12 -88 -52.5 -132t-103.5 -44z" />
    <glyph glyph-name="dotbelowcomb" unicode="&#x323;" 
d="M-547 -71q34 0 56.5 -22.5t22.5 -55.5q0 -35 -23 -57.5t-59 -22.5q-34 0 -57 22t-23 55q0 35 23.5 58t59.5 23z" />
    <glyph glyph-name="uni0324" unicode="&#x324;" 
d="M-647 -71q35 0 57.5 -22.5t22.5 -55.5q0 -35 -23.5 -57.5t-59.5 -22.5q-34 0 -56.5 22t-22.5 55q0 35 23 58t59 23zM-445 -71q34 0 56.5 -22.5t22.5 -55.5q0 -35 -23 -57.5t-59 -22.5q-34 0 -56.5 22t-22.5 55q0 35 23 58t59 23z" />
    <glyph glyph-name="uni0326" unicode="&#x326;" 
d="M-636 -220l-15 74q32 10 44.5 25t12.5 44q0 4 -2 24h108v-23q0 -64 -38.5 -101.5t-109.5 -42.5z" />
    <glyph glyph-name="uni0327" unicode="&#x327;" 
d="M-590 -192q-21 0 -51 6l3 58q15 -6 37 -6q56 0 56 36q0 25 -67 25l2 37l25 42h70l-25 -36l1 -1q75 -3 75 -67q0 -45 -34 -69.5t-92 -24.5z" />
    <glyph glyph-name="uni0328" unicode="&#x328;" 
d="M-632 -189q-94 0 -94 76q0 37 25 72.5t62 54.5l108 -14q-40 -6 -67.5 -32t-27.5 -54t27 -28q23 0 37 8l2 -72q-24 -11 -72 -11z" />
    <glyph glyph-name="uni032E" unicode="&#x32e;" 
d="M-555 -229q-69 0 -104 39.5t-29 112.5h95q-3 -25 8 -41t36 -16t44 16.5t25 40.5h95q-13 -70 -57.5 -111t-112.5 -41z" />
    <glyph glyph-name="uni0331" unicode="&#x331;" 
d="M-693 -209l12 102h279l-13 -102h-278z" />
    <glyph glyph-name="uni0335" unicode="&#x335;" 
d="M-630 222l9 82h262l-11 -82h-260z" />
    <glyph glyph-name="uni0374" unicode="&#x374;" horiz-adv-x="258" 
d="M62 472l69 258h133l-95 -258h-107z" />
    <glyph glyph-name="uni0375" unicode="&#x375;" horiz-adv-x="261" 
d="M7 -154l69 258h133l-95 -258h-107z" />
    <glyph glyph-name="uni037E" unicode="&#x37e;" horiz-adv-x="250" 
d="M144 338q-35 0 -56.5 22t-21.5 55q0 35 22.5 58t58.5 23q34 0 56 -22t22 -56q0 -35 -22.5 -57.5t-58.5 -22.5zM-14 -133l59 259h129l-96 -259h-92z" />
    <glyph glyph-name="tonos" unicode="&#x384;" horiz-adv-x="422" 
d="M160 536l77 172h147l-105 -172h-119z" />
    <glyph glyph-name="dieresistonos" unicode="&#x385;" horiz-adv-x="528" 
d="M232 536l46 172h113l-70 -172h-89zM137 537q-35 0 -57.5 22.5t-22.5 55.5q0 35 23.5 57.5t59.5 22.5q34 0 56.5 -22t22.5 -55q0 -35 -23.5 -58t-58.5 -23zM467 537q-34 0 -56.5 22.5t-22.5 55.5q0 34 23.5 57t58.5 23t57.5 -22t22.5 -55q0 -35 -23.5 -58t-59.5 -23z" />
    <glyph glyph-name="Alphatonos" unicode="&#x386;" horiz-adv-x="642" 
d="M-27 538l83 172h145l-110 -172h-118zM-12 0l322 710h136l149 -710h-142l-26 144h-237l-61 -144h-141zM237 261h170l-51 281h-2z" />
    <glyph glyph-name="anoteleia" unicode="&#x387;" horiz-adv-x="268" 
d="M158 338q-35 0 -56.5 22t-21.5 55q0 35 22.5 58t58.5 23q34 0 56 -22t22 -56q0 -35 -22.5 -57.5t-58.5 -22.5z" />
    <glyph glyph-name="Epsilontonos" unicode="&#x388;" horiz-adv-x="563" 
d="M-149 538l83 172h145l-110 -172h-118zM51 0l87 710h415l-16 -122h-280l-21 -176h224l-15 -120h-224l-21 -170h299l-15 -122h-433z" />
    <glyph glyph-name="Etatonos" unicode="&#x389;" horiz-adv-x="686" 
d="M-149 538l83 172h145l-110 -172h-118zM52 0l87 710h136l-38 -309h251l38 309h136l-87 -710h-137l35 279h-251l-34 -279h-136z" />
    <glyph glyph-name="Iotatonos" unicode="&#x38a;" horiz-adv-x="310" 
d="M-144 538l83 172h145l-110 -172h-118zM56 0l87 710h138l-87 -710h-138z" />
    <glyph glyph-name="Omicrontonos" unicode="&#x38c;" horiz-adv-x="754" 
d="M346 -9q-131 0 -208.5 80t-77.5 221q0 113 45.5 209.5t132 157t196.5 60.5q130 0 208.5 -79.5t78.5 -219.5q0 -180 -102 -304.5t-273 -124.5zM-82 538l83 172h145l-110 -172h-118zM357 119q96 0 159 87.5t63 207.5q0 88 -42.5 133t-116.5 45q-93 0 -156 -89.5t-63 -205.5
q0 -88 42 -133t114 -45z" />
    <glyph glyph-name="Upsilontonos" unicode="&#x38e;" horiz-adv-x="581" 
d="M-194 538l83 172h145l-110 -172h-118zM191 0l39 312l-163 398h150l94 -269h3l160 269h157l-264 -398l-39 -312h-137z" />
    <glyph glyph-name="Omegatonos" unicode="&#x38f;" horiz-adv-x="700" 
d="M26 0l15 122h109v2q-83 91 -83 229q0 155 95 260.5t241 105.5q122 0 196 -81t74 -203q0 -92 -38.5 -173t-106.5 -139v-1h100l-15 -122h-254l15 122q156 124 156 305q0 77 -36 121t-97 44q-86 0 -138.5 -74.5t-52.5 -176.5q0 -123 89 -219l-15 -122h-254zM-96 538l83 172
h145l-110 -172h-118z" />
    <glyph glyph-name="iotadieresistonos" unicode="&#x390;" horiz-adv-x="308" 
d="M125 556l46 172h113l-70 -172h-89zM30 557q-35 0 -57.5 22.5t-22.5 55.5q0 35 23.5 57.5t59.5 22.5q34 0 56.5 -22t22.5 -55q0 -35 -23.5 -58t-58.5 -23zM360 557q-34 0 -56.5 22.5t-22.5 55.5q0 34 23.5 57t58.5 23t57.5 -22t22.5 -55q0 -35 -23.5 -58t-59.5 -23z
M170 -9q-130 0 -111 151l43 347h126l-41 -333q-7 -53 37 -53q12 0 32 5l20 -92q-55 -25 -106 -25z" />
    <glyph glyph-name="Alpha" unicode="&#x391;" horiz-adv-x="642" 
d="M-12 0l322 710h136l149 -710h-142l-26 144h-237l-61 -144h-141zM237 261h170l-51 281h-2z" />
    <glyph glyph-name="Beta" unicode="&#x392;" horiz-adv-x="603" 
d="M52 0l87 710h238q189 0 189 -149q0 -54 -29.5 -105t-81.5 -76v-2q102 -36 102 -146q0 -112 -68.5 -172t-201.5 -60h-235zM238 419h83q47 0 77 29t30 81q0 32 -20.5 46t-64.5 14h-84zM201 120h91q61 0 93.5 31.5t32.5 88.5q0 67 -94 67h-100z" />
    <glyph glyph-name="Gamma" unicode="&#x393;" horiz-adv-x="538" 
d="M52 0l87 710h426l-15 -122h-290l-72 -588h-136z" />
    <glyph glyph-name="uni0394" unicode="&#x394;" horiz-adv-x="618" 
d="M6 0l12 104l279 606h137l131 -606l-13 -104h-546zM166 122h257l-76 418h-1z" />
    <glyph glyph-name="Epsilon" unicode="&#x395;" horiz-adv-x="563" 
d="M51 0l87 710h415l-16 -122h-280l-21 -176h224l-15 -120h-224l-21 -170h299l-15 -122h-433z" />
    <glyph glyph-name="Zeta" unicode="&#x396;" horiz-adv-x="581" 
d="M23 0l12 107l359 478l-1 3h-287l14 122h463l-12 -104l-366 -480l2 -4h304l-15 -122h-473z" />
    <glyph glyph-name="Eta" unicode="&#x397;" horiz-adv-x="686" 
d="M52 0l87 710h136l-38 -309h251l38 309h136l-87 -710h-137l35 279h-251l-34 -279h-136z" />
    <glyph glyph-name="Theta" unicode="&#x398;" horiz-adv-x="753" 
d="M349 -9q-131 0 -208.5 80t-77.5 221q0 113 45.5 209.5t132 157t196.5 60.5q130 0 208.5 -79.5t78.5 -219.5q0 -180 -102 -304.5t-273 -124.5zM360 119q96 0 159 87.5t63 207.5q0 88 -42.5 133t-116.5 45q-93 0 -156 -89.5t-63 -205.5q0 -88 42 -133t114 -45zM274 291
l15 119h219l-15 -119h-219z" />
    <glyph glyph-name="Iota" unicode="&#x399;" horiz-adv-x="310" 
d="M56 0l87 710h138l-87 -710h-138z" />
    <glyph glyph-name="Kappa" unicode="&#x39a;" horiz-adv-x="621" 
d="M662 710l-263 -317l181 -393h-155l-129 295l-85 -100l-24 -195h-135l87 710h135l-39 -319l3 -1l257 320h167z" />
    <glyph glyph-name="Lambda" unicode="&#x39b;" horiz-adv-x="626" 
d="M-12 0l313 710h137l138 -710h-141l-87 529h-2l-215 -529h-143z" />
    <glyph glyph-name="Mu" unicode="&#x39c;" horiz-adv-x="817" 
d="M52 0l87 710h135l144 -408h3l237 408h135l-87 -710h-135l52 432l-3 1l-178 -298h-88l-111 312l-2 -1l-54 -446h-135z" />
    <glyph glyph-name="Nu" unicode="&#x39d;" horiz-adv-x="707" 
d="M52 0l87 710h132l216 -481l3 2l59 479h134l-88 -710h-135l-213 472h-3l-58 -472h-134z" />
    <glyph glyph-name="Xi" unicode="&#x39e;" horiz-adv-x="595" 
d="M104 586l15 124h471l-16 -124h-470zM120 291l15 120h363l-15 -120h-363zM26 0l15 124h484l-16 -124h-483z" />
    <glyph glyph-name="Omicron" unicode="&#x39f;" horiz-adv-x="754" 
d="M346 -9q-131 0 -208.5 80t-77.5 221q0 113 45.5 209.5t132 157t196.5 60.5q130 0 208.5 -79.5t78.5 -219.5q0 -180 -102 -304.5t-273 -124.5zM357 119q96 0 159 87.5t63 207.5q0 88 -42.5 133t-116.5 45q-93 0 -156 -89.5t-63 -205.5q0 -88 42 -133t114 -45z" />
    <glyph glyph-name="Pi" unicode="&#x3a0;" horiz-adv-x="659" 
d="M52 0l87 710h496l-87 -710h-136l72 588h-224l-72 -588h-136z" />
    <glyph glyph-name="Rho" unicode="&#x3a1;" horiz-adv-x="585" 
d="M52 0l87 710h242q197 0 197 -193q0 -127 -73 -199.5t-209 -72.5h-80l-29 -245h-135zM231 366h78q59 0 93.5 37.5t34.5 105.5q0 38 -24.5 59t-63.5 21h-90z" />
    <glyph glyph-name="Sigma" unicode="&#x3a3;" horiz-adv-x="547" 
d="M18 0l12 95l199 258l-134 258l10 99h460l-14 -122h-290v-1l119 -231l-181 -233v-1h294l-15 -122h-460z" />
    <glyph glyph-name="Tau" unicode="&#x3a4;" horiz-adv-x="543" 
d="M173 0l72 588h-173l14 122h485l-15 -122h-175l-72 -588h-136z" />
    <glyph glyph-name="Upsilon" unicode="&#x3a5;" horiz-adv-x="581" 
d="M191 0l39 312l-163 398h150l94 -269h3l160 269h157l-264 -398l-39 -312h-137z" />
    <glyph glyph-name="Phi" unicode="&#x3a6;" horiz-adv-x="804" 
d="M778 397q0 -140 -85.5 -230.5t-244.5 -95.5l-8 -71h-135l9 72q-119 8 -189.5 73.5t-70.5 179.5q0 88 37.5 162t114 123t180.5 54l8 63h135l-8 -65q115 -10 186 -80.5t71 -184.5zM194 335q0 -135 138 -147l45 362q-87 -8 -135 -69.5t-48 -145.5zM458 187q88 7 134 61.5
t46 140.5q0 70 -35 111t-100 49z" />
    <glyph glyph-name="Chi" unicode="&#x3a7;" horiz-adv-x="624" 
d="M-19 0l252 360l-155 350h149l108 -251h4l163 251h161l-246 -354l164 -356h-154l-113 254h-4l-174 -254h-155z" />
    <glyph glyph-name="Psi" unicode="&#x3a8;" horiz-adv-x="734" 
d="M600 710h133l-32 -261q-18 -149 -87.5 -219.5t-191.5 -71.5l-19 -158h-134l19 158q-117 3 -170 79.5t-35 218.5l32 254h134l-31 -244q-11 -97 7.5 -140.5t77.5 -47.5l53 432h134l-53 -432q57 4 89 47.5t44 145.5z" />
    <glyph glyph-name="uni03A9" unicode="&#x3a9;" horiz-adv-x="700" 
d="M26 0l15 122h109v2q-83 91 -83 229q0 155 95 260.5t241 105.5q122 0 196 -81t74 -203q0 -92 -38.5 -173t-106.5 -139v-1h100l-15 -122h-254l15 122q156 124 156 305q0 77 -36 121t-97 44q-86 0 -138.5 -74.5t-52.5 -176.5q0 -123 89 -219l-15 -122h-254z" />
    <glyph glyph-name="Iotadieresis" unicode="&#x3aa;" horiz-adv-x="310" 
d="M115 767q-34 0 -56.5 22t-22.5 55q0 35 23 57.5t59 22.5q35 0 57 -21.5t22 -55.5q0 -35 -23 -57.5t-59 -22.5zM338 767q-34 0 -57 22t-23 55q0 34 24 57t59 23t57 -21.5t22 -55.5q0 -35 -23 -57.5t-59 -22.5zM56 0l87 710h138l-87 -710h-138z" />
    <glyph glyph-name="Upsilondieresis" unicode="&#x3ab;" horiz-adv-x="581" 
d="M245 767q-34 0 -56.5 22t-22.5 55q0 35 23 57.5t59 22.5q35 0 57 -21.5t22 -55.5q0 -35 -23 -57.5t-59 -22.5zM468 767q-34 0 -57 22t-23 55q0 34 24 57t59 23t57 -21.5t22 -55.5q0 -35 -23 -57.5t-59 -22.5zM191 0l39 312l-163 398h150l94 -269h3l160 269h157l-264 -398
l-39 -312h-137z" />
    <glyph glyph-name="alphatonos" unicode="&#x3ac;" horiz-adv-x="573" 
d="M483 728l-105 -172h-119l77 172h147zM489 101q13 0 31 3l21 -85q-40 -26 -99 -28q-85 0 -97 101h-2q-59 -101 -151 -101q-70 0 -115.5 56t-45.5 146q0 125 66 214t159 89q58 0 92 -28t52 -83h2l43 117l114 -48l-107 -217l2 -76q2 -36 8.5 -48t26.5 -12zM222 106
q34 0 65.5 37t52.5 104q-3 134 -71 134q-48 0 -79 -54t-31 -119q0 -102 63 -102z" />
    <glyph glyph-name="epsilontonos" unicode="&#x3ad;" horiz-adv-x="458" 
d="M212 556l77 172h147l-105 -172h-119zM201 -9q-83 0 -129.5 33.5t-46.5 92.5q-1 44 24 80.5t72 56.5v2q-62 33 -62 98q0 61 56.5 101.5t137.5 40.5q125 0 197 -55l-52 -89q-52 33 -126 35q-40 1 -64 -12.5t-24 -38.5q0 -43 61 -43l72 -1l-11 -87h-78q-32 0 -54 -17
t-22 -40q0 -46 75 -46q79 0 154 46l44 -96q-60 -36 -109 -48.5t-115 -12.5z" />
    <glyph glyph-name="etatonos" unicode="&#x3ae;" horiz-adv-x="565" 
d="M487 728l-105 -172h-119l77 172h147zM384 496q80 0 111.5 -50t17.5 -154l-65 -490h-126l63 479q6 51 -3 76t-38 25q-39 0 -82 -58t-54 -145l-22 -179h-126l42 343q4 28 -0.5 39.5t-20.5 11.5q-10 0 -27 -5l-4 92q35 15 77 15q92 0 98 -91h2q63 91 157 91z" />
    <glyph glyph-name="iotatonos" unicode="&#x3af;" horiz-adv-x="308" 
d="M114 556l77 172h147l-105 -172h-119zM170 -9q-130 0 -111 151l43 347h126l-41 -333q-7 -53 37 -53q12 0 32 5l20 -92q-55 -25 -106 -25z" />
    <glyph glyph-name="upsilondieresistonos" unicode="&#x3b0;" horiz-adv-x="529" 
d="M264 556l46 172h113l-70 -172h-89zM169 557q-35 0 -57.5 22.5t-22.5 55.5q0 35 23.5 57.5t59.5 22.5q34 0 56.5 -22t22.5 -55q0 -35 -23.5 -58t-58.5 -23zM499 557q-34 0 -56.5 22.5t-22.5 55.5q0 34 23.5 57t58.5 23t57.5 -22t22.5 -55q0 -35 -23.5 -58t-59.5 -23z
M232 -9q-85 0 -128.5 48t-41.5 123q1 44 16 116.5t16 81.5q4 33 -24 33q-10 0 -20 -3l-3 90q46 16 87 16q93 0 87 -104q-1 -30 -16 -101t-16 -111q-2 -74 56 -74q59 0 92 77t35 196q1 46 -6 103l119 16q16 -64 16 -129q-2 -171 -73.5 -274.5t-195.5 -103.5z" />
    <glyph glyph-name="alpha" unicode="&#x3b1;" horiz-adv-x="573" 
d="M489 101q13 0 31 3l21 -85q-40 -26 -99 -28q-85 0 -97 101h-2q-59 -101 -151 -101q-70 0 -115.5 56t-45.5 146q0 125 66 214t159 89q58 0 92 -28t52 -83h2l43 117l114 -48l-107 -217l2 -76q2 -36 8.5 -48t26.5 -12zM222 106q34 0 65.5 37t52.5 104q-3 134 -71 134
q-48 0 -79 -54t-31 -119q0 -102 63 -102z" />
    <glyph glyph-name="beta" unicode="&#x3b2;" horiz-adv-x="544" 
d="M424 385q37 -17 58.5 -56.5t21.5 -95.5q0 -104 -67 -173t-171 -69q-109 0 -162 67t-53 184q0 129 37.5 242t115 187t179.5 74q77 0 119.5 -40.5t42.5 -107.5q0 -70 -37.5 -126t-82.5 -82zM373 634q-48 -1 -99.5 -62t-80.5 -187q101 24 162 74t62 121q2 54 -44 54z
M269 107q46 0 76.5 38t30.5 92q0 63 -43 85q-64 -25 -154 -38q-2 -14 -2 -33q0 -65 22.5 -104.5t69.5 -39.5z" />
    <glyph glyph-name="gamma" unicode="&#x3b3;" horiz-adv-x="516" 
d="M139 -198q21 199 4 340q-17 153 -31.5 203t-45.5 50q-7 0 -25 -4l-4 91q35 14 74 14q56 0 79.5 -28.5t38.5 -97.5q16 -73 29 -210h2q74 132 118 329h129q-28 -141 -83 -258t-145 -233q2 -64 -10 -196h-130z" />
    <glyph glyph-name="delta" unicode="&#x3b4;" horiz-adv-x="539" 
d="M377 493q128 -71 128 -209q0 -124 -71.5 -208.5t-189.5 -84.5q-98 0 -154 56.5t-56 147.5q0 82 41 153t111 112q-59 49 -59 120q0 72 55 118.5t145 46.5q127 0 205 -60l-65 -95q-65 45 -139 45q-31 0 -53 -12.5t-22 -38.5q0 -33 57 -59q39 -17 67 -32zM250 106
q55 0 90.5 48t35.5 109q0 86 -79 132l-21 12q-50 -29 -83 -86t-31 -117q1 -48 26 -73t62 -25z" />
    <glyph glyph-name="epsilon" unicode="&#x3b5;" horiz-adv-x="458" 
d="M201 -9q-83 0 -129.5 33.5t-46.5 92.5q-1 44 24 80.5t72 56.5v2q-62 33 -62 98q0 61 56.5 101.5t137.5 40.5q125 0 197 -55l-52 -89q-52 33 -126 35q-40 1 -64 -12.5t-24 -38.5q0 -43 61 -43l72 -1l-11 -87h-78q-32 0 -54 -17t-22 -40q0 -46 75 -46q79 0 154 46l44 -96
q-60 -36 -109 -48.5t-115 -12.5z" />
    <glyph glyph-name="zeta" unicode="&#x3b6;" horiz-adv-x="421" 
d="M293 -222l-101 62q68 76 68 112q0 16 -14 28t-57 30q-30 13 -46.5 21t-40.5 24.5t-36.5 34t-22.5 45t-10 60.5q0 188 273 432l-1 2h-193l12 107h355l-11 -95q-120 -101 -213.5 -222t-93.5 -213q0 -37 21 -55t76 -44q3 -1 4.5 -2t4 -2t4.5 -2q65 -30 91.5 -60.5
t26.5 -71.5q0 -83 -96 -191z" />
    <glyph glyph-name="eta" unicode="&#x3b7;" horiz-adv-x="565" 
d="M384 496q80 0 111.5 -50t17.5 -154l-65 -490h-126l63 479q6 51 -3 76t-38 25q-39 0 -82 -58t-54 -145l-22 -179h-126l42 343q4 28 -0.5 39.5t-20.5 11.5q-10 0 -27 -5l-4 92q35 15 77 15q92 0 98 -91h2q63 91 157 91z" />
    <glyph glyph-name="theta" unicode="&#x3b8;" horiz-adv-x="551" 
d="M330 745q202 0 202 -265q0 -96 -16.5 -181t-49.5 -155.5t-89.5 -111.5t-129.5 -41q-90 0 -143.5 63t-53.5 204q0 128 29 235.5t94 179.5t157 72zM323 632q-44 0 -77 -58.5t-51 -149.5h205q2 36 2 53q0 155 -79 155zM254 105q50 0 83.5 60t50.5 154h-207q-2 -40 -2 -57
q0 -157 75 -157z" />
    <glyph glyph-name="iota" unicode="&#x3b9;" horiz-adv-x="308" 
d="M170 -9q-130 0 -111 151l43 347h126l-41 -333q-7 -53 37 -53q12 0 32 5l20 -92q-55 -25 -106 -25z" />
    <glyph glyph-name="kappa" unicode="&#x3ba;" horiz-adv-x="548" 
d="M454 102q9 0 41 6l20 -88q-51 -29 -108 -29q-104 0 -114 118l-6 94q-69 -69 -122 -126l-9 -77h-122l61 489h126l-23 -181q-2 -21 -16 -81h1q144 185 261 287l90 -83q-66 -56 -152 -135q12 -94 18 -122q6 -37 18.5 -54.5t35.5 -17.5z" />
    <glyph glyph-name="lambda" unicode="&#x3bb;" horiz-adv-x="503" 
d="M-11 0l245 478l-18 92q-7 36 -21.5 51t-40.5 15q-21 0 -51 -8l-7 99q46 18 96 18q60 0 95.5 -38t53.5 -119q70 -305 116 -588h-134q-22 148 -48 307h-1l-144 -307h-141z" />
    <glyph glyph-name="uni03BC" unicode="&#x3bc;" horiz-adv-x="563" 
d="M514 104l18 -87q-36 -26 -92 -26q-85 0 -98 82h-1q-50 -82 -121 -82q-47 0 -69 32l-2 -1q7 -67 0 -119l-13 -101h-125l84 687h126l-35 -281q-12 -102 50 -102q39 0 71.5 35.5t41.5 104.5l29 243h127l-41 -335q-5 -30 0 -41t24 -11q8 0 26 2z" />
    <glyph glyph-name="nu" unicode="&#x3bd;" horiz-adv-x="521" 
d="M146 0l-99 489h133l60 -366l2 -1q102 152 139 367h133q-54 -305 -232 -489h-136z" />
    <glyph glyph-name="xi" unicode="&#x3be;" horiz-adv-x="452" 
d="M306 -222l-100 62q68 73 68 111q0 19 -14.5 32t-51.5 28q-39 17 -64 30.5t-54 35.5t-43 52.5t-14 68.5q0 66 35.5 113.5t95.5 72.5l1 3q-48 34 -48 89q0 99 114 154l-1 1l-113 -2l14 107h356l-13 -101q-105 -16 -167.5 -51t-62.5 -89q0 -65 127 -65h46l-14 -107h-76
q-73 0 -119.5 -27.5t-46.5 -80.5q0 -35 27.5 -56.5t91.5 -49.5q68 -30 95.5 -59.5t27.5 -79.5q0 -91 -97 -192z" />
    <glyph glyph-name="omicron" unicode="&#x3bf;" horiz-adv-x="533" 
d="M237 -9q-95 0 -149 54.5t-54 151.5q0 126 69.5 212.5t194.5 86.5q92 0 146.5 -53t54.5 -149q0 -130 -68 -216.5t-194 -86.5zM245 106q56 0 91 52t35 125q0 56 -25.5 77.5t-59.5 21.5q-55 0 -89.5 -52.5t-34.5 -120.5q0 -48 22.5 -75.5t60.5 -27.5z" />
    <glyph glyph-name="pi" unicode="&#x3c0;" horiz-adv-x="581" 
d="M485 381l-28 -225q-4 -31 2 -42.5t24 -11.5q11 0 27 3l19 -88q-41 -26 -92 -26q-57 0 -86 37t-20 116l29 237h-121l-47 -381h-125l47 381h-78l13 98q54 10 104 10h436l-19 -108h-85z" />
    <glyph glyph-name="rho" unicode="&#x3c1;" horiz-adv-x="543" 
d="M1 -198l55 443q15 125 80 188t169 63q99 0 152.5 -57t53.5 -148q0 -133 -68 -216.5t-167 -83.5q-73 0 -116 43h-3l-28 -232h-128zM258 106q53 0 89 50t36 127q0 43 -24.5 71t-60.5 28q-45 0 -76 -36t-39 -105l-10 -79q21 -56 85 -56z" />
    <glyph glyph-name="uni03C2" unicode="&#x3c2;" horiz-adv-x="457" 
d="M293 -222l-100 62q68 78 68 112q0 16 -14 28t-58 31q-35 15 -55.5 26.5t-47.5 34t-40 55.5t-13 77q0 120 72.5 206t187.5 86q121 0 174 -83l-99 -72q-26 41 -77 41q-55 0 -92.5 -50t-37.5 -122q0 -40 20.5 -59t74.5 -43q9 -4 14 -6q67 -31 93 -60.5t26 -71.5
q0 -77 -96 -192z" />
    <glyph glyph-name="sigma" unicode="&#x3c3;" horiz-adv-x="552" 
d="M232 -8q-91 0 -145 55t-54 153q0 124 66.5 206.5t188.5 82.5h269l-13 -107h-86l-1 -2q36 -49 36 -113q0 -112 -70.5 -193.5t-190.5 -81.5zM240 107q53 0 89 48.5t36 125.5q0 74 -42 101h-36q-58 0 -92.5 -51t-34.5 -126q0 -44 23 -71t57 -27z" />
    <glyph glyph-name="tau" unicode="&#x3c4;" horiz-adv-x="432" 
d="M232 -9q-62 0 -91.5 39.5t-19.5 119.5l28 232h-116l12 107h390l-13 -107h-146l-27 -222q-7 -54 32 -54q28 0 59 15l21 -95q-61 -35 -129 -35z" />
    <glyph glyph-name="upsilon" unicode="&#x3c5;" horiz-adv-x="529" 
d="M232 -9q-85 0 -128.5 48t-41.5 123q1 44 16 116.5t16 81.5q4 33 -24 33q-10 0 -20 -3l-3 90q46 16 87 16q93 0 87 -104q-1 -30 -16 -101t-16 -111q-2 -74 56 -74q59 0 92 77t35 196q1 46 -6 103l119 16q16 -64 16 -129q-2 -171 -73.5 -274.5t-195.5 -103.5z" />
    <glyph glyph-name="phi" unicode="&#x3c6;" horiz-adv-x="658" 
d="M457 496q76 -2 126 -53.5t48 -148.5q-3 -130 -80.5 -213t-189.5 -89l-23 -190h-124l23 191q-92 5 -148 66.5t-56 157.5q0 81 33 157.5t94 133.5l102 -32q-102 -119 -102 -249q0 -54 24 -88t66 -38l27 218q11 89 60.5 133.5t119.5 43.5zM373 102q59 10 95 64t37 131
q0 41 -14 64.5t-37 22.5q-47 0 -57 -78z" />
    <glyph glyph-name="chi" unicode="&#x3c7;" horiz-adv-x="485" 
d="M362 -206q-54 0 -76 28.5t-40 98.5l-31 110h-2l-134 -229h-139l230 363l-61 179q-16 49 -44 49q-9 0 -22 -3l-5 91q39 15 71 15q55 0 77 -28.5t40 -98.5l20 -74h2l114 194h142l-214 -330l73 -212q9 -27 19 -38.5t25 -11.5q7 0 21 4l5 -92q-37 -15 -71 -15z" />
    <glyph glyph-name="psi" unicode="&#x3c8;" horiz-adv-x="688" 
d="M660 362q-2 -163 -74 -265t-201 -106l-23 -189h-126l23 189h-9q-93 0 -141.5 50t-46.5 127q1 44 16 113t16 79q4 33 -24 33q-10 0 -20 -3l-3 90q46 16 93 16q87 0 81 -104q-1 -27 -16.5 -96t-16.5 -110q-1 -37 19 -60t62 -23h5l66 537l124 8l-66 -545q69 6 101.5 84
t33.5 190q1 50 -7 107l117 16q17 -66 17 -138z" />
    <glyph glyph-name="omega" unicode="&#x3c9;" horiz-adv-x="691" 
d="M184 -9q-68 0 -109.5 49.5t-41.5 144.5q0 182 115 320l109 -28q-48 -66 -72.5 -142t-24.5 -141q0 -88 50 -88q29 0 49.5 38.5t28.5 109.5l14 112h117l-18 -149q-7 -52 4.5 -81.5t37.5 -29.5q42 0 64 54t22 127q0 104 -36 191l115 22q49 -100 49 -221q0 -117 -57 -202.5
t-150 -85.5q-99 0 -127 76h-2q-48 -76 -137 -76z" />
    <glyph glyph-name="iotadieresis" unicode="&#x3ca;" horiz-adv-x="308" 
d="M68 557q-35 0 -57.5 22.5t-22.5 55.5q0 35 23.5 57.5t59.5 22.5q34 0 56.5 -22t22.5 -55q0 -35 -23.5 -58t-58.5 -23zM291 557q-34 0 -57 22.5t-23 55.5q0 35 23.5 57.5t59.5 22.5q34 0 56.5 -22t22.5 -55q0 -35 -23 -58t-59 -23zM170 -9q-130 0 -111 151l43 347h126
l-41 -333q-7 -53 37 -53q12 0 32 5l20 -92q-55 -25 -106 -25z" />
    <glyph glyph-name="upsilondieresis" unicode="&#x3cb;" horiz-adv-x="529" 
d="M207 557q-35 0 -57.5 22.5t-22.5 55.5q0 35 23.5 57.5t59.5 22.5q34 0 56.5 -22t22.5 -55q0 -35 -23.5 -58t-58.5 -23zM430 557q-34 0 -57 22.5t-23 55.5q0 35 23.5 57.5t59.5 22.5q34 0 56.5 -22t22.5 -55q0 -35 -23 -58t-59 -23zM232 -9q-85 0 -128.5 48t-41.5 123
q1 44 16 116.5t16 81.5q4 33 -24 33q-10 0 -20 -3l-3 90q46 16 87 16q93 0 87 -104q-1 -30 -16 -101t-16 -111q-2 -74 56 -74q59 0 92 77t35 196q1 46 -6 103l119 16q16 -64 16 -129q-2 -171 -73.5 -274.5t-195.5 -103.5z" />
    <glyph glyph-name="omicrontonos" unicode="&#x3cc;" horiz-adv-x="533" 
d="M251 556l77 172h147l-105 -172h-119zM237 -9q-95 0 -149 54.5t-54 151.5q0 126 69.5 212.5t194.5 86.5q92 0 146.5 -53t54.5 -149q0 -130 -68 -216.5t-194 -86.5zM245 106q56 0 91 52t35 125q0 56 -25.5 77.5t-59.5 21.5q-55 0 -89.5 -52.5t-34.5 -120.5
q0 -48 22.5 -75.5t60.5 -27.5z" />
    <glyph glyph-name="upsilontonos" unicode="&#x3cd;" horiz-adv-x="529" 
d="M253 556l77 172h147l-105 -172h-119zM232 -9q-85 0 -128.5 48t-41.5 123q1 44 16 116.5t16 81.5q4 33 -24 33q-10 0 -20 -3l-3 90q46 16 87 16q93 0 87 -104q-1 -30 -16 -101t-16 -111q-2 -74 56 -74q59 0 92 77t35 196q1 46 -6 103l119 16q16 -64 16 -129
q-2 -171 -73.5 -274.5t-195.5 -103.5z" />
    <glyph glyph-name="omegatonos" unicode="&#x3ce;" horiz-adv-x="691" 
d="M329 556l77 172h147l-105 -172h-119zM184 -9q-68 0 -109.5 49.5t-41.5 144.5q0 182 115 320l109 -28q-48 -66 -72.5 -142t-24.5 -141q0 -88 50 -88q29 0 49.5 38.5t28.5 109.5l14 112h117l-18 -149q-7 -52 4.5 -81.5t37.5 -29.5q42 0 64 54t22 127q0 104 -36 191l115 22
q49 -100 49 -221q0 -117 -57 -202.5t-150 -85.5q-99 0 -127 76h-2q-48 -76 -137 -76z" />
    <glyph glyph-name="uni03D7" unicode="&#x3d7;" horiz-adv-x="621" 
d="M463 99q34 -13 110 -10l-9 -81q-123 -122 -212 -173t-194 -51q-129 0 -208 69l59 74q67 -42 140 -42q119 0 249 109v2q-89 17 -107 141l-9 65q-50 -53 -115 -128l-9 -74h-122l60 489h126l-22 -181q-3 -27 -15 -77l2 -1q124 166 253 280l88 -76q-94 -81 -153 -139l26 -111
q15 -68 62 -85z" />
    <glyph glyph-name="uni1E0C" unicode="&#x1e0c;" horiz-adv-x="682" 
d="M52 0l87 710h217q143 0 217.5 -78t74.5 -216q0 -188 -102 -302t-277 -114h-217zM201 122h82q103 0 163 82t60 211q0 81 -41.5 127t-121.5 46h-85zM269 -71q34 0 56.5 -22.5t22.5 -55.5q0 -35 -23 -57.5t-59 -22.5q-34 0 -57 22t-23 55q0 35 23.5 58t59.5 23z" />
    <glyph glyph-name="uni1E0D" unicode="&#x1e0d;" horiz-adv-x="562" 
d="M199 -9q-80 0 -122 56t-42 143q0 125 67 215.5t169 90.5q79 0 125 -45l3 1l35 284h127l-91 -736h-127l11 83l-3 1q-64 -93 -152 -93zM231 104q50 0 95 60t59 159l3 19q-37 40 -102 40q-54 0 -88.5 -58.5t-34.5 -129.5q0 -42 17.5 -66t50.5 -24zM232 -71q34 0 56.5 -22.5
t22.5 -55.5q0 -35 -23 -57.5t-59 -22.5q-34 0 -57 22t-23 55q0 35 23.5 58t59.5 23z" />
    <glyph glyph-name="uni1E0E" unicode="&#x1e0e;" horiz-adv-x="682" 
d="M52 0l87 710h217q143 0 217.5 -78t74.5 -216q0 -188 -102 -302t-277 -114h-217zM201 122h82q103 0 163 82t60 211q0 81 -41.5 127t-121.5 46h-85zM123 -209l12 102h279l-13 -102h-278z" />
    <glyph glyph-name="uni1E0F" unicode="&#x1e0f;" horiz-adv-x="562" 
d="M199 -9q-80 0 -122 56t-42 143q0 125 67 215.5t169 90.5q79 0 125 -45l3 1l35 284h127l-91 -736h-127l11 83l-3 1q-64 -93 -152 -93zM231 104q50 0 95 60t59 159l3 19q-37 40 -102 40q-54 0 -88.5 -58.5t-34.5 -129.5q0 -42 17.5 -66t50.5 -24zM86 -209l12 102h279
l-13 -102h-278z" />
    <glyph glyph-name="uni1E20" unicode="&#x1e20;" horiz-adv-x="695" 
d="M306 789l12 98h279l-13 -98h-278zM350 -9q-129 0 -209.5 76.5t-80.5 221.5q0 180 104 305t264 125q164 0 243 -125l-109 -82q-50 78 -141 78q-94 0 -156 -87t-62 -209q0 -85 40 -131t114 -46q67 0 129 42l15 108h-135l15 118h268l-36 -306q-48 -40 -119 -64t-144 -24z
" />
    <glyph glyph-name="uni1E21" unicode="&#x1e21;" horiz-adv-x="559" 
d="M190 583l12 102h279l-13 -102h-278zM195 -206q-95 0 -170 47l41 105q63 -40 130 -40q69 0 106.5 37.5t48.5 147.5l16 4l-17 6q-65 -94 -151 -94q-80 0 -122 55t-42 140q0 117 67.5 205.5t168.5 88.5q79 0 123 -44l2 1l4 36h127l-52 -427q-10 -79 -35.5 -133.5t-65 -83
t-82.5 -40t-97 -11.5zM231 120q47 0 91.5 55t57.5 141l4 25q-41 41 -97 41q-55 0 -89.5 -56t-34.5 -119q0 -41 18 -64t50 -23z" />
    <glyph glyph-name="uni1E24" unicode="&#x1e24;" horiz-adv-x="686" 
d="M52 0l87 710h136l-38 -309h251l38 309h136l-87 -710h-137l35 279h-251l-34 -279h-136zM301 -71q34 0 56.5 -22.5t22.5 -55.5q0 -35 -23 -57.5t-59 -22.5q-34 0 -57 22t-23 55q0 35 23.5 58t59.5 23z" />
    <glyph glyph-name="uni1E25" unicode="&#x1e25;" horiz-adv-x="552" 
d="M35 0l91 736h126l-40 -325l2 -1q70 86 170 86q75 0 103.5 -49t14.5 -151l-40 -296h-127l38 276q7 55 -1.5 80.5t-38.5 25.5q-44 0 -91.5 -58.5t-58.5 -145.5l-21 -178h-127zM237 -71q34 0 56.5 -22.5t22.5 -55.5q0 -35 -23 -57.5t-59 -22.5q-34 0 -57 22t-23 55
q0 35 23.5 58t59.5 23z" />
    <glyph glyph-name="uni1E2A" unicode="&#x1e2a;" horiz-adv-x="686" 
d="M52 0l87 710h136l-38 -309h251l38 309h136l-87 -710h-137l35 279h-251l-34 -279h-136zM293 -229q-69 0 -104 39.5t-29 112.5h95q-3 -25 8 -41t36 -16t44 16.5t25 40.5h95q-13 -70 -57.5 -111t-112.5 -41z" />
    <glyph glyph-name="uni1E2B" unicode="&#x1e2b;" horiz-adv-x="552" 
d="M35 0l91 736h126l-40 -325l2 -1q70 86 170 86q75 0 103.5 -49t14.5 -151l-40 -296h-127l38 276q7 55 -1.5 80.5t-38.5 25.5q-44 0 -91.5 -58.5t-58.5 -145.5l-21 -178h-127zM229 -229q-69 0 -104 39.5t-29 112.5h95q-3 -25 8 -41t36 -16t44 16.5t25 40.5h95
q-13 -70 -57.5 -111t-112.5 -41z" />
    <glyph glyph-name="uni1E30" unicode="&#x1e30;" horiz-adv-x="621" 
d="M542 904l-130 -135h-121l115 134zM662 710l-263 -317l181 -393h-155l-129 295l-85 -100l-24 -195h-135l87 710h135l-39 -319l3 -1l257 320h167z" />
    <glyph glyph-name="uni1E31" unicode="&#x1e31;" horiz-adv-x="516" 
d="M435 -7q-18 -2 -32 -2q-53 1 -80.5 35t-56.5 111l-10 27q-46 -30 -82 -45l-14 -119h-125l91 736h126l-59 -485l2 -1q130 85 174 239h130q-28 -138 -143 -250l21 -55q19 -50 38 -67.5t53 -22.5zM265 556l119 146l134 1l-129 -147h-124z" />
    <glyph glyph-name="uni1E36" unicode="&#x1e36;" horiz-adv-x="535" 
d="M52 0l87 710h136l-72 -588h280l-15 -122h-416zM245 -71q34 0 56.5 -22.5t22.5 -55.5q0 -35 -23 -57.5t-59 -22.5q-34 0 -57 22t-23 55q0 35 23.5 58t59.5 23z" />
    <glyph glyph-name="uni1E37" unicode="&#x1e37;" horiz-adv-x="262" 
d="M40 0l90 736h127l-91 -736h-126zM90 -71q34 0 56.5 -22.5t22.5 -55.5q0 -35 -23 -57.5t-59 -22.5q-34 0 -57 22t-23 55q0 35 23.5 58t59.5 23z" />
    <glyph glyph-name="uni1E38" unicode="&#x1e38;" horiz-adv-x="535" 
d="M230 790l12 98h279l-13 -98h-278zM52 0l87 710h136l-72 -588h280l-15 -122h-416zM245 -71q34 0 56.5 -22.5t22.5 -55.5q0 -35 -23 -57.5t-59 -22.5q-34 0 -57 22t-23 55q0 35 23.5 58t59.5 23z" />
    <glyph glyph-name="uni1E39" unicode="&#x1e39;" horiz-adv-x="262" 
d="M66 803l12 98h279l-13 -98h-278zM40 0l90 736h127l-91 -736h-126zM83 -71q34 0 56.5 -22.5t22.5 -55.5q0 -35 -23 -57.5t-59 -22.5q-34 0 -57 22t-23 55q0 35 23.5 58t59.5 23z" />
    <glyph glyph-name="uni1E3A" unicode="&#x1e3a;" horiz-adv-x="535" 
d="M52 0l87 710h136l-72 -588h280l-15 -122h-416zM99 -209l12 102h279l-13 -102h-278z" />
    <glyph glyph-name="uni1E3B" unicode="&#x1e3b;" horiz-adv-x="262" 
d="M40 0l90 736h127l-91 -736h-126zM-56 -209l12 102h279l-13 -102h-278z" />
    <glyph glyph-name="uni1E42" unicode="&#x1e42;" horiz-adv-x="817" 
d="M52 0l87 710h135l144 -408h3l237 408h135l-87 -710h-135l52 432l-3 1l-178 -298h-88l-111 312l-2 -1l-54 -446h-135zM362 -71q34 0 56.5 -22.5t22.5 -55.5q0 -35 -23 -57.5t-59 -22.5q-34 0 -57 22t-23 55q0 35 23.5 58t59.5 23z" />
    <glyph glyph-name="uni1E43" unicode="&#x1e43;" horiz-adv-x="824" 
d="M36 0l60 489h127l-9 -73l3 -1q69 81 157 81q90 0 110 -82h5q67 82 167 82q74 0 102.5 -49.5t14.5 -152.5l-40 -294h-127l38 276q14 106 -34 106q-37 0 -82 -56t-57 -141l-24 -185h-126l36 276q8 52 0.5 79t-33.5 27q-37 0 -83 -57t-56 -139l-22 -186h-127zM366 -71
q34 0 56.5 -22.5t22.5 -55.5q0 -35 -23 -57.5t-59 -22.5q-34 0 -57 22t-23 55q0 35 23.5 58t59.5 23z" />
    <glyph glyph-name="uni1E44" unicode="&#x1e44;" horiz-adv-x="707" 
d="M435 785q-34 0 -56.5 22.5t-22.5 55.5q0 35 23 57.5t59 22.5q34 0 57 -22t23 -55q0 -35 -23.5 -58t-59.5 -23zM52 0l87 710h132l216 -481l3 2l59 479h134l-88 -710h-135l-213 472h-3l-58 -472h-134z" />
    <glyph glyph-name="uni1E45" unicode="&#x1e45;" horiz-adv-x="552" 
d="M336 557q-34 0 -56.5 22.5t-22.5 55.5q0 35 23 57.5t59 22.5q34 0 57 -22t23 -55q0 -35 -23.5 -58t-59.5 -23zM35 0l61 489h126l-9 -78l2 -1q71 86 169 86q75 0 103.5 -49t14.5 -151l-40 -296h-126l37 276q7 55 -1.5 80.5t-38.5 25.5q-44 0 -91 -57.5t-58 -143.5
l-22 -181h-127z" />
    <glyph glyph-name="uni1E46" unicode="&#x1e46;" horiz-adv-x="707" 
d="M52 0l87 710h132l216 -481l3 2l59 479h134l-88 -710h-135l-213 472h-3l-58 -472h-134zM317 -71q34 0 56.5 -22.5t22.5 -55.5q0 -35 -23 -57.5t-59 -22.5q-34 0 -57 22t-23 55q0 35 23.5 58t59.5 23z" />
    <glyph glyph-name="uni1E47" unicode="&#x1e47;" horiz-adv-x="552" 
d="M35 0l61 489h126l-9 -78l2 -1q71 86 169 86q75 0 103.5 -49t14.5 -151l-40 -296h-126l37 276q7 55 -1.5 80.5t-38.5 25.5q-44 0 -91 -57.5t-58 -143.5l-22 -181h-127zM238 -71q34 0 56.5 -22.5t22.5 -55.5q0 -35 -23 -57.5t-59 -22.5q-34 0 -57 22t-23 55q0 35 23.5 58
t59.5 23z" />
    <glyph glyph-name="uni1E48" unicode="&#x1e48;" horiz-adv-x="707" 
d="M52 0l87 710h132l216 -481l3 2l59 479h134l-88 -710h-135l-213 472h-3l-58 -472h-134zM171 -209l12 102h279l-13 -102h-278z" />
    <glyph glyph-name="uni1E49" unicode="&#x1e49;" horiz-adv-x="552" 
d="M35 0l61 489h126l-9 -78l2 -1q71 86 169 86q75 0 103.5 -49t14.5 -151l-40 -296h-126l37 276q7 55 -1.5 80.5t-38.5 25.5q-44 0 -91 -57.5t-58 -143.5l-22 -181h-127zM92 -209l12 102h279l-13 -102h-278z" />
    <glyph glyph-name="uni1E5A" unicode="&#x1e5a;" horiz-adv-x="617" 
d="M52 0l87 710h248q197 0 197 -193q0 -90 -39.5 -155t-115.5 -95l124 -267h-150l-106 245h-81l-29 -245h-135zM231 366h83q59 0 93.5 38.5t34.5 104.5q0 38 -24.5 59t-63.5 21h-95zM274 -71q34 0 56.5 -22.5t22.5 -55.5q0 -35 -23 -57.5t-59 -22.5q-34 0 -57 22t-23 55
q0 35 23.5 58t59.5 23z" />
    <glyph glyph-name="uni1E5B" unicode="&#x1e5b;" horiz-adv-x="355" 
d="M36 0l60 489h127l-10 -80h2q63 87 152 87l-18 -142q-64 15 -107.5 -31.5t-56.5 -137.5l-22 -185h-127zM85 -71q34 0 56.5 -22.5t22.5 -55.5q0 -35 -23 -57.5t-59 -22.5q-34 0 -57 22t-23 55q0 35 23.5 58t59.5 23z" />
    <glyph glyph-name="uni1E5C" unicode="&#x1e5c;" horiz-adv-x="617" 
d="M236 790l12 98h279l-13 -98h-278zM52 0l87 710h248q197 0 197 -193q0 -90 -39.5 -155t-115.5 -95l124 -267h-150l-106 245h-81l-29 -245h-135zM231 366h83q59 0 93.5 38.5t34.5 104.5q0 38 -24.5 59t-63.5 21h-95zM274 -71q34 0 56.5 -22.5t22.5 -55.5q0 -35 -23 -57.5
t-59 -22.5q-34 0 -57 22t-23 55q0 35 23.5 58t59.5 23z" />
    <glyph glyph-name="uni1E5D" unicode="&#x1e5d;" horiz-adv-x="355" 
d="M120 583l12 102h279l-13 -102h-278zM36 0l60 489h127l-10 -80h2q63 87 152 87l-18 -142q-64 15 -107.5 -31.5t-56.5 -137.5l-22 -185h-127zM85 -71q34 0 56.5 -22.5t22.5 -55.5q0 -35 -23 -57.5t-59 -22.5q-34 0 -57 22t-23 55q0 35 23.5 58t59.5 23z" />
    <glyph glyph-name="uni1E5E" unicode="&#x1e5e;" horiz-adv-x="617" 
d="M52 0l87 710h248q197 0 197 -193q0 -90 -39.5 -155t-115.5 -95l124 -267h-150l-106 245h-81l-29 -245h-135zM231 366h83q59 0 93.5 38.5t34.5 104.5q0 38 -24.5 59t-63.5 21h-95zM128 -209l12 102h279l-13 -102h-278z" />
    <glyph glyph-name="uni1E5F" unicode="&#x1e5f;" horiz-adv-x="355" 
d="M36 0l60 489h127l-10 -80h2q63 87 152 87l-18 -142q-64 15 -107.5 -31.5t-56.5 -137.5l-22 -185h-127zM-61 -209l12 102h279l-13 -102h-278z" />
    <glyph glyph-name="uni1E60" unicode="&#x1e60;" horiz-adv-x="556" 
d="M344 785q-34 0 -56.5 22.5t-22.5 55.5q0 35 23 57.5t59 22.5q34 0 57 -22t23 -55q0 -35 -23.5 -58t-59.5 -23zM261 -9q-76 0 -140.5 32.5t-101.5 91.5l98 88q22 -42 60 -65t79 -23q49 0 80 25t31 61q0 9 -2.5 17t-8.5 15.5t-11 12.5t-16.5 12.5t-19.5 12t-25.5 14.5
t-27.5 16q-87 51 -115 75q-61 54 -61 130q0 96 68 154.5t169 58.5q62 0 119 -28t93 -78l-98 -84q-47 68 -121 68q-40 0 -64.5 -22t-23.5 -53q1 -26 20.5 -44.5t72.5 -50.5q14 -8 47.5 -27t47.5 -27.5t37.5 -27t34 -34t19 -39.5t8.5 -52q0 -109 -69.5 -169t-178.5 -60z" />
    <glyph glyph-name="uni1E61" unicode="&#x1e61;" horiz-adv-x="424" 
d="M259 557q-34 0 -56.5 22.5t-22.5 55.5q0 35 23 57.5t59 22.5q34 0 57 -22t23 -55q0 -35 -23.5 -58t-59.5 -23zM190 -9q-54 0 -105 23t-79 61l77 79q46 -59 109 -59q27 0 45 10.5t18 28.5q0 15 -15 25.5t-55 29.5q-9 4 -13 6q-58 27 -89 61t-31 85q0 69 50 112t124 43
q109 0 172 -73l-80 -79q-36 48 -92 50q-21 0 -35 -11t-14 -29q0 -26 75 -63q31 -15 48.5 -25.5t38.5 -28t31.5 -39.5t10.5 -49q1 -74 -51 -116t-140 -42z" />
    <glyph glyph-name="uni1E62" unicode="&#x1e62;" horiz-adv-x="556" 
d="M261 -9q-76 0 -140.5 32.5t-101.5 91.5l98 88q22 -42 60 -65t79 -23q49 0 80 25t31 61q0 9 -2.5 17t-8.5 15.5t-11 12.5t-16.5 12.5t-19.5 12t-25.5 14.5t-27.5 16q-87 51 -115 75q-61 54 -61 130q0 96 68 154.5t169 58.5q62 0 119 -28t93 -78l-98 -84q-47 68 -121 68
q-40 0 -64.5 -22t-23.5 -53q1 -26 20.5 -44.5t72.5 -50.5q14 -8 47.5 -27t47.5 -27.5t37.5 -27t34 -34t19 -39.5t8.5 -52q0 -109 -69.5 -169t-178.5 -60zM241 -71q34 0 56.5 -22.5t22.5 -55.5q0 -35 -23 -57.5t-59 -22.5q-34 0 -57 22t-23 55q0 35 23.5 58t59.5 23z" />
    <glyph glyph-name="uni1E63" unicode="&#x1e63;" horiz-adv-x="424" 
d="M190 -9q-54 0 -105 23t-79 61l77 79q46 -59 109 -59q27 0 45 10.5t18 28.5q0 15 -15 25.5t-55 29.5q-9 4 -13 6q-58 27 -89 61t-31 85q0 69 50 112t124 43q109 0 172 -73l-80 -79q-36 48 -92 50q-21 0 -35 -11t-14 -29q0 -26 75 -63q31 -15 48.5 -25.5t38.5 -28
t31.5 -39.5t10.5 -49q1 -74 -51 -116t-140 -42zM166 -71q34 0 56.5 -22.5t22.5 -55.5q0 -35 -23 -57.5t-59 -22.5q-34 0 -57 22t-23 55q0 35 23.5 58t59.5 23z" />
    <glyph glyph-name="uni1E6C" unicode="&#x1e6c;" horiz-adv-x="543" 
d="M173 0l72 588h-173l14 122h485l-15 -122h-175l-72 -588h-136zM227 -71q34 0 56.5 -22.5t22.5 -55.5q0 -35 -23 -57.5t-59 -22.5q-34 0 -57 22t-23 55q0 35 23.5 58t59.5 23z" />
    <glyph glyph-name="uni1E6D" unicode="&#x1e6d;" horiz-adv-x="340" 
d="M169 -9q-61 0 -90 38.5t-21 110.5l30 243h-51l13 106h50l20 148l129 25l-21 -173h111l-13 -106h-111l-27 -223q-7 -50 28 -50q25 0 61 21l19 -105q-59 -35 -127 -35zM152 -71q34 0 56.5 -22.5t22.5 -55.5q0 -35 -23 -57.5t-59 -22.5q-34 0 -57 22t-23 55q0 35 23.5 58
t59.5 23z" />
    <glyph glyph-name="uni1E6E" unicode="&#x1e6e;" horiz-adv-x="543" 
d="M173 0l72 588h-173l14 122h485l-15 -122h-175l-72 -588h-136zM81 -209l12 102h279l-13 -102h-278z" />
    <glyph glyph-name="uni1E6F" unicode="&#x1e6f;" horiz-adv-x="340" 
d="M169 -9q-61 0 -90 38.5t-21 110.5l30 243h-51l13 106h50l20 148l129 25l-21 -173h111l-13 -106h-111l-27 -223q-7 -50 28 -50q25 0 61 21l19 -105q-59 -35 -127 -35zM6 -209l12 102h279l-13 -102h-278z" />
    <glyph glyph-name="Wgrave" unicode="&#x1e80;" horiz-adv-x="942" 
d="M474 769l-96 135l134 -1l83 -134h-121zM197 0l-113 710h141l64 -486h3l164 486h145l48 -473h3l175 473h147l-288 -710h-130l-56 493h-2l-173 -493h-128z" />
    <glyph glyph-name="wgrave" unicode="&#x1e81;" horiz-adv-x="773" 
d="M369 557l-93 147l134 -1l82 -146h-123zM173 -9q-74 0 -106.5 53t-18.5 153l40 292h126l-36 -272q-14 -111 41 -111q33 0 68.5 41.5t46.5 131.5l26 210h125l-34 -281q-7 -55 2 -78.5t35 -23.5q36 0 73.5 48.5t52.5 145.5q15 85 1 189h129q18 -108 -2 -219
q-25 -143 -99.5 -211t-171.5 -68q-56 0 -91.5 26.5t-44.5 67.5h-2q-24 -43 -71.5 -68.5t-88.5 -25.5z" />
    <glyph glyph-name="Wacute" unicode="&#x1e82;" horiz-adv-x="942" 
d="M474 769l115 134l136 1l-130 -135h-121zM197 0l-113 710h141l64 -486h3l164 486h145l48 -473h3l175 473h147l-288 -710h-130l-56 493h-2l-173 -493h-128z" />
    <glyph glyph-name="wacute" unicode="&#x1e83;" horiz-adv-x="773" 
d="M369 556l119 146l134 1l-129 -147h-124zM173 -9q-74 0 -106.5 53t-18.5 153l40 292h126l-36 -272q-14 -111 41 -111q33 0 68.5 41.5t46.5 131.5l26 210h125l-34 -281q-7 -55 2 -78.5t35 -23.5q36 0 73.5 48.5t52.5 145.5q15 85 1 189h129q18 -108 -2 -219
q-25 -143 -99.5 -211t-171.5 -68q-56 0 -91.5 26.5t-44.5 67.5h-2q-24 -43 -71.5 -68.5t-88.5 -25.5z" />
    <glyph glyph-name="Wdieresis" unicode="&#x1e84;" horiz-adv-x="942" 
d="M440 767q-34 0 -56.5 22.5t-22.5 55.5q0 35 23 57.5t59 22.5q34 0 56.5 -22t22.5 -55q0 -35 -23 -58t-59 -23zM642 767q-35 0 -57.5 22.5t-22.5 55.5q0 35 23.5 57.5t59.5 22.5q34 0 56.5 -22t22.5 -55q0 -35 -23 -58t-59 -23zM197 0l-113 710h141l64 -486h3l164 486h145
l48 -473h3l175 473h147l-288 -710h-130l-56 493h-2l-173 -493h-128z" />
    <glyph glyph-name="wdieresis" unicode="&#x1e85;" horiz-adv-x="773" 
d="M339 557q-34 0 -56.5 22.5t-22.5 55.5q0 35 23 57.5t59 22.5q34 0 56.5 -22t22.5 -55q0 -35 -23 -58t-59 -23zM541 557q-35 0 -57.5 22.5t-22.5 55.5q0 35 23.5 57.5t59.5 22.5q34 0 56.5 -22t22.5 -55q0 -35 -23 -58t-59 -23zM173 -9q-74 0 -106.5 53t-18.5 153l40 292
h126l-36 -272q-14 -111 41 -111q33 0 68.5 41.5t46.5 131.5l26 210h125l-34 -281q-7 -55 2 -78.5t35 -23.5q36 0 73.5 48.5t52.5 145.5q15 85 1 189h129q18 -108 -2 -219q-25 -143 -99.5 -211t-171.5 -68q-56 0 -91.5 26.5t-44.5 67.5h-2q-24 -43 -71.5 -68.5t-88.5 -25.5z
" />
    <glyph glyph-name="uni1E8E" unicode="&#x1e8e;" horiz-adv-x="581" 
d="M362 785q-34 0 -56.5 22.5t-22.5 55.5q0 35 23 57.5t59 22.5q34 0 57 -22t23 -55q0 -35 -23.5 -58t-59.5 -23zM191 0l39 312l-163 398h150l94 -269h3l160 269h157l-264 -398l-39 -312h-137z" />
    <glyph glyph-name="uni1E8F" unicode="&#x1e8f;" horiz-adv-x="540" 
d="M317 557q-34 0 -56.5 22.5t-22.5 55.5q0 35 23 57.5t59 22.5q34 0 57 -22t23 -55q0 -35 -23.5 -58t-59.5 -23zM385 489h125l-52 -426q-32 -269 -270 -269q-97 0 -172 47l40 103q64 -41 128 -41q63 0 99.5 34.5t49.5 131.5l1 10l-2 1q-64 -89 -157 -89q-155 0 -127 196
l41 302h126l-37 -277q-7 -59 2.5 -82t40.5 -24q41 0 85.5 53t52.5 121z" />
    <glyph glyph-name="uni1E92" unicode="&#x1e92;" horiz-adv-x="581" 
d="M23 0l12 107l359 478l-1 3h-287l14 122h463l-12 -104l-366 -480l2 -4h304l-15 -122h-473zM255 -71q34 0 56.5 -22.5t22.5 -55.5q0 -35 -23 -57.5t-59 -22.5q-34 0 -57 22t-23 55q0 35 23.5 58t59.5 23z" />
    <glyph glyph-name="uni1E93" unicode="&#x1e93;" horiz-adv-x="458" 
d="M372 -28q-105 28 -365 28l10 87l241 296v1h-187l12 105h359l-9 -87l-245 -296v-2q130 -4 216 -31zM185 -71q34 0 56.5 -22.5t22.5 -55.5q0 -35 -23 -57.5t-59 -22.5q-34 0 -57 22t-23 55q0 35 23.5 58t59.5 23z" />
    <glyph glyph-name="uni1E97" unicode="&#x1e97;" horiz-adv-x="340" 
d="M127 702q-34 0 -56.5 22.5t-22.5 55.5q0 35 23 57.5t59 22.5q34 0 56.5 -22t22.5 -55q0 -35 -23 -58t-59 -23zM329 702q-35 0 -57.5 22.5t-22.5 55.5q0 35 23.5 57.5t59.5 22.5q34 0 56.5 -22t22.5 -55q0 -35 -23 -58t-59 -23zM169 -9q-61 0 -90 38.5t-21 110.5l30 243
h-51l13 106h50l20 148l129 25l-21 -173h111l-13 -106h-111l-27 -223q-7 -50 28 -50q25 0 61 21l19 -105q-59 -35 -127 -35z" />
    <glyph glyph-name="uni1E9E" unicode="&#x1e9e;" horiz-adv-x="742" 
d="M537 414q11 -6 39 -22t39 -23t32.5 -21.5t31 -26t21 -28t16 -35.5t4.5 -41q0 -106 -67.5 -166t-166.5 -60q-62 0 -119.5 24t-95.5 66l72 118q22 -42 60.5 -64t79.5 -22t67.5 25.5t26.5 62.5q0 15 -5.5 27.5t-20.5 24t-25.5 18t-35.5 19.5q-9 5 -13 7q-77 42 -107 65
l139 222l-1 5q-72 9 -119 9q-70 0 -109 -31t-47 -102l-58 -465h-134l58 471q32 248 293 248q126 0 309 -48z" />
    <glyph glyph-name="uni1EA0" unicode="&#x1ea0;" horiz-adv-x="642" 
d="M-12 0l322 710h136l149 -710h-142l-26 144h-237l-61 -144h-141zM237 261h170l-51 281h-2zM278 -71q34 0 56.5 -22.5t22.5 -55.5q0 -35 -23 -57.5t-59 -22.5q-34 0 -57 22t-23 55q0 35 23.5 58t59.5 23z" />
    <glyph glyph-name="uni1EA1" unicode="&#x1ea1;" horiz-adv-x="558" 
d="M198 -9q-80 0 -122 56t-42 143q0 125 67.5 215.5t168.5 90.5q80 0 122 -45l3 1l5 36h127l-60 -488h-127l10 82l-3 1q-64 -92 -149 -92zM231 104q49 0 93.5 61t57.5 160l2 16q-41 41 -98 41q-55 0 -89.5 -58t-34.5 -130q0 -42 18 -66t51 -24zM232 -71q34 0 56.5 -22.5
t22.5 -55.5q0 -35 -23 -57.5t-59 -22.5q-34 0 -57 22t-23 55q0 35 23.5 58t59.5 23z" />
    <glyph glyph-name="uni1EA2" unicode="&#x1ea2;" horiz-adv-x="642" 
d="M419 777l-76 1q66 49 67 86q1 8 -5 13.5t-18 5.5q-33 0 -76 -29l-18 59q59 52 137 52q36 0 57.5 -17t21.5 -49q0 -39 -27.5 -72.5t-62.5 -49.5zM-12 0l322 710h136l149 -710h-142l-26 144h-237l-61 -144h-141zM237 261h170l-51 281h-2z" />
    <glyph glyph-name="uni1EA3" unicode="&#x1ea3;" horiz-adv-x="558" 
d="M353 549l-76 1q66 49 67 86q1 8 -5 13.5t-18 5.5q-33 0 -76 -29l-18 59q59 52 137 52q36 0 57.5 -17t21.5 -49q0 -39 -27.5 -72.5t-62.5 -49.5zM198 -9q-80 0 -122 56t-42 143q0 125 67.5 215.5t168.5 90.5q80 0 122 -45l3 1l5 36h127l-60 -488h-127l10 82l-3 1
q-64 -92 -149 -92zM231 104q49 0 93.5 61t57.5 160l2 16q-41 41 -98 41q-55 0 -89.5 -58t-34.5 -130q0 -42 18 -66t51 -24z" />
    <glyph glyph-name="uni1EA4" unicode="&#x1ea4;" horiz-adv-x="642" 
d="M546 828l107 138l128 1l-144 -139h-91zM232 769l115 135h125l79 -135h-113l-37 66h-3l-54 -66h-112zM-12 0l322 710h136l149 -710h-142l-26 144h-237l-61 -144h-141zM237 261h170l-51 281h-2z" />
    <glyph glyph-name="uni1EA5" unicode="&#x1ea5;" horiz-adv-x="558" 
d="M453 647l109 147h128l-148 -147h-89zM167 554l116 149h116l85 -149h-116l-30 75h-2l-49 -75h-120zM198 -9q-80 0 -122 56t-42 143q0 125 67.5 215.5t168.5 90.5q80 0 122 -45l3 1l5 36h127l-60 -488h-127l10 82l-3 1q-64 -92 -149 -92zM231 104q49 0 93.5 61t57.5 160
l2 16q-41 41 -98 41q-55 0 -89.5 -58t-34.5 -130q0 -42 18 -66t51 -24z" />
    <glyph glyph-name="uni1EA6" unicode="&#x1ea6;" horiz-adv-x="642" 
d="M570 826l-93 140h121l59 -140h-87zM232 768l115 135h125l79 -135h-113l-37 66h-3l-54 -66h-112zM-12 0l322 710h136l149 -710h-142l-26 144h-237l-61 -144h-141zM237 261h170l-51 281h-2z" />
    <glyph glyph-name="uni1EA7" unicode="&#x1ea7;" horiz-adv-x="558" 
d="M478 648l-92 147h123l54 -147h-85zM167 554l116 149h116l85 -149h-116l-30 75h-2l-49 -75h-120zM198 -9q-80 0 -122 56t-42 143q0 125 67.5 215.5t168.5 90.5q80 0 122 -45l3 1l5 36h127l-60 -488h-127l10 82l-3 1q-64 -92 -149 -92zM231 104q49 0 93.5 61t57.5 160l2 16
q-41 41 -98 41q-55 0 -89.5 -58t-34.5 -130q0 -42 18 -66t51 -24z" />
    <glyph glyph-name="uni1EA8" unicode="&#x1ea8;" horiz-adv-x="642" 
d="M612 839l-69 1q2 2 9 6.5t10 6.5l9 6t9 6.5t7.5 6.5t6.5 7.5t5 7t4 7.5t1 8q1 7 -5.5 11.5t-16.5 4.5q-29 0 -67 -26l-17 52q54 45 124 45q32 0 51 -14.5t19 -42.5q0 -60 -80 -93zM232 769l115 135h125l79 -135h-113l-37 66h-3l-54 -66h-112zM-12 0l322 710h136l149 -710
h-142l-26 144h-237l-61 -144h-141zM237 261h170l-51 281h-2z" />
    <glyph glyph-name="uni1EA9" unicode="&#x1ea9;" horiz-adv-x="558" 
d="M539 648l-71 1q62 45 63 80q0 18 -22 18q-32 0 -71 -27l-17 55q53 49 128 49q33 0 53.5 -16t20.5 -46q0 -36 -25.5 -67.5t-58.5 -46.5zM166 554l116 149h116l85 -149h-116l-30 75h-2l-49 -75h-120zM198 -9q-80 0 -122 56t-42 143q0 125 67.5 215.5t168.5 90.5
q80 0 122 -45l3 1l5 36h127l-60 -488h-127l10 82l-3 1q-64 -92 -149 -92zM231 104q49 0 93.5 61t57.5 160l2 16q-41 41 -98 41q-55 0 -89.5 -58t-34.5 -130q0 -42 18 -66t51 -24z" />
    <glyph glyph-name="uni1EAA" unicode="&#x1eaa;" horiz-adv-x="642" 
d="M485 925q-32 0 -73 28q-25 20 -42 20q-32 0 -54 -49l-70 35q47 96 113 96q9 0 17.5 -1.5t14 -2.5t12.5 -5t9.5 -5.5l10 -6t8.5 -5.5q29 -21 43 -21q33 0 55 48l69 -27q-20 -47 -49 -75.5t-64 -28.5zM232 769l115 135h125l79 -135h-113l-37 66h-3l-54 -66h-112zM-12 0
l322 710h136l149 -710h-142l-26 144h-237l-61 -144h-141zM237 261h170l-51 281h-2z" />
    <glyph glyph-name="uni1EAB" unicode="&#x1eab;" horiz-adv-x="558" 
d="M423 736q-9 0 -17.5 2t-16 6t-11.5 7t-11.5 8.5t-9.5 7.5q-25 20 -41 20q-32 0 -56 -51l-69 36q45 102 115 102q34 0 71 -26q4 -3 11.5 -8.5t11.5 -8t9.5 -5t10.5 -2.5q30 0 54 52l70 -29q-21 -50 -53 -80.5t-68 -30.5zM168 554l116 149h116l85 -149h-116l-30 75h-2
l-49 -75h-120zM198 -9q-80 0 -122 56t-42 143q0 125 67.5 215.5t168.5 90.5q80 0 122 -45l3 1l5 36h127l-60 -488h-127l10 82l-3 1q-64 -92 -149 -92zM231 104q49 0 93.5 61t57.5 160l2 16q-41 41 -98 41q-55 0 -89.5 -58t-34.5 -130q0 -42 18 -66t51 -24z" />
    <glyph glyph-name="uni1EAC" unicode="&#x1eac;" horiz-adv-x="642" 
d="M231 769l115 135h125l79 -135h-113l-37 66h-3l-54 -66h-112zM-12 0l322 710h136l149 -710h-142l-26 144h-237l-61 -144h-141zM237 261h170l-51 281h-2zM278 -71q34 0 56.5 -22.5t22.5 -55.5q0 -35 -23 -57.5t-59 -22.5q-34 0 -57 22t-23 55q0 35 23.5 58t59.5 23z" />
    <glyph glyph-name="uni1EAD" unicode="&#x1ead;" horiz-adv-x="558" 
d="M166 554l116 149h116l85 -149h-116l-30 75h-2l-49 -75h-120zM198 -9q-80 0 -122 56t-42 143q0 125 67.5 215.5t168.5 90.5q80 0 122 -45l3 1l5 36h127l-60 -488h-127l10 82l-3 1q-64 -92 -149 -92zM231 104q49 0 93.5 61t57.5 160l2 16q-41 41 -98 41q-55 0 -89.5 -58
t-34.5 -130q0 -42 18 -66t51 -24zM232 -71q34 0 56.5 -22.5t22.5 -55.5q0 -35 -23 -57.5t-59 -22.5q-34 0 -57 22t-23 55q0 35 23.5 58t59.5 23z" />
    <glyph glyph-name="uni1EAE" unicode="&#x1eae;" horiz-adv-x="642" 
d="M364 897l105 133l128 1l-142 -134h-91zM393 758q-74 0 -110.5 34.5t-30.5 96.5h100q-3 -20 8.5 -33.5t38.5 -13.5q26 0 46 14.5t26 32.5h100q-14 -59 -60 -95t-118 -36zM-12 0l322 710h136l149 -710h-142l-26 144h-237l-61 -144h-141zM237 261h170l-51 281h-2z" />
    <glyph glyph-name="uni1EAF" unicode="&#x1eaf;" horiz-adv-x="558" 
d="M295 712l112 146h128l-148 -146h-92zM325 544q-69 0 -104 39.5t-29 112.5h95q-3 -25 8 -41t36 -16t44 16.5t25 40.5h95q-13 -70 -57.5 -111t-112.5 -41zM198 -9q-80 0 -122 56t-42 143q0 125 67.5 215.5t168.5 90.5q80 0 122 -45l3 1l5 36h127l-60 -488h-127l10 82l-3 1
q-64 -92 -149 -92zM231 104q49 0 93.5 61t57.5 160l2 16q-41 41 -98 41q-55 0 -89.5 -58t-34.5 -130q0 -42 18 -66t51 -24z" />
    <glyph glyph-name="uni1EB0" unicode="&#x1eb0;" horiz-adv-x="642" 
d="M370 898l-93 135l121 -1l58 -134h-86zM393 758q-74 0 -110.5 34.5t-30.5 96.5h100q-3 -20 8.5 -33.5t38.5 -13.5q26 0 46 14.5t26 32.5h100q-14 -59 -60 -95t-118 -36zM-12 0l322 710h136l149 -710h-142l-26 144h-237l-61 -144h-141zM237 261h170l-51 281h-2z" />
    <glyph glyph-name="uni1EB1" unicode="&#x1eb1;" horiz-adv-x="558" 
d="M305 712l-91 147h122l55 -147h-86zM325 544q-69 0 -104 39.5t-29 112.5h95q-3 -25 8 -41t36 -16t44 16.5t25 40.5h95q-13 -70 -57.5 -111t-112.5 -41zM198 -9q-80 0 -122 56t-42 143q0 125 67.5 215.5t168.5 90.5q80 0 122 -45l3 1l5 36h127l-60 -488h-127l10 82l-3 1
q-64 -92 -149 -92zM231 104q49 0 93.5 61t57.5 160l2 16q-41 41 -98 41q-55 0 -89.5 -58t-34.5 -130q0 -42 18 -66t51 -24z" />
    <glyph glyph-name="uni1EB2" unicode="&#x1eb2;" horiz-adv-x="642" 
d="M437 890l-69 1q2 2 9 6.5t10 6.5l9 6t9 6.5t7.5 6.5t6.5 7.5t5 7t4 7.5t1 8q1 7 -5.5 11.5t-16.5 4.5q-29 0 -67 -26l-17 52q54 45 124 45q31 0 50.5 -14.5t19.5 -42.5q0 -60 -80 -93zM393 758q-74 0 -110.5 34.5t-30.5 96.5h100q-3 -20 8.5 -33.5t38.5 -13.5
q26 0 46 14.5t26 32.5h100q-14 -59 -60 -95t-118 -36zM-12 0l322 710h136l149 -710h-142l-26 144h-237l-61 -144h-141zM237 261h170l-51 281h-2z" />
    <glyph glyph-name="uni1EB3" unicode="&#x1eb3;" horiz-adv-x="558" 
d="M378 695l-71 1q62 45 63 80q0 18 -22 18q-32 0 -71 -27l-17 55q53 49 128 49q33 0 53.5 -16t20.5 -46q0 -36 -25.5 -67.5t-58.5 -46.5zM327 545q-71 0 -107.5 37.5t-29.5 105.5h98q-3 -24 8 -39t37 -15t45.5 15.5t26.5 38.5h98q-14 -66 -60 -104.5t-116 -38.5zM198 -9
q-80 0 -122 56t-42 143q0 125 67.5 215.5t168.5 90.5q80 0 122 -45l3 1l5 36h127l-60 -488h-127l10 82l-3 1q-64 -92 -149 -92zM231 104q49 0 93.5 61t57.5 160l2 16q-41 41 -98 41q-55 0 -89.5 -58t-34.5 -130q0 -42 18 -66t51 -24z" />
    <glyph glyph-name="uni1EB4" unicode="&#x1eb4;" horiz-adv-x="642" 
d="M482 909q-32 0 -73 28q-25 20 -42 20q-32 0 -54 -49l-70 35q47 96 113 96q9 0 17.5 -1.5t14 -2.5t12.5 -5t9.5 -5.5l10 -6t8.5 -5.5q29 -21 43 -21q33 0 55 48l69 -27q-20 -47 -49 -75.5t-64 -28.5zM393 758q-74 0 -110.5 34.5t-30.5 96.5h100q-3 -20 8.5 -33.5
t38.5 -13.5q26 0 46 14.5t26 32.5h100q-14 -59 -60 -95t-118 -36zM-12 0l322 710h136l149 -710h-142l-26 144h-237l-61 -144h-141zM237 261h170l-51 281h-2z" />
    <glyph glyph-name="uni1EB5" unicode="&#x1eb5;" horiz-adv-x="558" 
d="M420 727q-9 0 -17.5 2t-16 6t-11.5 7t-11.5 8.5t-9.5 7.5q-25 20 -41 20q-32 0 -56 -51l-69 36q45 102 115 102q34 0 71 -26q4 -3 11.5 -8.5t11.5 -8t9.5 -5t10.5 -2.5q30 0 54 52l70 -29q-21 -50 -53 -80.5t-68 -30.5zM324 544q-69 0 -104 39.5t-29 112.5h95
q-3 -25 8 -41t36 -16t44 16.5t25 40.5h95q-13 -70 -57.5 -111t-112.5 -41zM198 -9q-80 0 -122 56t-42 143q0 125 67.5 215.5t168.5 90.5q80 0 122 -45l3 1l5 36h127l-60 -488h-127l10 82l-3 1q-64 -92 -149 -92zM231 104q49 0 93.5 61t57.5 160l2 16q-41 41 -98 41
q-55 0 -89.5 -58t-34.5 -130q0 -42 18 -66t51 -24z" />
    <glyph glyph-name="uni1EB6" unicode="&#x1eb6;" horiz-adv-x="642" 
d="M392 762q-70 0 -104.5 37.5t-29.5 104.5h95q-3 -21 8.5 -36t36.5 -15t43.5 15.5t24.5 35.5h95q-13 -64 -57 -103t-112 -39zM-12 0l322 710h136l149 -710h-142l-26 144h-237l-61 -144h-141zM237 261h170l-51 281h-2zM278 -71q34 0 56.5 -22.5t22.5 -55.5q0 -35 -23 -57.5
t-59 -22.5q-34 0 -57 22t-23 55q0 35 23.5 58t59.5 23z" />
    <glyph glyph-name="uni1EB7" unicode="&#x1eb7;" horiz-adv-x="558" 
d="M326 544q-69 0 -104 39.5t-29 112.5h95q-3 -25 8 -41t36 -16t44 16.5t25 40.5h95q-13 -70 -57.5 -111t-112.5 -41zM198 -9q-80 0 -122 56t-42 143q0 125 67.5 215.5t168.5 90.5q80 0 122 -45l3 1l5 36h127l-60 -488h-127l10 82l-3 1q-64 -92 -149 -92zM231 104
q49 0 93.5 61t57.5 160l2 16q-41 41 -98 41q-55 0 -89.5 -58t-34.5 -130q0 -42 18 -66t51 -24zM232 -71q34 0 56.5 -22.5t22.5 -55.5q0 -35 -23 -57.5t-59 -22.5q-34 0 -57 22t-23 55q0 35 23.5 58t59.5 23z" />
    <glyph glyph-name="uni1EB8" unicode="&#x1eb8;" horiz-adv-x="563" 
d="M51 0l87 710h415l-16 -122h-280l-21 -176h224l-15 -120h-224l-21 -170h299l-15 -122h-433zM260 -71q34 0 56.5 -22.5t22.5 -55.5q0 -35 -23 -57.5t-59 -22.5q-34 0 -57 22t-23 55q0 35 23.5 58t59.5 23z" />
    <glyph glyph-name="uni1EB9" unicode="&#x1eb9;" horiz-adv-x="478" 
d="M244 102q56 0 101 51l97 -63q-43 -50 -90.5 -74t-115.5 -24q-92 0 -146.5 54.5t-54.5 149.5q0 126 71.5 213t189.5 87q66 0 114 -35t48 -98q-1 -156 -298 -188q6 -36 29.5 -54.5t54.5 -18.5zM288 386q-39 0 -74 -31.5t-49 -90.5q167 19 168 87q0 35 -45 35zM218 -71
q34 0 56.5 -22.5t22.5 -55.5q0 -35 -23 -57.5t-59 -22.5q-34 0 -57 22t-23 55q0 35 23.5 58t59.5 23z" />
    <glyph glyph-name="uni1EBA" unicode="&#x1eba;" horiz-adv-x="563" 
d="M385 768l-76 1q52 35 62 53q5 8 5 16q1 8 -5.5 13t-18.5 5q-32 0 -75 -29l-18 58q59 50 137 50q35 0 56.5 -16t21.5 -47q0 -66 -89 -104zM51 0l87 710h415l-16 -122h-280l-21 -176h224l-15 -120h-224l-21 -170h299l-15 -122h-433z" />
    <glyph glyph-name="uni1EBB" unicode="&#x1ebb;" horiz-adv-x="478" 
d="M286 655q-33 0 -76 -29l-18 59q59 52 137 52q36 0 57.5 -17t21.5 -49q0 -39 -27.5 -72.5t-62.5 -49.5l-76 1q66 49 67 86q1 8 -5 13.5t-18 5.5zM244 102q56 0 101 51l97 -63q-43 -50 -90.5 -74t-115.5 -24q-92 0 -146.5 54.5t-54.5 149.5q0 126 71.5 213t189.5 87
q66 0 114 -35t48 -98q-1 -156 -298 -188q6 -36 29.5 -54.5t54.5 -18.5zM288 386q-39 0 -74 -31.5t-49 -90.5q167 19 168 87q0 35 -45 35z" />
    <glyph glyph-name="uni1EBC" unicode="&#x1ebc;" horiz-adv-x="563" 
d="M439 767q-34 0 -78 31q-28 21 -45 21q-33 0 -57 -53l-75 38q51 103 121 103q8 0 15.5 -0.5t14.5 -3t11 -3.5t11 -5t8.5 -5t8.5 -6l8 -5q30 -22 45 -22q35 0 59 51l74 -29q-21 -51 -52.5 -81.5t-68.5 -30.5zM51 0l87 710h415l-16 -122h-280l-21 -176h224l-15 -120h-224
l-21 -170h299l-15 -122h-433z" />
    <glyph glyph-name="uni1EBD" unicode="&#x1ebd;" horiz-adv-x="478" 
d="M251 603q-36 0 -60 -52l-75 38q48 112 123 112q11 0 21 -1.5t18 -5.5t12.5 -6.5t12.5 -8t10 -6.5q31 -22 45 -22q36 0 60 52l75 -30q-21 -57 -52.5 -89t-68.5 -32q-11 0 -20.5 2t-18 6t-13.5 7t-13.5 9t-10.5 7q-27 20 -45 20zM458 363q-1 -156 -298 -188
q6 -36 29.5 -54.5t54.5 -18.5q56 0 101 51l97 -63q-43 -50 -90.5 -74t-115.5 -24q-92 0 -146.5 54.5t-54.5 149.5q0 126 71.5 213t189.5 87q66 0 114 -35t48 -98zM165 264q167 19 168 87q0 35 -45 35q-39 0 -74 -31.5t-49 -90.5z" />
    <glyph glyph-name="uni1EBE" unicode="&#x1ebe;" horiz-adv-x="563" 
d="M513 827l107 138l128 1l-144 -139h-91zM199 768l115 135h125l79 -135h-113l-37 66h-3l-54 -66h-112zM51 0l87 710h415l-16 -122h-280l-21 -176h224l-15 -120h-224l-21 -170h299l-15 -122h-433z" />
    <glyph glyph-name="uni1EBF" unicode="&#x1ebf;" horiz-adv-x="478" 
d="M527 794h128l-148 -147h-89zM301 629l-49 -75h-120l116 149h116l85 -149h-116l-30 75h-2zM458 363q-1 -156 -298 -188q6 -36 29.5 -54.5t54.5 -18.5q56 0 101 51l97 -63q-43 -50 -90.5 -74t-115.5 -24q-92 0 -146.5 54.5t-54.5 149.5q0 126 71.5 213t189.5 87
q66 0 114 -35t48 -98zM165 264q167 19 168 87q0 35 -45 35q-39 0 -74 -31.5t-49 -90.5z" />
    <glyph glyph-name="uni1EC0" unicode="&#x1ec0;" horiz-adv-x="563" 
d="M537 825l-93 140h121l59 -140h-87zM199 767l115 135h125l79 -135h-113l-37 66h-3l-54 -66h-112zM51 0l87 710h415l-16 -122h-280l-21 -176h224l-15 -120h-224l-21 -170h299l-15 -122h-433z" />
    <glyph glyph-name="uni1EC1" unicode="&#x1ec1;" horiz-adv-x="478" 
d="M528 648h-85l-92 147h123zM301 629l-49 -75h-120l116 149h116l85 -149h-116l-30 75h-2zM458 363q-1 -156 -298 -188q6 -36 29.5 -54.5t54.5 -18.5q56 0 101 51l97 -63q-43 -50 -90.5 -74t-115.5 -24q-92 0 -146.5 54.5t-54.5 149.5q0 126 71.5 213t189.5 87q66 0 114 -35
t48 -98zM165 264q167 19 168 87q0 35 -45 35q-39 0 -74 -31.5t-49 -90.5z" />
    <glyph glyph-name="uni1EC2" unicode="&#x1ec2;" horiz-adv-x="563" 
d="M579 838l-69 1q2 2 9 6.5t10 6.5l9 6t9 6.5t7.5 6.5t6.5 7.5t5 7t4 7.5t1 8q1 7 -5.5 11.5t-16.5 4.5q-29 0 -67 -26l-17 52q54 45 124 45q31 0 50.5 -14.5t19.5 -42.5q0 -60 -80 -93zM199 768l115 135h125l79 -135h-113l-37 66h-3l-54 -66h-112zM51 0l87 710h415
l-16 -122h-280l-21 -176h224l-15 -120h-224l-21 -170h299l-15 -122h-433z" />
    <glyph glyph-name="uni1EC3" unicode="&#x1ec3;" horiz-adv-x="478" 
d="M514 824q33 0 53.5 -16t20.5 -46q0 -36 -25.5 -67.5t-58.5 -46.5l-71 1q62 45 63 80q0 18 -22 18q-32 0 -71 -27l-17 55q53 49 128 49zM300 629l-49 -75h-120l116 149h116l85 -149h-116l-30 75h-2zM458 363q-1 -156 -298 -188q6 -36 29.5 -54.5t54.5 -18.5q56 0 101 51
l97 -63q-43 -50 -90.5 -74t-115.5 -24q-92 0 -146.5 54.5t-54.5 149.5q0 126 71.5 213t189.5 87q66 0 114 -35t48 -98zM165 264q167 19 168 87q0 35 -45 35q-39 0 -74 -31.5t-49 -90.5z" />
    <glyph glyph-name="uni1EC4" unicode="&#x1ec4;" horiz-adv-x="563" 
d="M452 924q-32 0 -73 28q-25 20 -42 20q-32 0 -54 -49l-70 35q47 96 113 96q9 0 17.5 -1.5t14 -2.5t12.5 -5t9.5 -5.5l10 -6t8.5 -5.5q29 -21 43 -21q33 0 55 48l69 -27q-20 -47 -49 -75.5t-64 -28.5zM199 768l115 135h125l79 -135h-113l-37 66h-3l-54 -66h-112zM51 0
l87 710h415l-16 -122h-280l-21 -176h224l-15 -120h-224l-21 -170h299l-15 -122h-433z" />
    <glyph glyph-name="uni1EC5" unicode="&#x1ec5;" horiz-adv-x="478" 
d="M439 876l70 -29q-21 -50 -53 -80.5t-68 -30.5q-9 0 -17.5 2t-16 6t-11.5 7t-11.5 8.5t-9.5 7.5q-25 20 -41 20q-32 0 -56 -51l-69 36q45 102 115 102q34 0 71 -26q4 -3 11.5 -8.5t11.5 -8t9.5 -5t10.5 -2.5q30 0 54 52zM304 629h-2l-49 -75h-120l116 149h116l85 -149
h-116zM458 363q-1 -156 -298 -188q6 -36 29.5 -54.5t54.5 -18.5q56 0 101 51l97 -63q-43 -50 -90.5 -74t-115.5 -24q-92 0 -146.5 54.5t-54.5 149.5q0 126 71.5 213t189.5 87q66 0 114 -35t48 -98zM165 264q167 19 168 87q0 35 -45 35q-39 0 -74 -31.5t-49 -90.5z" />
    <glyph glyph-name="uni1EC6" unicode="&#x1ec6;" horiz-adv-x="563" 
d="M198 768l115 135h125l79 -135h-113l-37 66h-3l-54 -66h-112zM51 0l87 710h415l-16 -122h-280l-21 -176h224l-15 -120h-224l-21 -170h299l-15 -122h-433zM260 -71q34 0 56.5 -22.5t22.5 -55.5q0 -35 -23 -57.5t-59 -22.5q-34 0 -57 22t-23 55q0 35 23.5 58t59.5 23z" />
    <glyph glyph-name="uni1EC7" unicode="&#x1ec7;" horiz-adv-x="478" 
d="M300 629l-49 -75h-120l116 149h116l85 -149h-116l-30 75h-2zM244 102q56 0 101 51l97 -63q-43 -50 -90.5 -74t-115.5 -24q-92 0 -146.5 54.5t-54.5 149.5q0 126 71.5 213t189.5 87q66 0 114 -35t48 -98q-1 -156 -298 -188q6 -36 29.5 -54.5t54.5 -18.5zM288 386
q-39 0 -74 -31.5t-49 -90.5q167 19 168 87q0 35 -45 35zM218 -71q34 0 56.5 -22.5t22.5 -55.5q0 -35 -23 -57.5t-59 -22.5q-34 0 -57 22t-23 55q0 35 23.5 58t59.5 23z" />
    <glyph glyph-name="uni1EC8" unicode="&#x1ec8;" horiz-adv-x="310" 
d="M246 768l-76 1q52 35 62 53q5 8 5 16q1 8 -5.5 13t-18.5 5q-32 0 -75 -29l-18 58q59 50 137 50q35 0 56.5 -16t21.5 -47q0 -66 -89 -104zM56 0l87 710h138l-87 -710h-138z" />
    <glyph glyph-name="uni1EC9" unicode="&#x1ec9;" horiz-adv-x="262" 
d="M200 549l-76 1q66 49 67 86q1 8 -5 13.5t-18 5.5q-33 0 -76 -29l-18 59q59 52 137 52q36 0 57.5 -17t21.5 -49q0 -39 -27.5 -72.5t-62.5 -49.5zM37 0l61 489h127l-60 -489h-128z" />
    <glyph glyph-name="uni1ECA" unicode="&#x1eca;" horiz-adv-x="310" 
d="M56 0l87 710h138l-87 -710h-138zM108 -71q34 0 56.5 -22.5t22.5 -55.5q0 -35 -23 -57.5t-59 -22.5q-34 0 -57 22t-23 55q0 35 23.5 58t59.5 23z" />
    <glyph glyph-name="uni1ECB" unicode="&#x1ecb;" horiz-adv-x="262" 
d="M181 557q-34 0 -56.5 22.5t-22.5 55.5q0 35 23 57.5t59 22.5q34 0 57 -22t23 -55q0 -35 -23.5 -58t-59.5 -23zM37 0l61 489h127l-60 -489h-128zM85 -71q34 0 56.5 -22.5t22.5 -55.5q0 -35 -23 -57.5t-59 -22.5q-34 0 -57 22t-23 55q0 35 23.5 58t59.5 23z" />
    <glyph glyph-name="uni1ECC" unicode="&#x1ecc;" horiz-adv-x="754" 
d="M346 -9q-131 0 -208.5 80t-77.5 221q0 113 45.5 209.5t132 157t196.5 60.5q130 0 208.5 -79.5t78.5 -219.5q0 -180 -102 -304.5t-273 -124.5zM357 119q96 0 159 87.5t63 207.5q0 88 -42.5 133t-116.5 45q-93 0 -156 -89.5t-63 -205.5q0 -88 42 -133t114 -45zM330 -71
q34 0 56.5 -22.5t22.5 -55.5q0 -35 -23 -57.5t-59 -22.5q-34 0 -57 22t-23 55q0 35 23.5 58t59.5 23z" />
    <glyph glyph-name="uni1ECD" unicode="&#x1ecd;" horiz-adv-x="543" 
d="M241 -9q-94 0 -149.5 55t-55.5 153q0 123 71.5 210t191.5 87q95 0 151.5 -53.5t56.5 -150.5q0 -130 -69.5 -215.5t-196.5 -85.5zM248 106q57 0 94 51.5t37 124.5q0 55 -27 77.5t-62 22.5q-56 0 -91.5 -52.5t-35.5 -119.5q0 -47 23.5 -75.5t61.5 -28.5zM222 -71
q34 0 56.5 -22.5t22.5 -55.5q0 -35 -23 -57.5t-59 -22.5q-34 0 -57 22t-23 55q0 35 23.5 58t59.5 23z" />
    <glyph glyph-name="uni1ECE" unicode="&#x1ece;" horiz-adv-x="754" 
d="M494 769l-76 1q52 35 62 53q5 8 5 16q1 8 -5.5 13t-18.5 5q-32 0 -75 -29l-18 58q59 50 137 50q35 0 56.5 -16t21.5 -47q0 -66 -89 -104zM346 -9q-131 0 -208.5 80t-77.5 221q0 113 45.5 209.5t132 157t196.5 60.5q130 0 208.5 -79.5t78.5 -219.5q0 -180 -102 -304.5
t-273 -124.5zM357 119q96 0 159 87.5t63 207.5q0 88 -42.5 133t-116.5 45q-93 0 -156 -89.5t-63 -205.5q0 -88 42 -133t114 -45z" />
    <glyph glyph-name="uni1ECF" unicode="&#x1ecf;" horiz-adv-x="543" 
d="M344 549l-76 1q66 49 67 86q1 8 -5 13.5t-18 5.5q-33 0 -76 -29l-18 59q59 52 137 52q36 0 57.5 -17t21.5 -49q0 -39 -27.5 -72.5t-62.5 -49.5zM241 -9q-94 0 -149.5 55t-55.5 153q0 123 71.5 210t191.5 87q95 0 151.5 -53.5t56.5 -150.5q0 -130 -69.5 -215.5
t-196.5 -85.5zM248 106q57 0 94 51.5t37 124.5q0 55 -27 77.5t-62 22.5q-56 0 -91.5 -52.5t-35.5 -119.5q0 -47 23.5 -75.5t61.5 -28.5z" />
    <glyph glyph-name="uni1ED0" unicode="&#x1ed0;" horiz-adv-x="754" 
d="M622 828l107 138l128 1l-144 -139h-91zM308 769l115 135h125l79 -135h-113l-37 66h-3l-54 -66h-112zM346 -9q-131 0 -208.5 80t-77.5 221q0 113 45.5 209.5t132 157t196.5 60.5q130 0 208.5 -79.5t78.5 -219.5q0 -180 -102 -304.5t-273 -124.5zM357 119q96 0 159 87.5
t63 207.5q0 88 -42.5 133t-116.5 45q-93 0 -156 -89.5t-63 -205.5q0 -88 42 -133t114 -45z" />
    <glyph glyph-name="uni1ED1" unicode="&#x1ed1;" horiz-adv-x="543" 
d="M444 647l109 147h128l-148 -147h-89zM158 554l116 149h116l85 -149h-116l-30 75h-2l-49 -75h-120zM241 -9q-94 0 -149.5 55t-55.5 153q0 123 71.5 210t191.5 87q95 0 151.5 -53.5t56.5 -150.5q0 -130 -69.5 -215.5t-196.5 -85.5zM248 106q57 0 94 51.5t37 124.5
q0 55 -27 77.5t-62 22.5q-56 0 -91.5 -52.5t-35.5 -119.5q0 -47 23.5 -75.5t61.5 -28.5z" />
    <glyph glyph-name="uni1ED2" unicode="&#x1ed2;" horiz-adv-x="754" 
d="M646 826l-93 140h121l59 -140h-87zM308 768l115 135h125l79 -135h-113l-37 66h-3l-54 -66h-112zM346 -9q-131 0 -208.5 80t-77.5 221q0 113 45.5 209.5t132 157t196.5 60.5q130 0 208.5 -79.5t78.5 -219.5q0 -180 -102 -304.5t-273 -124.5zM357 119q96 0 159 87.5
t63 207.5q0 88 -42.5 133t-116.5 45q-93 0 -156 -89.5t-63 -205.5q0 -88 42 -133t114 -45z" />
    <glyph glyph-name="uni1ED3" unicode="&#x1ed3;" horiz-adv-x="543" 
d="M469 648l-92 147h123l54 -147h-85zM158 554l116 149h116l85 -149h-116l-30 75h-2l-49 -75h-120zM241 -9q-94 0 -149.5 55t-55.5 153q0 123 71.5 210t191.5 87q95 0 151.5 -53.5t56.5 -150.5q0 -130 -69.5 -215.5t-196.5 -85.5zM248 106q57 0 94 51.5t37 124.5
q0 55 -27 77.5t-62 22.5q-56 0 -91.5 -52.5t-35.5 -119.5q0 -47 23.5 -75.5t61.5 -28.5z" />
    <glyph glyph-name="uni1ED4" unicode="&#x1ed4;" horiz-adv-x="754" 
d="M688 839l-69 1q2 2 9 6.5t10 6.5l9 6t9 6.5t7.5 6.5t6.5 7.5t5 7t4 7.5t1 8q1 7 -5.5 11.5t-16.5 4.5q-29 0 -67 -26l-17 52q54 45 124 45q32 0 51 -14.5t19 -42.5q0 -60 -80 -93zM308 769l115 135h125l79 -135h-113l-37 66h-3l-54 -66h-112zM346 -9q-131 0 -208.5 80
t-77.5 221q0 113 45.5 209.5t132 157t196.5 60.5q130 0 208.5 -79.5t78.5 -219.5q0 -180 -102 -304.5t-273 -124.5zM357 119q96 0 159 87.5t63 207.5q0 88 -42.5 133t-116.5 45q-93 0 -156 -89.5t-63 -205.5q0 -88 42 -133t114 -45z" />
    <glyph glyph-name="uni1ED5" unicode="&#x1ed5;" horiz-adv-x="543" 
d="M530 648l-71 1q62 45 63 80q0 18 -22 18q-32 0 -71 -27l-17 55q53 49 128 49q33 0 53.5 -16t20.5 -46q0 -36 -25.5 -67.5t-58.5 -46.5zM157 554l116 149h116l85 -149h-116l-30 75h-2l-49 -75h-120zM241 -9q-94 0 -149.5 55t-55.5 153q0 123 71.5 210t191.5 87
q95 0 151.5 -53.5t56.5 -150.5q0 -130 -69.5 -215.5t-196.5 -85.5zM248 106q57 0 94 51.5t37 124.5q0 55 -27 77.5t-62 22.5q-56 0 -91.5 -52.5t-35.5 -119.5q0 -47 23.5 -75.5t61.5 -28.5z" />
    <glyph glyph-name="uni1ED6" unicode="&#x1ed6;" horiz-adv-x="754" 
d="M561 925q-32 0 -73 28q-25 20 -42 20q-32 0 -54 -49l-70 35q47 96 113 96q9 0 17.5 -1.5t14 -2.5t12.5 -5t9.5 -5.5l10 -6t8.5 -5.5q29 -21 43 -21q33 0 55 48l69 -27q-20 -47 -49 -75.5t-64 -28.5zM308 769l115 135h125l79 -135h-113l-37 66h-3l-54 -66h-112zM346 -9
q-131 0 -208.5 80t-77.5 221q0 113 45.5 209.5t132 157t196.5 60.5q130 0 208.5 -79.5t78.5 -219.5q0 -180 -102 -304.5t-273 -124.5zM357 119q96 0 159 87.5t63 207.5q0 88 -42.5 133t-116.5 45q-93 0 -156 -89.5t-63 -205.5q0 -88 42 -133t114 -45z" />
    <glyph glyph-name="uni1ED7" unicode="&#x1ed7;" horiz-adv-x="543" 
d="M414 736q-9 0 -17.5 2t-16 6t-11.5 7t-11.5 8.5t-9.5 7.5q-25 20 -41 20q-32 0 -56 -51l-69 36q45 102 115 102q34 0 71 -26q4 -3 11.5 -8.5t11.5 -8t9.5 -5t10.5 -2.5q30 0 54 52l70 -29q-21 -50 -53 -80.5t-68 -30.5zM159 554l116 149h116l85 -149h-116l-30 75h-2
l-49 -75h-120zM241 -9q-94 0 -149.5 55t-55.5 153q0 123 71.5 210t191.5 87q95 0 151.5 -53.5t56.5 -150.5q0 -130 -69.5 -215.5t-196.5 -85.5zM248 106q57 0 94 51.5t37 124.5q0 55 -27 77.5t-62 22.5q-56 0 -91.5 -52.5t-35.5 -119.5q0 -47 23.5 -75.5t61.5 -28.5z" />
    <glyph glyph-name="uni1ED8" unicode="&#x1ed8;" horiz-adv-x="754" 
d="M307 769l115 135h125l79 -135h-113l-37 66h-3l-54 -66h-112zM346 -9q-131 0 -208.5 80t-77.5 221q0 113 45.5 209.5t132 157t196.5 60.5q130 0 208.5 -79.5t78.5 -219.5q0 -180 -102 -304.5t-273 -124.5zM357 119q96 0 159 87.5t63 207.5q0 88 -42.5 133t-116.5 45
q-93 0 -156 -89.5t-63 -205.5q0 -88 42 -133t114 -45zM330 -71q34 0 56.5 -22.5t22.5 -55.5q0 -35 -23 -57.5t-59 -22.5q-34 0 -57 22t-23 55q0 35 23.5 58t59.5 23z" />
    <glyph glyph-name="uni1ED9" unicode="&#x1ed9;" horiz-adv-x="543" 
d="M157 554l116 149h116l85 -149h-116l-30 75h-2l-49 -75h-120zM241 -9q-94 0 -149.5 55t-55.5 153q0 123 71.5 210t191.5 87q95 0 151.5 -53.5t56.5 -150.5q0 -130 -69.5 -215.5t-196.5 -85.5zM248 106q57 0 94 51.5t37 124.5q0 55 -27 77.5t-62 22.5q-56 0 -91.5 -52.5
t-35.5 -119.5q0 -47 23.5 -75.5t61.5 -28.5zM222 -71q34 0 56.5 -22.5t22.5 -55.5q0 -35 -23 -57.5t-59 -22.5q-34 0 -57 22t-23 55q0 35 23.5 58t59.5 23z" />
    <glyph glyph-name="uni1EDA" unicode="&#x1eda;" horiz-adv-x="804" 
d="M636 904l-130 -135h-121l115 134zM730 774h111l-11 -89q-19 -148 -120 -172q11 -44 11 -93q0 -180 -102 -304.5t-273 -124.5q-131 0 -208.5 80t-77.5 221q0 113 45.5 209.5t132 157t196.5 60.5q85 0 149.5 -35t100.5 -101q15 11 22 37.5t14 78.5zM357 119q96 0 159 87.5
t63 207.5q0 88 -42.5 133t-116.5 45q-93 0 -156 -89.5t-63 -205.5q0 -88 42 -133t114 -45z" />
    <glyph glyph-name="uni1EDB" unicode="&#x1edb;" horiz-adv-x="635" 
d="M505 703l-129 -147h-124l119 146zM547 565h111l-11 -89q-22 -164 -140 -175v-9q0 -130 -69.5 -215.5t-196.5 -85.5q-94 0 -149.5 55t-55.5 153q0 123 71.5 210t191.5 87q73 0 124.5 -32.5t71.5 -92.5q19 8 26.5 35t15.5 84zM248 106q57 0 94 51.5t37 124.5q0 55 -27 77.5
t-62 22.5q-56 0 -91.5 -52.5t-35.5 -119.5q0 -47 23.5 -75.5t61.5 -28.5z" />
    <glyph glyph-name="uni1EDC" unicode="&#x1edc;" horiz-adv-x="804" 
d="M521 769h-121l-96 135l134 -1zM730 774h111l-11 -89q-19 -148 -120 -172q11 -44 11 -93q0 -180 -102 -304.5t-273 -124.5q-131 0 -208.5 80t-77.5 221q0 113 45.5 209.5t132 157t196.5 60.5q85 0 149.5 -35t100.5 -101q15 11 22 37.5t14 78.5zM357 119q96 0 159 87.5
t63 207.5q0 88 -42.5 133t-116.5 45q-93 0 -156 -89.5t-63 -205.5q0 -88 42 -133t114 -45z" />
    <glyph glyph-name="uni1EDD" unicode="&#x1edd;" horiz-adv-x="635" 
d="M380 557h-123l-93 147l134 -1zM547 565h111l-11 -89q-22 -164 -140 -175v-9q0 -130 -69.5 -215.5t-196.5 -85.5q-94 0 -149.5 55t-55.5 153q0 123 71.5 210t191.5 87q73 0 124.5 -32.5t71.5 -92.5q19 8 26.5 35t15.5 84zM248 106q57 0 94 51.5t37 124.5q0 55 -27 77.5
t-62 22.5q-56 0 -91.5 -52.5t-35.5 -119.5q0 -47 23.5 -75.5t61.5 -28.5z" />
    <glyph glyph-name="uni1EDE" unicode="&#x1ede;" horiz-adv-x="804" 
d="M461 857q-32 0 -75 -29l-18 58q59 50 137 50q35 0 56.5 -16t21.5 -47q0 -66 -89 -104l-76 1q52 35 62 53q5 8 5 16q1 8 -5.5 13t-18.5 5zM730 774h111l-11 -89q-19 -148 -120 -172q11 -44 11 -93q0 -180 -102 -304.5t-273 -124.5q-131 0 -208.5 80t-77.5 221
q0 113 45.5 209.5t132 157t196.5 60.5q85 0 149.5 -35t100.5 -101q15 11 22 37.5t14 78.5zM357 119q96 0 159 87.5t63 207.5q0 88 -42.5 133t-116.5 45q-93 0 -156 -89.5t-63 -205.5q0 -88 42 -133t114 -45z" />
    <glyph glyph-name="uni1EDF" unicode="&#x1edf;" horiz-adv-x="635" 
d="M312 655q-33 0 -76 -29l-18 59q59 52 137 52q36 0 57.5 -17t21.5 -49q0 -39 -27.5 -72.5t-62.5 -49.5l-76 1q66 49 67 86q1 8 -5 13.5t-18 5.5zM547 565h111l-11 -89q-22 -164 -140 -175v-9q0 -130 -69.5 -215.5t-196.5 -85.5q-94 0 -149.5 55t-55.5 153q0 123 71.5 210
t191.5 87q73 0 124.5 -32.5t71.5 -92.5q19 8 26.5 35t15.5 84zM248 106q57 0 94 51.5t37 124.5q0 55 -27 77.5t-62 22.5q-56 0 -91.5 -52.5t-35.5 -119.5q0 -47 23.5 -75.5t61.5 -28.5z" />
    <glyph glyph-name="uni1EE0" unicode="&#x1ee0;" horiz-adv-x="804" 
d="M425 820q-33 0 -57 -53l-75 38q51 103 121 103q8 0 15.5 -0.5t14.5 -3t11 -3.5t11 -5t8.5 -5t9.5 -6l7 -5q30 -22 45 -22q35 0 59 51l74 -29q-21 -51 -52.5 -81.5t-68.5 -30.5q-34 0 -78 31q-28 21 -45 21zM730 774h111l-11 -89q-19 -148 -120 -172q11 -44 11 -93
q0 -180 -102 -304.5t-273 -124.5q-131 0 -208.5 80t-77.5 221q0 113 45.5 209.5t132 157t196.5 60.5q85 0 149.5 -35t100.5 -101q15 11 22 37.5t14 78.5zM357 119q96 0 159 87.5t63 207.5q0 88 -42.5 133t-116.5 45q-93 0 -156 -89.5t-63 -205.5q0 -88 42 -133t114 -45z" />
    <glyph glyph-name="uni1EE1" unicode="&#x1ee1;" horiz-adv-x="635" 
d="M277 603q-36 0 -60 -52l-75 38q48 112 123 112q11 0 21 -1.5t18 -5.5t12.5 -6.5t12.5 -8t10 -6.5q31 -22 45 -22q36 0 60 52l75 -30q-21 -57 -52.5 -89t-68.5 -32q-11 0 -20.5 2t-18 6t-13.5 7t-13.5 9t-10.5 7q-27 20 -45 20zM547 565h111l-11 -89q-22 -164 -140 -175
v-9q0 -130 -69.5 -215.5t-196.5 -85.5q-94 0 -149.5 55t-55.5 153q0 123 71.5 210t191.5 87q73 0 124.5 -32.5t71.5 -92.5q19 8 26.5 35t15.5 84zM248 106q57 0 94 51.5t37 124.5q0 55 -27 77.5t-62 22.5q-56 0 -91.5 -52.5t-35.5 -119.5q0 -47 23.5 -75.5t61.5 -28.5z" />
    <glyph glyph-name="uni1EE2" unicode="&#x1ee2;" horiz-adv-x="804" 
d="M730 774h111l-11 -89q-19 -148 -120 -172q11 -44 11 -93q0 -180 -102 -304.5t-273 -124.5q-131 0 -208.5 80t-77.5 221q0 113 45.5 209.5t132 157t196.5 60.5q85 0 149.5 -35t100.5 -101q15 11 22 37.5t14 78.5zM357 119q96 0 159 87.5t63 207.5q0 88 -42.5 133
t-116.5 45q-93 0 -156 -89.5t-63 -205.5q0 -88 42 -133t114 -45zM330 -71q34 0 56.5 -22.5t22.5 -55.5q0 -35 -23 -57.5t-59 -22.5q-34 0 -57 22t-23 55q0 35 23.5 58t59.5 23z" />
    <glyph glyph-name="uni1EE3" unicode="&#x1ee3;" horiz-adv-x="635" 
d="M547 565h111l-11 -89q-22 -164 -140 -175v-9q0 -130 -69.5 -215.5t-196.5 -85.5q-94 0 -149.5 55t-55.5 153q0 123 71.5 210t191.5 87q73 0 124.5 -32.5t71.5 -92.5q19 8 26.5 35t15.5 84zM248 106q57 0 94 51.5t37 124.5q0 55 -27 77.5t-62 22.5q-56 0 -91.5 -52.5
t-35.5 -119.5q0 -47 23.5 -75.5t61.5 -28.5zM222 -71q34 0 56.5 -22.5t22.5 -55.5q0 -35 -23 -57.5t-59 -22.5q-34 0 -57 22t-23 55q0 35 23.5 58t59.5 23z" />
    <glyph glyph-name="uni1EE4" unicode="&#x1ee4;" horiz-adv-x="669" 
d="M306 -9q-132 0 -188.5 85t-38.5 233l50 401h136l-50 -405q-11 -84 12 -134.5t88 -50.5q130 0 152 175l51 415h136l-51 -416q-19 -158 -92 -230.5t-205 -72.5zM290 -71q34 0 56.5 -22.5t22.5 -55.5q0 -35 -23 -57.5t-59 -22.5q-34 0 -57 22t-23 55q0 35 23.5 58t59.5 23z
" />
    <glyph glyph-name="uni1EE5" unicode="&#x1ee5;" horiz-adv-x="542" 
d="M178 -9q-76 0 -109 46.5t-19 149.5l43 302h126l-38 -277q-9 -59 1 -82.5t41 -23.5q39 0 82.5 50.5t52.5 116.5l26 216h127l-60 -489h-126l9 80h-2q-63 -89 -154 -89zM226 -71q34 0 56.5 -22.5t22.5 -55.5q0 -35 -23 -57.5t-59 -22.5q-34 0 -57 22t-23 55q0 35 23.5 58
t59.5 23z" />
    <glyph glyph-name="uni1EE6" unicode="&#x1ee6;" horiz-adv-x="669" 
d="M431 769l-76 1q52 35 62 53q5 8 5 16q1 8 -5.5 13t-18.5 5q-32 0 -75 -29l-18 58q59 50 137 50q35 0 56.5 -16t21.5 -47q0 -66 -89 -104zM306 -9q-132 0 -188.5 85t-38.5 233l50 401h136l-50 -405q-11 -84 12 -134.5t88 -50.5q130 0 152 175l51 415h136l-51 -416
q-19 -158 -92 -230.5t-205 -72.5z" />
    <glyph glyph-name="uni1EE7" unicode="&#x1ee7;" horiz-adv-x="542" 
d="M339 549l-76 1q66 49 67 86q1 8 -5 13.5t-18 5.5q-33 0 -76 -29l-18 59q59 52 137 52q36 0 57.5 -17t21.5 -49q0 -39 -27.5 -72.5t-62.5 -49.5zM178 -9q-76 0 -109 46.5t-19 149.5l43 302h126l-38 -277q-9 -59 1 -82.5t41 -23.5q39 0 82.5 50.5t52.5 116.5l26 216h127
l-60 -489h-126l9 80h-2q-63 -89 -154 -89z" />
    <glyph glyph-name="uni1EE8" unicode="&#x1ee8;" horiz-adv-x="768" 
d="M582 904l-130 -135h-121l115 134zM719 774h111l-11 -89q-12 -88 -52.5 -132t-103.5 -44q-17 0 -33 3l-27 -218q-19 -158 -92 -230.5t-205 -72.5t-188.5 85t-38.5 233l50 401h136l-50 -405q-11 -84 12 -134.5t88 -50.5q130 0 152 175l51 415h136l-16 -131q10 -2 14 -2
q10 0 17.5 4t13.5 13.5t9.5 17.5t7 25.5t5 28t4.5 33.5z" />
    <glyph glyph-name="uni1EE9" unicode="&#x1ee9;" horiz-adv-x="654" 
d="M499 703l-129 -147h-124l119 146zM573 565h111l-11 -89q-12 -88 -52.5 -132t-103.5 -44q-9 0 -29 2l-37 -302h-126l9 80h-2q-63 -89 -154 -89q-76 0 -109 46.5t-19 149.5l43 302h126l-38 -277q-9 -59 1 -82.5t41 -23.5q39 0 82.5 50.5t52.5 116.5l26 216h127l-15 -120
q4 -1 10 -1q10 0 17.5 4t13.5 13.5t9.5 17.5t7 25.5t5 28t4.5 33.5z" />
    <glyph glyph-name="uni1EEA" unicode="&#x1eea;" horiz-adv-x="768" 
d="M465 769h-121l-96 135l134 -1zM719 774h111l-11 -89q-12 -88 -52.5 -132t-103.5 -44q-17 0 -33 3l-27 -218q-19 -158 -92 -230.5t-205 -72.5t-188.5 85t-38.5 233l50 401h136l-50 -405q-11 -84 12 -134.5t88 -50.5q130 0 152 175l51 415h136l-16 -131q10 -2 14 -2
q10 0 17.5 4t13.5 13.5t9.5 17.5t7 25.5t5 28t4.5 33.5z" />
    <glyph glyph-name="uni1EEB" unicode="&#x1eeb;" horiz-adv-x="654" 
d="M376 557h-123l-93 147l134 -1zM573 565h111l-11 -89q-12 -88 -52.5 -132t-103.5 -44q-9 0 -29 2l-37 -302h-126l9 80h-2q-63 -89 -154 -89q-76 0 -109 46.5t-19 149.5l43 302h126l-38 -277q-9 -59 1 -82.5t41 -23.5q39 0 82.5 50.5t52.5 116.5l26 216h127l-15 -120
q4 -1 10 -1q10 0 17.5 4t13.5 13.5t9.5 17.5t7 25.5t5 28t4.5 33.5z" />
    <glyph glyph-name="uni1EEC" unicode="&#x1eec;" horiz-adv-x="768" 
d="M398 857q-32 0 -75 -29l-18 58q59 50 137 50q35 0 56.5 -16t21.5 -47q0 -66 -89 -104l-76 1q52 35 62 53q5 8 5 16q1 8 -5.5 13t-18.5 5zM719 774h111l-11 -89q-12 -88 -52.5 -132t-103.5 -44q-17 0 -33 3l-27 -218q-19 -158 -92 -230.5t-205 -72.5t-188.5 85t-38.5 233
l50 401h136l-50 -405q-11 -84 12 -134.5t88 -50.5q130 0 152 175l51 415h136l-16 -131q10 -2 14 -2q10 0 17.5 4t13.5 13.5t9.5 17.5t7 25.5t5 28t4.5 33.5z" />
    <glyph glyph-name="uni1EED" unicode="&#x1eed;" horiz-adv-x="654" 
d="M307 655q-33 0 -76 -29l-18 59q59 52 137 52q36 0 57.5 -17t21.5 -49q0 -39 -27.5 -72.5t-62.5 -49.5l-76 1q66 49 67 86q1 8 -5 13.5t-18 5.5zM573 565h111l-11 -89q-12 -88 -52.5 -132t-103.5 -44q-9 0 -29 2l-37 -302h-126l9 80h-2q-63 -89 -154 -89q-76 0 -109 46.5
t-19 149.5l43 302h126l-38 -277q-9 -59 1 -82.5t41 -23.5q39 0 82.5 50.5t52.5 116.5l26 216h127l-15 -120q4 -1 10 -1q10 0 17.5 4t13.5 13.5t9.5 17.5t7 25.5t5 28t4.5 33.5z" />
    <glyph glyph-name="uni1EEE" unicode="&#x1eee;" horiz-adv-x="768" 
d="M362 820q-33 0 -57 -53l-75 38q51 103 121 103q8 0 15.5 -0.5t14.5 -3t11 -3.5t11 -5t8.5 -5t8.5 -6l8 -5q30 -22 45 -22q35 0 59 51l74 -29q-21 -51 -52.5 -81.5t-68.5 -30.5q-34 0 -78 31q-28 21 -45 21zM719 774h111l-11 -89q-12 -88 -52.5 -132t-103.5 -44
q-17 0 -33 3l-27 -218q-19 -158 -92 -230.5t-205 -72.5t-188.5 85t-38.5 233l50 401h136l-50 -405q-11 -84 12 -134.5t88 -50.5q130 0 152 175l51 415h136l-16 -131q10 -2 14 -2q10 0 17.5 4t13.5 13.5t9.5 17.5t7 25.5t5 28t4.5 33.5z" />
    <glyph glyph-name="uni1EEF" unicode="&#x1eef;" horiz-adv-x="654" 
d="M272 603q-36 0 -60 -52l-75 38q48 112 123 112q11 0 21 -1.5t18 -5.5t12.5 -6.5t12.5 -8t10 -6.5q31 -22 45 -22q36 0 60 52l75 -30q-21 -57 -52.5 -89t-68.5 -32q-11 0 -20.5 2t-18 6t-13.5 7t-13.5 9t-10.5 7q-27 20 -45 20zM573 565h111l-11 -89q-12 -88 -52.5 -132
t-103.5 -44q-9 0 -29 2l-37 -302h-126l9 80h-2q-63 -89 -154 -89q-76 0 -109 46.5t-19 149.5l43 302h126l-38 -277q-9 -59 1 -82.5t41 -23.5q39 0 82.5 50.5t52.5 116.5l26 216h127l-15 -120q4 -1 10 -1q10 0 17.5 4t13.5 13.5t9.5 17.5t7 25.5t5 28t4.5 33.5z" />
    <glyph glyph-name="uni1EF0" unicode="&#x1ef0;" horiz-adv-x="768" 
d="M719 774h111l-11 -89q-12 -88 -52.5 -132t-103.5 -44q-17 0 -33 3l-27 -218q-19 -158 -92 -230.5t-205 -72.5t-188.5 85t-38.5 233l50 401h136l-50 -405q-11 -84 12 -134.5t88 -50.5q130 0 152 175l51 415h136l-16 -131q10 -2 14 -2q10 0 17.5 4t13.5 13.5t9.5 17.5
t7 25.5t5 28t4.5 33.5zM290 -71q34 0 56.5 -22.5t22.5 -55.5q0 -35 -23 -57.5t-59 -22.5q-34 0 -57 22t-23 55q0 35 23.5 58t59.5 23z" />
    <glyph glyph-name="uni1EF1" unicode="&#x1ef1;" horiz-adv-x="654" 
d="M573 565h111l-11 -89q-12 -88 -52.5 -132t-103.5 -44q-9 0 -29 2l-37 -302h-126l9 80h-2q-63 -89 -154 -89q-76 0 -109 46.5t-19 149.5l43 302h126l-38 -277q-9 -59 1 -82.5t41 -23.5q39 0 82.5 50.5t52.5 116.5l26 216h127l-15 -120q4 -1 10 -1q10 0 17.5 4t13.5 13.5
t9.5 17.5t7 25.5t5 28t4.5 33.5zM226 -71q34 0 56.5 -22.5t22.5 -55.5q0 -35 -23 -57.5t-59 -22.5q-34 0 -57 22t-23 55q0 35 23.5 58t59.5 23z" />
    <glyph glyph-name="Ygrave" unicode="&#x1ef2;" horiz-adv-x="581" 
d="M304 769l-96 135l134 -1l83 -134h-121zM191 0l39 312l-163 398h150l94 -269h3l160 269h157l-264 -398l-39 -312h-137z" />
    <glyph glyph-name="ygrave" unicode="&#x1ef3;" horiz-adv-x="540" 
d="M379 557h-123l-93 147l134 -1zM385 489h125l-52 -426q-32 -269 -270 -269q-97 0 -172 47l40 103q64 -41 128 -41q63 0 99.5 34.5t49.5 131.5l1 10l-2 1q-64 -89 -157 -89q-155 0 -127 196l41 302h126l-37 -277q-7 -59 2.5 -82t40.5 -24q41 0 85.5 53t52.5 121z" />
    <glyph glyph-name="uni1EF4" unicode="&#x1ef4;" horiz-adv-x="581" 
d="M191 0l39 312l-163 398h150l94 -269h3l160 269h157l-264 -398l-39 -312h-137zM244 -71q34 0 56.5 -22.5t22.5 -55.5q0 -35 -23 -57.5t-59 -22.5q-34 0 -57 22t-23 55q0 35 23.5 58t59.5 23z" />
    <glyph glyph-name="uni1EF5" unicode="&#x1ef5;" horiz-adv-x="540" 
d="M385 489h125l-52 -426q-32 -269 -270 -269q-97 0 -172 47l40 103q64 -41 128 -41q63 0 99.5 34.5t49.5 131.5l1 10l-2 1q-64 -89 -157 -89q-155 0 -127 196l41 302h126l-37 -277q-7 -59 2.5 -82t40.5 -24q41 0 85.5 53t52.5 121zM211 -220q34 0 56.5 -22.5t22.5 -55.5
q0 -35 -23 -57.5t-59 -22.5q-34 0 -57 22t-23 55q0 35 23.5 58t59.5 23z" />
    <glyph glyph-name="uni1EF6" unicode="&#x1ef6;" horiz-adv-x="581" 
d="M380 769l-76 1q52 35 62 53q5 8 5 16q1 8 -5.5 13t-18.5 5q-32 0 -75 -29l-18 58q59 50 137 50q35 0 56.5 -16t21.5 -47q0 -66 -89 -104zM191 0l39 312l-163 398h150l94 -269h3l160 269h157l-264 -398l-39 -312h-137z" />
    <glyph glyph-name="uni1EF7" unicode="&#x1ef7;" horiz-adv-x="540" 
d="M304 655q-33 0 -76 -29l-18 59q59 52 137 52q36 0 57.5 -17t21.5 -49q0 -39 -27.5 -72.5t-62.5 -49.5l-76 1q66 49 67 86q1 8 -5 13.5t-18 5.5zM385 489h125l-52 -426q-32 -269 -270 -269q-97 0 -172 47l40 103q64 -41 128 -41q63 0 99.5 34.5t49.5 131.5l1 10l-2 1
q-64 -89 -157 -89q-155 0 -127 196l41 302h126l-37 -277q-7 -59 2.5 -82t40.5 -24q41 0 85.5 53t52.5 121z" />
    <glyph glyph-name="uni1EF8" unicode="&#x1ef8;" horiz-adv-x="581" 
d="M434 768q-34 0 -78 31q-28 21 -45 21q-33 0 -57 -53l-75 38q51 103 121 103q8 0 15.5 -0.5t14.5 -3t11 -3.5t11 -5t8.5 -5t9.5 -6l7 -5q30 -22 45 -22q35 0 59 51l74 -29q-21 -51 -52.5 -81.5t-68.5 -30.5zM191 0l39 312l-163 398h150l94 -269h3l160 269h157l-264 -398
l-39 -312h-137z" />
    <glyph glyph-name="uni1EF9" unicode="&#x1ef9;" horiz-adv-x="540" 
d="M269 603q-36 0 -60 -52l-75 38q48 112 123 112q11 0 21 -1.5t18 -5.5t12.5 -6.5t12.5 -8t10 -6.5q31 -22 45 -22q36 0 60 52l75 -30q-21 -57 -52.5 -89t-68.5 -32q-11 0 -20.5 2t-18 6t-13.5 7t-13.5 9t-10.5 7q-27 20 -45 20zM359 280l26 209h125l-52 -426
q-32 -269 -270 -269q-97 0 -172 47l40 103q64 -41 128 -41q63 0 99.5 34.5t49.5 131.5l1 10l-2 1q-64 -89 -157 -89q-155 0 -127 196l41 302h126l-37 -277q-7 -59 2.5 -82t40.5 -24q41 0 85.5 53t52.5 121z" />
    <glyph glyph-name="uni2002" unicode="&#x2002;" horiz-adv-x="467" 
 />
    <glyph glyph-name="uni2003" unicode="&#x2003;" horiz-adv-x="934" 
 />
    <glyph glyph-name="uni2007" unicode="&#x2007;" horiz-adv-x="586" 
 />
    <glyph glyph-name="uni2009" unicode="&#x2009;" horiz-adv-x="21" 
 />
    <glyph glyph-name="uni2010" unicode="&#x2010;" horiz-adv-x="373" 
d="M50 249l14 120h275l-14 -120h-275z" />
    <glyph glyph-name="figuredash" unicode="&#x2012;" horiz-adv-x="586" 
d="M50 243l13 110h488l-14 -110h-487z" />
    <glyph glyph-name="endash" unicode="&#x2013;" horiz-adv-x="566" 
d="M50 243l13 110h468l-14 -110h-467z" />
    <glyph glyph-name="emdash" unicode="&#x2014;" horiz-adv-x="1032" 
d="M50 243l13 110h934l-13 -110h-934z" />
    <glyph glyph-name="uni2015" unicode="&#x2015;" horiz-adv-x="1195" 
d="M50 243l13 110h1097l-14 -110h-1096z" />
    <glyph glyph-name="quoteleft" unicode="&#x2018;" horiz-adv-x="217" 
d="M246 710l-59 -259h-131l92 259h98z" />
    <glyph glyph-name="quoteright" unicode="&#x2019;" horiz-adv-x="218" 
d="M57 451l59 259h131l-92 -259h-98z" />
    <glyph glyph-name="quotesinglbase" unicode="&#x201a;" horiz-adv-x="236" 
d="M-21 -133l59 259h129l-96 -259h-92z" />
    <glyph glyph-name="quotedblleft" unicode="&#x201c;" horiz-adv-x="397" 
d="M245 710l-59 -259h-131l92 259h98zM424 710l-59 -259h-131l92 259h98z" />
    <glyph glyph-name="quotedblright" unicode="&#x201d;" horiz-adv-x="397" 
d="M58 451l59 259h131l-92 -259h-98zM237 451l59 259h131l-92 -259h-98z" />
    <glyph glyph-name="quotedblbase" unicode="&#x201e;" horiz-adv-x="416" 
d="M-14 -79l59 259h131l-92 -259h-98zM165 -79l59 259h131l-92 -259h-98z" />
    <glyph glyph-name="dagger" unicode="&#x2020;" horiz-adv-x="368" 
d="M184 228l-30 63l20 127l12 108h-17l-84 -5l9 73l83 -4h15l10 96h73l-15 -96h16l84 5l-9 -74l-83 5h-17l-13 -108l-11 -127z" />
    <glyph glyph-name="daggerdbl" unicode="&#x2021;" horiz-adv-x="369" 
d="M125 54l14 95h-16l-84 -5l9 73l82 -4h18l7 62l8 96l16 95l7 60h-17l-84 -4l9 72l83 -5h16l8 97h74l-16 -97h17l84 5l-9 -72l-84 4h-15l-8 -60l-8 -95l-17 -96l-6 -62h16l85 4l-9 -72l-83 4h-17l-7 -95h-73z" />
    <glyph glyph-name="bullet" unicode="&#x2022;" horiz-adv-x="428" 
d="M220 200q-48 0 -80.5 32.5t-32.5 81.5t34 82.5t84 33.5q49 0 81.5 -32t32.5 -80q0 -51 -34 -84.5t-85 -33.5z" />
    <glyph glyph-name="ellipsis" unicode="&#x2026;" horiz-adv-x="1000" 
d="M142 -9q-35 0 -56.5 22t-21.5 55q0 35 22.5 58t58.5 23q34 0 56 -22t22 -56q0 -35 -22.5 -57.5t-58.5 -22.5zM476 -9q-35 0 -56.5 22t-21.5 55q0 35 22.5 58t58.5 23q34 0 56 -22t22 -56q0 -35 -22.5 -57.5t-58.5 -22.5zM810 -9q-35 0 -56.5 22t-21.5 55q0 35 22.5 58
t58.5 23q34 0 56 -22t22 -56q0 -35 -22.5 -57.5t-58.5 -22.5z" />
    <glyph glyph-name="perthousand" unicode="&#x2030;" horiz-adv-x="1433" 
d="M374 -23l-95 44l370 707l96 -45zM257 319q-79 0 -131 52t-52 134q0 90 59 150.5t146 60.5q80 0 132 -50.5t52 -132.5q0 -92 -60 -153t-146 -61zM260 413q43 0 72 32t29 85q0 41 -24.5 67t-61.5 26q-41 0 -70 -33t-29 -84q0 -42 23.5 -67.5t60.5 -25.5zM746 -9
q-79 0 -130.5 52t-51.5 134q0 90 59 150.5t145 60.5q80 0 133 -51t53 -132q0 -93 -60.5 -153.5t-147.5 -60.5zM1181 -9q-79 0 -131 52t-52 134q0 90 59 150.5t146 60.5q80 0 132 -51t52 -132q0 -93 -60 -153.5t-146 -60.5zM750 85q43 0 72 32t29 85q0 41 -24.5 67t-61.5 26
q-41 0 -70 -33.5t-29 -83.5q0 -42 23.5 -67.5t60.5 -25.5zM1184 85q43 0 72 32t29 85q0 41 -24.5 67t-61.5 26q-41 0 -70 -33.5t-29 -83.5q0 -42 23.5 -67.5t60.5 -25.5z" />
    <glyph glyph-name="minute" unicode="&#x2032;" horiz-adv-x="268" 
d="M53 451l104 259h131l-137 -259h-98z" />
    <glyph glyph-name="second" unicode="&#x2033;" horiz-adv-x="445" 
d="M53 451l104 259h131l-137 -259h-98zM230 451l104 259h131l-137 -259h-98z" />
    <glyph glyph-name="guilsinglleft" unicode="&#x2039;" horiz-adv-x="293" 
d="M123 39l-82 208l135 211h119l-134 -211l81 -208h-119z" />
    <glyph glyph-name="guilsinglright" unicode="&#x203a;" horiz-adv-x="289" 
d="M-1 39l133 208l-82 211h119l83 -211l-132 -208h-121z" />
    <glyph glyph-name="uni203D" unicode="&#x203d;" horiz-adv-x="435" 
d="M265 745q72 0 121.5 -42t49.5 -118q0 -113 -107 -204q-73 -64 -81 -106l-10 -45h-108l17 317h137l-15 -82q35 40 35 87q0 71 -69 71q-52 0 -91 -53l-82 81q35 44 89 69t114 25zM175 149q34 0 56 -22t22 -56q0 -35 -22.5 -57.5t-58.5 -22.5q-35 0 -56.5 22t-21.5 55
q0 35 22.5 58t58.5 23z" />
    <glyph glyph-name="uni2042" unicode="&#x2042;" horiz-adv-x="765" 
d="M351 384l17 104l-79 -55l-32 67l83 46l-73 49l48 67l67 -55l9 103h78l-18 -103l80 54l32 -66l-83 -48l73 -47l-47 -68l-67 56l-10 -104h-78zM125 49l17 104l-79 -55l-32 67l83 46l-73 49l48 67l67 -55l9 103h78l-18 -103l80 54l32 -66l-83 -48l73 -47l-47 -68l-67 56
l-10 -104h-78zM513 49l17 104l-79 -55l-32 67l83 46l-73 49l48 67l67 -55l9 103h78l-18 -103l80 54l32 -66l-83 -48l73 -47l-47 -68l-67 56l-10 -104h-78z" />
    <glyph glyph-name="fraction" unicode="&#x2044;" horiz-adv-x="188" 
d="M-14 -23l-95 44l370 707l96 -45z" />
    <glyph glyph-name="uni2051" unicode="&#x2051;" horiz-adv-x="378" 
d="M167 384l17 104l-78 -55l-32 67l82 46l-73 49l48 67l67 -55l9 103h78l-18 -103l80 54l33 -66l-84 -48l73 -47l-47 -68l-66 56l-10 -104h-79zM123 24l17 104l-79 -55l-32 67l83 46l-73 49l48 67l67 -55l10 104h77l-17 -104l80 54l31 -66l-83 -48l73 -47l-47 -68l-66 56
l-11 -104h-78z" />
    <glyph glyph-name="uni2070" unicode="&#x2070;" horiz-adv-x="378" 
d="M216 426q-68 0 -105.5 45.5t-37.5 127.5q0 105 50 181t136 76q68 0 106 -46t38 -126q0 -107 -50 -182.5t-137 -75.5zM220 521q40 0 61.5 51t21.5 113q0 77 -45 77q-28 0 -47.5 -27t-28 -63.5t-8.5 -74.5q0 -76 46 -76z" />
    <glyph glyph-name="colonmonetary" unicode="&#x20a1;" horiz-adv-x="572" 
d="M488 510l-198 -394q14 -3 27 -3q36 0 64 11.5t59 45.5l78 -94q-47 -47 -96.5 -65.5t-110.5 -18.5q-39 0 -78 11l-41 -83l-50 24l40 80q-22 14 -33 24l-64 -128l-51 24l75 148q-54 78 -54 199q0 174 91 288.5t238 114.5q18 0 27 -1l23 46l50 -23l-18 -36q22 -7 38 -16
l38 75l49 -23l-42 -84q16 -14 27 -31zM185 288q0 -15 2 -39l162 321q-74 -17 -119 -97.5t-45 -184.5zM212 173q11 -17 28 -33l208 412q-17 13 -38 17z" />
    <glyph glyph-name="lira" unicode="&#x20a4;" horiz-adv-x="516" 
d="M235 229l-13 -108h251l-15 -121h-443l15 121h56l13 108h-47l9 77h48l7 59h-47l9 77h47l3 22q15 121 73 176t136 55q54 0 101 -27t74 -74l-77 -84q-16 29 -38.5 45t-44.5 16q-76 0 -91 -122l-1 -7h134l-9 -77h-134l-7 -59h133l-9 -77h-133z" />
    <glyph glyph-name="uni20A6" unicode="&#x20a6;" horiz-adv-x="635" 
d="M618 369h-52l-7 -60h51l-9 -76h-52l-28 -233h-132l-73 233h-111l-28 -233h-124l28 233h-50l9 76h51l7 60h-50l9 76h50l30 242h132l75 -242h109l29 242h123l-30 -242h52zM239 512l-8 -67h25l-15 67h-2zM214 309h78l-17 56l-1 4h-52zM437 309l7 60h-77l18 -57l1 -3h51z
M421 175l7 58h-24l15 -59z" />
    <glyph glyph-name="peseta" unicode="&#x20a7;" horiz-adv-x="613" 
d="M619 500l-10 -78h-60q-37 -188 -263 -188h-66l-28 -234h-133l52 422h-64l9 78h64l23 188h201q208 0 211 -188h64zM261 572l-9 -72h167q-12 72 -87 72h-71zM287 347q102 0 126 75h-171l-9 -75h54z" />
    <glyph glyph-name="dong" unicode="&#x20ab;" horiz-adv-x="546" 
d="M597 637l-10 -82h-48l-69 -555h-127l11 83l-3 1q-64 -93 -152 -93q-80 0 -122 56t-42 143q0 125 67 215.5t169 90.5q79 0 125 -45l3 1l13 103h-166l10 82h166l12 99h127l-12 -99h48zM385 323l3 19q-37 40 -102 40q-54 0 -88.5 -58.5t-34.5 -129.5q0 -42 17.5 -66
t50.5 -24q50 0 95 60t59 159zM19 -166l14 112h428l-13 -112h-429z" />
    <glyph glyph-name="Euro" unicode="&#x20ac;" horiz-adv-x="549" 
d="M333 114q60 0 103 38l68 -102q-81 -58 -179 -58q-100 0 -169 62t-84 183h-60l9 76h48q2 40 5 60h-45l9 77h53q35 111 116 177.5t191 66.5q97 0 169 -60l-89 -93q-35 32 -80 32q-54 0 -96 -33.5t-66 -89.5h207l-10 -77h-220q-4 -28 -6 -60h219l-10 -76h-204
q11 -60 43 -91.5t78 -31.5z" />
    <glyph glyph-name="uni20AE" unicode="&#x20ae;" horiz-adv-x="522" 
d="M523 565h-162l-16 -131l113 48l23 -68l-146 -62l-8 -68l109 47l23 -69l-142 -60l-25 -202h-133l18 143l-108 -46l-23 68l141 60l8 67l-103 -44l-24 69l137 58l24 190h-158l15 122h452z" />
    <glyph glyph-name="uni20B1" unicode="&#x20b1;" horiz-adv-x="632" 
d="M614 477h-59q-3 -31 -3 -32h58l-9 -75h-67q-57 -136 -248 -136h-66l-28 -234h-133l45 370h-64l9 75h64l4 32h-64l9 75h64l17 136h200q178 0 206 -136h74zM335 575h-76l-4 -37h159q-23 37 -79 37zM247 477l-4 -32h183q2 20 2 32h-181zM290 340q80 0 112 44h-166l-6 -44h60
z" />
    <glyph glyph-name="uni20B2" unicode="&#x20b2;" horiz-adv-x="592" 
d="M412 569l-21 -186h178l-40 -325q-72 -56 -180 -64l-13 -114h-90l14 116q-93 17 -149 91t-56 204q0 160 78 271t207 129l12 96h89l-12 -97q103 -17 157 -98l-97 -84q-31 49 -77 61zM192 294q0 -141 86 -172l50 441q-64 -24 -100 -98.5t-36 -170.5zM437 270h-59l-18 -155
q34 3 61 18z" />
    <glyph glyph-name="uni20B4" unicode="&#x20b4;" horiz-adv-x="525" 
d="M505 552q0 -71 -70 -119h63l-9 -71h-101l-84 -52h178l-9 -71h-251q-46 -31 -46 -69q0 -27 21.5 -41.5t53.5 -14.5q85 0 148 75l73 -92q-90 -106 -248 -106q-84 0 -135 35.5t-51 97.5q0 68 60 115h-58l9 71h85q12 7 41 25t45 27h-164l9 71h242q61 40 61 84q0 23 -16 36
t-46 13q-71 0 -137 -67l-73 90q96 99 237 99q80 0 126 -38t46 -98z" />
    <glyph glyph-name="uni20B5" unicode="&#x20b5;" horiz-adv-x="572" 
d="M440 170l78 -94q-77 -77 -179 -83l-13 -113h-89l14 118q-89 19 -142.5 92.5t-53.5 200.5q0 157 75 267t200 132l12 97h90l-12 -96q105 -14 156 -90l-96 -85q-29 47 -78 55l-51 -456q46 8 89 55zM192 294q0 -134 76 -170l50 435q-59 -28 -92.5 -100.5t-33.5 -164.5z" />
    <glyph glyph-name="uni20B8" unicode="&#x20b8;" horiz-adv-x="507" 
d="M82 687h451l-11 -93h-451zM53 443l11 92h451l-11 -92h-160l-55 -443h-135l55 443h-156z" />
    <glyph glyph-name="uni20B9" unicode="&#x20b9;" horiz-adv-x="495" 
d="M515 594h-141l-1 -2q28 -22 37 -68h96l-10 -88h-86q-13 -71 -67.5 -118t-141.5 -59l197 -259h-157l-195 267l12 100h73q115 0 140 73h-204l10 83h200q-11 74 -118 74h-73l11 90h429z" />
    <glyph glyph-name="uni20BA" unicode="&#x20ba;" horiz-adv-x="590" 
d="M457 267l105 -40q-54 -124 -126.5 -175.5t-173.5 -51.5h-181l24 194l-68 -31l-24 72l102 47l8 63l-68 -31l-23 73l102 47l31 253h136l-23 -187l140 64l23 -73l-173 -80l-8 -63l139 64l24 -72l-174 -80l-18 -149h35q66 0 109 35t82 121z" />
    <glyph glyph-name="uni20BC" unicode="&#x20bc;" horiz-adv-x="691" 
d="M448 690q116 -14 164.5 -95t30.5 -216l-47 -379h-131l48 384q19 150 -75 179l-57 -467h-103l56 466q-102 -28 -119 -169l-49 -393h-131l49 395q18 144 85.5 215t186.5 81l12 96h92z" />
    <glyph glyph-name="uni20BD" unicode="&#x20bd;" horiz-adv-x="555" 
d="M288 264h-65l-7 -58h207l-9 -78h-207l-16 -128h-132l16 128h-63l9 78h63l7 58h-62l10 83h62l42 340h201q112 0 162 -48t50 -138q0 -112 -68.5 -174.5t-199.5 -62.5zM330 568h-70l-25 -203h45q64 0 101 34.5t35 90.5q0 37 -24 57.5t-62 20.5z" />
    <glyph glyph-name="uni2113" unicode="&#x2113;" horiz-adv-x="464" 
d="M402 124l40 -28q-64 -105 -175 -105q-155 0 -175 145q-6 -5 -25 -20t-30 -23l-24 34q11 10 38 31t39 32l2 261q1 119 46 173.5t122 54.5q56 0 85.5 -40.5t29.5 -105.5q0 -145 -180 -315v-21q0 -145 95 -145q31 0 61 21t51 51zM272 615q-31 0 -54.5 -38.5t-22.5 -121.5
v-178q135 143 135 248q0 90 -58 90z" />
    <glyph glyph-name="uni2116" unicode="&#x2116;" horiz-adv-x="987" 
d="M825 411q-57 0 -90.5 32.5t-33.5 92.5q0 74 43 126t119 52q55 0 89 -31t34 -92q0 -74 -41.5 -127t-119.5 -53zM52 0l87 710h132l216 -481l3 2l59 479h134l-88 -710h-135l-213 472h-3l-58 -472h-134zM831 492q26 0 45 27t19 64q0 27 -12.5 38.5t-26.5 11.5
q-27 0 -45.5 -27t-18.5 -61q0 -24 11 -38.5t28 -14.5zM682 279l7 83h257l-8 -83h-256z" />
    <glyph glyph-name="uni2117" unicode="&#x2117;" horiz-adv-x="722" 
d="M359 -1q-132 0 -224.5 94t-92.5 226q0 131 93 225.5t225 94.5q133 0 225 -94t92 -226t-92.5 -226t-225.5 -94zM359 83q98 0 165.5 69t67.5 167t-67 166.5t-165 68.5q-99 0 -166 -69.5t-67 -167.5q0 -97 67 -165.5t165 -68.5zM246 159v324h125q57 0 85.5 -30.5t28.5 -80.5
q0 -53 -32 -80.5t-88 -27.5h-47v-105h-72zM319 330h35q26 0 40 11.5t14 31.5q0 19 -13.5 31t-38.5 12h-37v-86z" />
    </font>
</defs>
</svg>
