<?xml version="1.0" standalone="no"?>
<!DOCTYPE svg PUBLIC "-//W3C//DTD SVG 1.1//EN" "http://www.w3.org/Graphics/SVG/1.1/DTD/svg11.dtd" >
<svg xmlns="http://www.w3.org/2000/svg" xmlns:xlink="http://www.w3.org/1999/xlink" version="1.1">
<metadata>
Created by FontForge 20170731 at Sat Jul 15 13:38:07 2017
 By Aleksey,,,
Copyright (c) 2015 by Kostas Bartsokas. All rights reserved.
</metadata>
<defs>
<font id="AvertaStd-ExtraboldItalic" horiz-adv-x="0" >
  <font-face 
    font-family="Averta Std Extrabold"
    font-weight="800"
    font-style="italic"
    font-stretch="normal"
    units-per-em="1000"
    panose-1="0 0 9 0 0 0 0 0 0 0"
    ascent="800"
    descent="-200"
    x-height="489"
    cap-height="710"
    bbox="-747 -389 1386 1062"
    underline-thickness="58"
    underline-position="-213"
    slope="-7"
    unicode-range="U+000D-2E18"
  />
<missing-glyph horiz-adv-x="396" 
 />
    <glyph glyph-name=".notdef" horiz-adv-x="396" 
 />
    <glyph glyph-name=".null" 
 />
    <glyph glyph-name="nonmarkingreturn" horiz-adv-x="333" 
 />
    <glyph glyph-name="CR" unicode="&#xd;" 
 />
    <glyph glyph-name="space" unicode=" " horiz-adv-x="178" 
 />
    <glyph glyph-name="exclam" unicode="!" horiz-adv-x="292" 
d="M102 242l35 494h159l-87 -494h-107zM135 -11q-39 0 -62.5 24.5t-23.5 62.5q0 39 24.5 63.5t64.5 24.5t63.5 -24t23.5 -61q0 -40 -24.5 -65t-65.5 -25z" />
    <glyph glyph-name="quotedbl" unicode="&#x22;" horiz-adv-x="424" 
d="M54 443l59 267h149l-96 -267h-112zM251 443l59 267h150l-97 -267h-112z" />
    <glyph glyph-name="numbersign" unicode="#" horiz-adv-x="590" 
d="M53 -47l48 182h-86l14 109h102l34 131h-96l13 110h113l43 171h102l-44 -171h106l44 171h101l-44 -171h91l-14 -110h-107l-33 -131h100l-15 -109h-116l-47 -182h-101l47 182h-105l-48 -182h-102zM232 244h107l32 131h-105z" />
    <glyph glyph-name="dollar" unicode="$" horiz-adv-x="525" 
d="M306 407q13 -8 39.5 -23t38.5 -23t32.5 -22t30 -25t20 -27t15 -34.5t4.5 -40.5q0 -93 -54.5 -150t-147.5 -67l-15 -112h-98l15 116q-113 23 -170 113l110 97q22 -37 55 -56.5t67 -19.5q36 0 56.5 16t20.5 39q0 18 -14 30t-57 37q-3 2 -5 3t-5 3t-5 3q-82 48 -108 73
q-54 52 -54 126q0 82 52 137t134 67l14 115h99l-15 -118q94 -21 146 -97l-109 -92q-43 56 -100 56q-26 0 -43 -14.5t-17 -36.5q1 -18 15.5 -34t52.5 -39z" />
    <glyph glyph-name="percent" unicode="%" horiz-adv-x="989" 
d="M375 -25l-107 49l371 704l107 -49zM247 319q-79 0 -131.5 52.5t-52.5 134.5q0 89 60 150t146 61q80 0 132.5 -52t52.5 -134q0 -90 -60.5 -151t-146.5 -61zM251 421q38 0 64.5 30.5t26.5 76.5q0 39 -22 62.5t-56 23.5q-37 0 -63 -30.5t-26 -75.5q0 -40 21.5 -63.5
t54.5 -23.5zM746 -9q-80 0 -132 52.5t-52 134.5q0 89 60 150t146 61q80 0 132.5 -52t52.5 -134q0 -91 -60.5 -151.5t-146.5 -60.5zM750 93q38 0 64.5 30.5t26.5 76.5q0 39 -22 62.5t-56 23.5q-36 0 -62.5 -30.5t-26.5 -75.5q0 -40 21.5 -63.5t54.5 -23.5z" />
    <glyph glyph-name="ampersand" unicode="&#x26;" horiz-adv-x="719" 
d="M216 -9q-85 0 -139.5 52t-54.5 139q0 67 36.5 127t101.5 90q-44 44 -44 107q0 92 63 152.5t158 60.5q51 0 88.5 -13.5t59 -37.5t33 -48.5t18.5 -55.5l-124 -39q-9 67 -68 68q-35 0 -57 -23.5t-22 -60.5q0 -23 15.5 -37.5t40.5 -14.5h406l-16 -134h-142
q-24 -154 -114 -243t-239 -89zM241 125q71 0 122.5 58.5t68.5 139.5h-130q-56 0 -93.5 -39.5t-37.5 -86.5q0 -34 19.5 -53t50.5 -19z" />
    <glyph glyph-name="quotesingle" unicode="'" horiz-adv-x="227" 
d="M54 443l59 267h149l-96 -267h-112z" />
    <glyph glyph-name="parenleft" unicode="(" horiz-adv-x="301" 
d="M109 -163q-65 136 -65 320q0 160 47 317.5t134 273.5l99 -44q-69 -112 -107.5 -251.5t-38.5 -276.5q0 -153 48 -285z" />
    <glyph glyph-name="parenright" unicode=")" horiz-adv-x="301" 
d="M90 -158l-100 43q70 115 107.5 253.5t37.5 275.5q0 158 -47 285l116 53q66 -128 66 -319q0 -161 -46 -316.5t-134 -274.5z" />
    <glyph glyph-name="asterisk" unicode="*" horiz-adv-x="366" 
d="M156 380l17 97l-73 -52l-37 76l77 43l-67 45l53 76l63 -52l8 97h86l-16 -97l74 51l36 -75l-78 -44l68 -44l-53 -76l-61 52l-10 -97h-87z" />
    <glyph glyph-name="plus" unicode="+" horiz-adv-x="531" 
d="M176 40l21 174h-151l16 126h151l22 176h128l-22 -176h152l-16 -126h-152l-21 -174h-128z" />
    <glyph glyph-name="comma" unicode="," horiz-adv-x="238" 
d="M-27 -133l59 267h148l-101 -267h-106z" />
    <glyph glyph-name="hyphen" unicode="-" horiz-adv-x="359" 
d="M40 240l17 137h277l-17 -137h-277z" />
    <glyph glyph-name="period" unicode="." horiz-adv-x="267" 
d="M111 -11q-39 0 -62.5 24.5t-23.5 62.5q0 39 24.5 63.5t64.5 24.5t63.5 -24t23.5 -61q0 -40 -24.5 -65t-65.5 -25z" />
    <glyph glyph-name="slash" unicode="/" horiz-adv-x="395" 
d="M26 -111l-102 49l447 854l99 -50z" />
    <glyph glyph-name="zero" unicode="0" horiz-adv-x="576" 
d="M262 -9q-103 0 -158.5 69.5t-55.5 201.5q0 114 31 210t99 159.5t162 63.5q102 0 157.5 -70t55.5 -201q0 -114 -31.5 -210t-99.5 -159.5t-160 -63.5zM270 137q33 0 58 29t38.5 75t20 94.5t6.5 96.5q0 118 -63 118q-32 0 -57 -29.5t-39 -76.5t-20.5 -96.5t-6.5 -96.5
q0 -114 63 -114z" />
    <glyph glyph-name="one" unicode="1" horiz-adv-x="400" 
d="M256 687h125l-84 -687h-157l60 487l-94 -70l-64 119z" />
    <glyph glyph-name="two" unicode="2" horiz-adv-x="485" 
d="M4 0l9 101l204 222q100 107 100 176q0 53 -48 53q-24 0 -52 -18t-48 -50l-104 84q35 57 95 92.5t134 35.5q77 0 129.5 -48t52.5 -128q0 -73 -33.5 -134t-99.5 -130l-110 -113v-2h202l-18 -141h-413z" />
    <glyph glyph-name="three" unicode="3" horiz-adv-x="489" 
d="M208 -9q-85 0 -140 44.5t-70 115.5l142 50q7 -72 66 -72q38 0 61 29.5t23 73.5q0 58 -62 58h-46l14 123h40q38 0 60 27.5t22 64.5q0 24 -13.5 38t-34.5 14q-50 0 -80 -59l-118 71q28 59 86 92.5t127 33.5q84 0 133.5 -41t49.5 -117q0 -58 -25.5 -105.5t-71.5 -76.5v-1
q77 -41 77 -139q0 -101 -68 -162.5t-172 -61.5z" />
    <glyph glyph-name="four" unicode="4" horiz-adv-x="516" 
d="M410 239h80l-17 -130h-78l-14 -109h-151l13 109h-244l11 94l333 484h122zM175 224h98l27 208z" />
    <glyph glyph-name="five" unicode="5" horiz-adv-x="496" 
d="M463 546h-215l-19 -111q36 10 68 10q74 0 117.5 -48.5t43.5 -135.5q0 -120 -72 -195t-185 -75q-140 0 -206 112l119 86q27 -58 81 -58q50 0 78 35t28 86q0 35 -16.5 53t-44.5 18q-47 0 -93 -36l-80 32l65 368h348z" />
    <glyph glyph-name="six" unicode="6" horiz-adv-x="533" 
d="M240 -9q-89 0 -144.5 58.5t-55.5 163.5q0 116 46.5 219t135.5 177t205 99l25 -125q-162 -63 -223 -175l1 -1q57 35 115 35q65 0 108.5 -45.5t43.5 -129.5q0 -122 -69.5 -199t-187.5 -77zM252 128q39 0 67 35.5t28 84.5q0 71 -67 71q-50 0 -93 -48q-3 -21 -3 -41
q0 -45 18 -73.5t50 -28.5z" />
    <glyph glyph-name="seven" unicode="7" horiz-adv-x="434" 
d="M71 687h387l-12 -101l-267 -602l-154 28l244 535h-215z" />
    <glyph glyph-name="eight" unicode="8" horiz-adv-x="518" 
d="M222 -9q-90 0 -145.5 44.5t-55.5 121.5q0 68 35 126t95 86v2q-24 13 -40.5 42.5t-16.5 70.5q0 92 63.5 151.5t163.5 59.5q72 0 120 -38.5t48 -109.5q0 -54 -25.5 -102.5t-66.5 -69.5v-1q87 -37 87 -145q0 -112 -72 -175t-190 -63zM283 431q27 0 46 25.5t19 58.5
q0 57 -49 57q-27 0 -45.5 -25t-18.5 -57q0 -27 13 -43t35 -16zM240 121q36 0 61.5 31t25.5 74q0 33 -16 54t-46 21q-37 0 -62 -32.5t-25 -72.5q0 -35 16.5 -55t45.5 -20z" />
    <glyph glyph-name="nine" unicode="9" horiz-adv-x="531" 
d="M122 -25l-25 121q156 48 223 175l-1 1q-49 -29 -105 -29q-68 0 -113 45t-45 128q0 121 74.5 200t188.5 79q88 0 141.5 -59.5t53.5 -164.5q0 -188 -110.5 -331t-281.5 -165zM277 366q48 0 87 46q3 24 3 50q0 48 -17.5 72t-47.5 24q-41 0 -68.5 -33t-27.5 -84q0 -75 71 -75
z" />
    <glyph glyph-name="colon" unicode=":" horiz-adv-x="273" 
d="M156 323q-39 0 -62.5 24.5t-23.5 62.5q0 39 24.5 63.5t64.5 24.5t63.5 -24t23.5 -61q0 -40 -24.5 -65t-65.5 -25zM114 -11q-39 0 -62.5 24.5t-23.5 62.5q0 39 24.5 63.5t64.5 24.5t63.5 -24t23.5 -61q0 -40 -24.5 -65t-65.5 -25z" />
    <glyph glyph-name="semicolon" unicode=";" horiz-adv-x="250" 
d="M140 323q-39 0 -62.5 24.5t-23.5 62.5q0 39 24.5 63.5t64.5 24.5t63.5 -24t23.5 -61q0 -40 -24.5 -65t-65.5 -25zM-24 -133l59 267h148l-101 -267h-106z" />
    <glyph glyph-name="less" unicode="&#x3c;" horiz-adv-x="533" 
d="M448 21l-402 198l11 105l452 203l-16 -140l-255 -114l225 -116z" />
    <glyph glyph-name="equal" unicode="=" horiz-adv-x="547" 
d="M82 329l16 126h430l-15 -126h-431zM50 99l16 126h430l-15 -126h-431z" />
    <glyph glyph-name="greater" unicode="&#x3e;" horiz-adv-x="534" 
d="M32 21l16 136l255 116l-226 114l16 140l403 -203l-12 -105z" />
    <glyph glyph-name="question" unicode="?" horiz-adv-x="432" 
d="M113 239l5 43q3 36 24 66.5t69 80.5q32 33 49 60t17 60q0 57 -50 57q-40 0 -80 -46l-91 91q32 42 88 68t118 26q77 0 127.5 -42.5t50.5 -120.5q0 -102 -106 -199q-37 -33 -55.5 -55t-23.5 -45l-9 -44h-133zM170 -11q-39 0 -62.5 24.5t-23.5 62.5q0 39 24.5 63.5
t64.5 24.5t63.5 -24t23.5 -61q0 -40 -24.5 -65t-65.5 -25z" />
    <glyph glyph-name="at" unicode="@" horiz-adv-x="888" 
d="M413 -151q-161 0 -266 102.5t-105 271.5q0 55 14 112t47.5 116.5t83 105.5t127.5 75.5t174 29.5q172 0 271 -103t99 -263q0 -31 -5.5 -62.5t-21.5 -67.5t-40.5 -63.5t-67 -45.5t-96.5 -18q-59 0 -92 26q-29 18 -38 58h-2q-52 -75 -131 -75q-58 0 -96.5 44.5t-38.5 124.5
q0 113 58.5 186t142.5 73q67 0 99 -37l3 1l4 28h138l-34 -273q-2 -16 -2 -25q0 -39 37 -39q30 0 52.5 31.5t32 67.5t9.5 66q0 122 -73.5 201t-207.5 79q-76 0 -138 -23.5t-101 -60t-66 -84.5t-38 -94t-11 -91q0 -130 80.5 -208t198.5 -78q107 0 206 57l45 -68
q-113 -77 -251 -77zM416 173q38 0 68 38t39 97l3 20q-30 23 -67 23q-39 0 -65 -36.5t-26 -82.5q0 -27 14 -43t34 -16z" />
    <glyph glyph-name="A" unicode="A" horiz-adv-x="635" 
d="M-23 0l320 710h154l146 -710h-166l-22 131h-213l-51 -131h-168zM247 266h141l-42 249h-2z" />
    <glyph glyph-name="B" unicode="B" horiz-adv-x="590" 
d="M38 0l87 710h250q188 0 188 -147q0 -54 -29 -104.5t-80 -76.5v-2q100 -39 100 -149q0 -231 -274 -231h-242zM246 424h62q41 0 67 26t26 68q0 51 -66 51h-70zM212 139h76q53 0 78.5 28t25.5 75q0 58 -76 58h-84z" />
    <glyph glyph-name="C" unicode="C" horiz-adv-x="656" 
d="M340 -9q-129 0 -209.5 77.5t-80.5 221.5q0 181 105 305t272 124q70 0 135 -35t111 -113l-127 -96q-50 91 -128 91q-88 0 -143.5 -82t-55.5 -188q0 -72 35 -111.5t97 -39.5q85 0 146 72l112 -104q-105 -122 -269 -122z" />
    <glyph glyph-name="D" unicode="D" horiz-adv-x="666" 
d="M38 0l87 710h224q144 0 218.5 -78t74.5 -217q0 -187 -103 -301t-281 -114h-220zM212 143h64q95 0 147.5 76t52.5 193q0 155 -145 155h-67z" />
    <glyph glyph-name="E" unicode="E" horiz-adv-x="547" 
d="M37 0l87 710h422l-18 -143h-265l-18 -145h209l-16 -138h-209l-18 -141h284l-18 -143h-440z" />
    <glyph glyph-name="F" unicode="F" horiz-adv-x="536" 
d="M38 0l87 710h436l-18 -143h-278l-21 -167h229l-16 -141h-231l-31 -259h-157z" />
    <glyph glyph-name="G" unicode="G" horiz-adv-x="680" 
d="M341 -9q-129 0 -210 76t-81 221q0 182 104.5 306.5t269.5 124.5q76 0 141 -33t102 -95l-124 -94q-47 72 -128 72q-86 0 -141.5 -81.5t-55.5 -190.5q0 -77 35.5 -117.5t98.5 -40.5q57 0 110 34l13 88h-118l17 134h271l-37 -318q-49 -38 -121 -62t-146 -24z" />
    <glyph glyph-name="H" unicode="H" horiz-adv-x="670" 
d="M38 0l87 710h161l-36 -297h211l36 297h162l-88 -710h-161l33 270h-211l-33 -270h-161z" />
    <glyph glyph-name="I" unicode="I" horiz-adv-x="308" 
d="M43 0l87 710h162l-87 -710h-162z" />
    <glyph glyph-name="J" unicode="J" horiz-adv-x="464" 
d="M169 -9q-54 0 -101 25t-74 72l106 108q24 -52 67 -52q30 0 50 27t28 96l55 443h160l-55 -450q-17 -139 -72.5 -204t-163.5 -65z" />
    <glyph glyph-name="K" unicode="K" horiz-adv-x="618" 
d="M665 710l-256 -319l176 -391h-182l-115 278l-67 -79l-24 -199h-159l87 710h159l-35 -290l3 -1l221 291h192z" />
    <glyph glyph-name="L" unicode="L" horiz-adv-x="521" 
d="M38 0l87 710h161l-70 -567h262l-17 -143h-423z" />
    <glyph glyph-name="M" unicode="M" horiz-adv-x="798" 
d="M38 0l87 710h157l131 -386h3l214 386h157l-87 -710h-157l47 388l-2 1l-150 -257h-97l-95 266l-2 -1l-49 -397h-157z" />
    <glyph glyph-name="N" unicode="N" horiz-adv-x="686" 
d="M38 0l87 710h150l188 -440l3 1l54 439h156l-88 -710h-155l-183 429h-3l-54 -429h-155z" />
    <glyph glyph-name="O" unicode="O" horiz-adv-x="739" 
d="M339 -9q-132 0 -210.5 79.5t-78.5 221.5q0 114 45.5 210.5t132.5 156.5t198 60q132 0 211 -79.5t79 -219.5q0 -118 -43.5 -214.5t-130.5 -155.5t-203 -59zM351 141q86 0 142 78t56 192q0 79 -37.5 119t-100.5 40q-82 0 -138 -81t-56 -187q0 -79 36.5 -120t97.5 -41z" />
    <glyph glyph-name="P" unicode="P" horiz-adv-x="570" 
d="M38 0l87 710h248q102 0 151 -53t49 -143q0 -128 -74.5 -205t-208.5 -77h-67l-28 -232h-157zM241 373h57q50 0 79.5 34t29.5 89q0 36 -21 54.5t-54 18.5h-67z" />
    <glyph glyph-name="Q" unicode="Q" horiz-adv-x="747" 
d="M716 420q0 -161 -78 -276l58 -63l-93 -104l-63 70q-88 -56 -201 -56q-132 0 -210.5 79.5t-78.5 221.5q0 114 45.5 210.5t133 156.5t198.5 60q131 0 210 -79.5t79 -219.5zM351 141q46 0 85 24l-48 53l91 99l43 -47q27 65 27 141q0 79 -37.5 119t-100.5 40
q-81 0 -137.5 -81t-56.5 -187q0 -79 36.5 -120t97.5 -41z" />
    <glyph glyph-name="R" unicode="R" horiz-adv-x="605" 
d="M38 0l87 710h253q102 0 151.5 -53t49.5 -143q0 -89 -37 -154t-107 -99l119 -261h-173l-97 232h-61l-28 -232h-157zM241 373h62q50 0 80 34.5t30 88.5q0 36 -21.5 54.5t-53.5 18.5h-73z" />
    <glyph glyph-name="S" unicode="S" horiz-adv-x="545" 
d="M253 -9q-74 0 -140 31.5t-107 95.5l114 100q24 -40 60.5 -62t72.5 -22q41 0 65 19.5t24 47.5q0 22 -17.5 37t-63.5 42q-10 5 -15 8q-87 50 -116 78q-59 55 -59 133q0 99 69.5 159.5t173.5 60.5q65 0 123.5 -28t94.5 -81l-114 -95q-47 63 -110 63q-31 0 -51 -17.5
t-19 -43.5q1 -21 17.5 -39.5t59.5 -43.5q14 -8 42.5 -24t42 -24.5t35 -23t32 -27t22.5 -29.5t16.5 -37t4.5 -44q0 -110 -71 -172t-186 -62z" />
    <glyph glyph-name="T" unicode="T" horiz-adv-x="539" 
d="M159 0l70 567h-166l18 143h491l-18 -143h-165l-70 -567h-160z" />
    <glyph glyph-name="U" unicode="U" horiz-adv-x="653" 
d="M299 -9q-139 0 -194.5 85.5t-36.5 241.5l49 392h160l-50 -405q-20 -164 85 -164q53 0 85.5 36t42.5 120l51 413h160l-51 -417q-20 -161 -93.5 -231.5t-207.5 -70.5z" />
    <glyph glyph-name="V" unicode="V" horiz-adv-x="630" 
d="M216 0l-147 710h171l73 -470h2l187 470h176l-320 -710h-142z" />
    <glyph glyph-name="W" unicode="W" horiz-adv-x="932" 
d="M186 0l-112 710h166l52 -447h3l150 447h162l39 -435h3l154 435h171l-287 -710h-146l-48 459h-2l-163 -459h-142z" />
    <glyph glyph-name="X" unicode="X" horiz-adv-x="629" 
d="M-26 0l248 360l-151 350h172l95 -232h5l145 232h185l-242 -354l161 -356h-176l-101 236h-4l-158 -236h-179z" />
    <glyph glyph-name="Y" unicode="Y" horiz-adv-x="581" 
d="M179 0l39 310l-159 400h176l79 -250h3l138 250h183l-259 -400l-38 -310h-162z" />
    <glyph glyph-name="Z" unicode="Z" horiz-adv-x="570" 
d="M13 0l15 125l335 439l-2 3h-269l17 143h474l-14 -122l-342 -441l2 -4h284l-17 -143h-483z" />
    <glyph glyph-name="bracketleft" unicode="[" horiz-adv-x="342" 
d="M13 -149l109 884h240l-13 -110h-114l-82 -664h114l-13 -110h-241z" />
    <glyph glyph-name="backslash" unicode="\" horiz-adv-x="399" 
d="M284 -111l-236 853l110 50l237 -855z" />
    <glyph glyph-name="bracketright" unicode="]" horiz-adv-x="342" 
d="M-8 -149l13 110h114l82 664h-114l13 110h241l-108 -884h-241z" />
    <glyph glyph-name="asciicircum" unicode="^" horiz-adv-x="428" 
d="M73 500l145 210h102l95 -210h-115l-39 119l-74 -119h-114z" />
    <glyph glyph-name="underscore" unicode="_" horiz-adv-x="474" 
d="M-52 -127l12 100h488l-12 -100h-488z" />
    <glyph glyph-name="grave" unicode="`" horiz-adv-x="440" 
d="M223 533l-93 150l150 -1l80 -149h-137z" />
    <glyph glyph-name="a" unicode="a" horiz-adv-x="553" 
d="M186 -9q-76 0 -117.5 56t-41.5 144q0 130 67 218.5t164 88.5q74 0 115 -43h3l4 34h151l-60 -489h-151l9 72l-3 1q-57 -82 -140 -82zM234 124q42 0 79.5 51.5t49.5 139.5l2 14q-33 35 -81 35q-47 0 -76.5 -51t-29.5 -111q0 -35 15.5 -56.5t40.5 -21.5z" />
    <glyph glyph-name="b" unicode="b" horiz-adv-x="558" 
d="M244 -10q-118 0 -214 51l86 695h150l-38 -317l2 -1q58 80 142 80q75 0 117 -57t42 -146q0 -138 -73.5 -221.5t-213.5 -83.5zM241 124q65 0 101.5 47t36.5 116q0 33 -15.5 55t-40.5 22q-44 0 -82 -54t-50 -147l-4 -32q28 -7 54 -7z" />
    <glyph glyph-name="c" unicode="c" horiz-adv-x="480" 
d="M235 -9q-97 0 -152 55t-55 158q0 120 69.5 207t190.5 87q126 0 188 -90l-115 -86q-22 43 -69 43q-49 0 -81 -46t-32 -109q0 -40 18 -62.5t49 -22.5q46 0 85 47l116 -74q-78 -107 -212 -107z" />
    <glyph glyph-name="d" unicode="d" horiz-adv-x="548" 
d="M187 -9q-77 0 -118.5 56t-41.5 144q0 130 67 218.5t164 88.5q72 0 117 -43h3l34 281h151l-91 -736h-150l9 72l-3 1q-58 -82 -141 -82zM234 124q42 0 80 51.5t51 139.5l2 14q-32 35 -83 35q-47 0 -76.5 -51t-29.5 -111q0 -35 15.5 -56.5t40.5 -21.5z" />
    <glyph glyph-name="e" unicode="e" horiz-adv-x="476" 
d="M463 363q-3 -156 -289 -186q6 -31 26 -46.5t44 -15.5q52 0 89 49l112 -66q-78 -107 -213 -107q-93 0 -149 55.5t-55 149.5q0 128 73.5 215t194.5 87q66 0 117 -35.5t50 -99.5zM319 342q1 15 -9 23t-27 8q-33 0 -62.5 -28.5t-41.5 -77.5q139 15 140 75z" />
    <glyph glyph-name="f" unicode="f" horiz-adv-x="327" 
d="M33 0l45 368h-41l15 121h41l10 82q21 174 168 174q69 0 116 -37l-37 -110q-26 18 -51 18q-21 0 -32 -15.5t-17 -61.5l-6 -50h78l-15 -121h-79l-44 -368h-151z" />
    <glyph glyph-name="g" unicode="g" horiz-adv-x="551" 
d="M378 489h150l-52 -426q-33 -270 -284 -270q-100 0 -178 48l47 117q62 -38 125 -38q62 0 96 34t47 133l-3 1q-58 -82 -139 -82q-76 0 -117.5 54.5t-41.5 135.5q0 127 67 214.5t163 87.5q75 0 114 -41l3 1zM361 315l2 16q-33 33 -79 33t-75.5 -49.5t-29.5 -103.5
q0 -35 14.5 -53.5t40.5 -18.5q41 0 78 49t49 127z" />
    <glyph glyph-name="h" unicode="h" horiz-adv-x="547" 
d="M25 0l91 736h149l-39 -315l2 -1q67 78 163 78q70 0 98 -48.5t15 -150.5l-39 -299h-150l36 265q7 51 0.5 75t-29.5 24q-39 0 -77.5 -50.5t-48.5 -137.5l-21 -176h-150z" />
    <glyph glyph-name="i" unicode="i" horiz-adv-x="268" 
d="M182 552q-39 0 -64.5 24.5t-25.5 61.5q0 38 26 63t67 25q40 0 65 -24t25 -61q0 -39 -26 -64t-67 -25zM29 0l60 489h150l-60 -489h-150z" />
    <glyph glyph-name="j" unicode="j" horiz-adv-x="251" 
d="M170 552q-39 0 -64.5 24.5t-25.5 61.5q0 38 26 63t67 25q40 0 65 -24t25 -61q0 -39 -26 -64t-67 -25zM-3 -206q-59 0 -103 23l37 115q14 -12 38 -12q22 0 32 18.5t15 65.5l60 485h151l-63 -506q-22 -189 -167 -189z" />
    <glyph glyph-name="k" unicode="k" horiz-adv-x="514" 
d="M438 -7q-20 -2 -44 -2q-53 0 -84.5 36t-54.5 104l-9 30q-28 -18 -59 -31l-15 -130h-147l91 736h149l-56 -455l2 -1q105 74 139 209h155q-27 -142 -139 -247l14 -42q16 -49 36 -66t56 -19z" />
    <glyph glyph-name="l" unicode="l" horiz-adv-x="268" 
d="M30 0l90 736h151l-91 -736h-150z" />
    <glyph glyph-name="m" unicode="m" horiz-adv-x="813" 
d="M26 0l60 489h150l-8 -61l4 -1q63 71 149 71t106 -74h5q63 74 164 74q73 0 100.5 -49.5t13.5 -155.5l-39 -293h-149l35 265q7 51 1.5 75t-28.5 24q-31 0 -67 -49.5t-47 -134.5l-24 -180h-149l35 265q8 51 2.5 75t-29.5 24q-30 0 -66 -47.5t-46 -125.5l-23 -191h-150z" />
    <glyph glyph-name="n" unicode="n" horiz-adv-x="547" 
d="M25 0l61 489h149l-8 -68l2 -1q67 78 162 78q70 0 98 -48.5t15 -150.5l-39 -299h-149l35 265q7 51 0.5 75t-29.5 24q-38 0 -76 -49t-49 -134l-22 -181h-150z" />
    <glyph glyph-name="o" unicode="o" horiz-adv-x="535" 
d="M235 -9q-94 0 -150.5 55.5t-56.5 154.5q0 124 73 210.5t197 86.5q96 0 152.5 -55.5t56.5 -153.5q0 -128 -69.5 -213t-202.5 -85zM246 125q48 0 78.5 46t30.5 108q0 47 -21 66t-48 19q-47 0 -76.5 -47.5t-29.5 -107.5q0 -41 19.5 -62.5t46.5 -21.5z" />
    <glyph glyph-name="p" unicode="p" horiz-adv-x="558" 
d="M1 -198l85 687h150l-9 -73l1 -2q58 84 147 84q74 0 114.5 -56.5t40.5 -143.5q0 -130 -67.5 -218.5t-166.5 -88.5q-71 0 -114 33l-4 -1l-27 -221h-150zM256 124q58 0 91 47t33 112q0 36 -15 59t-40 23q-44 0 -82.5 -53t-51.5 -145l-1 -13q22 -30 66 -30z" />
    <glyph glyph-name="q" unicode="q" horiz-adv-x="554" 
d="M296 -198l34 270l-3 2q-57 -83 -141 -83q-76 0 -117.5 56t-41.5 144q0 130 67 218.5t164 88.5q75 0 116 -43l2 1l4 33h151l-84 -687h-151zM234 124q41 0 79 51.5t50 137.5l2 16q-34 36 -81 36t-76.5 -51.5t-29.5 -111.5q0 -35 15.5 -56.5t40.5 -21.5z" />
    <glyph glyph-name="r" unicode="r" horiz-adv-x="353" 
d="M26 0l60 489h150l-9 -67h2q58 76 140 76l-21 -166q-54 20 -95.5 -19t-54.5 -125l-22 -188h-150z" />
    <glyph glyph-name="s" unicode="s" horiz-adv-x="420" 
d="M188 -9q-54 0 -107 22.5t-84 61.5l84 87q22 -26 52.5 -42t58.5 -16q45 0 45 27q0 11 -10.5 19t-48.5 27q-11 6 -17 9q-60 30 -89.5 64t-29.5 85q0 72 52 117.5t129 45.5q111 0 176 -78l-91 -86q-35 48 -84 50q-16 0 -27.5 -8t-11.5 -22q0 -20 69 -54q66 -33 97 -65
t31 -85q0 -72 -52.5 -115.5t-141.5 -43.5z" />
    <glyph glyph-name="t" unicode="t" horiz-adv-x="342" 
d="M170 -9q-61 0 -94 38t-23 118l26 221h-48l15 121h48l19 143l153 30l-21 -173h101l-15 -121h-101l-24 -201q-6 -41 22 -41q19 0 49 16l24 -117q-62 -34 -131 -34z" />
    <glyph glyph-name="u" unicode="u" horiz-adv-x="539" 
d="M167 -9q-153 0 -125 194l42 304h149l-37 -259q-8 -59 -1 -82t33 -23q32 0 67.5 43.5t42.5 96.5l27 224h150l-60 -489h-147l6 72h-2q-60 -81 -145 -81z" />
    <glyph glyph-name="v" unicode="v" horiz-adv-x="503" 
d="M191 -9q-92 0 -129 57t-25 157l36 284h148l-31 -253q-8 -53 -2.5 -82t29.5 -29q33 0 67 46t48 147q12 78 -1 171h150q17 -95 1 -201q-12 -80 -40 -139.5t-68.5 -93t-85.5 -49t-97 -15.5z" />
    <glyph glyph-name="w" unicode="w" horiz-adv-x="759" 
d="M165 -9q-76 0 -109 55t-21 147l42 296h148l-36 -261q-14 -103 30 -103q27 0 56.5 38t39.5 118l26 208h145l-33 -267q-7 -53 0 -75t28 -22q30 0 61.5 45.5t44.5 147.5q11 81 0 171h151q17 -97 0 -201q-22 -155 -99 -226t-183 -71q-110 0 -134 89h-2q-25 -42 -68 -65.5
t-87 -23.5z" />
    <glyph glyph-name="x" unicode="x" horiz-adv-x="477" 
d="M-21 0l178 254l-114 235h166l45 -118h1l73 118h170l-177 -243l118 -246h-160l-52 123h-2l-84 -123h-162z" />
    <glyph glyph-name="y" unicode="y" horiz-adv-x="534" 
d="M363 489h149l-52 -423q-32 -273 -276 -273q-99 0 -177 48l47 113q58 -38 122 -38q57 0 89.5 31.5t45.5 121.5v1l-3 1q-59 -80 -145 -80q-153 0 -125 194l42 304h149l-36 -259q-8 -59 -1.5 -82t33.5 -23q33 0 68.5 44.5t41.5 96.5z" />
    <glyph glyph-name="z" unicode="z" horiz-adv-x="447" 
d="M367 -28q-117 28 -366 28l11 100l217 267v3h-165l14 119h365l-11 -100l-222 -267v-2q111 -5 192 -30z" />
    <glyph glyph-name="braceleft" unicode="{" horiz-adv-x="335" 
d="M177 -147q-47 0 -75.5 37.5t-21.5 96.5l22 175q2 21 2 37.5t-15.5 27t-50.5 11.5l8 109q27 1 44.5 8t26 20.5t12 24.5t4.5 27l23 178q7 56 41.5 93t82.5 37h83l-12 -97h-18q-48 0 -57 -67l-22 -171q-11 -85 -59 -108v-2q23 -13 31.5 -34t0.5 -77l-20 -165q-4 -36 2 -50.5
t35 -14.5h23l-13 -96h-77z" />
    <glyph glyph-name="bar" unicode="|" horiz-adv-x="321" 
d="M57 -115l104 852h120l-104 -852h-120z" />
    <glyph glyph-name="braceright" unicode="}" horiz-adv-x="336" 
d="M-15 -147l12 96h17q30 0 42.5 17.5t16.5 52.5l20 166q7 57 19 76.5t40 32.5v2q-42 27 -32 109l21 172q6 61 -37 61h-22l11 97h77q49 0 77 -40t21 -96l-22 -176q-1 -18 -2 -34.5t15 -28.5t51 -13l-9 -109q-50 -1 -66.5 -21.5t-21.5 -59.5l-21 -175q-7 -59 -42.5 -94
t-82.5 -35h-82z" />
    <glyph glyph-name="asciitilde" unicode="~" horiz-adv-x="528" 
d="M345 191q-12 0 -22 1.5t-19.5 4.5t-14 4.5t-14.5 6.5t-11 6q-38 20 -58 20q-36 0 -65 -47l-98 46q25 60 63.5 96t85.5 36q13 0 27 -3t21.5 -6t20.5 -9t15 -7q32 -17 53 -17q38 0 67 45l97 -38q-25 -62 -63.5 -100.5t-84.5 -38.5z" />
    <glyph glyph-name="uni00A0" unicode="&#xa0;" horiz-adv-x="178" 
 />
    <glyph glyph-name="exclamdown" unicode="&#xa1;" horiz-adv-x="287" 
d="M160 500q39 0 62.5 -24.5t23.5 -62.5q0 -39 -24.5 -63.5t-64.5 -24.5t-63.5 24t-23.5 61q0 40 24.5 65t65.5 25zM193 247l-35 -494h-159l87 494h107z" />
    <glyph glyph-name="cent" unicode="&#xa2;" horiz-adv-x="488" 
d="M253 178q47 0 87 48l116 -74q-64 -88 -163 -104l-12 -95h-95l11 95q-75 13 -117.5 67t-42.5 141q0 108 60 190.5t160 100.5l10 93h96l-11 -92q87 -14 132 -80l-115 -85q-23 36 -69 36q-47 -1 -79.5 -47.5t-32.5 -110.5q0 -43 20.5 -63t44.5 -20z" />
    <glyph glyph-name="sterling" unicode="&#xa3;" horiz-adv-x="517" 
d="M11 0l17 142h52l20 163h-45l13 108h44l6 44q15 125 75.5 181.5t144.5 56.5q55 0 103 -26t77 -73l-87 -96q-16 25 -37.5 39.5t-39.5 14.5q-65 0 -77 -110l-4 -31h126l-12 -108h-126l-20 -163h238l-17 -142h-451z" />
    <glyph glyph-name="currency" unicode="&#xa4;" horiz-adv-x="466" 
d="M419 412q0 -64 -34 -117l62 -80l-72 -67l-64 79q-38 -20 -85 -20q-44 0 -79 19l-76 -77l-61 67l79 78q-11 28 -11 61q0 73 37 128l-63 77l74 67l62 -77q37 20 82 20t81 -22l79 80l60 -67l-82 -82q11 -31 11 -67zM239 308q34 0 57 26.5t23 63.5q0 33 -17.5 52.5
t-43.5 19.5q-34 0 -57 -28t-23 -68q0 -30 16.5 -48t44.5 -18z" />
    <glyph glyph-name="yen" unicode="&#xa5;" horiz-adv-x="557" 
d="M612 687l-198 -323h82l-10 -80h-121l-7 -51h121l-9 -80h-122l-19 -153h-163l19 153h-126l10 80h126l7 51h-127l10 80h88l-117 323h181l64 -245h2l121 245h188z" />
    <glyph glyph-name="brokenbar" unicode="&#xa6;" horiz-adv-x="321" 
d="M118 384l43 353h120l-43 -353h-120zM57 -114l43 351h120l-43 -351h-120z" />
    <glyph glyph-name="section" unicode="&#xa7;" horiz-adv-x="505" 
d="M327 440q34 -16 46 -22.5t36 -22t33 -28.5t17.5 -33.5t8.5 -45.5q0 -97 -83 -147q35 -35 35 -93q0 -92 -59.5 -147t-153.5 -55q-129 0 -200 100l93 96q45 -63 110 -63q28 0 42 14.5t14 34.5q0 18 -19 33.5t-68 39.5q-40 20 -63.5 36t-44 48t-20.5 73q0 98 79 143
q-36 39 -36 97q0 87 57 138.5t147 51.5q58 0 110.5 -23t81.5 -60l-90 -99q-52 47 -100 47q-51 0 -51 -44q0 -16 16 -31t62 -38zM193 282q0 -37 67 -67q8 -4 22 -10q41 14 41 55q0 20 -14.5 34t-60.5 35q-3 1 -8.5 3.5t-7.5 3.5q-39 -10 -39 -54z" />
    <glyph glyph-name="dieresis" unicode="&#xa8;" horiz-adv-x="482" 
d="M177 528q-39 0 -64.5 24.5t-25.5 61.5q0 38 26 63t67 25q40 0 65 -24t25 -61q0 -39 -26 -64t-67 -25zM394 528q-39 0 -64.5 24.5t-25.5 61.5q0 39 26 63.5t68 24.5q39 0 64 -24t25 -61q0 -39 -26 -64t-67 -25z" />
    <glyph glyph-name="copyright" unicode="&#xa9;" horiz-adv-x="724" 
d="M361 -6q-135 0 -229 95.5t-94 229.5t94.5 230t229.5 96q136 0 229.5 -96t93.5 -230q0 -133 -94.5 -229t-229.5 -96zM361 89q96 0 161.5 67.5t65.5 162.5q0 97 -65 163.5t-161 66.5q-97 0 -162.5 -67.5t-65.5 -163.5t65 -162.5t162 -66.5zM368 154q-71 0 -118.5 43
t-47.5 120q0 70 44 116.5t122 46.5q79 0 130 -62l-61 -52q-30 34 -69 34q-33 0 -55 -22.5t-22 -60.5q0 -36 21 -59.5t56 -23.5q42 0 69 34l61 -54q-51 -60 -130 -60z" />
    <glyph glyph-name="ordfeminine" unicode="&#xaa;" horiz-adv-x="348" 
d="M148 387q-40 0 -68 31.5t-28 89.5q0 79 43.5 132t103.5 53q38 0 61 -25h1l3 19h101l-36 -294h-102l5 40h-2q-36 -46 -82 -46zM185 479q21 0 41 25.5t26 68.5l2 11q-14 15 -39 15q-24 0 -41 -25t-17 -58q0 -37 28 -37z" />
    <glyph glyph-name="guillemotleft" unicode="&#xab;" horiz-adv-x="495" 
d="M110 46l-77 201l129 205h137l-128 -205l77 -201h-138zM317 46l-78 201l130 205h137l-129 -205l77 -201h-137z" />
    <glyph glyph-name="logicalnot" unicode="&#xac;" horiz-adv-x="502" 
d="M318 140l20 164h-287l15 125h414l-35 -289h-127z" />
    <glyph glyph-name="registered" unicode="&#xae;" horiz-adv-x="724" 
d="M362 645q136 0 229.5 -96t93.5 -230q0 -133 -94.5 -229t-229.5 -96t-229 95.5t-94 229.5t94.5 230t229.5 96zM361 89q96 0 161.5 67.5t65.5 162.5q0 97 -65 163.5t-161 66.5q-97 0 -162.5 -67.5t-65.5 -163.5t65 -162.5t162 -66.5zM489 369q0 -71 -56 -97l72 -113h-96
l-61 100h-22v-100h-82v324h129q58 0 87 -31t29 -83zM326 408v-75h28q22 0 35 10t13 28q0 16 -12.5 26.5t-35.5 10.5h-28z" />
    <glyph glyph-name="macron" unicode="&#xaf;" horiz-adv-x="393" 
d="M92 558l15 115h285l-14 -115h-286z" />
    <glyph glyph-name="degree" unicode="&#xb0;" horiz-adv-x="360" 
d="M203 440q-55 0 -86 31.5t-31 82.5q0 69 42.5 116.5t108.5 47.5q53 0 86 -32.5t33 -88.5q0 -64 -42.5 -110.5t-110.5 -46.5zM213 525q23 0 39 18.5t16 44.5q0 20 -11 33t-29 13q-23 0 -39 -19t-16 -49q0 -18 11 -29.5t29 -11.5z" />
    <glyph glyph-name="plusminus" unicode="&#xb1;" horiz-adv-x="543" 
d="M202 183l21 174h-151l16 126h151l22 176h128l-22 -176h152l-16 -126h-152l-21 -174h-128zM28 0l16 126h430l-15 -126h-431z" />
    <glyph glyph-name="uni00B2" unicode="&#xb2;" horiz-adv-x="305" 
d="M42 435l7 75l122 127q57 61 57 91q0 22 -21 22q-26 0 -52 -35l-78 63q52 76 145 76q54 0 87 -29.5t33 -79.5q0 -46 -18.5 -80t-59.5 -77l-49 -50l1 -2h105l-12 -101h-267z" />
    <glyph glyph-name="uni00B3" unicode="&#xb3;" horiz-adv-x="311" 
d="M182 427q-55 0 -93 30t-47 74l102 34q3 -40 31 -40q18 0 29.5 15t11.5 37q0 26 -32 26h-24l10 82h26q15 0 26.5 15t11.5 33q0 23 -20 23q-27 0 -39 -36l-89 54q17 35 54.5 57.5t80.5 22.5q54 0 87 -26.5t33 -75.5q0 -68 -57 -105v-1q47 -28 47 -83q0 -62 -42.5 -99
t-106.5 -37z" />
    <glyph glyph-name="acute" unicode="&#xb4;" horiz-adv-x="438" 
d="M148 533l117 149l152 1l-129 -150h-140z" />
    <glyph glyph-name="uni00B5" unicode="&#xb5;" horiz-adv-x="569" 
d="M522 120l18 -102q-38 -27 -95 -27q-95 0 -108 84h-2q-48 -84 -116 -84q-40 0 -61 26l-3 -1q12 -70 4 -129l-10 -85h-148l84 687h149l-34 -271q-12 -93 41 -93q31 0 57.5 31t34.5 93l29 240h150l-40 -324q-3 -28 2 -38t21 -10q13 0 27 3z" />
    <glyph glyph-name="paragraph" unicode="&#xb6;" horiz-adv-x="487" 
d="M304 680h168l-83 -680h-185l35 282q-88 2 -139.5 47.5t-47.5 126.5q3 95 71 159.5t181 64.5z" />
    <glyph glyph-name="periodcentered" unicode="&#xb7;" horiz-adv-x="278" 
d="M151 154q-39 0 -62.5 24.5t-23.5 62.5q0 39 24.5 63.5t64.5 24.5t63.5 -24t23.5 -61q0 -40 -24.5 -65t-65.5 -25z" />
    <glyph glyph-name="cedilla" unicode="&#xb8;" horiz-adv-x="286" 
d="M59 -192q-33 0 -54 6l2 61q17 -6 39 -6q53 0 53 33q0 25 -65 25l1 38l26 41h77l-26 -36l1 -1q75 -3 75 -66q0 -47 -34.5 -71t-94.5 -24z" />
    <glyph glyph-name="uni00B9" unicode="&#xb9;" horiz-adv-x="270" 
d="M207 847h87l-51 -412h-111l34 267l-51 -34l-46 85z" />
    <glyph glyph-name="ordmasculine" unicode="&#xba;" horiz-adv-x="326" 
d="M179 388q-57 0 -90.5 33.5t-33.5 93.5q0 74 43.5 126t122.5 52q56 0 89 -32.5t33 -93.5q0 -75 -41.5 -127t-122.5 -52zM188 481q22 0 38 22.5t16 53.5q0 43 -32 43q-23 0 -38.5 -23.5t-15.5 -53.5q0 -21 9.5 -31.5t22.5 -10.5z" />
    <glyph glyph-name="guillemotright" unicode="&#xbb;" horiz-adv-x="497" 
d="M-10 46l128 201l-79 205h139l78 -205l-126 -201h-140zM200 46l128 201l-79 205h138l79 -205l-127 -201h-139z" />
    <glyph glyph-name="onequarter" unicode="&#xbc;" horiz-adv-x="754" 
d="M521 728l106 -49l-372 -704l-105 49zM231 298h-111l34 267l-51 -34l-46 85l138 94h87zM689 157h46l-12 -96h-46l-7 -61h-112l7 61h-138l7 67l198 284h88zM538 146h56l15 113z" />
    <glyph glyph-name="onehalf" unicode="&#xbd;" horiz-adv-x="791" 
d="M521 728l106 -49l-372 -704l-105 49zM231 298h-111l34 267l-51 -34l-46 85l138 94h87zM652 103l1 -2h105l-12 -101h-267l7 75l122 127q57 61 57 91q0 22 -21 22q-26 0 -52 -35l-78 63q52 76 145 76q54 0 87 -29.5t33 -79.5q0 -46 -18.5 -80t-59.5 -77z" />
    <glyph glyph-name="threequarters" unicode="&#xbe;" horiz-adv-x="776" 
d="M540 728l106 -49l-372 -704l-105 49zM320 426q0 -62 -42.5 -99t-106.5 -37q-55 0 -93 30t-47 74l102 34q3 -40 31 -40q18 0 29.5 15t11.5 37q0 26 -32 26h-24l10 82h26q15 0 26.5 15t11.5 33q0 23 -20 23q-27 0 -39 -36l-89 54q17 35 54.5 57.5t80.5 22.5q54 0 87 -26.5
t33 -75.5q0 -68 -57 -105v-1q47 -28 47 -83zM711 157h46l-12 -96h-46l-7 -61h-112l7 61h-138l7 67l198 284h88zM560 146h56l15 113z" />
    <glyph glyph-name="questiondown" unicode="&#xbf;" horiz-adv-x="415" 
d="M267 499q39 0 62.5 -24.5t23.5 -62.5q0 -39 -24.5 -63.5t-64.5 -24.5t-63.5 24t-23.5 61q0 40 24.5 65t65.5 25zM324 249l-5 -43q-3 -36 -24 -66.5t-69 -80.5q-32 -33 -49 -60t-17 -60q0 -57 50 -57q40 0 80 46l91 -91q-32 -42 -88 -68t-118 -26q-77 0 -127.5 42.5
t-50.5 120.5q0 102 106 199q37 33 55.5 55t23.5 45l9 44h133z" />
    <glyph glyph-name="Agrave" unicode="&#xc0;" horiz-adv-x="635" 
d="M316 761l-94 140l150 -1l81 -139h-137zM-23 0l320 710h154l146 -710h-166l-22 131h-213l-51 -131h-168zM247 266h141l-42 249h-2z" />
    <glyph glyph-name="Aacute" unicode="&#xc1;" horiz-adv-x="635" 
d="M315 761l115 139l151 1l-131 -140h-135zM-23 0l320 710h154l146 -710h-166l-22 131h-213l-51 -131h-168zM247 266h141l-42 249h-2z" />
    <glyph glyph-name="Acircumflex" unicode="&#xc2;" horiz-adv-x="635" 
d="M220 761l108 140h150l73 -140h-126l-32 64h-1l-48 -64h-124zM-23 0l320 710h154l146 -710h-166l-22 131h-213l-51 -131h-168zM247 266h141l-42 249h-2z" />
    <glyph glyph-name="Atilde" unicode="&#xc3;" horiz-adv-x="635" 
d="M469 762q-32 0 -77 30q-26 18 -44 18q-32 0 -57 -50l-84 41q53 110 128 110q37 0 76 -26q30 -20 44 -20q34 0 58 48l84 -32q-52 -119 -128 -119zM-23 0l320 710h154l146 -710h-166l-22 131h-213l-51 -131h-168zM247 266h141l-42 249h-2z" />
    <glyph glyph-name="Adieresis" unicode="&#xc4;" horiz-adv-x="635" 
d="M284 757q-39 0 -64.5 24.5t-25.5 61.5q0 38 26 63t67 25q40 0 65 -24t25 -61q0 -39 -26 -64t-67 -25zM501 757q-39 0 -64.5 24.5t-25.5 61.5q0 39 26 63.5t68 24.5q39 0 64 -24t25 -61q0 -39 -26 -64t-67 -25zM-23 0l320 710h154l146 -710h-166l-22 131h-213l-51 -131
h-168zM247 266h141l-42 249h-2z" />
    <glyph glyph-name="Aring" unicode="&#xc5;" horiz-adv-x="635" 
d="M389 747q-45 0 -75 30.5t-30 74.5q0 45 31 75.5t77 30.5q45 0 74.5 -29.5t29.5 -73.5q0 -46 -30.5 -77t-76.5 -31zM391 817q15 0 25.5 10.5t10.5 26.5q0 14 -10.5 24.5t-24.5 10.5q-16 0 -27 -10.5t-11 -25.5q0 -16 10.5 -26t26.5 -10zM-23 0l320 710h154l146 -710h-166
l-22 131h-213l-51 -131h-168zM247 266h141l-42 249h-2z" />
    <glyph glyph-name="AE" unicode="&#xc6;" horiz-adv-x="866" 
d="M-30 0l390 710h505l-18 -143h-267l-18 -145h215l-18 -139h-214l-17 -140h286l-18 -143h-441l17 131h-162l-69 -131h-171zM280 267h109l32 264h-2z" />
    <glyph glyph-name="Ccedilla" unicode="&#xc7;" horiz-adv-x="656" 
d="M351 145q85 0 146 72l112 -104q-97 -114 -252 -122l-15 -21l1 -1q75 -3 75 -66q0 -47 -34.5 -71t-94.5 -24q-33 0 -54 6l2 61q17 -6 39 -6q53 0 53 33q0 25 -65 25l1 38l19 30q-106 16 -170 92t-64 203q0 181 105 305t272 124q70 0 135 -35t111 -113l-127 -96
q-50 91 -128 91q-88 0 -143.5 -82t-55.5 -188q0 -72 35 -111.5t97 -39.5z" />
    <glyph glyph-name="Egrave" unicode="&#xc8;" horiz-adv-x="547" 
d="M313 760l-94 140l150 -1l81 -139h-137zM37 0l87 710h422l-18 -143h-265l-18 -145h209l-16 -138h-209l-18 -141h284l-18 -143h-440z" />
    <glyph glyph-name="Eacute" unicode="&#xc9;" horiz-adv-x="547" 
d="M238 760l115 139l151 1l-131 -140h-135zM37 0l87 710h422l-18 -143h-265l-18 -145h209l-16 -138h-209l-18 -141h284l-18 -143h-440z" />
    <glyph glyph-name="Ecircumflex" unicode="&#xca;" horiz-adv-x="547" 
d="M181 760l108 140h150l73 -140h-126l-32 64h-1l-48 -64h-124zM37 0l87 710h422l-18 -143h-265l-18 -145h209l-16 -138h-209l-18 -141h284l-18 -143h-440z" />
    <glyph glyph-name="Edieresis" unicode="&#xcb;" horiz-adv-x="547" 
d="M245 756q-39 0 -64.5 24.5t-25.5 61.5q0 38 26 63t67 25q40 0 65 -24t25 -61q0 -39 -26 -64t-67 -25zM462 756q-39 0 -64.5 24.5t-25.5 61.5q0 39 26 63.5t68 24.5q39 0 64 -24t25 -61q0 -39 -26 -64t-67 -25zM37 0l87 710h422l-18 -143h-265l-18 -145h209l-16 -138h-209
l-18 -141h284l-18 -143h-440z" />
    <glyph glyph-name="Igrave" unicode="&#xcc;" horiz-adv-x="308" 
d="M153 759l-94 140l150 -1l81 -139h-137zM43 0l87 710h162l-87 -710h-162z" />
    <glyph glyph-name="Iacute" unicode="&#xcd;" horiz-adv-x="308" 
d="M147 761l115 139l151 1l-131 -140h-135zM43 0l87 710h162l-87 -710h-162z" />
    <glyph glyph-name="Icircumflex" unicode="&#xce;" horiz-adv-x="308" 
d="M50 760l108 140h150l73 -140h-126l-32 64h-1l-48 -64h-124zM43 0l87 710h162l-87 -710h-162z" />
    <glyph glyph-name="Idieresis" unicode="&#xcf;" horiz-adv-x="308" 
d="M114 756q-39 0 -64.5 24.5t-25.5 61.5q0 38 26 63t67 25q40 0 65 -24t25 -61q0 -39 -26 -64t-67 -25zM331 756q-39 0 -64.5 24.5t-25.5 61.5q0 39 26 63.5t68 24.5q39 0 64 -24t25 -61q0 -39 -26 -64t-67 -25zM43 0l87 710h162l-87 -710h-162z" />
    <glyph glyph-name="Eth" unicode="&#xd0;" horiz-adv-x="668" 
d="M350 710q144 0 218.5 -78t74.5 -217q0 -187 -103 -301t-281 -114h-220l34 281h-46l19 135h44l36 294h224zM277 143q95 0 147.5 76t52.5 193q0 155 -145 155h-67l-19 -151h113l-19 -135h-110l-17 -138h64z" />
    <glyph glyph-name="Ntilde" unicode="&#xd1;" horiz-adv-x="686" 
d="M497 762q-32 0 -77 30q-26 18 -44 18q-32 0 -57 -50l-84 41q53 110 128 110q37 0 76 -26q30 -20 44 -20q34 0 58 48l84 -32q-52 -119 -128 -119zM38 0l87 710h150l188 -440l3 1l54 439h156l-88 -710h-155l-183 429h-3l-54 -429h-155z" />
    <glyph glyph-name="Ograve" unicode="&#xd2;" horiz-adv-x="739" 
d="M387 761l-94 140l150 -1l81 -139h-137zM339 -9q-132 0 -210.5 79.5t-78.5 221.5q0 114 45.5 210.5t132.5 156.5t198 60q132 0 211 -79.5t79 -219.5q0 -118 -43.5 -214.5t-130.5 -155.5t-203 -59zM351 141q86 0 142 78t56 192q0 79 -37.5 119t-100.5 40q-82 0 -138 -81
t-56 -187q0 -79 36.5 -120t97.5 -41z" />
    <glyph glyph-name="Oacute" unicode="&#xd3;" horiz-adv-x="739" 
d="M369 761l115 139l151 1l-131 -140h-135zM339 -9q-132 0 -210.5 79.5t-78.5 221.5q0 114 45.5 210.5t132.5 156.5t198 60q132 0 211 -79.5t79 -219.5q0 -118 -43.5 -214.5t-130.5 -155.5t-203 -59zM351 141q86 0 142 78t56 192q0 79 -37.5 119t-100.5 40q-82 0 -138 -81
t-56 -187q0 -79 36.5 -120t97.5 -41z" />
    <glyph glyph-name="Ocircumflex" unicode="&#xd4;" horiz-adv-x="739" 
d="M295 761l108 140h150l73 -140h-126l-32 64h-1l-48 -64h-124zM339 -9q-132 0 -210.5 79.5t-78.5 221.5q0 114 45.5 210.5t132.5 156.5t198 60q132 0 211 -79.5t79 -219.5q0 -118 -43.5 -214.5t-130.5 -155.5t-203 -59zM351 141q86 0 142 78t56 192q0 79 -37.5 119
t-100.5 40q-82 0 -138 -81t-56 -187q0 -79 36.5 -120t97.5 -41z" />
    <glyph glyph-name="Otilde" unicode="&#xd5;" horiz-adv-x="739" 
d="M544 762q-32 0 -77 30q-26 18 -44 18q-32 0 -57 -50l-84 41q53 110 128 110q37 0 76 -26q30 -20 44 -20q34 0 58 48l84 -32q-52 -119 -128 -119zM339 -9q-132 0 -210.5 79.5t-78.5 221.5q0 114 45.5 210.5t132.5 156.5t198 60q132 0 211 -79.5t79 -219.5
q0 -118 -43.5 -214.5t-130.5 -155.5t-203 -59zM351 141q86 0 142 78t56 192q0 79 -37.5 119t-100.5 40q-82 0 -138 -81t-56 -187q0 -79 36.5 -120t97.5 -41z" />
    <glyph glyph-name="Odieresis" unicode="&#xd6;" horiz-adv-x="739" 
d="M359 757q-39 0 -64.5 24.5t-25.5 61.5q0 38 26 63t67 25q40 0 65 -24t25 -61q0 -39 -26 -64t-67 -25zM576 757q-39 0 -64.5 24.5t-25.5 61.5q0 39 26 63.5t68 24.5q39 0 64 -24t25 -61q0 -39 -26 -64t-67 -25zM339 -9q-132 0 -210.5 79.5t-78.5 221.5q0 114 45.5 210.5
t132.5 156.5t198 60q132 0 211 -79.5t79 -219.5q0 -118 -43.5 -214.5t-130.5 -155.5t-203 -59zM351 141q86 0 142 78t56 192q0 79 -37.5 119t-100.5 40q-82 0 -138 -81t-56 -187q0 -79 36.5 -120t97.5 -41z" />
    <glyph glyph-name="multiply" unicode="&#xd7;" horiz-adv-x="491" 
d="M109 56l-81 89l132 133l-99 132l99 89l98 -132l132 133l82 -90l-133 -133l99 -133l-98 -89l-100 133z" />
    <glyph glyph-name="Oslash" unicode="&#xd8;" horiz-adv-x="741" 
d="M746 679l-75 -80q47 -74 47 -179q0 -118 -43.5 -214.5t-130.5 -155.5t-203 -59q-114 0 -188 59l-79 -84l-62 62l83 88q-43 72 -43 176q0 114 45.5 210.5t132.5 156.5t198 60t184 -56l72 76zM219 302q0 -25 5 -50l275 291q-35 27 -86 27q-82 0 -138 -81t-56 -187zM551 411
q0 31 -6 55l-278 -295q35 -30 86 -30q86 0 142 78t56 192z" />
    <glyph glyph-name="Ugrave" unicode="&#xd9;" horiz-adv-x="653" 
d="M326 761l-94 140l150 -1l81 -139h-137zM299 -9q-139 0 -194.5 85.5t-36.5 241.5l49 392h160l-50 -405q-20 -164 85 -164q53 0 85.5 36t42.5 120l51 413h160l-51 -417q-20 -161 -93.5 -231.5t-207.5 -70.5z" />
    <glyph glyph-name="Uacute" unicode="&#xda;" horiz-adv-x="653" 
d="M313 761l115 139l151 1l-131 -140h-135zM299 -9q-139 0 -194.5 85.5t-36.5 241.5l49 392h160l-50 -405q-20 -164 85 -164q53 0 85.5 36t42.5 120l51 413h160l-51 -417q-20 -161 -93.5 -231.5t-207.5 -70.5z" />
    <glyph glyph-name="Ucircumflex" unicode="&#xdb;" horiz-adv-x="653" 
d="M227 761l108 140h150l73 -140h-126l-32 64h-1l-48 -64h-124zM299 -9q-139 0 -194.5 85.5t-36.5 241.5l49 392h160l-50 -405q-20 -164 85 -164q53 0 85.5 36t42.5 120l51 413h160l-51 -417q-20 -161 -93.5 -231.5t-207.5 -70.5z" />
    <glyph glyph-name="Udieresis" unicode="&#xdc;" horiz-adv-x="653" 
d="M291 757q-39 0 -64.5 24.5t-25.5 61.5q0 38 26 63t67 25q40 0 65 -24t25 -61q0 -39 -26 -64t-67 -25zM508 757q-39 0 -64.5 24.5t-25.5 61.5q0 39 26 63.5t68 24.5q39 0 64 -24t25 -61q0 -39 -26 -64t-67 -25zM299 -9q-139 0 -194.5 85.5t-36.5 241.5l49 392h160
l-50 -405q-20 -164 85 -164q53 0 85.5 36t42.5 120l51 413h160l-51 -417q-20 -161 -93.5 -231.5t-207.5 -70.5z" />
    <glyph glyph-name="Yacute" unicode="&#xdd;" horiz-adv-x="581" 
d="M282 761l115 139l151 1l-131 -140h-135zM179 0l39 310l-159 400h176l79 -250h3l138 250h183l-259 -400l-38 -310h-162z" />
    <glyph glyph-name="Thorn" unicode="&#xde;" horiz-adv-x="593" 
d="M38 0l87 710h157l-14 -117h108q102 0 152 -53.5t50 -143.5q0 -127 -75 -204t-208 -77h-86l-14 -115h-157zM227 256h76q49 0 79 34t30 88q0 36 -21.5 54.5t-53.5 18.5h-86z" />
    <glyph glyph-name="germandbls" unicode="&#xdf;" horiz-adv-x="634" 
d="M426 -9q-53 0 -103 22t-82 62l85 86q48 -56 97 -56q19 0 31.5 8.5t12.5 22.5q0 13 -12.5 23t-54.5 33q-113 61 -113 142q0 15 4 29.5t8.5 24.5t15 24t16.5 20.5t20 21t18 19.5q45 48 47 90q1 26 -19.5 40.5t-56.5 14.5q-41 0 -67.5 -26t-33.5 -78l-63 -514h-150l64 527
q14 114 79.5 166t165.5 52q108 0 170 -45t60 -130q-2 -71 -66 -133q-7 -6 -18.5 -17t-17.5 -17t-13.5 -14.5t-10.5 -15.5t-3 -14q0 -25 49 -55q39 -23 53 -32t36 -28.5t29.5 -40t7.5 -49.5q0 -79 -51.5 -121t-133.5 -42z" />
    <glyph glyph-name="agrave" unicode="&#xe0;" horiz-adv-x="553" 
d="M273 557l-93 150l150 -1l80 -149h-137zM186 -9q-76 0 -117.5 56t-41.5 144q0 130 67 218.5t164 88.5q74 0 115 -43h3l4 34h151l-60 -489h-151l9 72l-3 1q-57 -82 -140 -82zM234 124q42 0 79.5 51.5t49.5 139.5l2 14q-33 35 -81 35q-47 0 -76.5 -51t-29.5 -111
q0 -35 15.5 -56.5t40.5 -21.5z" />
    <glyph glyph-name="aacute" unicode="&#xe1;" horiz-adv-x="553" 
d="M238 556l117 149l152 1l-129 -150h-140zM186 -9q-76 0 -117.5 56t-41.5 144q0 130 67 218.5t164 88.5q74 0 115 -43h3l4 34h151l-60 -489h-151l9 72l-3 1q-57 -82 -140 -82zM234 124q42 0 79.5 51.5t49.5 139.5l2 14q-33 35 -81 35q-47 0 -76.5 -51t-29.5 -111
q0 -35 15.5 -56.5t40.5 -21.5z" />
    <glyph glyph-name="acircumflex" unicode="&#xe2;" horiz-adv-x="553" 
d="M154 555l115 152h131l84 -152h-130l-24 74h-1l-42 -74h-133zM186 -9q-76 0 -117.5 56t-41.5 144q0 130 67 218.5t164 88.5q74 0 115 -43h3l4 34h151l-60 -489h-151l9 72l-3 1q-57 -82 -140 -82zM234 124q42 0 79.5 51.5t49.5 139.5l2 14q-33 35 -81 35q-47 0 -76.5 -51
t-29.5 -111q0 -35 15.5 -56.5t40.5 -21.5z" />
    <glyph glyph-name="atilde" unicode="&#xe3;" horiz-adv-x="553" 
d="M403 551q-33 0 -76 30q-24 18 -44 18q-33 0 -58 -51l-84 42q50 120 129 120q8 0 15.5 -1t14.5 -3t11.5 -3.5t10.5 -5t8.5 -5t8 -5t6.5 -4.5q27 -19 42 -19q35 0 60 49l84 -34q-23 -59 -55.5 -93.5t-72.5 -34.5zM186 -9q-76 0 -117.5 56t-41.5 144q0 130 67 218.5
t164 88.5q74 0 115 -43h3l4 34h151l-60 -489h-151l9 72l-3 1q-57 -82 -140 -82zM234 124q42 0 79.5 51.5t49.5 139.5l2 14q-33 35 -81 35q-47 0 -76.5 -51t-29.5 -111q0 -35 15.5 -56.5t40.5 -21.5z" />
    <glyph glyph-name="adieresis" unicode="&#xe4;" horiz-adv-x="553" 
d="M221 552q-39 0 -64.5 24.5t-25.5 61.5q0 38 26 63t67 25q40 0 65 -24t25 -61q0 -39 -26 -64t-67 -25zM438 552q-39 0 -64.5 24.5t-25.5 61.5q0 39 26 63.5t68 24.5q39 0 64 -24t25 -61q0 -39 -26 -64t-67 -25zM186 -9q-76 0 -117.5 56t-41.5 144q0 130 67 218.5t164 88.5
q74 0 115 -43h3l4 34h151l-60 -489h-151l9 72l-3 1q-57 -82 -140 -82zM234 124q42 0 79.5 51.5t49.5 139.5l2 14q-33 35 -81 35q-47 0 -76.5 -51t-29.5 -111q0 -35 15.5 -56.5t40.5 -21.5z" />
    <glyph glyph-name="aring" unicode="&#xe5;" horiz-adv-x="553" 
d="M332 538q-45 0 -75 30.5t-30 74.5q0 45 31 75.5t77 30.5q45 0 74.5 -29.5t29.5 -73.5q0 -46 -30.5 -77t-76.5 -31zM334 608q15 0 25.5 10.5t10.5 26.5q0 14 -10.5 24.5t-24.5 10.5q-16 0 -27 -10.5t-11 -25.5q0 -16 10.5 -26t26.5 -10zM186 -9q-76 0 -117.5 56t-41.5 144
q0 130 67 218.5t164 88.5q74 0 115 -43h3l4 34h151l-60 -489h-151l9 72l-3 1q-57 -82 -140 -82zM234 124q42 0 79.5 51.5t49.5 139.5l2 14q-33 35 -81 35q-47 0 -76.5 -51t-29.5 -111q0 -35 15.5 -56.5t40.5 -21.5z" />
    <glyph glyph-name="ae" unicode="&#xe6;" horiz-adv-x="688" 
d="M475 115q45 0 79 48l111 -66q-73 -106 -197 -106q-120 0 -160 87q-51 -88 -140 -88q-69 0 -112 49.5t-42 134.5q1 137 73 227t195 90q69 0 118 -25q54 32 122 32q67 0 115 -35t48 -100q0 -78 -80.5 -127t-202.5 -61q6 -30 27 -45t46 -15zM509 373q-31 0 -60 -30t-42 -78
q134 21 134 83q0 25 -32 25zM199 118q49 0 84 162q11 51 31 89h-10q-61 0 -100.5 -55t-39.5 -134q0 -29 10 -45.5t25 -16.5z" />
    <glyph glyph-name="ccedilla" unicode="&#xe7;" horiz-adv-x="480" 
d="M246 125q46 0 85 47l116 -74q-73 -100 -195 -107l-15 -21l1 -1q75 -3 75 -66q0 -47 -34.5 -71t-94.5 -24q-33 0 -54 6l2 61q16 -6 39 -6q53 0 53 33q0 25 -65 25l1 38l20 31q-72 14 -112 67.5t-40 140.5q0 120 69.5 207t190.5 87q126 0 188 -90l-115 -86q-22 43 -69 43
q-49 0 -81 -46t-32 -109q0 -40 18 -62.5t49 -22.5z" />
    <glyph glyph-name="egrave" unicode="&#xe8;" horiz-adv-x="476" 
d="M384 557h-137l-93 150l150 -1zM463 363q-3 -156 -289 -186q6 -31 26 -46.5t44 -15.5q52 0 89 49l112 -66q-78 -107 -213 -107q-93 0 -149 55.5t-55 149.5q0 128 73.5 215t194.5 87q66 0 117 -35.5t50 -99.5zM319 342q1 15 -9 23t-27 8q-33 0 -62.5 -28.5t-41.5 -77.5
q139 15 140 75z" />
    <glyph glyph-name="eacute" unicode="&#xe9;" horiz-adv-x="476" 
d="M493 706l-129 -150h-140l117 149zM296 498q66 0 117 -35.5t50 -99.5q-3 -156 -289 -186q6 -31 26 -46.5t44 -15.5q52 0 89 49l112 -66q-78 -107 -213 -107q-93 0 -149 55.5t-55 149.5q0 128 73.5 215t194.5 87zM319 342q1 15 -9 23t-27 8q-33 0 -62.5 -28.5t-41.5 -77.5
q139 15 140 75z" />
    <glyph glyph-name="ecircumflex" unicode="&#xea;" horiz-adv-x="476" 
d="M301 629l-42 -74h-133l115 152h131l84 -152h-130l-24 74h-1zM463 363q-3 -156 -289 -186q6 -31 26 -46.5t44 -15.5q52 0 89 49l112 -66q-78 -107 -213 -107q-93 0 -149 55.5t-55 149.5q0 128 73.5 215t194.5 87q66 0 117 -35.5t50 -99.5zM319 342q1 15 -9 23t-27 8
q-33 0 -62.5 -28.5t-41.5 -77.5q139 15 140 75z" />
    <glyph glyph-name="edieresis" unicode="&#xeb;" horiz-adv-x="476" 
d="M193 552q-39 0 -64.5 24.5t-25.5 61.5q0 38 26 63t67 25q40 0 65 -24t25 -61q0 -39 -26 -64t-67 -25zM414 726q39 0 64 -24t25 -61q0 -39 -26 -64t-67 -25q-39 0 -64.5 24.5t-25.5 61.5q0 39 26 63.5t68 24.5zM296 498q66 0 117 -35.5t50 -99.5q-3 -156 -289 -186
q6 -31 26 -46.5t44 -15.5q52 0 89 49l112 -66q-78 -107 -213 -107q-93 0 -149 55.5t-55 149.5q0 128 73.5 215t194.5 87zM319 342q1 15 -9 23t-27 8q-33 0 -62.5 -28.5t-41.5 -77.5q139 15 140 75z" />
    <glyph glyph-name="igrave" unicode="&#xec;" horiz-adv-x="268" 
d="M98 560l-56 150l151 -1l43 -149h-138zM28 0l60 489h150l-60 -489h-150z" />
    <glyph glyph-name="iacute" unicode="&#xed;" horiz-adv-x="268" 
d="M104 556l117 149l152 1l-129 -150h-140zM29 0l60 489h150l-60 -489h-150z" />
    <glyph glyph-name="icircumflex" unicode="&#xee;" horiz-adv-x="268" 
d="M8 555l115 152h131l84 -152h-130l-24 74h-1l-42 -74h-133zM29 0l60 489h150l-60 -489h-150z" />
    <glyph glyph-name="idieresis" unicode="&#xef;" horiz-adv-x="268" 
d="M223 726q35 0 58 -24t23 -61t-24.5 -62.5t-59.5 -25.5q-17 0 -35 8q-16 -8 -35 -8q-35 0 -58.5 24.5t-23.5 60.5q0 37 24.5 62.5t60.5 25.5q16 0 34 -7q19 7 36 7zM29 0l60 489h150l-60 -489h-150z" />
    <glyph glyph-name="eth" unicode="&#xf0;" horiz-adv-x="532" 
d="M453 543q55 -97 54 -224q-2 -144 -68 -236t-199 -92q-99 0 -155 57.5t-56 154.5q0 114 68.5 193.5t161.5 79.5q45 0 79 -19q-5 15 -10 25q-13 27 -31 49t-46 43.5t-45 32.5t-56 35l62 103q75 -33 131 -76l80 98l80 -72l-85 -100q22 -29 35 -52zM246 124q54 0 83 56.5
t29 144.5q-30 24 -67 24q-47 0 -79.5 -43.5t-32.5 -95.5q0 -43 20 -64.5t47 -21.5z" />
    <glyph glyph-name="ntilde" unicode="&#xf1;" horiz-adv-x="547" 
d="M409 551q-33 0 -76 30q-24 18 -44 18q-33 0 -58 -51l-84 42q50 120 129 120q8 0 15.5 -1t14.5 -3t11.5 -3.5t10.5 -5t8.5 -5t8 -5t6.5 -4.5q27 -19 42 -19q35 0 60 49l84 -34q-23 -59 -55.5 -93.5t-72.5 -34.5zM25 0l61 489h149l-8 -68l2 -1q67 78 162 78q70 0 98 -48.5
t15 -150.5l-39 -299h-149l35 265q7 51 0.5 75t-29.5 24q-38 0 -76 -49t-49 -134l-22 -181h-150z" />
    <glyph glyph-name="ograve" unicode="&#xf2;" horiz-adv-x="535" 
d="M248 557l-93 150l150 -1l80 -149h-137zM235 -9q-94 0 -150.5 55.5t-56.5 154.5q0 124 73 210.5t197 86.5q96 0 152.5 -55.5t56.5 -153.5q0 -128 -69.5 -213t-202.5 -85zM246 125q48 0 78.5 46t30.5 108q0 47 -21 66t-48 19q-47 0 -76.5 -47.5t-29.5 -107.5
q0 -41 19.5 -62.5t46.5 -21.5z" />
    <glyph glyph-name="oacute" unicode="&#xf3;" horiz-adv-x="535" 
d="M242 556l117 149l152 1l-129 -150h-140zM235 -9q-94 0 -150.5 55.5t-56.5 154.5q0 124 73 210.5t197 86.5q96 0 152.5 -55.5t56.5 -153.5q0 -128 -69.5 -213t-202.5 -85zM246 125q48 0 78.5 46t30.5 108q0 47 -21 66t-48 19q-47 0 -76.5 -47.5t-29.5 -107.5
q0 -41 19.5 -62.5t46.5 -21.5z" />
    <glyph glyph-name="ocircumflex" unicode="&#xf4;" horiz-adv-x="535" 
d="M147 555l115 152h131l84 -152h-130l-24 74h-1l-42 -74h-133zM235 -9q-94 0 -150.5 55.5t-56.5 154.5q0 124 73 210.5t197 86.5q96 0 152.5 -55.5t56.5 -153.5q0 -128 -69.5 -213t-202.5 -85zM246 125q48 0 78.5 46t30.5 108q0 47 -21 66t-48 19q-47 0 -76.5 -47.5
t-29.5 -107.5q0 -41 19.5 -62.5t46.5 -21.5z" />
    <glyph glyph-name="otilde" unicode="&#xf5;" horiz-adv-x="535" 
d="M396 551q-34 0 -76 30q-24 18 -44 18q-33 0 -58 -51l-84 42q50 120 129 120q35 0 75 -27q27 -19 42 -19q36 0 60 49l84 -34q-23 -59 -55.5 -93.5t-72.5 -34.5zM235 -9q-94 0 -150.5 55.5t-56.5 154.5q0 124 73 210.5t197 86.5q96 0 152.5 -55.5t56.5 -153.5
q0 -128 -69.5 -213t-202.5 -85zM246 125q48 0 78.5 46t30.5 108q0 47 -21 66t-48 19q-47 0 -76.5 -47.5t-29.5 -107.5q0 -41 19.5 -62.5t46.5 -21.5z" />
    <glyph glyph-name="odieresis" unicode="&#xf6;" horiz-adv-x="535" 
d="M214 552q-39 0 -64.5 24.5t-25.5 61.5q0 38 26 63t67 25q40 0 65 -24t25 -61q0 -39 -26 -64t-67 -25zM431 552q-39 0 -64.5 24.5t-25.5 61.5q0 39 26 63.5t68 24.5q39 0 64 -24t25 -61q0 -39 -26 -64t-67 -25zM235 -9q-94 0 -150.5 55.5t-56.5 154.5q0 124 73 210.5
t197 86.5q96 0 152.5 -55.5t56.5 -153.5q0 -128 -69.5 -213t-202.5 -85zM246 125q48 0 78.5 46t30.5 108q0 47 -21 66t-48 19q-47 0 -76.5 -47.5t-29.5 -107.5q0 -41 19.5 -62.5t46.5 -21.5z" />
    <glyph glyph-name="divide" unicode="&#xf7;" horiz-adv-x="520" 
d="M292 396q-37 0 -61 22.5t-24 57.5q0 36 24.5 59.5t63.5 23.5q37 0 60.5 -22.5t23.5 -57.5q0 -36 -24.5 -59.5t-62.5 -23.5zM52 214l16 126h430l-15 -126h-431zM248 -8q-37 0 -61 22.5t-24 57.5q0 36 24.5 59.5t63.5 23.5q37 0 60.5 -22.5t23.5 -57.5q0 -36 -24.5 -59.5
t-62.5 -23.5z" />
    <glyph glyph-name="oslash" unicode="&#xf8;" horiz-adv-x="536" 
d="M525 464l-50 -52q32 -50 32 -123q0 -128 -69.5 -213t-202.5 -85q-74 0 -126 35l-48 -50l-46 46l48 50q-35 52 -35 129q0 124 73 210.5t197 86.5q82 0 133 -39l48 50zM180 209q0 -9 1 -13l147 154q-18 14 -42 14q-47 0 -76.5 -47.5t-29.5 -107.5zM355 279v6l-143 -150
q16 -10 34 -10q48 0 78.5 46t30.5 108z" />
    <glyph glyph-name="ugrave" unicode="&#xf9;" horiz-adv-x="539" 
d="M240 557l-93 150l150 -1l80 -149h-137zM167 -9q-153 0 -125 194l42 304h149l-37 -259q-8 -59 -1 -82t33 -23q32 0 67.5 43.5t42.5 96.5l27 224h150l-60 -489h-147l6 72h-2q-60 -81 -145 -81z" />
    <glyph glyph-name="uacute" unicode="&#xfa;" horiz-adv-x="539" 
d="M242 556l117 149l152 1l-129 -150h-140zM167 -9q-153 0 -125 194l42 304h149l-37 -259q-8 -59 -1 -82t33 -23q32 0 67.5 43.5t42.5 96.5l27 224h150l-60 -489h-147l6 72h-2q-60 -81 -145 -81z" />
    <glyph glyph-name="ucircumflex" unicode="&#xfb;" horiz-adv-x="539" 
d="M144 555l115 152h131l84 -152h-130l-24 74h-1l-42 -74h-133zM167 -9q-153 0 -125 194l42 304h149l-37 -259q-8 -59 -1 -82t33 -23q32 0 67.5 43.5t42.5 96.5l27 224h150l-60 -489h-147l6 72h-2q-60 -81 -145 -81z" />
    <glyph glyph-name="udieresis" unicode="&#xfc;" horiz-adv-x="539" 
d="M211 552q-39 0 -64.5 24.5t-25.5 61.5q0 38 26 63t67 25q40 0 65 -24t25 -61q0 -39 -26 -64t-67 -25zM428 552q-39 0 -64.5 24.5t-25.5 61.5q0 39 26 63.5t68 24.5q39 0 64 -24t25 -61q0 -39 -26 -64t-67 -25zM167 -9q-153 0 -125 194l42 304h149l-37 -259q-8 -59 -1 -82
t33 -23q32 0 67.5 43.5t42.5 96.5l27 224h150l-60 -489h-147l6 72h-2q-60 -81 -145 -81z" />
    <glyph glyph-name="yacute" unicode="&#xfd;" horiz-adv-x="534" 
d="M496 706l-129 -150h-140l117 149zM363 489h149l-52 -423q-32 -273 -276 -273q-99 0 -177 48l47 113q58 -38 122 -38q57 0 89.5 31.5t45.5 121.5v1l-3 1q-59 -80 -145 -80q-153 0 -125 194l42 304h149l-36 -259q-8 -59 -1.5 -82t33.5 -23q33 0 68.5 44.5t41.5 96.5z" />
    <glyph glyph-name="thorn" unicode="&#xfe;" horiz-adv-x="558" 
d="M1 -198l115 934h150l-39 -320l1 -2q58 84 147 84q74 0 114.5 -56.5t40.5 -143.5q0 -130 -67.5 -218.5t-166.5 -88.5q-71 0 -114 33l-4 -1l-27 -221h-150zM256 124q58 0 91 47t33 112q0 36 -15 59t-40 23q-44 0 -82.5 -53t-51.5 -145l-1 -13q22 -30 66 -30z" />
    <glyph glyph-name="ydieresis" unicode="&#xff;" horiz-adv-x="534" 
d="M202 552q-39 0 -64.5 24.5t-25.5 61.5q0 38 26 63t67 25q40 0 65 -24t25 -61q0 -39 -26 -64t-67 -25zM419 552q-39 0 -64.5 24.5t-25.5 61.5q0 39 26 63.5t68 24.5q39 0 64 -24t25 -61q0 -39 -26 -64t-67 -25zM335 266l28 223h149l-52 -423q-32 -273 -276 -273
q-99 0 -177 48l47 113q58 -38 122 -38q57 0 89.5 31.5t45.5 121.5v1l-3 1q-59 -80 -145 -80q-153 0 -125 194l42 304h149l-36 -259q-8 -59 -1.5 -82t33.5 -23q33 0 68.5 44.5t41.5 96.5z" />
    <glyph glyph-name="Amacron" unicode="&#x100;" horiz-adv-x="635" 
d="M245 784l15 110h285l-14 -110h-286zM-23 0l320 710h154l146 -710h-166l-22 131h-213l-51 -131h-168zM247 266h141l-42 249h-2z" />
    <glyph glyph-name="amacron" unicode="&#x101;" horiz-adv-x="553" 
d="M182 582l15 115h285l-14 -115h-286zM186 -9q-76 0 -117.5 56t-41.5 144q0 130 67 218.5t164 88.5q74 0 115 -43h3l4 34h151l-60 -489h-151l9 72l-3 1q-57 -82 -140 -82zM234 124q42 0 79.5 51.5t49.5 139.5l2 14q-33 35 -81 35q-47 0 -76.5 -51t-29.5 -111
q0 -35 15.5 -56.5t40.5 -21.5z" />
    <glyph glyph-name="Abreve" unicode="&#x102;" horiz-adv-x="635" 
d="M384 754q-72 0 -107 39t-30 108h107q-2 -19 8 -32t31 -13q23 0 39.5 13.5t22.5 31.5h109q-14 -66 -59 -106.5t-121 -40.5zM-23 0l320 710h154l146 -710h-166l-22 131h-213l-51 -131h-168zM247 266h141l-42 249h-2z" />
    <glyph glyph-name="abreve" unicode="&#x103;" horiz-adv-x="553" 
d="M317 540q-69 0 -105 41t-32 115h108q-2 -21 8 -34.5t31 -13.5q22 0 39 14t23 34h108q-13 -71 -60 -113.5t-120 -42.5zM186 -9q-76 0 -117.5 56t-41.5 144q0 130 67 218.5t164 88.5q74 0 115 -43h3l4 34h151l-60 -489h-151l9 72l-3 1q-57 -82 -140 -82zM234 124
q42 0 79.5 51.5t49.5 139.5l2 14q-33 35 -81 35q-47 0 -76.5 -51t-29.5 -111q0 -35 15.5 -56.5t40.5 -21.5z" />
    <glyph glyph-name="Aogonek" unicode="&#x104;" horiz-adv-x="635" 
d="M575 0q-39 -3 -68 -29.5t-29 -56.5q0 -24 25 -24q21 0 33 7l2 -77q-27 -11 -74 -11q-97 0 -97 79q0 63 64 113l-22 130h-213l-51 -131h-168l320 710h154l146 -710h-22zM247 266h141l-42 249h-2z" />
    <glyph glyph-name="aogonek" unicode="&#x105;" horiz-adv-x="553" 
d="M380 489h151l-60 -489h-12q-39 -3 -68 -29.5t-29 -56.5q0 -24 25 -24q21 0 33 7l2 -77q-28 -11 -74 -11q-97 0 -97 79q0 32 19.5 64t50.5 53l8 67l-3 1q-57 -82 -140 -82q-76 0 -117.5 56t-41.5 144q0 130 67 218.5t164 88.5q74 0 115 -43h3zM234 124q42 0 79.5 51.5
t49.5 139.5l2 14q-33 35 -81 35q-47 0 -76.5 -51t-29.5 -111q0 -35 15.5 -56.5t40.5 -21.5z" />
    <glyph glyph-name="Cacute" unicode="&#x106;" horiz-adv-x="656" 
d="M352 761l115 139l151 1l-131 -140h-135zM340 -9q-129 0 -209.5 77.5t-80.5 221.5q0 181 105 305t272 124q70 0 135 -35t111 -113l-127 -96q-50 91 -128 91q-88 0 -143.5 -82t-55.5 -188q0 -72 35 -111.5t97 -39.5q85 0 146 72l112 -104q-105 -122 -269 -122z" />
    <glyph glyph-name="cacute" unicode="&#x107;" horiz-adv-x="480" 
d="M231 556l117 149l152 1l-129 -150h-140zM235 -9q-97 0 -152 55t-55 158q0 120 69.5 207t190.5 87q126 0 188 -90l-115 -86q-22 43 -69 43q-49 0 -81 -46t-32 -109q0 -40 18 -62.5t49 -22.5q46 0 85 47l116 -74q-78 -107 -212 -107z" />
    <glyph glyph-name="Ccircumflex" unicode="&#x108;" horiz-adv-x="656" 
d="M284 761l108 140h150l73 -140h-126l-32 64h-1l-48 -64h-124zM340 -9q-129 0 -209.5 77.5t-80.5 221.5q0 181 105 305t272 124q70 0 135 -35t111 -113l-127 -96q-50 91 -128 91q-88 0 -143.5 -82t-55.5 -188q0 -72 35 -111.5t97 -39.5q85 0 146 72l112 -104
q-105 -122 -269 -122z" />
    <glyph glyph-name="ccircumflex" unicode="&#x109;" horiz-adv-x="480" 
d="M144 555l115 152h131l84 -152h-130l-24 74h-1l-42 -74h-133zM235 -9q-97 0 -152 55t-55 158q0 120 69.5 207t190.5 87q126 0 188 -90l-115 -86q-22 43 -69 43q-49 0 -81 -46t-32 -109q0 -40 18 -62.5t49 -22.5q46 0 85 47l116 -74q-78 -107 -212 -107z" />
    <glyph glyph-name="Cdotaccent" unicode="&#x10a;" horiz-adv-x="656" 
d="M456 757q-39 0 -64.5 24.5t-25.5 61.5q0 38 26 63t67 25q40 0 65 -24t25 -61q0 -39 -26 -64t-67 -25zM340 -9q-129 0 -209.5 77.5t-80.5 221.5q0 181 105 305t272 124q70 0 135 -35t111 -113l-127 -96q-50 91 -128 91q-88 0 -143.5 -82t-55.5 -188q0 -72 35 -111.5
t97 -39.5q85 0 146 72l112 -104q-105 -122 -269 -122z" />
    <glyph glyph-name="cdotaccent" unicode="&#x10b;" horiz-adv-x="480" 
d="M318 552q-39 0 -64.5 24.5t-25.5 61.5q0 38 26 63t67 25q40 0 65 -24t25 -61q0 -39 -26 -64t-67 -25zM235 -9q-97 0 -152 55t-55 158q0 120 69.5 207t190.5 87q126 0 188 -90l-115 -86q-22 43 -69 43q-49 0 -81 -46t-32 -109q0 -40 18 -62.5t49 -22.5q46 0 85 47l116 -74
q-78 -107 -212 -107z" />
    <glyph glyph-name="Ccaron" unicode="&#x10c;" horiz-adv-x="656" 
d="M375 761l-74 140h127l31 -63h2l47 63h124l-107 -140h-150zM340 -9q-129 0 -209.5 77.5t-80.5 221.5q0 181 105 305t272 124q70 0 135 -35t111 -113l-127 -96q-50 91 -128 91q-88 0 -143.5 -82t-55.5 -188q0 -72 35 -111.5t97 -39.5q85 0 146 72l112 -104
q-105 -122 -269 -122z" />
    <glyph glyph-name="ccaron" unicode="&#x10d;" horiz-adv-x="480" 
d="M237 547l-71 149h126l29 -71h2l46 71h125l-107 -149h-150zM235 -9q-97 0 -152 55t-55 158q0 120 69.5 207t190.5 87q126 0 188 -90l-115 -86q-22 43 -69 43q-49 0 -81 -46t-32 -109q0 -40 18 -62.5t49 -22.5q46 0 85 47l116 -74q-78 -107 -212 -107z" />
    <glyph glyph-name="Dcaron" unicode="&#x10e;" horiz-adv-x="666" 
d="M313 760l-74 140h127l31 -63h2l47 63h124l-107 -140h-150zM38 0l87 710h224q144 0 218.5 -78t74.5 -217q0 -187 -103 -301t-281 -114h-220zM212 143h64q95 0 147.5 76t52.5 193q0 155 -145 155h-67z" />
    <glyph glyph-name="dcaron" unicode="&#x10f;" horiz-adv-x="605" 
d="M590 577l57 215h142l-94 -215h-105zM187 -9q-77 0 -118.5 56t-41.5 144q0 130 67 218.5t164 88.5q72 0 117 -43h3l34 281h151l-91 -736h-150l9 72l-3 1q-58 -82 -141 -82zM234 124q42 0 80 51.5t51 139.5l2 14q-32 35 -83 35q-47 0 -76.5 -51t-29.5 -111
q0 -35 15.5 -56.5t40.5 -21.5z" />
    <glyph glyph-name="Dcroat" unicode="&#x110;" horiz-adv-x="668" 
d="M350 710q144 0 218.5 -78t74.5 -217q0 -187 -103 -301t-281 -114h-220l34 281h-46l19 135h44l36 294h224zM277 143q95 0 147.5 76t52.5 193q0 155 -145 155h-67l-19 -151h113l-19 -135h-110l-17 -138h64z" />
    <glyph glyph-name="dcroat" unicode="&#x111;" horiz-adv-x="539" 
d="M592 637l-11 -90h-41l-68 -547h-150l9 72l-3 1q-58 -82 -141 -82q-77 0 -118.5 56t-41.5 144q0 130 67 218.5t164 88.5q72 0 117 -43h3l11 92h-158l11 90h158l12 99h151l-12 -99h41zM365 315l2 14q-32 35 -83 35q-47 0 -76.5 -51t-29.5 -111q0 -35 15.5 -56.5t40.5 -21.5
q42 0 80 51.5t51 139.5z" />
    <glyph glyph-name="Emacron" unicode="&#x112;" horiz-adv-x="547" 
d="M206 783l15 110h285l-14 -110h-286zM37 0l87 710h422l-18 -143h-265l-18 -145h209l-16 -138h-209l-18 -141h284l-18 -143h-440z" />
    <glyph glyph-name="emacron" unicode="&#x113;" horiz-adv-x="476" 
d="M454 697l-14 -115h-286l15 115h285zM463 363q-3 -156 -289 -186q6 -31 26 -46.5t44 -15.5q52 0 89 49l112 -66q-78 -107 -213 -107q-93 0 -149 55.5t-55 149.5q0 128 73.5 215t194.5 87q66 0 117 -35.5t50 -99.5zM319 342q1 15 -9 23t-27 8q-33 0 -62.5 -28.5
t-41.5 -77.5q139 15 140 75z" />
    <glyph glyph-name="Ebreve" unicode="&#x114;" horiz-adv-x="547" 
d="M345 753q-72 0 -107 39t-30 108h107q-2 -19 8 -32t31 -13q23 0 39.5 13.5t22.5 31.5h109q-14 -66 -59 -106.5t-121 -40.5zM37 0l87 710h422l-18 -143h-265l-18 -145h209l-16 -138h-209l-18 -141h284l-18 -143h-440z" />
    <glyph glyph-name="ebreve" unicode="&#x115;" horiz-adv-x="476" 
d="M289 540q-69 0 -105 41t-32 115h108q-2 -21 8 -34.5t31 -13.5q22 0 39 14t23 34h108q-13 -71 -60 -113.5t-120 -42.5zM296 498q66 0 117 -35.5t50 -99.5q-3 -156 -289 -186q6 -31 26 -46.5t44 -15.5q52 0 89 49l112 -66q-78 -107 -213 -107q-93 0 -149 55.5t-55 149.5
q0 128 73.5 215t194.5 87zM319 342q1 15 -9 23t-27 8q-33 0 -62.5 -28.5t-41.5 -77.5q139 15 140 75z" />
    <glyph glyph-name="Edotaccent" unicode="&#x116;" horiz-adv-x="547" 
d="M353 756q-39 0 -64.5 24.5t-25.5 61.5q0 38 26 63t67 25q40 0 65 -24t25 -61q0 -39 -26 -64t-67 -25zM37 0l87 710h422l-18 -143h-265l-18 -145h209l-16 -138h-209l-18 -141h284l-18 -143h-440z" />
    <glyph glyph-name="edotaccent" unicode="&#x117;" horiz-adv-x="476" 
d="M300 552q-39 0 -64.5 24.5t-25.5 61.5q0 38 26 63t67 25q40 0 65 -24t25 -61q0 -39 -26 -64t-67 -25zM463 363q-3 -156 -289 -186q6 -31 26 -46.5t44 -15.5q52 0 89 49l112 -66q-78 -107 -213 -107q-93 0 -149 55.5t-55 149.5q0 128 73.5 215t194.5 87q66 0 117 -35.5
t50 -99.5zM319 342q1 15 -9 23t-27 8q-33 0 -62.5 -28.5t-41.5 -77.5q139 15 140 75z" />
    <glyph glyph-name="Eogonek" unicode="&#x118;" horiz-adv-x="547" 
d="M528 567h-265l-18 -145h209l-16 -138h-209l-18 -141h284l-18 -143h-2q-39 -3 -68 -29.5t-29 -56.5q0 -24 25 -24q21 0 33 7l2 -77q-27 -11 -74 -11q-97 0 -97 79q0 63 63 112h-293l87 710h422z" />
    <glyph glyph-name="eogonek" unicode="&#x119;" horiz-adv-x="476" 
d="M463 363q-3 -156 -289 -186q6 -31 26 -46.5t44 -15.5q52 0 89 49l112 -66q-53 -73 -129 -96q-38 -14 -64.5 -38t-26.5 -50q0 -24 27 -24q17 0 31 7l2 -77q-27 -11 -73 -11q-98 0 -98 79q0 59 56 107v3q-67 17 -105 69t-37 129q0 128 73.5 215t194.5 87q66 0 117 -35.5
t50 -99.5zM319 342q1 15 -9 23t-27 8q-33 0 -62.5 -28.5t-41.5 -77.5q139 15 140 75z" />
    <glyph glyph-name="Ecaron" unicode="&#x11a;" horiz-adv-x="547" 
d="M272 760l-74 140h127l31 -63h2l47 63h124l-107 -140h-150zM37 0l87 710h422l-18 -143h-265l-18 -145h209l-16 -138h-209l-18 -141h284l-18 -143h-440z" />
    <glyph glyph-name="ecaron" unicode="&#x11b;" horiz-adv-x="476" 
d="M369 547h-150l-71 149h126l29 -71h2l46 71h125zM296 498q66 0 117 -35.5t50 -99.5q-3 -156 -289 -186q6 -31 26 -46.5t44 -15.5q52 0 89 49l112 -66q-78 -107 -213 -107q-93 0 -149 55.5t-55 149.5q0 128 73.5 215t194.5 87zM319 342q1 15 -9 23t-27 8q-33 0 -62.5 -28.5
t-41.5 -77.5q139 15 140 75z" />
    <glyph glyph-name="Gcircumflex" unicode="&#x11c;" horiz-adv-x="680" 
d="M268 760l108 140h150l73 -140h-126l-32 64h-1l-48 -64h-124zM341 -9q-129 0 -210 76t-81 221q0 182 104.5 306.5t269.5 124.5q76 0 141 -33t102 -95l-124 -94q-47 72 -128 72q-86 0 -141.5 -81.5t-55.5 -190.5q0 -77 35.5 -117.5t98.5 -40.5q57 0 110 34l13 88h-118
l17 134h271l-37 -318q-49 -38 -121 -62t-146 -24z" />
    <glyph glyph-name="gcircumflex" unicode="&#x11d;" horiz-adv-x="551" 
d="M330 629l-42 -74h-133l115 152h131l84 -152h-130l-24 74h-1zM378 489h150l-52 -426q-33 -270 -284 -270q-100 0 -178 48l47 117q62 -38 125 -38q62 0 96 34t47 133l-3 1q-58 -82 -139 -82q-76 0 -117.5 54.5t-41.5 135.5q0 127 67 214.5t163 87.5q75 0 114 -41l3 1z
M361 315l2 16q-33 33 -79 33t-75.5 -49.5t-29.5 -103.5q0 -35 14.5 -53.5t40.5 -18.5q41 0 78 49t49 127z" />
    <glyph glyph-name="Gbreve" unicode="&#x11e;" horiz-adv-x="680" 
d="M432 753q-72 0 -107 39t-30 108h107q-2 -19 8 -32t31 -13q23 0 39.5 13.5t22.5 31.5h109q-14 -66 -59 -106.5t-121 -40.5zM341 -9q-129 0 -210 76t-81 221q0 182 104.5 306.5t269.5 124.5q76 0 141 -33t102 -95l-124 -94q-47 72 -128 72q-86 0 -141.5 -81.5t-55.5 -190.5
q0 -77 35.5 -117.5t98.5 -40.5q57 0 110 34l13 88h-118l17 134h271l-37 -318q-49 -38 -121 -62t-146 -24z" />
    <glyph glyph-name="gbreve" unicode="&#x11f;" horiz-adv-x="551" 
d="M318 540q-69 0 -105 41t-32 115h108q-2 -21 8 -34.5t31 -13.5q22 0 39 14t23 34h108q-13 -71 -60 -113.5t-120 -42.5zM378 489h150l-52 -426q-33 -270 -284 -270q-100 0 -178 48l47 117q62 -38 125 -38q62 0 96 34t47 133l-3 1q-58 -82 -139 -82q-76 0 -117.5 54.5
t-41.5 135.5q0 127 67 214.5t163 87.5q75 0 114 -41l3 1zM361 315l2 16q-33 33 -79 33t-75.5 -49.5t-29.5 -103.5q0 -35 14.5 -53.5t40.5 -18.5q41 0 78 49t49 127z" />
    <glyph glyph-name="Gdotaccent" unicode="&#x120;" horiz-adv-x="680" 
d="M440 756q-39 0 -64.5 24.5t-25.5 61.5q0 38 26 63t67 25q40 0 65 -24t25 -61q0 -39 -26 -64t-67 -25zM341 -9q-129 0 -210 76t-81 221q0 182 104.5 306.5t269.5 124.5q76 0 141 -33t102 -95l-124 -94q-47 72 -128 72q-86 0 -141.5 -81.5t-55.5 -190.5q0 -77 35.5 -117.5
t98.5 -40.5q57 0 110 34l13 88h-118l17 134h271l-37 -318q-49 -38 -121 -62t-146 -24z" />
    <glyph glyph-name="gdotaccent" unicode="&#x121;" horiz-adv-x="551" 
d="M329 552q-39 0 -64.5 24.5t-25.5 61.5q0 38 26 63t67 25q40 0 65 -24t25 -61q0 -39 -26 -64t-67 -25zM378 489h150l-52 -426q-33 -270 -284 -270q-100 0 -178 48l47 117q62 -38 125 -38q62 0 96 34t47 133l-3 1q-58 -82 -139 -82q-76 0 -117.5 54.5t-41.5 135.5
q0 127 67 214.5t163 87.5q75 0 114 -41l3 1zM361 315l2 16q-33 33 -79 33t-75.5 -49.5t-29.5 -103.5q0 -35 14.5 -53.5t40.5 -18.5q41 0 78 49t49 127z" />
    <glyph glyph-name="Gcommaaccent" unicode="&#x122;" horiz-adv-x="680" 
d="M341 -9q-129 0 -210 76t-81 221q0 182 104.5 306.5t269.5 124.5q76 0 141 -33t102 -95l-124 -94q-47 72 -128 72q-86 0 -141.5 -81.5t-55.5 -190.5q0 -77 35.5 -117.5t98.5 -40.5q57 0 110 34l13 88h-118l17 134h271l-37 -318q-49 -38 -121 -62t-146 -24zM232 -221
l-15 85q31 7 43.5 19.5t12.5 38.5q0 5 -2 25h120q2 -14 2 -23q0 -68 -42.5 -105.5t-118.5 -39.5z" />
    <glyph glyph-name="gcommaaccent" unicode="&#x123;" horiz-adv-x="551" 
d="M389 566h-120q-2 14 -2 23q0 68 42.5 105.5t118.5 39.5l15 -85q-31 -7 -43.5 -19.5t-12.5 -38.5q0 -5 2 -25zM378 489h150l-52 -426q-33 -270 -284 -270q-100 0 -178 48l47 117q62 -38 125 -38q62 0 96 34t47 133l-3 1q-58 -82 -139 -82q-76 0 -117.5 54.5t-41.5 135.5
q0 127 67 214.5t163 87.5q75 0 114 -41l3 1zM361 315l2 16q-33 33 -79 33t-75.5 -49.5t-29.5 -103.5q0 -35 14.5 -53.5t40.5 -18.5q41 0 78 49t49 127z" />
    <glyph glyph-name="Hcircumflex" unicode="&#x124;" horiz-adv-x="670" 
d="M233 761l108 140h150l73 -140h-126l-32 64h-1l-48 -64h-124zM38 0l87 710h161l-36 -297h211l36 297h162l-88 -710h-161l33 270h-211l-33 -270h-161z" />
    <glyph glyph-name="hcircumflex" unicode="&#x125;" horiz-adv-x="547" 
d="M176 773l108 140h150l73 -140h-126l-32 64h-1l-48 -64h-124zM25 0l91 736h149l-39 -315l2 -1q67 78 163 78q70 0 98 -48.5t15 -150.5l-39 -299h-150l36 265q7 51 0.5 75t-29.5 24q-39 0 -77.5 -50.5t-48.5 -137.5l-21 -176h-150z" />
    <glyph glyph-name="Hbar" unicode="&#x126;" horiz-adv-x="672" 
d="M689 617l-13 -103h-40l-64 -514h-161l33 270h-211l-33 -270h-161l63 514h-40l13 103h40l11 93h161l-11 -93h211l11 93h162l-12 -93h41zM462 413l12 101h-211l-12 -101h211z" />
    <glyph glyph-name="hbar" unicode="&#x127;" horiz-adv-x="547" 
d="M391 498q70 0 98 -48.5t15 -150.5l-39 -299h-150l36 265q7 51 0.5 75t-29.5 24q-39 0 -77.5 -50.5t-48.5 -137.5l-21 -176h-150l68 547h-47l10 90h48l12 99h149l-12 -99h154l-10 -90h-155l-16 -126l2 -1q67 78 163 78z" />
    <glyph glyph-name="Itilde" unicode="&#x128;" horiz-adv-x="308" 
d="M299 761q-32 0 -77 30q-26 18 -44 18q-32 0 -57 -50l-84 41q53 110 128 110q37 0 76 -26q30 -20 44 -20q34 0 58 48l84 -32q-52 -119 -128 -119zM43 0l87 710h162l-87 -710h-162z" />
    <glyph glyph-name="itilde" unicode="&#x129;" horiz-adv-x="268" 
d="M250 543q-9 0 -17 1.5t-15.5 6t-11.5 6.5t-12 8.5t-9 7.5q-23 18 -40 18q-30 0 -55 -49l-79 40q50 108 122 108q33 0 69 -23q4 -3 11.5 -8.5t12 -8t10.5 -5t11 -2.5q29 0 53 51l79 -34q-22 -52 -55.5 -84.5t-73.5 -32.5zM29 0l60 489h150l-60 -489h-150z" />
    <glyph glyph-name="Imacron" unicode="&#x12a;" horiz-adv-x="308" 
d="M75 783l15 110h285l-14 -110h-286zM43 0l87 710h162l-87 -710h-162z" />
    <glyph glyph-name="imacron" unicode="&#x12b;" horiz-adv-x="268" 
d="M36 582l15 115h285l-14 -115h-286zM29 0l60 489h150l-60 -489h-150z" />
    <glyph glyph-name="Ibreve" unicode="&#x12c;" horiz-adv-x="308" 
d="M214 753q-72 0 -107 39t-30 108h107q-2 -19 8 -32t31 -13q23 0 39.5 13.5t22.5 31.5h109q-14 -66 -59 -106.5t-121 -40.5zM43 0l87 710h162l-87 -710h-162z" />
    <glyph glyph-name="ibreve" unicode="&#x12d;" horiz-adv-x="268" 
d="M181 550q-59 0 -95 41.5t-32 113.5h99q-5 -58 33 -58q19 0 32.5 16t16.5 42h99q-12 -69 -52.5 -112t-100.5 -43zM29 0l60 489h150l-60 -489h-150z" />
    <glyph glyph-name="Iogonek" unicode="&#x12e;" horiz-adv-x="308" 
d="M130 710h162l-87 -710h-18q-39 -3 -68 -29.5t-29 -56.5q0 -24 25 -24q21 0 33 7l2 -77q-28 -11 -74 -11q-97 0 -97 79q0 31 17.5 61t46.5 52z" />
    <glyph glyph-name="iogonek" unicode="&#x12f;" horiz-adv-x="268" 
d="M185 726q40 0 65 -24t25 -61q0 -39 -26 -64t-67 -25q-39 0 -64.5 24.5t-25.5 61.5q0 38 26 63t67 25zM30 5l59 484h150l-60 -489h-10q-39 -3 -68 -29.5t-29 -56.5q0 -24 25 -24q21 0 33 7l2 -77q-27 -11 -74 -11q-97 0 -97 79q0 32 19 63.5t50 53.5z" />
    <glyph glyph-name="Idotaccent" unicode="&#x130;" horiz-adv-x="308" 
d="M222 756q-39 0 -64.5 24.5t-25.5 61.5q0 38 26 63t67 25q40 0 65 -24t25 -61q0 -39 -26 -64t-67 -25zM43 0l87 710h162l-87 -710h-162z" />
    <glyph glyph-name="dotlessi" unicode="&#x131;" horiz-adv-x="268" 
d="M29 0l60 489h150l-60 -489h-150z" />
    <glyph glyph-name="IJ" unicode="&#x132;" horiz-adv-x="772" 
d="M43 0l87 710h162l-87 -710h-162zM477 -9q-54 0 -101 25t-74 72l106 108q24 -52 67 -52q30 0 50 27t28 96l55 443h160l-55 -450q-17 -139 -72.5 -204t-163.5 -65z" />
    <glyph glyph-name="ij" unicode="&#x133;" horiz-adv-x="519" 
d="M182 552q-39 0 -64.5 24.5t-25.5 61.5q0 38 26 63t67 25q40 0 65 -24t25 -61q0 -39 -26 -64t-67 -25zM438 552q-39 0 -64.5 24.5t-25.5 61.5q0 38 26 63t67 25q40 0 65 -24t25 -61q0 -39 -26 -64t-67 -25zM29 0l60 489h150l-60 -489h-150zM265 -206q-59 0 -103 23l37 115
q14 -12 38 -12q22 0 32 18.5t15 65.5l60 485h151l-63 -506q-22 -189 -167 -189z" />
    <glyph glyph-name="Jcircumflex" unicode="&#x134;" horiz-adv-x="464" 
d="M219 761l108 140h150l73 -140h-126l-32 64h-1l-48 -64h-124zM169 -9q-54 0 -101 25t-74 72l106 108q24 -52 67 -52q30 0 50 27t28 96l55 443h160l-55 -450q-17 -139 -72.5 -204t-163.5 -65z" />
    <glyph glyph-name="jcircumflex" unicode="&#x135;" horiz-adv-x="251" 
d="M-4 555l115 152h131l84 -152h-130l-24 74h-1l-42 -74h-133zM-3 -206q-59 0 -103 23l37 115q14 -12 38 -12q22 0 32 18.5t15 65.5l60 485h151l-63 -506q-22 -189 -167 -189z" />
    <glyph glyph-name="Kcommaaccent" unicode="&#x136;" horiz-adv-x="618" 
d="M665 710l-256 -319l176 -391h-182l-115 278l-67 -79l-24 -199h-159l87 710h159l-35 -290l3 -1l221 291h192zM219 -53h120q2 -14 2 -23q0 -68 -42.5 -105.5t-118.5 -39.5l-15 85q31 7 43.5 19.5t12.5 38.5q0 5 -2 25z" />
    <glyph glyph-name="kcommaaccent" unicode="&#x137;" horiz-adv-x="514" 
d="M438 -7q-20 -2 -44 -2q-53 0 -84.5 36t-54.5 104l-9 30q-28 -18 -59 -31l-15 -130h-147l91 736h149l-56 -455l2 -1q105 74 139 209h155q-27 -142 -139 -247l14 -42q16 -49 36 -66t56 -19zM126 -221l-15 85q31 7 43.5 19.5t12.5 38.5q0 5 -2 25h120q2 -14 2 -23
q0 -68 -42.5 -105.5t-118.5 -39.5z" />
    <glyph glyph-name="kgreenlandic" unicode="&#x138;" horiz-adv-x="512" 
d="M436 -7q-20 -2 -44 -2q-53 0 -84.5 36t-54.5 104l-7 25q-27 -16 -57 -30l-14 -126h-150l61 489h149l-24 -195l4 -2q100 69 133 197h155q-27 -141 -139 -248l14 -41q16 -50 36 -66.5t56 -18.5z" />
    <glyph glyph-name="Lacute" unicode="&#x139;" horiz-adv-x="521" 
d="M254 761l115 139l151 1l-131 -140h-135zM38 0l87 710h161l-70 -567h262l-17 -143h-423z" />
    <glyph glyph-name="lacute" unicode="&#x13a;" horiz-adv-x="268" 
d="M135 774l115 139l151 1l-131 -140h-135zM30 0l90 736h151l-91 -736h-150z" />
    <glyph glyph-name="Lcommaaccent" unicode="&#x13b;" horiz-adv-x="521" 
d="M38 0l87 710h161l-70 -567h262l-17 -143h-423zM141 -221l-15 85q31 7 43.5 19.5t12.5 38.5q0 5 -2 25h120q2 -14 2 -23q0 -68 -42.5 -105.5t-118.5 -39.5z" />
    <glyph glyph-name="lcommaaccent" unicode="&#x13c;" horiz-adv-x="268" 
d="M30 0l90 736h151l-91 -736h-150zM-2 -221l-15 85q31 7 43.5 19.5t12.5 38.5q0 5 -2 25h120q2 -14 2 -23q0 -68 -42.5 -105.5t-118.5 -39.5z" />
    <glyph glyph-name="Lcaron" unicode="&#x13d;" horiz-adv-x="531" 
d="M353 577l56 215h142l-93 -215h-105zM38 0l87 710h161l-70 -567h262l-17 -143h-423z" />
    <glyph glyph-name="lcaron" unicode="&#x13e;" horiz-adv-x="319" 
d="M305 577l56 215h142l-94 -215h-104zM30 0l90 736h151l-91 -736h-150z" />
    <glyph glyph-name="Ldot" unicode="&#x13f;" horiz-adv-x="522" 
d="M38 0l87 710h161l-70 -567h262l-17 -143h-423zM417 253q-39 0 -62.5 24.5t-23.5 62.5q0 39 24.5 63.5t64.5 24.5t63.5 -24t23.5 -61q0 -40 -24.5 -65t-65.5 -25z" />
    <glyph glyph-name="ldot" unicode="&#x140;" horiz-adv-x="454" 
d="M30 0l90 736h151l-91 -736h-150zM359 178q-39 0 -62.5 24.5t-23.5 62.5q0 39 24.5 63.5t64.5 24.5t63.5 -24t23.5 -61q0 -40 -24.5 -65t-65.5 -25z" />
    <glyph glyph-name="Lslash" unicode="&#x141;" horiz-adv-x="522" 
d="M217 143h262l-17 -143h-423l32 257l-67 -29l15 121l66 29l41 332h161l-32 -257l97 43l-15 -122l-97 -42z" />
    <glyph glyph-name="lslash" unicode="&#x142;" horiz-adv-x="307" 
d="M314 445l-13 -106l-63 -28l-38 -311h-150l29 238l-62 -28l13 105l62 28l48 393h151l-40 -320z" />
    <glyph glyph-name="Nacute" unicode="&#x143;" horiz-adv-x="686" 
d="M305 761l115 139l151 1l-131 -140h-135zM38 0l87 710h150l188 -440l3 1l54 439h156l-88 -710h-155l-183 429h-3l-54 -429h-155z" />
    <glyph glyph-name="nacute" unicode="&#x144;" horiz-adv-x="547" 
d="M222 556l117 149l152 1l-129 -150h-140zM25 0l61 489h149l-8 -68l2 -1q67 78 162 78q70 0 98 -48.5t15 -150.5l-39 -299h-149l35 265q7 51 0.5 75t-29.5 24q-38 0 -76 -49t-49 -134l-22 -181h-150z" />
    <glyph glyph-name="Ncommaaccent" unicode="&#x145;" horiz-adv-x="686" 
d="M38 0l87 710h150l188 -440l3 1l54 439h156l-88 -710h-155l-183 429h-3l-54 -429h-155zM213 -221l-15 85q31 7 43.5 19.5t12.5 38.5q0 5 -2 25h120q2 -14 2 -23q0 -68 -42.5 -105.5t-118.5 -39.5z" />
    <glyph glyph-name="ncommaaccent" unicode="&#x146;" horiz-adv-x="547" 
d="M25 0l61 489h149l-8 -68l2 -1q67 78 162 78q70 0 98 -48.5t15 -150.5l-39 -299h-149l35 265q7 51 0.5 75t-29.5 24q-38 0 -76 -49t-49 -134l-22 -181h-150zM139 -221l-15 85q31 7 43.5 19.5t12.5 38.5q0 5 -2 25h120q2 -14 2 -23q0 -68 -42.5 -105.5t-118.5 -39.5z" />
    <glyph glyph-name="Ncaron" unicode="&#x147;" horiz-adv-x="686" 
d="M339 761l-74 140h127l31 -63h2l47 63h124l-107 -140h-150zM38 0l87 710h150l188 -440l3 1l54 439h156l-88 -710h-155l-183 429h-3l-54 -429h-155z" />
    <glyph glyph-name="ncaron" unicode="&#x148;" horiz-adv-x="547" 
d="M253 547l-71 149h126l29 -71h2l46 71h125l-107 -149h-150zM25 0l61 489h149l-8 -68l2 -1q67 78 162 78q70 0 98 -48.5t15 -150.5l-39 -299h-149l35 265q7 51 0.5 75t-29.5 24q-38 0 -76 -49t-49 -134l-22 -181h-150z" />
    <glyph glyph-name="napostrophe" unicode="&#x149;" horiz-adv-x="671" 
d="M1 486l56 224h143l-94 -224h-105zM150 0l61 489h149l-8 -68l2 -1q67 78 162 78q70 0 98 -48.5t15 -150.5l-39 -299h-149l35 265q7 51 0.5 75t-29.5 24q-38 0 -76 -49t-49 -134l-22 -181h-150z" />
    <glyph glyph-name="Eng" unicode="&#x14a;" horiz-adv-x="686" 
d="M520 710h156l-88 -710q-14 -111 -72 -157.5t-161 -46.5q-40 0 -65 6l21 122q18 -3 32 -3q76 0 87 79l1 7l-181 422h-3l-54 -429h-155l87 710h150l188 -440l3 1z" />
    <glyph glyph-name="eng" unicode="&#x14b;" horiz-adv-x="542" 
d="M248 -205q-39 0 -72 8l26 114q15 -3 27 -3q69 0 85 112l32 239q7 51 0.5 75t-29.5 24q-37 0 -73 -48.5t-47 -134.5l-22 -181h-150l61 489h149l-8 -68l2 -1q60 78 157 78q70 0 98 -48.5t15 -150.5l-38 -299q-13 -100 -69.5 -152.5t-143.5 -52.5z" />
    <glyph glyph-name="Omacron" unicode="&#x14c;" horiz-adv-x="739" 
d="M320 784l15 110h285l-14 -110h-286zM339 -9q-132 0 -210.5 79.5t-78.5 221.5q0 114 45.5 210.5t132.5 156.5t198 60q132 0 211 -79.5t79 -219.5q0 -118 -43.5 -214.5t-130.5 -155.5t-203 -59zM351 141q86 0 142 78t56 192q0 79 -37.5 119t-100.5 40q-82 0 -138 -81
t-56 -187q0 -79 36.5 -120t97.5 -41z" />
    <glyph glyph-name="omacron" unicode="&#x14d;" horiz-adv-x="535" 
d="M175 582l15 115h285l-14 -115h-286zM235 -9q-94 0 -150.5 55.5t-56.5 154.5q0 124 73 210.5t197 86.5q96 0 152.5 -55.5t56.5 -153.5q0 -128 -69.5 -213t-202.5 -85zM246 125q48 0 78.5 46t30.5 108q0 47 -21 66t-48 19q-47 0 -76.5 -47.5t-29.5 -107.5q0 -41 19.5 -62.5
t46.5 -21.5z" />
    <glyph glyph-name="Obreve" unicode="&#x14e;" horiz-adv-x="739" 
d="M459 754q-72 0 -107 39t-30 108h107q-2 -19 8 -32t31 -13q23 0 39.5 13.5t22.5 31.5h109q-14 -66 -59 -106.5t-121 -40.5zM339 -9q-132 0 -210.5 79.5t-78.5 221.5q0 114 45.5 210.5t132.5 156.5t198 60q132 0 211 -79.5t79 -219.5q0 -118 -43.5 -214.5t-130.5 -155.5
t-203 -59zM351 141q86 0 142 78t56 192q0 79 -37.5 119t-100.5 40q-82 0 -138 -81t-56 -187q0 -79 36.5 -120t97.5 -41z" />
    <glyph glyph-name="obreve" unicode="&#x14f;" horiz-adv-x="535" 
d="M310 540q-69 0 -105 41t-32 115h108q-2 -21 8 -34.5t31 -13.5q22 0 39 14t23 34h108q-13 -71 -60 -113.5t-120 -42.5zM235 -9q-94 0 -150.5 55.5t-56.5 154.5q0 124 73 210.5t197 86.5q96 0 152.5 -55.5t56.5 -153.5q0 -128 -69.5 -213t-202.5 -85zM246 125q48 0 78.5 46
t30.5 108q0 47 -21 66t-48 19q-47 0 -76.5 -47.5t-29.5 -107.5q0 -41 19.5 -62.5t46.5 -21.5z" />
    <glyph glyph-name="Ohungarumlaut" unicode="&#x150;" horiz-adv-x="739" 
d="M277 759l117 149l148 1l-130 -150h-135zM484 759l116 149l148 1l-129 -150h-135zM339 -9q-132 0 -210.5 79.5t-78.5 221.5q0 114 45.5 210.5t132.5 156.5t198 60q132 0 211 -79.5t79 -219.5q0 -118 -43.5 -214.5t-130.5 -155.5t-203 -59zM351 141q86 0 142 78t56 192
q0 79 -37.5 119t-100.5 40q-82 0 -138 -81t-56 -187q0 -79 36.5 -120t97.5 -41z" />
    <glyph glyph-name="ohungarumlaut" unicode="&#x151;" horiz-adv-x="535" 
d="M146 557l117 149l148 1l-130 -150h-135zM353 557l116 149l148 1l-129 -150h-135zM235 -9q-94 0 -150.5 55.5t-56.5 154.5q0 124 73 210.5t197 86.5q96 0 152.5 -55.5t56.5 -153.5q0 -128 -69.5 -213t-202.5 -85zM246 125q48 0 78.5 46t30.5 108q0 47 -21 66t-48 19
q-47 0 -76.5 -47.5t-29.5 -107.5q0 -41 19.5 -62.5t46.5 -21.5z" />
    <glyph glyph-name="OE" unicode="&#x152;" horiz-adv-x="869" 
d="M851 567h-261l-18 -145h204l-17 -140h-204l-17 -139h279l-18 -143h-461q-131 0 -209.5 78t-78.5 213q0 177 104.5 298t272.5 121h441zM351 149h30l52 412h-20q-83 0 -139.5 -76.5t-56.5 -181.5q0 -75 37 -114.5t97 -39.5z" />
    <glyph glyph-name="oe" unicode="&#x153;" horiz-adv-x="731" 
d="M519 115q47 0 80 48l111 -66q-74 -106 -203 -106q-98 0 -149 68h-4q-60 -68 -153 -68q-83 0 -133 56t-50 151q0 127 68.5 213.5t177.5 86.5q91 0 135 -67h5q65 67 163 67q67 0 115 -33.5t48 -98.5q0 -142 -275 -205q18 -46 64 -46zM553 373q-30 0 -59 -32.5t-40 -84.5
q132 36 132 92q0 10 -8.5 17.5t-24.5 7.5zM218 125q37 0 65.5 45.5t28.5 114.5q0 41 -15 60.5t-38 19.5q-38 0 -65 -47.5t-27 -111.5q0 -44 15 -62.5t36 -18.5z" />
    <glyph glyph-name="Racute" unicode="&#x154;" horiz-adv-x="605" 
d="M253 761l115 139l151 1l-131 -140h-135zM38 0l87 710h253q102 0 151.5 -53t49.5 -143q0 -89 -37 -154t-107 -99l119 -261h-173l-97 232h-61l-28 -232h-157zM241 373h62q50 0 80 34.5t30 88.5q0 36 -21.5 54.5t-53.5 18.5h-73z" />
    <glyph glyph-name="racute" unicode="&#x155;" horiz-adv-x="353" 
d="M118 556l117 149l152 1l-129 -150h-140zM26 0l60 489h150l-9 -67h2q58 76 140 76l-21 -166q-54 20 -95.5 -19t-54.5 -125l-22 -188h-150z" />
    <glyph glyph-name="Rcommaaccent" unicode="&#x156;" horiz-adv-x="605" 
d="M38 0l87 710h253q102 0 151.5 -53t49.5 -143q0 -89 -37 -154t-107 -99l119 -261h-173l-97 232h-61l-28 -232h-157zM241 373h62q50 0 80 34.5t30 88.5q0 36 -21.5 54.5t-53.5 18.5h-73zM173 -221l-15 85q31 7 43.5 19.5t12.5 38.5q0 5 -2 25h120q2 -14 2 -23
q0 -68 -42.5 -105.5t-118.5 -39.5z" />
    <glyph glyph-name="rcommaaccent" unicode="&#x157;" horiz-adv-x="353" 
d="M26 0l60 489h150l-9 -67h2q58 76 140 76l-21 -166q-54 20 -95.5 -19t-54.5 -125l-22 -188h-150zM-8 -221l-15 85q31 7 43.5 19.5t12.5 38.5q0 5 -2 25h120q2 -14 2 -23q0 -68 -42.5 -105.5t-118.5 -39.5z" />
    <glyph glyph-name="Rcaron" unicode="&#x158;" horiz-adv-x="605" 
d="M287 761l-74 140h127l31 -63h2l47 63h124l-107 -140h-150zM38 0l87 710h253q102 0 151.5 -53t49.5 -143q0 -89 -37 -154t-107 -99l119 -261h-173l-97 232h-61l-28 -232h-157zM241 373h62q50 0 80 34.5t30 88.5q0 36 -21.5 54.5t-53.5 18.5h-73z" />
    <glyph glyph-name="rcaron" unicode="&#x159;" horiz-adv-x="353" 
d="M181 547l-71 149h126l29 -71h2l46 71h125l-107 -149h-150zM26 0l60 489h150l-9 -67h2q58 76 140 76l-21 -166q-54 20 -95.5 -19t-54.5 -125l-22 -188h-150z" />
    <glyph glyph-name="Sacute" unicode="&#x15a;" horiz-adv-x="545" 
d="M254 761l115 139l151 1l-131 -140h-135zM253 -9q-74 0 -140 31.5t-107 95.5l114 100q24 -40 60.5 -62t72.5 -22q41 0 65 19.5t24 47.5q0 22 -17.5 37t-63.5 42q-10 5 -15 8q-87 50 -116 78q-59 55 -59 133q0 99 69.5 159.5t173.5 60.5q65 0 123.5 -28t94.5 -81l-114 -95
q-47 63 -110 63q-31 0 -51 -17.5t-19 -43.5q1 -21 17.5 -39.5t59.5 -43.5q14 -8 42.5 -24t42 -24.5t35 -23t32 -27t22.5 -29.5t16.5 -37t4.5 -44q0 -110 -71 -172t-186 -62z" />
    <glyph glyph-name="sacute" unicode="&#x15b;" horiz-adv-x="420" 
d="M153 556l117 149l152 1l-129 -150h-140zM188 -9q-54 0 -107 22.5t-84 61.5l84 87q22 -26 52.5 -42t58.5 -16q45 0 45 27q0 11 -10.5 19t-48.5 27q-11 6 -17 9q-60 30 -89.5 64t-29.5 85q0 72 52 117.5t129 45.5q111 0 176 -78l-91 -86q-35 48 -84 50q-16 0 -27.5 -8
t-11.5 -22q0 -20 69 -54q66 -33 97 -65t31 -85q0 -72 -52.5 -115.5t-141.5 -43.5z" />
    <glyph glyph-name="Scircumflex" unicode="&#x15c;" horiz-adv-x="545" 
d="M165 761l108 140h150l73 -140h-126l-32 64h-1l-48 -64h-124zM253 -9q-74 0 -140 31.5t-107 95.5l114 100q24 -40 60.5 -62t72.5 -22q41 0 65 19.5t24 47.5q0 22 -17.5 37t-63.5 42q-10 5 -15 8q-87 50 -116 78q-59 55 -59 133q0 99 69.5 159.5t173.5 60.5q65 0 123.5 -28
t94.5 -81l-114 -95q-47 63 -110 63q-31 0 -51 -17.5t-19 -43.5q1 -21 17.5 -39.5t59.5 -43.5q14 -8 42.5 -24t42 -24.5t35 -23t32 -27t22.5 -29.5t16.5 -37t4.5 -44q0 -110 -71 -172t-186 -62z" />
    <glyph glyph-name="scircumflex" unicode="&#x15d;" horiz-adv-x="420" 
d="M78 555l115 152h131l84 -152h-130l-24 74h-1l-42 -74h-133zM188 -9q-54 0 -107 22.5t-84 61.5l84 87q22 -26 52.5 -42t58.5 -16q45 0 45 27q0 11 -10.5 19t-48.5 27q-11 6 -17 9q-60 30 -89.5 64t-29.5 85q0 72 52 117.5t129 45.5q111 0 176 -78l-91 -86q-35 48 -84 50
q-16 0 -27.5 -8t-11.5 -22q0 -20 69 -54q66 -33 97 -65t31 -85q0 -72 -52.5 -115.5t-141.5 -43.5z" />
    <glyph glyph-name="Scedilla" unicode="&#x15e;" horiz-adv-x="545" 
d="M315 434q14 -8 42.5 -24t42 -24.5t35 -23t32 -27t22.5 -29.5t16.5 -37t4.5 -44q0 -109 -69.5 -170.5t-182.5 -63.5l-15 -21l1 -1q75 -3 75 -66q0 -47 -34.5 -71t-94.5 -24q-33 0 -54 6l2 61q16 -6 39 -6q53 0 53 33q0 25 -65 25l1 38l21 33q-120 24 -181 120l114 100
q24 -40 60.5 -62t72.5 -22q41 0 65 19.5t24 47.5q0 22 -17.5 37t-63.5 42q-10 5 -15 8q-87 50 -116 78q-59 55 -59 133q0 99 69.5 159.5t173.5 60.5q65 0 123.5 -28t94.5 -81l-114 -95q-47 63 -110 63q-31 0 -51 -17.5t-19 -43.5q1 -21 17.5 -39.5t59.5 -43.5z" />
    <glyph glyph-name="scedilla" unicode="&#x15f;" horiz-adv-x="420" 
d="M254 300q66 -33 97 -65t31 -85q0 -72 -52.5 -115.5t-141.5 -43.5h-2l-15 -21l1 -1q75 -3 75 -66q0 -47 -34.5 -71t-94.5 -24q-33 0 -54 6l2 61q16 -6 39 -6q53 0 53 33q0 25 -65 25l1 38l23 36q-78 21 -120 74l84 87q22 -26 52.5 -42t58.5 -16q45 0 45 27q0 11 -10.5 19
t-48.5 27q-11 6 -17 9q-60 30 -89.5 64t-29.5 85q0 72 52 117.5t129 45.5q111 0 176 -78l-91 -86q-35 48 -84 50q-16 0 -27.5 -8t-11.5 -22q0 -20 69 -54z" />
    <glyph glyph-name="Scaron" unicode="&#x160;" horiz-adv-x="545" 
d="M256 761l-74 140h127l31 -63h2l47 63h124l-107 -140h-150zM253 -9q-74 0 -140 31.5t-107 95.5l114 100q24 -40 60.5 -62t72.5 -22q41 0 65 19.5t24 47.5q0 22 -17.5 37t-63.5 42q-10 5 -15 8q-87 50 -116 78q-59 55 -59 133q0 99 69.5 159.5t173.5 60.5q65 0 123.5 -28
t94.5 -81l-114 -95q-47 63 -110 63q-31 0 -51 -17.5t-19 -43.5q1 -21 17.5 -39.5t59.5 -43.5q14 -8 42.5 -24t42 -24.5t35 -23t32 -27t22.5 -29.5t16.5 -37t4.5 -44q0 -110 -71 -172t-186 -62z" />
    <glyph glyph-name="scaron" unicode="&#x161;" horiz-adv-x="420" 
d="M171 547l-71 149h126l29 -71h2l46 71h125l-107 -149h-150zM188 -9q-54 0 -107 22.5t-84 61.5l84 87q22 -26 52.5 -42t58.5 -16q45 0 45 27q0 11 -10.5 19t-48.5 27q-11 6 -17 9q-60 30 -89.5 64t-29.5 85q0 72 52 117.5t129 45.5q111 0 176 -78l-91 -86q-35 48 -84 50
q-16 0 -27.5 -8t-11.5 -22q0 -20 69 -54q66 -33 97 -65t31 -85q0 -72 -52.5 -115.5t-141.5 -43.5z" />
    <glyph glyph-name="uni0162" unicode="&#x162;" horiz-adv-x="539" 
d="M81 710h491l-18 -143h-165l-70 -567h-64l-22 -30l1 -1q75 -3 75 -66q0 -47 -34.5 -71t-94.5 -24q-33 0 -54 6l2 61q16 -6 39 -6q53 0 53 33q0 25 -65 25l1 38l22 35h-19l70 567h-166z" />
    <glyph glyph-name="uni0163" unicode="&#x163;" horiz-adv-x="342" 
d="M230 368l-24 -201q-6 -41 22 -41q19 0 49 16l24 -117q-58 -32 -123 -34l-15 -21l1 -1q75 -3 75 -66q0 -47 -34.5 -71t-94.5 -24q-33 0 -54 6l2 61q16 -6 39 -6q53 0 53 33q0 25 -65 25l1 38l24 38q-71 32 -57 144l26 221h-48l15 121h48l19 143l153 30l-21 -173h101
l-15 -121h-101z" />
    <glyph glyph-name="Tcaron" unicode="&#x164;" horiz-adv-x="539" 
d="M255 761l-74 140h127l31 -63h2l47 63h124l-107 -140h-150zM159 0l70 567h-166l18 143h491l-18 -143h-165l-70 -567h-160z" />
    <glyph glyph-name="tcaron" unicode="&#x165;" horiz-adv-x="363" 
d="M302 577l57 215h140l-92 -215h-105zM170 -9q-61 0 -94 38t-23 118l26 221h-48l15 121h48l19 143l153 30l-21 -173h101l-15 -121h-101l-24 -201q-6 -41 22 -41q19 0 49 16l24 -117q-62 -34 -131 -34z" />
    <glyph glyph-name="Tbar" unicode="&#x166;" horiz-adv-x="539" 
d="M554 567h-165l-23 -183h101l-13 -112h-101l-34 -272h-160l34 272h-98l15 112h96l23 183h-166l18 143h491z" />
    <glyph glyph-name="tbar" unicode="&#x167;" horiz-adv-x="342" 
d="M331 368h-101l-8 -63h79l-11 -90h-78l-6 -48q-6 -41 22 -41q19 0 49 16l24 -117q-62 -34 -131 -34q-61 0 -94 38t-23 118l8 68h-41l11 90h41l7 63h-48l15 121h48l19 143l153 30l-21 -173h101z" />
    <glyph glyph-name="Utilde" unicode="&#x168;" horiz-adv-x="653" 
d="M476 762q-32 0 -77 30q-26 18 -44 18q-32 0 -57 -50l-84 41q53 110 128 110q37 0 76 -26q30 -20 44 -20q34 0 58 48l84 -32q-52 -119 -128 -119zM299 -9q-139 0 -194.5 85.5t-36.5 241.5l49 392h160l-50 -405q-20 -164 85 -164q53 0 85.5 36t42.5 120l51 413h160
l-51 -417q-20 -161 -93.5 -231.5t-207.5 -70.5z" />
    <glyph glyph-name="utilde" unicode="&#x169;" horiz-adv-x="539" 
d="M393 551q-33 0 -76 30q-24 18 -44 18q-33 0 -58 -51l-84 42q50 120 129 120q8 0 15.5 -1t14.5 -3t11.5 -3.5t10.5 -5t8.5 -5t8 -5t6.5 -4.5q27 -19 42 -19q35 0 60 49l84 -34q-23 -59 -55.5 -93.5t-72.5 -34.5zM167 -9q-153 0 -125 194l42 304h149l-37 -259
q-8 -59 -1 -82t33 -23q32 0 67.5 43.5t42.5 96.5l27 224h150l-60 -489h-147l6 72h-2q-60 -81 -145 -81z" />
    <glyph glyph-name="Umacron" unicode="&#x16a;" horiz-adv-x="653" 
d="M252 784l15 110h285l-14 -110h-286zM299 -9q-139 0 -194.5 85.5t-36.5 241.5l49 392h160l-50 -405q-20 -164 85 -164q53 0 85.5 36t42.5 120l51 413h160l-51 -417q-20 -161 -93.5 -231.5t-207.5 -70.5z" />
    <glyph glyph-name="umacron" unicode="&#x16b;" horiz-adv-x="539" 
d="M172 582l15 115h285l-14 -115h-286zM167 -9q-153 0 -125 194l42 304h149l-37 -259q-8 -59 -1 -82t33 -23q32 0 67.5 43.5t42.5 96.5l27 224h150l-60 -489h-147l6 72h-2q-60 -81 -145 -81z" />
    <glyph glyph-name="Ubreve" unicode="&#x16c;" horiz-adv-x="653" 
d="M391 754q-72 0 -107 39t-30 108h107q-2 -19 8 -32t31 -13q23 0 39.5 13.5t22.5 31.5h109q-14 -66 -59 -106.5t-121 -40.5zM299 -9q-139 0 -194.5 85.5t-36.5 241.5l49 392h160l-50 -405q-20 -164 85 -164q53 0 85.5 36t42.5 120l51 413h160l-51 -417
q-20 -161 -93.5 -231.5t-207.5 -70.5z" />
    <glyph glyph-name="ubreve" unicode="&#x16d;" horiz-adv-x="539" 
d="M307 540q-69 0 -105 41t-32 115h108q-2 -21 8 -34.5t31 -13.5q22 0 39 14t23 34h108q-13 -71 -60 -113.5t-120 -42.5zM167 -9q-153 0 -125 194l42 304h149l-37 -259q-8 -59 -1 -82t33 -23q32 0 67.5 43.5t42.5 96.5l27 224h150l-60 -489h-147l6 72h-2q-60 -81 -145 -81z
" />
    <glyph glyph-name="Uring" unicode="&#x16e;" horiz-adv-x="653" 
d="M396 747q-45 0 -75 30.5t-30 74.5q0 45 31 75.5t77 30.5q45 0 74.5 -29.5t29.5 -73.5q0 -46 -30.5 -77t-76.5 -31zM398 817q15 0 25.5 10.5t10.5 26.5q0 14 -10.5 24.5t-24.5 10.5q-16 0 -27 -10.5t-11 -25.5q0 -16 10.5 -26t26.5 -10zM299 -9q-139 0 -194.5 85.5
t-36.5 241.5l49 392h160l-50 -405q-20 -164 85 -164q53 0 85.5 36t42.5 120l51 413h160l-51 -417q-20 -161 -93.5 -231.5t-207.5 -70.5z" />
    <glyph glyph-name="uring" unicode="&#x16f;" horiz-adv-x="539" 
d="M322 538q-45 0 -75 30.5t-30 74.5q0 45 31 75.5t77 30.5q45 0 74.5 -29.5t29.5 -73.5q0 -46 -30.5 -77t-76.5 -31zM324 608q15 0 25.5 10.5t10.5 26.5q0 14 -10.5 24.5t-24.5 10.5q-16 0 -27 -10.5t-11 -25.5q0 -16 10.5 -26t26.5 -10zM167 -9q-153 0 -125 194l42 304
h149l-37 -259q-8 -59 -1 -82t33 -23q32 0 67.5 43.5t42.5 96.5l27 224h150l-60 -489h-147l6 72h-2q-60 -81 -145 -81z" />
    <glyph glyph-name="Uhungarumlaut" unicode="&#x170;" horiz-adv-x="653" 
d="M209 759l117 149l148 1l-130 -150h-135zM416 759l116 149l148 1l-129 -150h-135zM299 -9q-139 0 -194.5 85.5t-36.5 241.5l49 392h160l-50 -405q-20 -164 85 -164q53 0 85.5 36t42.5 120l51 413h160l-51 -417q-20 -161 -93.5 -231.5t-207.5 -70.5z" />
    <glyph glyph-name="uhungarumlaut" unicode="&#x171;" horiz-adv-x="539" 
d="M143 557l117 149l148 1l-130 -150h-135zM350 557l116 149l148 1l-129 -150h-135zM167 -9q-153 0 -125 194l42 304h149l-37 -259q-8 -59 -1 -82t33 -23q32 0 67.5 43.5t42.5 96.5l27 224h150l-60 -489h-147l6 72h-2q-60 -81 -145 -81z" />
    <glyph glyph-name="Uogonek" unicode="&#x172;" horiz-adv-x="653" 
d="M491 710h160l-51 -417q-29 -238 -189 -287h1q-43 -13 -73 -38.5t-30 -53.5q0 -24 24 -24q17 0 34 7l2 -77q-29 -11 -74 -11q-98 0 -98 79q0 55 56 102l-1 4q-221 29 -184 324l49 392h160l-50 -405q-20 -164 85 -164q53 0 85.5 36t42.5 120z" />
    <glyph glyph-name="uogonek" unicode="&#x173;" horiz-adv-x="539" 
d="M365 489h150l-60 -489h-10q-39 -3 -68 -29.5t-29 -56.5q0 -24 25 -24q21 0 33 7l2 -77q-27 -11 -74 -11q-97 0 -97 79q0 32 20 64.5t52 54.5l5 65h-2q-60 -81 -145 -81q-153 0 -125 194l42 304h149l-37 -259q-8 -59 -1 -82t33 -23q32 0 67.5 43.5t42.5 96.5z" />
    <glyph glyph-name="Wcircumflex" unicode="&#x174;" horiz-adv-x="932" 
d="M360 761l108 140h150l73 -140h-126l-32 64h-1l-48 -64h-124zM186 0l-112 710h166l52 -447h3l150 447h162l39 -435h3l154 435h171l-287 -710h-146l-48 459h-2l-163 -459h-142z" />
    <glyph glyph-name="wcircumflex" unicode="&#x175;" horiz-adv-x="759" 
d="M254 555l115 152h131l84 -152h-130l-24 74h-1l-42 -74h-133zM165 -9q-76 0 -109 55t-21 147l42 296h148l-36 -261q-14 -103 30 -103q27 0 56.5 38t39.5 118l26 208h145l-33 -267q-7 -53 0 -75t28 -22q30 0 61.5 45.5t44.5 147.5q11 81 0 171h151q17 -97 0 -201
q-22 -155 -99 -226t-183 -71q-110 0 -134 89h-2q-25 -42 -68 -65.5t-87 -23.5z" />
    <glyph glyph-name="Ycircumflex" unicode="&#x176;" horiz-adv-x="581" 
d="M188 761l108 140h150l73 -140h-126l-32 64h-1l-48 -64h-124zM179 0l39 310l-159 400h176l79 -250h3l138 250h183l-259 -400l-38 -310h-162z" />
    <glyph glyph-name="ycircumflex" unicode="&#x177;" horiz-adv-x="534" 
d="M310 629l-42 -74h-133l115 152h131l84 -152h-130l-24 74h-1zM363 489h149l-52 -423q-32 -273 -276 -273q-99 0 -177 48l47 113q58 -38 122 -38q57 0 89.5 31.5t45.5 121.5v1l-3 1q-59 -80 -145 -80q-153 0 -125 194l42 304h149l-36 -259q-8 -59 -1.5 -82t33.5 -23
q33 0 68.5 44.5t41.5 96.5z" />
    <glyph glyph-name="Ydieresis" unicode="&#x178;" horiz-adv-x="581" 
d="M252 757q-39 0 -64.5 24.5t-25.5 61.5q0 38 26 63t67 25q40 0 65 -24t25 -61q0 -39 -26 -64t-67 -25zM469 757q-39 0 -64.5 24.5t-25.5 61.5q0 39 26 63.5t68 24.5q39 0 64 -24t25 -61q0 -39 -26 -64t-67 -25zM179 0l39 310l-159 400h176l79 -250h3l138 250h183
l-259 -400l-38 -310h-162z" />
    <glyph glyph-name="Zacute" unicode="&#x179;" horiz-adv-x="570" 
d="M245 761l115 139l151 1l-131 -140h-135zM13 0l15 125l335 439l-2 3h-269l17 143h474l-14 -122l-342 -441l2 -4h284l-17 -143h-483z" />
    <glyph glyph-name="zacute" unicode="&#x17a;" horiz-adv-x="447" 
d="M159 557l117 149l152 1l-129 -150h-140zM367 -28q-117 28 -366 28l11 100l217 267v3h-165l14 119h365l-11 -100l-222 -267v-2q111 -5 192 -30z" />
    <glyph glyph-name="Zdotaccent" unicode="&#x17b;" horiz-adv-x="570" 
d="M360 757q-39 0 -64.5 24.5t-25.5 61.5q0 38 26 63t67 25q40 0 65 -24t25 -61q0 -39 -26 -64t-67 -25zM13 0l15 125l335 439l-2 3h-269l17 143h474l-14 -122l-342 -441l2 -4h284l-17 -143h-483z" />
    <glyph glyph-name="zdotaccent" unicode="&#x17c;" horiz-adv-x="447" 
d="M273 552q-39 0 -64.5 24.5t-25.5 61.5q0 38 26 63t67 25q40 0 65 -24t25 -61q0 -39 -26 -64t-67 -25zM367 -28q-117 28 -366 28l11 100l217 267v3h-165l14 119h365l-11 -100l-222 -267v-2q111 -5 192 -30z" />
    <glyph glyph-name="Zcaron" unicode="&#x17d;" horiz-adv-x="570" 
d="M279 761l-74 140h127l31 -63h2l47 63h124l-107 -140h-150zM13 0l15 125l335 439l-2 3h-269l17 143h474l-14 -122l-342 -441l2 -4h284l-17 -143h-483z" />
    <glyph glyph-name="zcaron" unicode="&#x17e;" horiz-adv-x="447" 
d="M192 547l-71 149h126l29 -71h2l46 71h125l-107 -149h-150zM367 -28q-117 28 -366 28l11 100l217 267v3h-165l14 119h365l-11 -100l-222 -267v-2q111 -5 192 -30z" />
    <glyph glyph-name="longs" unicode="&#x17f;" horiz-adv-x="326" 
d="M33 0l45 368h-41l15 121h41l10 82q21 174 168 174q69 0 116 -37l-37 -110q-26 18 -51 18q-21 0 -32 -15.5t-17 -61.5l-66 -539h-151z" />
    <glyph glyph-name="uni018F" unicode="&#x18f;" horiz-adv-x="704" 
d="M391 719q133 0 212 -79.5t79 -219.5q0 -181 -98.5 -305t-261.5 -124q-131 0 -207 79t-76 219q0 50 17 112h463v10q0 77 -39 118.5t-101 41.5q-77 0 -141 -59l-95 119q49 40 115.5 64t132.5 24zM330 134q117 0 163 131h-297q1 -63 39 -97t95 -34z" />
    <glyph glyph-name="florin" unicode="&#x192;" horiz-adv-x="485" 
d="M40 -165q-58 0 -93.5 15t-46.5 31l59 96q31 -12 57 -12q31 0 50 19.5t29 65.5l70 297h-69l32 123h69l24 102q41 173 192 173q57 0 93 -15t48 -30l-60 -97q-32 12 -58 12q-53 0 -72 -85l-12 -60h108l-33 -123h-109l-79 -339q-21 -87 -69.5 -130t-129.5 -43z" />
    <glyph glyph-name="uni019D" unicode="&#x19d;" horiz-adv-x="683" 
d="M1 -205q-42 0 -71 7l22 122q17 -3 28 -3q29 0 41 18.5t18 67.5l86 703h150l182 -440l3 1l57 439h156l-91 -710h-155l-177 429h-3l-55 -439q-14 -113 -61 -154t-130 -41z" />
    <glyph glyph-name="Ohorn" unicode="&#x1a0;" horiz-adv-x="796" 
d="M720 774h122l-10 -86q-20 -156 -126 -176q10 -47 10 -92q0 -118 -43.5 -214.5t-130.5 -155.5t-203 -59q-132 0 -210.5 79.5t-78.5 221.5q0 114 45.5 210.5t132.5 156.5t198 60q85 0 150 -34.5t101 -99.5q22 18 33 111zM351 141q86 0 142 78t56 192q0 79 -37.5 119
t-100.5 40q-82 0 -138 -81t-56 -187q0 -79 36.5 -120t97.5 -41z" />
    <glyph glyph-name="ohorn" unicode="&#x1a1;" horiz-adv-x="633" 
d="M538 565h122l-10 -86q-11 -85 -48.5 -129.5t-94.5 -49.5v-11q0 -128 -69.5 -213t-202.5 -85q-94 0 -150.5 55.5t-56.5 154.5q0 124 73 210.5t197 86.5q72 0 123 -32t72 -91q24 16 35 112zM246 125q48 0 78.5 46t30.5 108q0 47 -21 66t-48 19q-47 0 -76.5 -47.5
t-29.5 -107.5q0 -41 19.5 -62.5t46.5 -21.5z" />
    <glyph glyph-name="Uhorn" unicode="&#x1af;" horiz-adv-x="770" 
d="M712 774h122l-10 -86q-12 -90 -53 -134.5t-103 -44.5q-19 0 -41 5l-27 -221q-20 -161 -93.5 -231.5t-207.5 -70.5q-139 0 -194.5 85.5t-36.5 241.5l49 392h160l-50 -405q-20 -164 85 -164q53 0 85.5 36t42.5 120l51 413h160l-16 -130q10 -2 13 -2q14 0 23.5 8.5t15 27
t8.5 35.5t7 47z" />
    <glyph glyph-name="uhorn" unicode="&#x1b0;" horiz-adv-x="661" 
d="M574 565h122l-10 -86q-12 -90 -53 -134.5t-103 -44.5q-21 0 -38 4l-37 -304h-147l6 72h-2q-60 -81 -145 -81q-153 0 -125 194l42 304h149l-37 -259q-8 -59 -1 -82t33 -23q32 0 67.5 43.5t42.5 96.5l27 224h150l-15 -119q4 -1 10 -1q14 0 23.5 8.5t15 27t8.5 35.5t7 47z
" />
    <glyph glyph-name="uni01CD" unicode="&#x1cd;" horiz-adv-x="635" 
d="M311 761l-74 140h127l31 -63h2l47 63h124l-107 -140h-150zM-23 0l320 710h154l146 -710h-166l-22 131h-213l-51 -131h-168zM247 266h141l-42 249h-2z" />
    <glyph glyph-name="uni01CE" unicode="&#x1ce;" horiz-adv-x="553" 
d="M247 547l-71 149h126l29 -71h2l46 71h125l-107 -149h-150zM186 -9q-76 0 -117.5 56t-41.5 144q0 130 67 218.5t164 88.5q74 0 115 -43h3l4 34h151l-60 -489h-151l9 72l-3 1q-57 -82 -140 -82zM234 124q42 0 79.5 51.5t49.5 139.5l2 14q-33 35 -81 35q-47 0 -76.5 -51
t-29.5 -111q0 -35 15.5 -56.5t40.5 -21.5z" />
    <glyph glyph-name="uni01CF" unicode="&#x1cf;" horiz-adv-x="308" 
d="M141 760l-74 140h127l31 -63h2l47 63h124l-107 -140h-150zM43 0l87 710h162l-87 -710h-162z" />
    <glyph glyph-name="uni01D0" unicode="&#x1d0;" horiz-adv-x="268" 
d="M101 547l-71 149h126l29 -71h2l46 71h125l-107 -149h-150zM29 0l60 489h150l-60 -489h-150z" />
    <glyph glyph-name="uni01D1" unicode="&#x1d1;" horiz-adv-x="739" 
d="M386 761l-74 140h127l31 -63h2l47 63h124l-107 -140h-150zM339 -9q-132 0 -210.5 79.5t-78.5 221.5q0 114 45.5 210.5t132.5 156.5t198 60q132 0 211 -79.5t79 -219.5q0 -118 -43.5 -214.5t-130.5 -155.5t-203 -59zM351 141q86 0 142 78t56 192q0 79 -37.5 119t-100.5 40
q-82 0 -138 -81t-56 -187q0 -79 36.5 -120t97.5 -41z" />
    <glyph glyph-name="uni01D2" unicode="&#x1d2;" horiz-adv-x="535" 
d="M240 547l-71 149h126l29 -71h2l46 71h125l-107 -149h-150zM235 -9q-94 0 -150.5 55.5t-56.5 154.5q0 124 73 210.5t197 86.5q96 0 152.5 -55.5t56.5 -153.5q0 -128 -69.5 -213t-202.5 -85zM246 125q48 0 78.5 46t30.5 108q0 47 -21 66t-48 19q-47 0 -76.5 -47.5
t-29.5 -107.5q0 -41 19.5 -62.5t46.5 -21.5z" />
    <glyph glyph-name="uni01D3" unicode="&#x1d3;" horiz-adv-x="653" 
d="M318 761l-74 140h127l31 -63h2l47 63h124l-107 -140h-150zM299 -9q-139 0 -194.5 85.5t-36.5 241.5l49 392h160l-50 -405q-20 -164 85 -164q53 0 85.5 36t42.5 120l51 413h160l-51 -417q-20 -161 -93.5 -231.5t-207.5 -70.5z" />
    <glyph glyph-name="uni01D4" unicode="&#x1d4;" horiz-adv-x="539" 
d="M237 547l-71 149h126l29 -71h2l46 71h125l-107 -149h-150zM167 -9q-153 0 -125 194l42 304h149l-37 -259q-8 -59 -1 -82t33 -23q32 0 67.5 43.5t42.5 96.5l27 224h150l-60 -489h-147l6 72h-2q-60 -81 -145 -81z" />
    <glyph glyph-name="uni01D5" unicode="&#x1d5;" horiz-adv-x="653" 
d="M265 932l10 80h285l-10 -80h-285zM290 757q-33 0 -54 20t-21 50q0 32 22 52.5t56 20.5q33 0 54 -20t21 -50q0 -32 -22 -52.5t-56 -20.5zM502 757q-33 0 -54 20t-21 50q0 32 22 52.5t56 20.5q33 0 54 -20t21 -50q0 -32 -22 -52.5t-56 -20.5zM299 -9q-139 0 -194.5 85.5
t-36.5 241.5l49 392h160l-50 -405q-20 -164 85 -164q53 0 85.5 36t42.5 120l51 413h160l-51 -417q-20 -161 -93.5 -231.5t-207.5 -70.5z" />
    <glyph glyph-name="uni01D6" unicode="&#x1d6;" horiz-adv-x="539" 
d="M183 744l11 86h285l-11 -86h-285zM214 547q-35 0 -58.5 22.5t-23.5 56.5t23.5 56.5t59.5 22.5t59.5 -22t23.5 -56q0 -35 -23.5 -57.5t-60.5 -22.5zM413 547q-36 0 -59 22.5t-23 56.5t23.5 56.5t59.5 22.5t59.5 -22t23.5 -56t-24 -57t-60 -23zM167 -9q-153 0 -125 194
l42 304h149l-37 -259q-8 -59 -1 -82t33 -23q32 0 67.5 43.5t42.5 96.5l27 224h150l-60 -489h-147l6 72h-2q-60 -81 -145 -81z" />
    <glyph glyph-name="uni01D7" unicode="&#x1d7;" horiz-adv-x="653" 
d="M353 909l101 133l143 1l-151 -134h-93zM290 757q-33 0 -54 20t-21 50q0 32 22 52.5t56 20.5q33 0 54 -20t21 -50q0 -32 -22 -52.5t-56 -20.5zM502 757q-33 0 -54 20t-21 50q0 32 22 52.5t56 20.5q33 0 54 -20t21 -50q0 -32 -22 -52.5t-56 -20.5zM299 -9
q-139 0 -194.5 85.5t-36.5 241.5l49 392h160l-50 -405q-20 -164 85 -164q53 0 85.5 36t42.5 120l51 413h160l-51 -417q-20 -161 -93.5 -231.5t-207.5 -70.5z" />
    <glyph glyph-name="uni01D8" unicode="&#x1d8;" horiz-adv-x="539" 
d="M267 723l111 137l144 1l-144 -138h-111zM214 547q-35 0 -58.5 22.5t-23.5 56.5t23.5 56.5t59.5 22.5t59.5 -22t23.5 -56q0 -35 -23.5 -57.5t-60.5 -22.5zM413 547q-36 0 -59 22.5t-23 56.5t23.5 56.5t59.5 22.5t59.5 -22t23.5 -56t-24 -57t-60 -23zM167 -9
q-153 0 -125 194l42 304h149l-37 -259q-8 -59 -1 -82t33 -23q32 0 67.5 43.5t42.5 96.5l27 224h150l-60 -489h-147l6 72h-2q-60 -81 -145 -81z" />
    <glyph glyph-name="uni01D9" unicode="&#x1d9;" horiz-adv-x="653" 
d="M326 916l-74 126h127l31 -57h2l47 57h124l-107 -126h-150zM290 757q-33 0 -54 20t-21 50q0 32 22 52.5t56 20.5q33 0 54 -20t21 -50q0 -32 -22 -52.5t-56 -20.5zM502 757q-33 0 -54 20t-21 50q0 32 22 52.5t56 20.5q33 0 54 -20t21 -50q0 -32 -22 -52.5t-56 -20.5z
M299 -9q-139 0 -194.5 85.5t-36.5 241.5l49 392h160l-50 -405q-20 -164 85 -164q53 0 85.5 36t42.5 120l51 413h160l-51 -417q-20 -161 -93.5 -231.5t-207.5 -70.5z" />
    <glyph glyph-name="uni01DA" unicode="&#x1da;" horiz-adv-x="539" 
d="M249 719l-71 139h126l29 -66h2l46 66h125l-107 -139h-150zM214 547q-35 0 -58.5 22.5t-23.5 56.5t23.5 56.5t59.5 22.5t59.5 -22t23.5 -56q0 -35 -23.5 -57.5t-60.5 -22.5zM413 547q-36 0 -59 22.5t-23 56.5t23.5 56.5t59.5 22.5t59.5 -22t23.5 -56t-24 -57t-60 -23z
M167 -9q-153 0 -125 194l42 304h149l-37 -259q-8 -59 -1 -82t33 -23q32 0 67.5 43.5t42.5 96.5l27 224h150l-60 -489h-147l6 72h-2q-60 -81 -145 -81z" />
    <glyph glyph-name="uni01DB" unicode="&#x1db;" horiz-adv-x="653" 
d="M355 909l-116 132h119l77 -132h-80zM290 757q-33 0 -54 20t-21 50q0 32 22 52.5t56 20.5q33 0 54 -20t21 -50q0 -32 -22 -52.5t-56 -20.5zM502 757q-33 0 -54 20t-21 50q0 32 22 52.5t56 20.5q33 0 54 -20t21 -50q0 -32 -22 -52.5t-56 -20.5zM299 -9q-139 0 -194.5 85.5
t-36.5 241.5l49 392h160l-50 -405q-20 -164 85 -164q53 0 85.5 36t42.5 120l51 413h160l-51 -417q-20 -161 -93.5 -231.5t-207.5 -70.5z" />
    <glyph glyph-name="uni01DC" unicode="&#x1dc;" horiz-adv-x="539" 
d="M265 724l-99 137l138 -1l67 -136h-106zM214 547q-35 0 -58.5 22.5t-23.5 56.5t23.5 56.5t59.5 22.5t59.5 -22t23.5 -56q0 -35 -23.5 -57.5t-60.5 -22.5zM413 547q-36 0 -59 22.5t-23 56.5t23.5 56.5t59.5 22.5t59.5 -22t23.5 -56t-24 -57t-60 -23zM167 -9
q-153 0 -125 194l42 304h149l-37 -259q-8 -59 -1 -82t33 -23q32 0 67.5 43.5t42.5 96.5l27 224h150l-60 -489h-147l6 72h-2q-60 -81 -145 -81z" />
    <glyph glyph-name="Gcaron" unicode="&#x1e6;" horiz-adv-x="680" 
d="M359 760l-74 140h127l31 -63h2l47 63h124l-107 -140h-150zM341 -9q-129 0 -210 76t-81 221q0 182 104.5 306.5t269.5 124.5q76 0 141 -33t102 -95l-124 -94q-47 72 -128 72q-86 0 -141.5 -81.5t-55.5 -190.5q0 -77 35.5 -117.5t98.5 -40.5q57 0 110 34l13 88h-118l17 134
h271l-37 -318q-49 -38 -121 -62t-146 -24z" />
    <glyph glyph-name="gcaron" unicode="&#x1e7;" horiz-adv-x="551" 
d="M398 547h-150l-71 149h126l29 -71h2l46 71h125zM378 489h150l-52 -426q-33 -270 -284 -270q-100 0 -178 48l47 117q62 -38 125 -38q62 0 96 34t47 133l-3 1q-58 -82 -139 -82q-76 0 -117.5 54.5t-41.5 135.5q0 127 67 214.5t163 87.5q75 0 114 -41l3 1zM361 315l2 16
q-33 33 -79 33t-75.5 -49.5t-29.5 -103.5q0 -35 14.5 -53.5t40.5 -18.5q41 0 78 49t49 127z" />
    <glyph glyph-name="uni01EA" unicode="&#x1ea;" horiz-adv-x="739" 
d="M393 -6q-30 -10 -50 -33t-20 -47t25 -24q21 0 33 7l2 -77q-27 -11 -74 -11q-97 0 -97 79q0 58 56 107l-1 3q-101 21 -159 97.5t-58 196.5q0 114 45.5 210.5t132.5 156.5t198 60q132 0 211 -79.5t79 -219.5q0 -167 -86.5 -286.5t-236.5 -139.5zM217 302q0 -79 36.5 -120
t97.5 -41q86 0 142 78t56 192q0 79 -37.5 119t-100.5 40q-82 0 -138 -81t-56 -187z" />
    <glyph glyph-name="uni01EB" unicode="&#x1eb;" horiz-adv-x="535" 
d="M280 -6q-29 -11 -48.5 -33.5t-19.5 -46.5t25 -24q21 0 33 7l2 -77q-27 -11 -74 -11q-97 0 -97 79q0 63 61 110l-1 3q-63 19 -98 70.5t-35 129.5q0 124 73 210.5t197 86.5q96 0 152.5 -55.5t56.5 -153.5q0 -116 -57.5 -198t-169.5 -97zM286 364q-47 0 -76.5 -47.5
t-29.5 -107.5q0 -41 19.5 -62.5t46.5 -21.5q48 0 78.5 46t30.5 108q0 47 -21 66t-48 19z" />
    <glyph glyph-name="Aringacute" unicode="&#x1fa;" horiz-adv-x="635" 
d="M389 747q-45 0 -75 30.5t-30 74.5q0 45 31 75.5t77 30.5q40 0 69 -24l61 47h146l-172 -130q-2 -44 -32 -74t-75 -30zM392 889q-16 0 -27 -10.5t-11 -25.5q0 -16 10.5 -26t26.5 -10q15 0 25.5 10.5t10.5 26.5q0 14 -10.5 24.5t-24.5 10.5zM297 710h154l146 -710h-166
l-22 131h-213l-51 -131h-168zM247 266h141l-42 249h-2z" />
    <glyph glyph-name="aringacute" unicode="&#x1fb;" horiz-adv-x="553" 
d="M332 538q-45 0 -75 30.5t-30 74.5q0 45 31 75.5t77 30.5q39 0 68 -24l60 46h152l-176 -135q-4 -42 -34 -70t-73 -28zM335 680q-16 0 -27 -10.5t-11 -25.5q0 -16 10.5 -26t26.5 -10q15 0 25.5 10.5t10.5 26.5q0 14 -10.5 24.5t-24.5 10.5zM376 455l4 34h151l-60 -489h-151
l9 72l-3 1q-57 -82 -140 -82q-76 0 -117.5 56t-41.5 144q0 130 67 218.5t164 88.5q74 0 115 -43h3zM363 315l2 14q-33 35 -81 35q-47 0 -76.5 -51t-29.5 -111q0 -35 15.5 -56.5t40.5 -21.5q42 0 79.5 51.5t49.5 139.5z" />
    <glyph glyph-name="AEacute" unicode="&#x1fc;" horiz-adv-x="866" 
d="M396 761l115 139l151 1l-131 -140h-135zM-30 0l390 710h505l-18 -143h-267l-18 -145h215l-18 -139h-214l-17 -140h286l-18 -143h-441l17 131h-162l-69 -131h-171zM280 267h109l32 264h-2z" />
    <glyph glyph-name="aeacute" unicode="&#x1fd;" horiz-adv-x="688" 
d="M606 707l-129 -150h-140l117 149zM475 115q45 0 79 48l111 -66q-73 -106 -197 -106q-120 0 -160 87q-51 -88 -140 -88q-69 0 -112 49.5t-42 134.5q1 137 73 227t195 90q69 0 118 -25q54 32 122 32q67 0 115 -35t48 -100q0 -78 -80.5 -127t-202.5 -61q6 -30 27 -45t46 -15
zM509 373q-31 0 -60 -30t-42 -78q134 21 134 83q0 25 -32 25zM199 118q49 0 84 162q11 51 31 89h-10q-61 0 -100.5 -55t-39.5 -134q0 -29 10 -45.5t25 -16.5z" />
    <glyph glyph-name="Oslashacute" unicode="&#x1fe;" horiz-adv-x="741" 
d="M627 900l-131 -140h-135l115 139zM746 679l-75 -80q47 -74 47 -179q0 -118 -43.5 -214.5t-130.5 -155.5t-203 -59q-114 0 -188 59l-79 -84l-62 62l83 88q-43 72 -43 176q0 114 45.5 210.5t132.5 156.5t198 60t184 -56l72 76zM219 302q0 -25 5 -50l275 291q-35 27 -86 27
q-82 0 -138 -81t-56 -187zM551 411q0 31 -6 55l-278 -295q35 -30 86 -30q86 0 142 78t56 192z" />
    <glyph glyph-name="oslashacute" unicode="&#x1ff;" horiz-adv-x="536" 
d="M511 706l-129 -150h-140l117 149zM525 464l-50 -52q32 -50 32 -123q0 -128 -69.5 -213t-202.5 -85q-74 0 -126 35l-48 -50l-46 46l48 50q-35 52 -35 129q0 124 73 210.5t197 86.5q82 0 133 -39l48 50zM180 209q0 -9 1 -13l147 154q-18 14 -42 14q-47 0 -76.5 -47.5
t-29.5 -107.5zM355 279v6l-143 -150q16 -10 34 -10q48 0 78.5 46t30.5 108z" />
    <glyph glyph-name="Scommaaccent" unicode="&#x218;" horiz-adv-x="545" 
d="M253 -9q-74 0 -140 31.5t-107 95.5l114 100q24 -40 60.5 -62t72.5 -22q41 0 65 19.5t24 47.5q0 22 -17.5 37t-63.5 42q-10 5 -15 8q-87 50 -116 78q-59 55 -59 133q0 99 69.5 159.5t173.5 60.5q65 0 123.5 -28t94.5 -81l-114 -95q-47 63 -110 63q-31 0 -51 -17.5
t-19 -43.5q1 -21 17.5 -39.5t59.5 -43.5q14 -8 42.5 -24t42 -24.5t35 -23t32 -27t22.5 -29.5t16.5 -37t4.5 -44q0 -110 -71 -172t-186 -62zM139 -221l-15 85q31 7 43.5 19.5t12.5 38.5q0 5 -2 25h120q2 -14 2 -23q0 -68 -42.5 -105.5t-118.5 -39.5z" />
    <glyph glyph-name="scommaaccent" unicode="&#x219;" horiz-adv-x="420" 
d="M188 -9q-54 0 -107 22.5t-84 61.5l84 87q22 -26 52.5 -42t58.5 -16q45 0 45 27q0 11 -10.5 19t-48.5 27q-11 6 -17 9q-60 30 -89.5 64t-29.5 85q0 72 52 117.5t129 45.5q111 0 176 -78l-91 -86q-35 48 -84 50q-16 0 -27.5 -8t-11.5 -22q0 -20 69 -54q66 -33 97 -65
t31 -85q0 -72 -52.5 -115.5t-141.5 -43.5zM67 -221l-15 85q31 7 43.5 19.5t12.5 38.5q0 5 -2 25h120q2 -14 2 -23q0 -68 -42.5 -105.5t-118.5 -39.5z" />
    <glyph glyph-name="uni021A" unicode="&#x21a;" horiz-adv-x="539" 
d="M159 0l70 567h-166l18 143h491l-18 -143h-165l-70 -567h-160zM129 -221l-15 85q31 7 43.5 19.5t12.5 38.5q0 5 -2 25h120q2 -14 2 -23q0 -68 -42.5 -105.5t-118.5 -39.5z" />
    <glyph glyph-name="uni021B" unicode="&#x21b;" horiz-adv-x="342" 
d="M170 -9q-61 0 -94 38t-23 118l26 221h-48l15 121h48l19 143l153 30l-21 -173h101l-15 -121h-101l-24 -201q-6 -41 22 -41q19 0 49 16l24 -117q-62 -34 -131 -34zM59 -221l-15 85q31 7 43.5 19.5t12.5 38.5q0 5 -2 25h120q2 -14 2 -23q0 -68 -42.5 -105.5t-118.5 -39.5z
" />
    <glyph glyph-name="uni0232" unicode="&#x232;" horiz-adv-x="581" 
d="M213 784l15 110h285l-14 -110h-286zM179 0l39 310l-159 400h176l79 -250h3l138 250h183l-259 -400l-38 -310h-162z" />
    <glyph glyph-name="uni0233" unicode="&#x233;" horiz-adv-x="534" 
d="M463 697l-14 -115h-286l15 115h285zM363 489h149l-52 -423q-32 -273 -276 -273q-99 0 -177 48l47 113q58 -38 122 -38q57 0 89.5 31.5t45.5 121.5v1l-3 1q-59 -80 -145 -80q-153 0 -125 194l42 304h149l-36 -259q-8 -59 -1.5 -82t33.5 -23q33 0 68.5 44.5t41.5 96.5z" />
    <glyph glyph-name="uni0237" unicode="&#x237;" horiz-adv-x="251" 
d="M-3 -206q-59 0 -103 23l37 115q14 -12 38 -12q22 0 32 18.5t15 65.5l60 485h151l-63 -506q-22 -189 -167 -189z" />
    <glyph glyph-name="uni0251" unicode="&#x251;" horiz-adv-x="553" 
d="M186 -9q-76 0 -117.5 56t-41.5 144q0 130 67 218.5t164 88.5q74 0 115 -43h3l4 34h151l-60 -489h-151l9 72l-3 1q-57 -82 -140 -82zM234 124q42 0 79.5 51.5t49.5 139.5l2 14q-33 35 -81 35q-47 0 -76.5 -51t-29.5 -111q0 -35 15.5 -56.5t40.5 -21.5z" />
    <glyph glyph-name="uni0259" unicode="&#x259;" horiz-adv-x="468" 
d="M239 498q96 0 151.5 -56t55.5 -154q0 -128 -72 -212.5t-200 -84.5q-70 0 -117 36t-47 101q0 58 42.5 100t104.5 63t142 30q-13 54 -73 54q-45 0 -92 -40l-79 96q33 29 83.5 48t100.5 19zM190 116q40 0 67.5 30t39.5 81q-143 -22 -143 -82q0 -29 36 -29z" />
    <glyph glyph-name="uni0261" unicode="&#x261;" horiz-adv-x="551" 
d="M378 489h150l-52 -426q-33 -270 -284 -270q-100 0 -178 48l47 117q62 -38 125 -38q62 0 96 34t47 133l-3 1q-58 -82 -139 -82q-76 0 -117.5 54.5t-41.5 135.5q0 127 67 214.5t163 87.5q75 0 114 -41l3 1zM361 315l2 16q-33 33 -79 33t-75.5 -49.5t-29.5 -103.5
q0 -35 14.5 -53.5t40.5 -18.5q41 0 78 49t49 127z" />
    <glyph glyph-name="uni0272" unicode="&#x272;" horiz-adv-x="547" 
d="M391 498q70 0 98 -48.5t15 -150.5l-39 -299h-149l35 265q7 51 0.5 75t-29.5 24q-37 0 -74 -46.5t-50 -126.5l-23 -191q-14 -109 -58.5 -157t-134.5 -48q-39 0 -72 8l26 114q12 -3 23 -3q33 0 47 26t22 86l57 463h150l-8 -68l2 -1q67 78 162 78z" />
    <glyph glyph-name="uni02BB" unicode="&#x2bb;" horiz-adv-x="232" 
d="M73 410l52 269h105l-16 -269h-141z" />
    <glyph glyph-name="uni02BC" unicode="&#x2bc;" horiz-adv-x="228" 
d="M67 483l56 224h143l-94 -224h-105z" />
    <glyph glyph-name="uni02BE" unicode="&#x2be;" horiz-adv-x="236" 
d="M95 769q77 0 121 -40t44 -110q0 -88 -54 -141t-144 -53l-3 102q36 1 57.5 25t21.5 60q0 51 -60 54z" />
    <glyph glyph-name="uni02BF" unicode="&#x2bf;" horiz-adv-x="256" 
d="M248 425q-77 0 -121 40t-44 110q0 88 54 141t144 53l3 -102q-36 -1 -57.5 -25t-21.5 -60q0 -51 60 -54z" />
    <glyph glyph-name="circumflex" unicode="&#x2c6;" horiz-adv-x="407" 
d="M72 531l115 152h131l84 -152h-130l-24 74h-1l-42 -74h-133z" />
    <glyph glyph-name="caron" unicode="&#x2c7;" horiz-adv-x="406" 
d="M164 523l-71 149h126l29 -71h2l46 71h125l-107 -149h-150z" />
    <glyph glyph-name="uni02C8" unicode="&#x2c8;" horiz-adv-x="201" 
d="M65 370l32 285h103l-34 -284z" />
    <glyph glyph-name="uni02C9" unicode="&#x2c9;" horiz-adv-x="329" 
d="M63 582l15 115h285l-14 -115h-286z" />
    <glyph glyph-name="uni02CA" unicode="&#x2ca;" horiz-adv-x="300" 
d="M69 557l117 149l152 1l-129 -150h-140z" />
    <glyph glyph-name="uni02CB" unicode="&#x2cb;" horiz-adv-x="295" 
d="M170 557l-93 150l150 -1l80 -149h-137z" />
    <glyph glyph-name="uni02CC" unicode="&#x2cc;" horiz-adv-x="201" 
d="M-1 -192l32 285h103l-34 -284z" />
    <glyph glyph-name="breve" unicode="&#x2d8;" horiz-adv-x="409" 
d="M236 516q-69 0 -105 41t-32 115h108q-2 -21 8 -34.5t31 -13.5q22 0 39 14t23 34h108q-13 -71 -60 -113.5t-120 -42.5z" />
    <glyph glyph-name="dotaccent" unicode="&#x2d9;" horiz-adv-x="463" 
d="M272 528q-39 0 -64.5 24.5t-25.5 61.5q0 38 26 63t67 25q40 0 65 -24t25 -61q0 -39 -26 -64t-67 -25z" />
    <glyph glyph-name="ring" unicode="&#x2da;" horiz-adv-x="417" 
d="M253 512q-45 0 -75 30.5t-30 74.5q0 45 31 75.5t77 30.5q45 0 74.5 -29.5t29.5 -73.5q0 -46 -30.5 -77t-76.5 -31zM255 582q15 0 25.5 10.5t10.5 26.5q0 14 -10.5 24.5t-24.5 10.5q-16 0 -27 -10.5t-11 -25.5q0 -16 10.5 -26t26.5 -10z" />
    <glyph glyph-name="ogonek" unicode="&#x2db;" horiz-adv-x="435" 
d="M193 -191q-97 0 -97 79q0 36 24 71t61 56l123 -15q-39 -3 -68 -29.5t-29 -56.5q0 -24 25 -24q21 0 33 7l2 -77q-27 -11 -74 -11z" />
    <glyph glyph-name="tilde" unicode="&#x2dc;" horiz-adv-x="444" 
d="M334 527q-34 0 -76 30q-24 18 -44 18q-33 0 -58 -51l-84 42q50 120 129 120q35 0 75 -27q27 -19 42 -19q36 0 60 49l84 -34q-23 -59 -55.5 -93.5t-72.5 -34.5z" />
    <glyph glyph-name="hungarumlaut" unicode="&#x2dd;" horiz-adv-x="491" 
d="M60 533l117 149l148 1l-130 -150h-135zM267 533l116 149l148 1l-129 -150h-135z" />
    <glyph glyph-name="gravecomb" unicode="&#x300;" 
d="M-497 533l-93 150l150 -1l80 -149h-137z" />
    <glyph glyph-name="acutecomb" unicode="&#x301;" 
d="M-571 533l117 149l152 1l-129 -150h-140z" />
    <glyph glyph-name="uni0302" unicode="&#x302;" 
d="M-631 531l115 152h131l84 -152h-130l-24 74h-1l-42 -74h-133z" />
    <glyph glyph-name="tildecomb" unicode="&#x303;" 
d="M-383 527q-33 0 -76 30q-24 18 -44 18q-33 0 -58 -51l-84 42q50 120 129 120q8 0 15.5 -1t14.5 -3t11.5 -3.5t10.5 -5t8.5 -5t8 -5t6.5 -4.5q27 -19 42 -19q35 0 60 49l84 -34q-23 -59 -55.5 -93.5t-72.5 -34.5z" />
    <glyph glyph-name="uni0304" unicode="&#x304;" 
d="M-605 558l15 115h285l-14 -115h-286z" />
    <glyph glyph-name="uni0306" unicode="&#x306;" 
d="M-469 516q-69 0 -105 41t-32 115h108q-2 -21 8 -34.5t31 -13.5q22 0 39 14t23 34h108q-13 -71 -60 -113.5t-120 -42.5z" />
    <glyph glyph-name="uni0307" unicode="&#x307;" 
d="M-458 528q-39 0 -64.5 24.5t-25.5 61.5q0 38 26 63t67 25q40 0 65 -24t25 -61q0 -39 -26 -64t-67 -25z" />
    <glyph glyph-name="uni0308" unicode="&#x308;" 
d="M-565 528q-39 0 -64.5 24.5t-25.5 61.5q0 38 26 63t67 25q40 0 65 -24t25 -61q0 -39 -26 -64t-67 -25zM-348 528q-39 0 -64.5 24.5t-25.5 61.5q0 39 26 63.5t68 24.5q39 0 64 -24t25 -61q0 -39 -26 -64t-67 -25z" />
    <glyph glyph-name="hookabovecomb" unicode="&#x309;" 
d="M-438 522l-81 1q56 42 59 77q3 22 -23 22q-30 0 -65 -23l-18 63q23 22 61 38t77 16q40 0 63 -18t23 -51q0 -38 -27.5 -72t-68.5 -53z" />
    <glyph glyph-name="uni030A" unicode="&#x30a;" 
d="M-454 515q-45 0 -75 30.5t-30 74.5q0 45 31 75.5t77 30.5q45 0 74.5 -29.5t29.5 -73.5q0 -46 -30.5 -77t-76.5 -31zM-452 585q15 0 25.5 10.5t10.5 26.5q0 14 -10.5 24.5t-24.5 10.5q-16 0 -27 -10.5t-11 -25.5q0 -16 10.5 -26t26.5 -10z" />
    <glyph glyph-name="uni030B" unicode="&#x30b;" 
d="M-633 533l117 149l148 1l-130 -150h-135zM-426 533l116 149l148 1l-129 -150h-135z" />
    <glyph glyph-name="uni030C" unicode="&#x30c;" 
d="M-539 523l-71 149h126l29 -71h2l46 71h125l-107 -149h-150z" />
    <glyph glyph-name="uni0312" unicode="&#x312;" 
d="M-518 542q-2 14 -2 23q0 68 42.5 105.5t117.5 39.5l16 -85q-31 -7 -43.5 -19.5t-12.5 -38.5q0 -5 2 -25h-120z" />
    <glyph glyph-name="uni0313" unicode="&#x313;" 
d="M-474 701q2 -14 2 -23q0 -68 -42.5 -105.5t-117.5 -39.5l-16 85q31 7 43.5 19.5t12.5 38.5q0 5 -2 25h120z" />
    <glyph glyph-name="uni031B" unicode="&#x31b;" 
d="M-437 445q-32 0 -65 13l17 64q18 -8 28 -8q14 0 23.5 8.5t15 27t8.5 35.5t7 47l10 78h122l-10 -86q-12 -90 -53 -134.5t-103 -44.5z" />
    <glyph glyph-name="dotbelowcomb" unicode="&#x323;" 
d="M-545 -60q39 0 64.5 -24.5t25.5 -61.5q0 -38 -26 -63t-67 -25q-40 0 -65 24t-25 61q0 39 26 64t67 25z" />
    <glyph glyph-name="uni0324" unicode="&#x324;" 
d="M-654 -60q39 0 64.5 -24.5t25.5 -61.5q0 -39 -26 -63.5t-68 -24.5q-39 0 -64 24t-25 61q0 39 26 64t67 25zM-437 -60q39 0 64.5 -24.5t25.5 -61.5q0 -38 -26 -63t-67 -25q-40 0 -65 24t-25 61q0 39 26 64t67 25z" />
    <glyph glyph-name="uni0326" unicode="&#x326;" 
d="M-641 -221l-15 85q31 7 43.5 19.5t12.5 38.5q0 5 -2 25h120q2 -14 2 -23q0 -68 -42.5 -105.5t-118.5 -39.5z" />
    <glyph glyph-name="uni0327" unicode="&#x327;" 
d="M-590 -192q-33 0 -54 6l2 61q16 -6 39 -6q53 0 53 33q0 25 -65 25l1 38l26 41h77l-26 -36l1 -1q75 -3 75 -66q0 -47 -34.5 -71t-94.5 -24z" />
    <glyph glyph-name="uni0328" unicode="&#x328;" 
d="M-643 -191q-97 0 -97 79q0 36 24 71t61 56l123 -15q-39 -3 -68 -29.5t-29 -56.5q0 -24 25 -24q21 0 33 7l2 -77q-27 -11 -74 -11z" />
    <glyph glyph-name="uni032E" unicode="&#x32e;" 
d="M-558 -233q-69 0 -105 41t-32 115h108q-2 -21 8 -34.5t31 -13.5q22 0 39 14t23 34h108q-13 -71 -60 -113.5t-120 -42.5z" />
    <glyph glyph-name="uni0331" unicode="&#x331;" 
d="M-697 -212l15 115h285l-14 -115h-286z" />
    <glyph glyph-name="uni0335" unicode="&#x335;" 
d="M-635 215l11 90h270l-11 -90h-270z" />
    <glyph glyph-name="uni0374" unicode="&#x374;" horiz-adv-x="268" 
d="M61 468l69 264h149l-98 -264h-120z" />
    <glyph glyph-name="uni0375" unicode="&#x375;" horiz-adv-x="274" 
d="M2 -159l69 265h149l-98 -265h-120z" />
    <glyph glyph-name="uni037E" unicode="&#x37e;" horiz-adv-x="250" 
d="M141 323q-39 0 -62.5 24.5t-23.5 62.5q0 39 24.5 63.5t64.5 24.5t63.5 -24t23.5 -61q0 -40 -24.5 -65t-65.5 -25zM-23 -133l59 267h148l-101 -267h-106z" />
    <glyph glyph-name="tonos" unicode="&#x384;" horiz-adv-x="415" 
d="M147 533l76 176h166l-109 -176h-133z" />
    <glyph glyph-name="dieresistonos" unicode="&#x385;" horiz-adv-x="558" 
d="M248 533l40 176h125l-66 -176h-99zM150 528q-40 0 -65 24.5t-25 61.5q0 38 26 63t67 25q39 0 64 -24t25 -61q0 -38 -26 -63.5t-66 -25.5zM498 528q-40 0 -65 24.5t-25 61.5q0 38 26 63t67 25q40 0 65 -24t25 -61q0 -39 -26 -64t-67 -25z" />
    <glyph glyph-name="Alphatonos" unicode="&#x386;" horiz-adv-x="635" 
d="M-45 534l83 176h164l-114 -176h-133zM-23 0l320 710h154l146 -710h-166l-22 131h-213l-51 -131h-168zM247 266h141l-42 249h-2z" />
    <glyph glyph-name="anoteleia" unicode="&#x387;" horiz-adv-x="264" 
d="M155 323q-39 0 -62.5 24.5t-23.5 62.5q0 39 24.5 63.5t64.5 24.5t63.5 -24t23.5 -61q0 -40 -24.5 -65t-65.5 -25z" />
    <glyph glyph-name="Epsilontonos" unicode="&#x388;" horiz-adv-x="547" 
d="M-175 534l83 176h164l-114 -176h-133zM37 0l87 710h422l-18 -143h-265l-18 -145h209l-16 -138h-209l-18 -141h284l-18 -143h-440z" />
    <glyph glyph-name="Etatonos" unicode="&#x389;" horiz-adv-x="670" 
d="M-175 534l83 176h164l-114 -176h-133zM38 0l87 710h161l-36 -297h211l36 297h162l-88 -710h-161l33 270h-211l-33 -270h-161z" />
    <glyph glyph-name="Iotatonos" unicode="&#x38a;" horiz-adv-x="308" 
d="M-170 534l83 176h164l-114 -176h-133zM43 0l87 710h162l-87 -710h-162z" />
    <glyph glyph-name="Omicrontonos" unicode="&#x38c;" horiz-adv-x="739" 
d="M339 -9q-132 0 -210.5 79.5t-78.5 221.5q0 114 45.5 210.5t132.5 156.5t198 60q132 0 211 -79.5t79 -219.5q0 -118 -43.5 -214.5t-130.5 -155.5t-203 -59zM-106 534l83 176h164l-114 -176h-133zM351 141q86 0 142 78t56 192q0 79 -37.5 119t-100.5 40q-82 0 -138 -81
t-56 -187q0 -79 36.5 -120t97.5 -41z" />
    <glyph glyph-name="Upsilontonos" unicode="&#x38e;" horiz-adv-x="581" 
d="M-219 534l83 176h164l-114 -176h-133zM179 0l39 310l-159 400h176l79 -250h3l138 250h183l-259 -400l-38 -310h-162z" />
    <glyph glyph-name="Omegatonos" unicode="&#x38f;" horiz-adv-x="683" 
d="M17 0l18 143h97l1 3q-75 86 -75 219q0 150 95.5 252t241.5 102q124 0 197 -81.5t73 -204.5q0 -85 -35.5 -160t-99.5 -129v-1h93l-18 -143h-257l18 143q131 119 131 276q0 74 -29.5 114t-80.5 40q-75 -1 -120 -69.5t-45 -160.5q0 -110 70 -200l-17 -143h-258zM-121 534
l83 176h164l-114 -176h-133z" />
    <glyph glyph-name="iotadieresistonos" unicode="&#x390;" horiz-adv-x="316" 
d="M120 557l40 176h125l-66 -176h-99zM22 552q-40 0 -65 24.5t-25 61.5q0 38 26 63t67 25q39 0 64 -24t25 -61q0 -38 -26 -63.5t-66 -25.5zM370 552q-40 0 -65 24.5t-25 61.5q0 38 26 63t67 25q40 0 65 -24t25 -61q0 -39 -26 -64t-67 -25zM168 -9q-140 0 -120 163l42 335
h150l-40 -323q-6 -47 32 -47q11 0 29 5l25 -104q-55 -29 -118 -29z" />
    <glyph glyph-name="Alpha" unicode="&#x391;" horiz-adv-x="635" 
d="M-23 0l320 710h154l146 -710h-166l-22 131h-213l-51 -131h-168zM247 266h141l-42 249h-2z" />
    <glyph glyph-name="Beta" unicode="&#x392;" horiz-adv-x="590" 
d="M38 0l87 710h250q188 0 188 -147q0 -54 -29 -104.5t-80 -76.5v-2q100 -39 100 -149q0 -231 -274 -231h-242zM246 424h62q41 0 67 26t26 68q0 51 -66 51h-70zM212 139h76q53 0 78.5 28t25.5 75q0 58 -76 58h-84z" />
    <glyph glyph-name="Gamma" unicode="&#x393;" horiz-adv-x="525" 
d="M38 0l87 710h434l-17 -143h-273l-70 -567h-161z" />
    <glyph glyph-name="uni0394" unicode="&#x394;" horiz-adv-x="619" 
d="M0 0l14 122l275 588h154l130 -588l-15 -122h-558zM186 143h221l-63 365h-2z" />
    <glyph glyph-name="Epsilon" unicode="&#x395;" horiz-adv-x="547" 
d="M37 0l87 710h422l-18 -143h-265l-18 -145h209l-16 -138h-209l-18 -141h284l-18 -143h-440z" />
    <glyph glyph-name="Zeta" unicode="&#x396;" horiz-adv-x="570" 
d="M13 0l15 125l335 439l-2 3h-269l17 143h474l-14 -122l-342 -441l2 -4h284l-17 -143h-483z" />
    <glyph glyph-name="Eta" unicode="&#x397;" horiz-adv-x="670" 
d="M38 0l87 710h161l-36 -297h211l36 297h162l-88 -710h-161l33 270h-211l-33 -270h-161z" />
    <glyph glyph-name="Theta" unicode="&#x398;" horiz-adv-x="739" 
d="M341 -9q-132 0 -210.5 79.5t-78.5 221.5q0 114 45.5 210.5t132.5 156.5t198 60q132 0 211 -79.5t79 -219.5q0 -118 -43.5 -214.5t-130.5 -155.5t-203 -59zM353 141q86 0 142 78t56 192q0 79 -37.5 119t-100.5 40q-82 0 -138 -81t-56 -187q0 -79 36.5 -120t97.5 -41z
M280 282l17 137h191l-17 -137h-191z" />
    <glyph glyph-name="Iota" unicode="&#x399;" horiz-adv-x="308" 
d="M43 0l87 710h162l-87 -710h-162z" />
    <glyph glyph-name="Kappa" unicode="&#x39a;" horiz-adv-x="618" 
d="M665 710l-256 -319l176 -391h-182l-115 278l-67 -79l-24 -199h-159l87 710h159l-35 -290l3 -1l221 291h192z" />
    <glyph glyph-name="Lambda" unicode="&#x39b;" horiz-adv-x="613" 
d="M-23 0l308 710h155l133 -710h-165l-74 488h-2l-188 -488h-167z" />
    <glyph glyph-name="Mu" unicode="&#x39c;" horiz-adv-x="798" 
d="M38 0l87 710h157l131 -386h3l214 386h157l-87 -710h-157l47 388l-2 1l-150 -257h-97l-95 266l-2 -1l-49 -397h-157z" />
    <glyph glyph-name="Nu" unicode="&#x39d;" horiz-adv-x="686" 
d="M38 0l87 710h150l188 -440l3 1l54 439h156l-88 -710h-155l-183 429h-3l-54 -429h-155z" />
    <glyph glyph-name="Xi" unicode="&#x39e;" horiz-adv-x="579" 
d="M89 565l17 145h481l-18 -145h-480zM110 282l17 139h366l-17 -139h-366zM13 0l18 146h494l-19 -146h-493z" />
    <glyph glyph-name="Omicron" unicode="&#x39f;" horiz-adv-x="739" 
d="M339 -9q-132 0 -210.5 79.5t-78.5 221.5q0 114 45.5 210.5t132.5 156.5t198 60q132 0 211 -79.5t79 -219.5q0 -118 -43.5 -214.5t-130.5 -155.5t-203 -59zM351 141q86 0 142 78t56 192q0 79 -37.5 119t-100.5 40q-82 0 -138 -81t-56 -187q0 -79 36.5 -120t97.5 -41z" />
    <glyph glyph-name="Pi" unicode="&#x3a0;" horiz-adv-x="641" 
d="M38 0l87 710h505l-87 -710h-160l69 567h-184l-69 -567h-161z" />
    <glyph glyph-name="Rho" unicode="&#x3a1;" horiz-adv-x="570" 
d="M38 0l87 710h248q102 0 151 -53t49 -143q0 -128 -74.5 -205t-208.5 -77h-67l-28 -232h-157zM241 373h57q50 0 79.5 34t29.5 89q0 36 -21 54.5t-54 18.5h-67z" />
    <glyph glyph-name="Sigma" unicode="&#x3a3;" horiz-adv-x="541" 
d="M9 0l13 111l195 239l-133 245l12 115h468l-16 -143h-271v-1l113 -211l-169 -211v-1h274l-17 -143h-469z" />
    <glyph glyph-name="Tau" unicode="&#x3a4;" horiz-adv-x="539" 
d="M159 0l70 567h-166l18 143h491l-18 -143h-165l-70 -567h-160z" />
    <glyph glyph-name="Upsilon" unicode="&#x3a5;" horiz-adv-x="581" 
d="M179 0l39 310l-159 400h176l79 -250h3l138 250h183l-259 -400l-38 -310h-162z" />
    <glyph glyph-name="Phi" unicode="&#x3a6;" horiz-adv-x="807" 
d="M789 400q0 -140 -83.5 -232.5t-242.5 -98.5l-9 -69h-159l9 69q-117 6 -187.5 73t-70.5 179q0 88 36.5 163.5t113.5 126t181 53.5l7 60h159l-7 -61q113 -8 183 -78.5t70 -184.5zM208 338q0 -125 118 -137l41 332q-74 -6 -116.5 -62.5t-42.5 -132.5zM472 202q75 8 115 57.5
t40 127.5q0 61 -30 99t-84 46z" />
    <glyph glyph-name="Chi" unicode="&#x3a7;" horiz-adv-x="629" 
d="M-26 0l248 360l-151 350h172l95 -232h5l145 232h185l-242 -354l161 -356h-176l-101 236h-4l-158 -236h-179z" />
    <glyph glyph-name="Psi" unicode="&#x3a8;" horiz-adv-x="731" 
d="M587 710h154l-33 -264q-37 -294 -276 -294l-19 -152h-157l19 152q-114 3 -167 81.5t-35 221.5l32 255h154l-30 -242q-11 -91 3.5 -130.5t59.5 -43.5l51 416h157l-51 -416q45 5 70.5 45.5t37.5 133.5z" />
    <glyph glyph-name="uni03A9" unicode="&#x3a9;" horiz-adv-x="683" 
d="M17 0l18 143h97l1 3q-75 86 -75 219q0 150 95.5 252t241.5 102q124 0 197 -81.5t73 -204.5q0 -85 -35.5 -160t-99.5 -129v-1h93l-18 -143h-257l18 143q131 119 131 276q0 74 -29.5 114t-80.5 40q-75 -1 -120 -69.5t-45 -160.5q0 -110 70 -200l-17 -143h-258z" />
    <glyph glyph-name="Iotadieresis" unicode="&#x3aa;" horiz-adv-x="308" 
d="M113 757q-39 0 -64.5 24.5t-25.5 61.5q0 38 26 63t67 25q40 0 65 -24t25 -61q0 -39 -26 -64t-67 -25zM340 757q-39 0 -64.5 24.5t-25.5 61.5q0 38 26 63t68 25q39 0 64 -24t25 -61q0 -39 -25.5 -64t-67.5 -25zM43 0l87 710h162l-87 -710h-162z" />
    <glyph glyph-name="Upsilondieresis" unicode="&#x3ab;" horiz-adv-x="581" 
d="M244 757q-39 0 -64.5 24.5t-25.5 61.5q0 38 26 63t67 25q40 0 65 -24t25 -61q0 -39 -26 -64t-67 -25zM471 757q-39 0 -64.5 24.5t-25.5 61.5q0 38 26 63t68 25q39 0 64 -24t25 -61q0 -39 -25.5 -64t-67.5 -25zM179 0l39 310l-159 400h176l79 -250h3l138 250h183
l-259 -400l-38 -310h-162z" />
    <glyph glyph-name="alphatonos" unicode="&#x3ac;" horiz-adv-x="569" 
d="M487 733l-109 -176h-133l76 176h166zM489 115q13 0 28 4l22 -100q-46 -29 -105 -28q-87 0 -104 91h-2q-53 -91 -145 -91q-68 0 -113.5 53.5t-45.5 142.5q0 128 65 219.5t160 91.5q102 0 140 -97h2l41 106l134 -56l-112 -207l-1 -75q1 -31 8.5 -42.5t27.5 -11.5zM227 124
q57 0 104 127q0 53 -16.5 83t-45.5 30q-42 0 -68 -49t-26 -107q0 -84 52 -84z" />
    <glyph glyph-name="epsilontonos" unicode="&#x3ad;" horiz-adv-x="455" 
d="M206 557l76 176h166l-109 -176h-133zM194 -9q-83 0 -130 34t-48 95q0 44 26 80t71 56v2q-62 35 -62 97q0 61 57 102t139 41q131 0 203 -54l-56 -100q-58 29 -125 29q-32 1 -53 -9.5t-21 -31.5q0 -36 54 -36l66 -1l-12 -95h-74q-27 0 -45.5 -13t-18.5 -32q0 -38 68 -39
q74 0 143 42l48 -112q-59 -34 -109.5 -44.5t-120.5 -10.5z" />
    <glyph glyph-name="etatonos" unicode="&#x3ae;" horiz-adv-x="565" 
d="M492 733l-109 -176h-133l76 176h166zM395 498q80 0 111 -50t16 -159l-65 -487h-149l61 473q12 89 -31 89q-33 0 -69 -51t-46 -136l-21 -177h-149l41 333q6 47 -23 47q-12 0 -23 -4l-6 105q34 17 84 17q99 0 110 -90h2q62 90 157 90z" />
    <glyph glyph-name="iotatonos" unicode="&#x3af;" horiz-adv-x="316" 
d="M107 557l76 176h166l-109 -176h-133zM168 -9q-140 0 -120 163l42 335h150l-40 -323q-6 -47 32 -47q11 0 29 5l25 -104q-55 -29 -118 -29z" />
    <glyph glyph-name="upsilondieresistonos" unicode="&#x3b0;" horiz-adv-x="529" 
d="M255 557l40 176h125l-66 -176h-99zM157 552q-40 0 -65 24.5t-25 61.5q0 38 26 63t67 25q39 0 64 -24t25 -61q0 -38 -26 -63.5t-66 -25.5zM505 552q-40 0 -65 24.5t-25 61.5q0 38 26 63t67 25q40 0 65 -24t25 -61q0 -39 -26 -64t-67 -25zM228 -9q-87 0 -132.5 47
t-43.5 124q1 40 15 106.5t15 83.5q4 31 -25 31q-4 0 -7 -0.5t-6 -1.5t-6 -1l-4 101q53 17 101 17q47 0 72.5 -26.5t22.5 -81.5q-1 -34 -14 -103t-14 -104q-2 -58 44 -58q45 0 75.5 63.5t34.5 183.5q0 64 -7 109l142 17q16 -57 16 -135q-4 -180 -81.5 -276t-197.5 -96z" />
    <glyph glyph-name="alpha" unicode="&#x3b1;" horiz-adv-x="569" 
d="M489 115q13 0 28 4l22 -100q-46 -29 -105 -28q-87 0 -104 91h-2q-53 -91 -145 -91q-68 0 -113.5 53.5t-45.5 142.5q0 128 65 219.5t160 91.5q102 0 140 -97h2l41 106l134 -56l-112 -207l-1 -75q1 -31 8.5 -42.5t27.5 -11.5zM227 124q57 0 104 127q0 53 -16.5 83t-45.5 30
q-42 0 -68 -49t-26 -107q0 -84 52 -84z" />
    <glyph glyph-name="beta" unicode="&#x3b2;" horiz-adv-x="534" 
d="M422 379q36 -15 58.5 -52t22.5 -92q0 -105 -68.5 -174.5t-173.5 -69.5q-113 0 -167 70t-54 190q0 94 22 182t63 158t104.5 112t140.5 42q82 0 128.5 -39t46.5 -112q0 -69 -34.5 -124.5t-87.5 -87.5zM360 617q-38 -1 -83 -55.5t-73 -168.5q86 24 138.5 69.5t52.5 107.5
q1 23 -8 35.5t-27 11.5zM264 127q41 0 64.5 32t23.5 75q0 53 -33 76q-61 -23 -131 -31q-1 -9 -1 -23q0 -56 18.5 -92.5t58.5 -36.5z" />
    <glyph glyph-name="gamma" unicode="&#x3b3;" horiz-adv-x="521" 
d="M128 -198q22 198 8 333q-14 140 -30 194.5t-50 54.5q-9 0 -21 -4l-6 105q38 13 82 13q63 0 88.5 -30t41.5 -105q14 -63 24 -187h1q59 112 102 313h149q-47 -274 -225 -492q2 -60 -13 -195h-151z" />
    <glyph glyph-name="delta" unicode="&#x3b4;" horiz-adv-x="529" 
d="M380 491q122 -67 122 -205q0 -129 -72.5 -212t-193.5 -83q-98 0 -154 56.5t-56 149.5q0 78 39 146t105 108q-57 53 -57 119q0 79 56.5 127t151.5 48q128 0 212 -62l-74 -107q-72 46 -129 46q-30 0 -49.5 -11t-19.5 -33q0 -30 52 -54q52 -25 67 -33zM247 125q43 0 73 41.5
t30 93.5q0 77 -69 120l-9 5q-42 -27 -69 -76t-26 -100q1 -42 20 -63t50 -21z" />
    <glyph glyph-name="epsilon" unicode="&#x3b5;" horiz-adv-x="455" 
d="M194 -9q-83 0 -130 34t-48 95q0 44 26 80t71 56v2q-62 35 -62 97q0 61 57 102t139 41q131 0 203 -54l-56 -100q-58 29 -125 29q-32 1 -53 -9.5t-21 -31.5q0 -36 54 -36l66 -1l-12 -95h-74q-27 0 -45.5 -13t-18.5 -32q0 -38 68 -39q74 0 143 42l48 -112
q-59 -34 -109.5 -44.5t-120.5 -10.5z" />
    <glyph glyph-name="zeta" unicode="&#x3b6;" horiz-adv-x="422" 
d="M296 -221l-118 68q63 77 63 109q0 15 -12.5 26.5t-50.5 27.5q-25 11 -37 16.5t-34 18t-33.5 25t-24.5 30.5t-18.5 42t-5.5 53q0 183 254 413l-1 2h-175l15 126h359l-13 -112q-111 -95 -199 -212t-88 -203q0 -18 4.5 -30t20.5 -24t27.5 -18.5t44.5 -22.5
q68 -33 93.5 -63.5t25.5 -73.5q0 -93 -97 -198z" />
    <glyph glyph-name="eta" unicode="&#x3b7;" horiz-adv-x="565" 
d="M395 498q80 0 111 -50t16 -159l-65 -487h-149l61 473q12 89 -31 89q-33 0 -69 -51t-46 -136l-21 -177h-149l41 333q6 47 -23 47q-12 0 -23 -4l-6 105q34 17 84 17q99 0 110 -90h2q62 90 157 90z" />
    <glyph glyph-name="theta" unicode="&#x3b8;" horiz-adv-x="545" 
d="M330 745q202 0 202 -266q0 -98 -16 -182.5t-49 -154.5t-90.5 -110.5t-133.5 -40.5q-91 0 -146 64t-55 206q0 96 17 180.5t51 153.5t90.5 109.5t129.5 40.5zM317 615q-68 0 -106 -185h168q1 17 1 48q0 137 -63 137zM257 121q74 0 108 188h-169q-2 -36 -2 -50
q0 -138 63 -138z" />
    <glyph glyph-name="iota" unicode="&#x3b9;" horiz-adv-x="316" 
d="M168 -9q-140 0 -120 163l42 335h150l-40 -323q-6 -47 32 -47q11 0 29 5l25 -104q-55 -29 -118 -29z" />
    <glyph glyph-name="kappa" unicode="&#x3ba;" horiz-adv-x="548" 
d="M457 117q13 0 36 5l25 -100q-52 -31 -117 -31q-109 0 -119 122q-4 48 -5 72q-46 -45 -99 -104l-9 -81h-146l61 489h148l-20 -157q-3 -23 -20 -95h1q137 188 238 276l108 -98q-86 -69 -151 -127q3 -24 15 -100q7 -39 18.5 -55t35.5 -16z" />
    <glyph glyph-name="lambda" unicode="&#x3bb;" horiz-adv-x="497" 
d="M-20 0l241 485l-13 69q-7 37 -20.5 51.5t-37.5 14.5q-21 0 -54 -10l-9 114q46 22 108 22q61 0 98.5 -39t57.5 -121q67 -292 107 -586h-156q-12 120 -34 282h-2l-123 -282h-163z" />
    <glyph glyph-name="uni03BC" unicode="&#x3bc;" horiz-adv-x="569" 
d="M522 120l18 -102q-38 -27 -95 -27q-95 0 -108 84h-2q-48 -84 -116 -84q-40 0 -61 26l-3 -1q12 -70 4 -129l-10 -85h-148l84 687h149l-34 -271q-12 -93 41 -93q31 0 57.5 31t34.5 93l29 240h150l-40 -324q-3 -28 2 -38t21 -10q13 0 27 3z" />
    <glyph glyph-name="nu" unicode="&#x3bd;" horiz-adv-x="522" 
d="M136 0l-96 489h156l47 -343h2q95 146 121 343h154q-44 -311 -232 -489h-152z" />
    <glyph glyph-name="xi" unicode="&#x3be;" horiz-adv-x="454" 
d="M313 -221l-119 67q64 75 64 110q0 17 -13 28t-48 26q-39 17 -63.5 30.5t-52.5 35.5t-42 52t-14 67q0 64 34.5 111t93.5 74l1 4q-49 33 -49 88q0 87 107 142l-1 2l-107 -5l16 125h364l-15 -115q-215 -33 -215 -121q0 -62 128 -62h41l-16 -126h-74q-68 0 -112 -24t-44 -72
q0 -31 25.5 -50.5t88.5 -45.5q65 -28 92 -60t27 -79q0 -101 -97 -202z" />
    <glyph glyph-name="omicron" unicode="&#x3bf;" horiz-adv-x="527" 
d="M231 -9q-93 0 -148.5 55.5t-55.5 153.5q0 125 72 211.5t201 86.5q92 0 146 -55t54 -153q0 -128 -68.5 -213.5t-200.5 -85.5zM243 125q47 0 77 46t30 109q0 84 -68 84q-46 0 -75.5 -48t-29.5 -108q0 -42 19 -62.5t47 -20.5z" />
    <glyph glyph-name="pi" unicode="&#x3c0;" horiz-adv-x="586" 
d="M492 363l-24 -197q-3 -28 2.5 -38.5t21.5 -10.5q3 0 11.5 1.5t11.5 1.5l22 -102q-41 -27 -101 -27q-135 0 -116 162l25 210h-98l-45 -363h-147l45 363h-74l15 116q50 10 106 10h448l-23 -126h-80z" />
    <glyph glyph-name="rho" unicode="&#x3c1;" horiz-adv-x="537" 
d="M-10 -198l55 445q15 122 81 186.5t176 64.5q99 0 154.5 -57.5t55.5 -152.5q0 -129 -69.5 -213t-169.5 -84q-65 0 -102 35l-3 -1l-27 -223h-151zM247 125q48 0 80 44t32 112q0 37 -18.5 60t-48.5 23q-38 0 -64.5 -32.5t-33.5 -89.5l-10 -83q19 -34 63 -34z" />
    <glyph glyph-name="uni03C2" unicode="&#x3c2;" horiz-adv-x="452" 
d="M296 -221l-117 68q63 77 63 109q0 15 -13 26.5t-53 28.5q-33 15 -52.5 26t-46 33.5t-39.5 55.5t-13 76q0 123 73.5 209.5t189.5 86.5q124 0 180 -85l-116 -85q-23 36 -67 36q-45 0 -77 -45t-32 -107q0 -33 20 -51.5t74 -44.5q70 -34 96.5 -64t26.5 -73q0 -93 -97 -200z
" />
    <glyph glyph-name="sigma" unicode="&#x3c3;" horiz-adv-x="540" 
d="M227 -9q-92 0 -147 55t-55 153q0 125 68 207.5t192 82.5h272l-16 -123h-82v-3q32 -45 32 -102q0 -111 -70.5 -190.5t-193.5 -79.5zM239 125q41 0 71 44t30 113q0 57 -32 84h-27q-46 0 -75.5 -48.5t-29.5 -112.5q0 -40 19 -60t44 -20z" />
    <glyph glyph-name="tau" unicode="&#x3c4;" horiz-adv-x="435" 
d="M230 -9q-62 0 -96 38.5t-23 122.5l25 214h-110l14 123h399l-14 -123h-138l-24 -199q-5 -43 32 -43q22 0 45 10l26 -109q-64 -34 -136 -34z" />
    <glyph glyph-name="upsilon" unicode="&#x3c5;" horiz-adv-x="529" 
d="M228 -9q-87 0 -132.5 47t-43.5 124q1 40 15 106.5t15 83.5q4 31 -25 31q-4 0 -7 -0.5t-6 -1.5t-6 -1l-4 101q53 17 101 17q47 0 72.5 -26.5t22.5 -81.5q-1 -34 -14 -103t-14 -104q-2 -58 44 -58q45 0 75.5 63.5t34.5 183.5q0 64 -7 109l142 17q16 -57 16 -135
q-4 -180 -81.5 -276t-197.5 -96z" />
    <glyph glyph-name="phi" unicode="&#x3c6;" horiz-adv-x="664" 
d="M459 498q83 -1 135.5 -52.5t49.5 -150.5q-3 -129 -80 -212.5t-188 -90.5l-23 -190h-145l23 190q-98 9 -151 72t-53 159q0 81 32 157t90 131l119 -35q-93 -122 -93 -248q0 -47 18.5 -77t52.5 -37l25 202q11 91 63 137t125 45zM498 295q1 35 -10 55.5t-31 20.5
q-39 0 -48 -75l-20 -180q51 13 79.5 61t29.5 118z" />
    <glyph glyph-name="chi" unicode="&#x3c7;" horiz-adv-x="493" 
d="M362 -207q-60 0 -85.5 30.5t-41.5 105.5l-20 79h-2l-115 -206h-162l226 362l-53 159q-10 31 -22 45t-32 14q-3 0 -17 -2l-6 104q41 14 80 14q60 0 85 -30t42 -105l11 -44h2l96 170h165l-212 -330l64 -190q19 -60 53 -60q3 0 6 0.5t6.5 1.5t5.5 1l6 -105q-37 -14 -80 -14z
" />
    <glyph glyph-name="psi" unicode="&#x3c8;" horiz-adv-x="697" 
d="M658 498q19 -61 17 -138q-4 -175 -79.5 -270.5t-196.5 -98.5l-23 -189h-149l24 189h-15q-90 0 -137.5 47.5t-46.5 125.5q1 41 15 107t15 81q4 31 -25 31q-4 0 -7 -0.5t-6 -1.5t-6 -1l-4 101q53 17 104 17q45 0 69.5 -27t22.5 -81q-1 -30 -16 -98t-16 -104q0 -70 65 -70h5
l64 520l145 7l-65 -527q55 4 83.5 73.5t31.5 179.5q2 54 -7 111z" />
    <glyph glyph-name="omega" unicode="&#x3c9;" horiz-adv-x="684" 
d="M181 -9q-70 0 -113 49t-43 146q0 179 111 320l127 -31q-43 -66 -65 -141t-22 -138q0 -71 39 -71q47 0 64 129l15 112h128l-17 -143q-6 -46 3 -72t31 -26q34 0 51.5 47.5t17.5 117.5q0 98 -30 183l138 26q14 -38 21.5 -60.5t14 -64.5t6.5 -90q0 -122 -58 -207.5
t-152 -85.5q-100 0 -129 73h-1q-49 -73 -137 -73z" />
    <glyph glyph-name="iotadieresis" unicode="&#x3ca;" horiz-adv-x="316" 
d="M67 552q-40 0 -65 24.5t-25 61.5q0 38 26 63t67 25q39 0 64 -24t25 -61q0 -38 -26 -63.5t-66 -25.5zM293 552q-39 0 -64.5 24.5t-25.5 61.5q0 38 26.5 63t67.5 25q40 0 65 -24t25 -61q0 -39 -26 -64t-68 -25zM168 -9q-140 0 -120 163l42 335h150l-40 -323q-6 -47 32 -47
q11 0 29 5l25 -104q-55 -29 -118 -29z" />
    <glyph glyph-name="upsilondieresis" unicode="&#x3cb;" horiz-adv-x="529" 
d="M202 552q-40 0 -65 24.5t-25 61.5q0 38 26 63t67 25q39 0 64 -24t25 -61q0 -38 -26 -63.5t-66 -25.5zM428 552q-39 0 -64.5 24.5t-25.5 61.5q0 38 26.5 63t67.5 25q40 0 65 -24t25 -61q0 -39 -26 -64t-68 -25zM228 -9q-87 0 -132.5 47t-43.5 124q1 40 15 106.5t15 83.5
q4 31 -25 31q-4 0 -7 -0.5t-6 -1.5t-6 -1l-4 101q53 17 101 17q47 0 72.5 -26.5t22.5 -81.5q-1 -34 -14 -103t-14 -104q-2 -58 44 -58q45 0 75.5 63.5t34.5 183.5q0 64 -7 109l142 17q16 -57 16 -135q-4 -180 -81.5 -276t-197.5 -96z" />
    <glyph glyph-name="omicrontonos" unicode="&#x3cc;" horiz-adv-x="527" 
d="M240 557l76 176h166l-109 -176h-133zM231 -9q-93 0 -148.5 55.5t-55.5 153.5q0 125 72 211.5t201 86.5q92 0 146 -55t54 -153q0 -128 -68.5 -213.5t-200.5 -85.5zM243 125q47 0 77 46t30 109q0 84 -68 84q-46 0 -75.5 -48t-29.5 -108q0 -42 19 -62.5t47 -20.5z" />
    <glyph glyph-name="upsilontonos" unicode="&#x3cd;" horiz-adv-x="529" 
d="M242 557l76 176h166l-109 -176h-133zM228 -9q-87 0 -132.5 47t-43.5 124q1 40 15 106.5t15 83.5q4 31 -25 31q-4 0 -7 -0.5t-6 -1.5t-6 -1l-4 101q53 17 101 17q47 0 72.5 -26.5t22.5 -81.5q-1 -34 -14 -103t-14 -104q-2 -58 44 -58q45 0 75.5 63.5t34.5 183.5
q0 64 -7 109l142 17q16 -57 16 -135q-4 -180 -81.5 -276t-197.5 -96z" />
    <glyph glyph-name="omegatonos" unicode="&#x3ce;" horiz-adv-x="684" 
d="M318 557l76 176h166l-109 -176h-133zM181 -9q-70 0 -113 49t-43 146q0 179 111 320l127 -31q-43 -66 -65 -141t-22 -138q0 -71 39 -71q47 0 64 129l15 112h128l-17 -143q-6 -46 3 -72t31 -26q34 0 51.5 47.5t17.5 117.5q0 98 -30 183l138 26q14 -38 21.5 -60.5t14 -64.5
t6.5 -90q0 -122 -58 -207.5t-152 -85.5q-100 0 -129 73h-1q-49 -73 -137 -73z" />
    <glyph glyph-name="uni03D7" unicode="&#x3d7;" horiz-adv-x="612" 
d="M468 120q30 -9 99 -9l-10 -108q-115 -121 -206.5 -170t-198.5 -49q-143 0 -220 69l68 85q66 -39 143 -39q125 0 233 99v2q-74 25 -90 131l-7 57q-33 -34 -99 -110l-9 -78h-145l60 489h148l-19 -157q-3 -28 -21 -93h2q128 181 231 271l110 -88q-92 -74 -148 -127l20 -95
q12 -67 59 -80z" />
    <glyph glyph-name="uni1E0C" unicode="&#x1e0c;" horiz-adv-x="666" 
d="M38 0l87 710h224q144 0 218.5 -78t74.5 -217q0 -187 -103 -301t-281 -114h-220zM212 143h64q95 0 147.5 76t52.5 193q0 155 -145 155h-67zM263 -60q39 0 64.5 -24.5t25.5 -61.5q0 -38 -26 -63t-67 -25q-40 0 -65 24t-25 61q0 39 26 64t67 25z" />
    <glyph glyph-name="uni1E0D" unicode="&#x1e0d;" horiz-adv-x="548" 
d="M187 -9q-77 0 -118.5 56t-41.5 144q0 130 67 218.5t164 88.5q72 0 117 -43h3l34 281h151l-91 -736h-150l9 72l-3 1q-58 -82 -141 -82zM234 124q42 0 80 51.5t51 139.5l2 14q-32 35 -83 35q-47 0 -76.5 -51t-29.5 -111q0 -35 15.5 -56.5t40.5 -21.5zM230 -60
q39 0 64.5 -24.5t25.5 -61.5q0 -38 -26 -63t-67 -25q-40 0 -65 24t-25 61q0 39 26 64t67 25z" />
    <glyph glyph-name="uni1E0E" unicode="&#x1e0e;" horiz-adv-x="666" 
d="M38 0l87 710h224q144 0 218.5 -78t74.5 -217q0 -187 -103 -301t-281 -114h-220zM212 143h64q95 0 147.5 76t52.5 193q0 155 -145 155h-67zM111 -212l15 115h285l-14 -115h-286z" />
    <glyph glyph-name="uni1E0F" unicode="&#x1e0f;" horiz-adv-x="548" 
d="M187 -9q-77 0 -118.5 56t-41.5 144q0 130 67 218.5t164 88.5q72 0 117 -43h3l34 281h151l-91 -736h-150l9 72l-3 1q-58 -82 -141 -82zM234 124q42 0 80 51.5t51 139.5l2 14q-32 35 -83 35q-47 0 -76.5 -51t-29.5 -111q0 -35 15.5 -56.5t40.5 -21.5zM78 -212l15 115h285
l-14 -115h-286z" />
    <glyph glyph-name="uni1E20" unicode="&#x1e20;" horiz-adv-x="680" 
d="M293 783l15 110h285l-14 -110h-286zM341 -9q-129 0 -210 76t-81 221q0 182 104.5 306.5t269.5 124.5q76 0 141 -33t102 -95l-124 -94q-47 72 -128 72q-86 0 -141.5 -81.5t-55.5 -190.5q0 -77 35.5 -117.5t98.5 -40.5q57 0 110 34l13 88h-118l17 134h271l-37 -318
q-49 -38 -121 -62t-146 -24z" />
    <glyph glyph-name="uni1E21" unicode="&#x1e21;" horiz-adv-x="551" 
d="M483 697l-14 -115h-286l15 115h285zM378 489h150l-52 -426q-33 -270 -284 -270q-100 0 -178 48l47 117q62 -38 125 -38q62 0 96 34t47 133l-3 1q-58 -82 -139 -82q-76 0 -117.5 54.5t-41.5 135.5q0 127 67 214.5t163 87.5q75 0 114 -41l3 1zM361 315l2 16q-33 33 -79 33
t-75.5 -49.5t-29.5 -103.5q0 -35 14.5 -53.5t40.5 -18.5q41 0 78 49t49 127z" />
    <glyph glyph-name="uni1E24" unicode="&#x1e24;" horiz-adv-x="670" 
d="M38 0l87 710h161l-36 -297h211l36 297h162l-88 -710h-161l33 270h-211l-33 -270h-161zM292 -60q39 0 64.5 -24.5t25.5 -61.5q0 -38 -26 -63t-67 -25q-40 0 -65 24t-25 61q0 39 26 64t67 25z" />
    <glyph glyph-name="uni1E25" unicode="&#x1e25;" horiz-adv-x="547" 
d="M25 0l91 736h149l-39 -315l2 -1q67 78 163 78q70 0 98 -48.5t15 -150.5l-39 -299h-150l36 265q7 51 0.5 75t-29.5 24q-39 0 -77.5 -50.5t-48.5 -137.5l-21 -176h-150zM235 -60q39 0 64.5 -24.5t25.5 -61.5q0 -38 -26 -63t-67 -25q-40 0 -65 24t-25 61q0 39 26 64t67 25z
" />
    <glyph glyph-name="uni1E2A" unicode="&#x1e2a;" horiz-adv-x="670" 
d="M38 0l87 710h161l-36 -297h211l36 297h162l-88 -710h-161l33 270h-211l-33 -270h-161zM279 -233q-69 0 -105 41t-32 115h108q-2 -21 8 -34.5t31 -13.5q22 0 39 14t23 34h108q-13 -71 -60 -113.5t-120 -42.5z" />
    <glyph glyph-name="uni1E2B" unicode="&#x1e2b;" horiz-adv-x="547" 
d="M25 0l91 736h149l-39 -315l2 -1q67 78 163 78q70 0 98 -48.5t15 -150.5l-39 -299h-150l36 265q7 51 0.5 75t-29.5 24q-39 0 -77.5 -50.5t-48.5 -137.5l-21 -176h-150zM222 -233q-69 0 -105 41t-32 115h108q-2 -21 8 -34.5t31 -13.5q22 0 39 14t23 34h108
q-13 -71 -60 -113.5t-120 -42.5z" />
    <glyph glyph-name="uni1E30" unicode="&#x1e30;" horiz-adv-x="618" 
d="M540 901l-131 -140h-135l115 139zM665 710l-256 -319l176 -391h-182l-115 278l-67 -79l-24 -199h-159l87 710h159l-35 -290l3 -1l221 291h192z" />
    <glyph glyph-name="uni1E31" unicode="&#x1e31;" horiz-adv-x="514" 
d="M438 -7q-20 -2 -44 -2q-53 0 -84.5 36t-54.5 104l-9 30q-28 -18 -59 -31l-15 -130h-147l91 736h149l-56 -455l2 -1q105 74 139 209h155q-27 -142 -139 -247l14 -42q16 -49 36 -66t56 -19zM267 556l117 149l152 1l-129 -150h-140z" />
    <glyph glyph-name="uni1E36" unicode="&#x1e36;" horiz-adv-x="521" 
d="M38 0l87 710h161l-70 -567h262l-17 -143h-423zM237 -60q39 0 64.5 -24.5t25.5 -61.5q0 -38 -26 -63t-67 -25q-40 0 -65 24t-25 61q0 39 26 64t67 25z" />
    <glyph glyph-name="uni1E37" unicode="&#x1e37;" horiz-adv-x="268" 
d="M30 0l90 736h151l-91 -736h-150zM94 -60q39 0 64.5 -24.5t25.5 -61.5q0 -38 -26 -63t-67 -25q-40 0 -65 24t-25 61q0 39 26 64t67 25z" />
    <glyph glyph-name="uni1E38" unicode="&#x1e38;" horiz-adv-x="521" 
d="M222 784l15 110h285l-14 -110h-286zM38 0l87 710h161l-70 -567h262l-17 -143h-423zM237 -60q39 0 64.5 -24.5t25.5 -61.5q0 -38 -26 -63t-67 -25q-40 0 -65 24t-25 61q0 39 26 64t67 25z" />
    <glyph glyph-name="uni1E39" unicode="&#x1e39;" horiz-adv-x="268" 
d="M62 797l15 110h285l-14 -110h-286zM30 0l90 736h151l-91 -736h-150zM86 -60q39 0 64.5 -24.5t25.5 -61.5q0 -38 -26 -63t-67 -25q-40 0 -65 24t-25 61q0 39 26 64t67 25z" />
    <glyph glyph-name="uni1E3A" unicode="&#x1e3a;" horiz-adv-x="521" 
d="M38 0l87 710h161l-70 -567h262l-17 -143h-423zM85 -212l15 115h285l-14 -115h-286z" />
    <glyph glyph-name="uni1E3B" unicode="&#x1e3b;" horiz-adv-x="268" 
d="M30 0l90 736h151l-91 -736h-150zM-58 -212l15 115h285l-14 -115h-286z" />
    <glyph glyph-name="uni1E42" unicode="&#x1e42;" horiz-adv-x="798" 
d="M38 0l87 710h157l131 -386h3l214 386h157l-87 -710h-157l47 388l-2 1l-150 -257h-97l-95 266l-2 -1l-49 -397h-157zM358 -60q39 0 64.5 -24.5t25.5 -61.5q0 -38 -26 -63t-67 -25q-40 0 -65 24t-25 61q0 39 26 64t67 25z" />
    <glyph glyph-name="uni1E43" unicode="&#x1e43;" horiz-adv-x="813" 
d="M26 0l60 489h150l-8 -61l4 -1q63 71 149 71t106 -74h5q63 74 164 74q73 0 100.5 -49.5t13.5 -155.5l-39 -293h-149l35 265q7 51 1.5 75t-28.5 24q-31 0 -67 -49.5t-47 -134.5l-24 -180h-149l35 265q8 51 2.5 75t-29.5 24q-30 0 -66 -47.5t-46 -125.5l-23 -191h-150z
M359 -60q39 0 64.5 -24.5t25.5 -61.5q0 -38 -26 -63t-67 -25q-40 0 -65 24t-25 61q0 39 26 64t67 25z" />
    <glyph glyph-name="uni1E44" unicode="&#x1e44;" horiz-adv-x="686" 
d="M422 776q-39 0 -64.5 24.5t-25.5 61.5q0 38 26 63t67 25q40 0 65 -24t25 -61q0 -39 -26 -64t-67 -25zM38 0l87 710h150l188 -440l3 1l54 439h156l-88 -710h-155l-183 429h-3l-54 -429h-155z" />
    <glyph glyph-name="uni1E45" unicode="&#x1e45;" horiz-adv-x="547" 
d="M334 552q-39 0 -64.5 24.5t-25.5 61.5q0 38 26 63t67 25q40 0 65 -24t25 -61q0 -39 -26 -64t-67 -25zM25 0l61 489h149l-8 -68l2 -1q67 78 162 78q70 0 98 -48.5t15 -150.5l-39 -299h-149l35 265q7 51 0.5 75t-29.5 24q-38 0 -76 -49t-49 -134l-22 -181h-150z" />
    <glyph glyph-name="uni1E46" unicode="&#x1e46;" horiz-adv-x="686" 
d="M38 0l87 710h150l188 -440l3 1l54 439h156l-88 -710h-155l-183 429h-3l-54 -429h-155zM309 -60q39 0 64.5 -24.5t25.5 -61.5q0 -38 -26 -63t-67 -25q-40 0 -65 24t-25 61q0 39 26 64t67 25z" />
    <glyph glyph-name="uni1E47" unicode="&#x1e47;" horiz-adv-x="547" 
d="M25 0l61 489h149l-8 -68l2 -1q67 78 162 78q70 0 98 -48.5t15 -150.5l-39 -299h-149l35 265q7 51 0.5 75t-29.5 24q-38 0 -76 -49t-49 -134l-22 -181h-150zM235 -60q39 0 64.5 -24.5t25.5 -61.5q0 -38 -26 -63t-67 -25q-40 0 -65 24t-25 61q0 39 26 64t67 25z" />
    <glyph glyph-name="uni1E48" unicode="&#x1e48;" horiz-adv-x="686" 
d="M38 0l87 710h150l188 -440l3 1l54 439h156l-88 -710h-155l-183 429h-3l-54 -429h-155zM157 -212l15 115h285l-14 -115h-286z" />
    <glyph glyph-name="uni1E49" unicode="&#x1e49;" horiz-adv-x="547" 
d="M25 0l61 489h149l-8 -68l2 -1q67 78 162 78q70 0 98 -48.5t15 -150.5l-39 -299h-149l35 265q7 51 0.5 75t-29.5 24q-38 0 -76 -49t-49 -134l-22 -181h-150zM83 -212l15 115h285l-14 -115h-286z" />
    <glyph glyph-name="uni1E5A" unicode="&#x1e5a;" horiz-adv-x="605" 
d="M38 0l87 710h253q102 0 151.5 -53t49.5 -143q0 -89 -37 -154t-107 -99l119 -261h-173l-97 232h-61l-28 -232h-157zM241 373h62q50 0 80 34.5t30 88.5q0 36 -21.5 54.5t-53.5 18.5h-73zM269 -60q39 0 64.5 -24.5t25.5 -61.5q0 -38 -26 -63t-67 -25q-40 0 -65 24t-25 61
q0 39 26 64t67 25z" />
    <glyph glyph-name="uni1E5B" unicode="&#x1e5b;" horiz-adv-x="353" 
d="M26 0l60 489h150l-9 -67h2q58 76 140 76l-21 -166q-54 20 -95.5 -19t-54.5 -125l-22 -188h-150zM88 -60q39 0 64.5 -24.5t25.5 -61.5q0 -38 -26 -63t-67 -25q-40 0 -65 24t-25 61q0 39 26 64t67 25z" />
    <glyph glyph-name="uni1E5C" unicode="&#x1e5c;" horiz-adv-x="605" 
d="M221 784l15 110h285l-14 -110h-286zM38 0l87 710h253q102 0 151.5 -53t49.5 -143q0 -89 -37 -154t-107 -99l119 -261h-173l-97 232h-61l-28 -232h-157zM241 373h62q50 0 80 34.5t30 88.5q0 36 -21.5 54.5t-53.5 18.5h-73zM269 -60q39 0 64.5 -24.5t25.5 -61.5
q0 -38 -26 -63t-67 -25q-40 0 -65 24t-25 61q0 39 26 64t67 25z" />
    <glyph glyph-name="uni1E5D" unicode="&#x1e5d;" horiz-adv-x="353" 
d="M116 582l15 115h285l-14 -115h-286zM26 0l60 489h150l-9 -67h2q58 76 140 76l-21 -166q-54 20 -95.5 -19t-54.5 -125l-22 -188h-150zM88 -60q39 0 64.5 -24.5t25.5 -61.5q0 -38 -26 -63t-67 -25q-40 0 -65 24t-25 61q0 39 26 64t67 25z" />
    <glyph glyph-name="uni1E5E" unicode="&#x1e5e;" horiz-adv-x="605" 
d="M38 0l87 710h253q102 0 151.5 -53t49.5 -143q0 -89 -37 -154t-107 -99l119 -261h-173l-97 232h-61l-28 -232h-157zM241 373h62q50 0 80 34.5t30 88.5q0 36 -21.5 54.5t-53.5 18.5h-73zM117 -212l15 115h285l-14 -115h-286z" />
    <glyph glyph-name="uni1E5F" unicode="&#x1e5f;" horiz-adv-x="353" 
d="M26 0l60 489h150l-9 -67h2q58 76 140 76l-21 -166q-54 20 -95.5 -19t-54.5 -125l-22 -188h-150zM-64 -212l15 115h285l-14 -115h-286z" />
    <glyph glyph-name="uni1E60" unicode="&#x1e60;" horiz-adv-x="545" 
d="M339 776q-39 0 -64.5 24.5t-25.5 61.5q0 38 26 63t67 25q40 0 65 -24t25 -61q0 -39 -26 -64t-67 -25zM253 -9q-74 0 -140 31.5t-107 95.5l114 100q24 -40 60.5 -62t72.5 -22q41 0 65 19.5t24 47.5q0 22 -17.5 37t-63.5 42q-10 5 -15 8q-87 50 -116 78q-59 55 -59 133
q0 99 69.5 159.5t173.5 60.5q65 0 123.5 -28t94.5 -81l-114 -95q-47 63 -110 63q-31 0 -51 -17.5t-19 -43.5q1 -21 17.5 -39.5t59.5 -43.5q14 -8 42.5 -24t42 -24.5t35 -23t32 -27t22.5 -29.5t16.5 -37t4.5 -44q0 -110 -71 -172t-186 -62z" />
    <glyph glyph-name="uni1E61" unicode="&#x1e61;" horiz-adv-x="420" 
d="M252 552q-39 0 -64.5 24.5t-25.5 61.5q0 38 26 63t67 25q40 0 65 -24t25 -61q0 -39 -26 -64t-67 -25zM188 -9q-54 0 -107 22.5t-84 61.5l84 87q22 -26 52.5 -42t58.5 -16q45 0 45 27q0 11 -10.5 19t-48.5 27q-11 6 -17 9q-60 30 -89.5 64t-29.5 85q0 72 52 117.5
t129 45.5q111 0 176 -78l-91 -86q-35 48 -84 50q-16 0 -27.5 -8t-11.5 -22q0 -20 69 -54q66 -33 97 -65t31 -85q0 -72 -52.5 -115.5t-141.5 -43.5z" />
    <glyph glyph-name="uni1E62" unicode="&#x1e62;" horiz-adv-x="545" 
d="M253 -9q-74 0 -140 31.5t-107 95.5l114 100q24 -40 60.5 -62t72.5 -22q41 0 65 19.5t24 47.5q0 22 -17.5 37t-63.5 42q-10 5 -15 8q-87 50 -116 78q-59 55 -59 133q0 99 69.5 159.5t173.5 60.5q65 0 123.5 -28t94.5 -81l-114 -95q-47 63 -110 63q-31 0 -51 -17.5
t-19 -43.5q1 -21 17.5 -39.5t59.5 -43.5q14 -8 42.5 -24t42 -24.5t35 -23t32 -27t22.5 -29.5t16.5 -37t4.5 -44q0 -110 -71 -172t-186 -62zM235 -60q39 0 64.5 -24.5t25.5 -61.5q0 -38 -26 -63t-67 -25q-40 0 -65 24t-25 61q0 39 26 64t67 25z" />
    <glyph glyph-name="uni1E63" unicode="&#x1e63;" horiz-adv-x="420" 
d="M188 -9q-54 0 -107 22.5t-84 61.5l84 87q22 -26 52.5 -42t58.5 -16q45 0 45 27q0 11 -10.5 19t-48.5 27q-11 6 -17 9q-60 30 -89.5 64t-29.5 85q0 72 52 117.5t129 45.5q111 0 176 -78l-91 -86q-35 48 -84 50q-16 0 -27.5 -8t-11.5 -22q0 -20 69 -54q66 -33 97 -65
t31 -85q0 -72 -52.5 -115.5t-141.5 -43.5zM163 -60q39 0 64.5 -24.5t25.5 -61.5q0 -38 -26 -63t-67 -25q-40 0 -65 24t-25 61q0 39 26 64t67 25z" />
    <glyph glyph-name="uni1E6C" unicode="&#x1e6c;" horiz-adv-x="539" 
d="M159 0l70 567h-166l18 143h491l-18 -143h-165l-70 -567h-160zM225 -60q39 0 64.5 -24.5t25.5 -61.5q0 -38 -26 -63t-67 -25q-40 0 -65 24t-25 61q0 39 26 64t67 25z" />
    <glyph glyph-name="uni1E6D" unicode="&#x1e6d;" horiz-adv-x="342" 
d="M170 -9q-61 0 -94 38t-23 118l26 221h-48l15 121h48l19 143l153 30l-21 -173h101l-15 -121h-101l-24 -201q-6 -41 22 -41q19 0 49 16l24 -117q-62 -34 -131 -34zM155 -60q39 0 64.5 -24.5t25.5 -61.5q0 -38 -26 -63t-67 -25q-40 0 -65 24t-25 61q0 39 26 64t67 25z" />
    <glyph glyph-name="uni1E6E" unicode="&#x1e6e;" horiz-adv-x="539" 
d="M159 0l70 567h-166l18 143h491l-18 -143h-165l-70 -567h-160zM73 -212l15 115h285l-14 -115h-286z" />
    <glyph glyph-name="uni1E6F" unicode="&#x1e6f;" horiz-adv-x="342" 
d="M170 -9q-61 0 -94 38t-23 118l26 221h-48l15 121h48l19 143l153 30l-21 -173h101l-15 -121h-101l-24 -201q-6 -41 22 -41q19 0 49 16l24 -117q-62 -34 -131 -34zM3 -212l15 115h285l-14 -115h-286z" />
    <glyph glyph-name="Wgrave" unicode="&#x1e80;" horiz-adv-x="932" 
d="M464 761l-94 140l150 -1l81 -139h-137zM186 0l-112 710h166l52 -447h3l150 447h162l39 -435h3l154 435h171l-287 -710h-146l-48 459h-2l-163 -459h-142z" />
    <glyph glyph-name="wgrave" unicode="&#x1e81;" horiz-adv-x="759" 
d="M353 557l-93 150l150 -1l80 -149h-137zM165 -9q-76 0 -109 55t-21 147l42 296h148l-36 -261q-14 -103 30 -103q27 0 56.5 38t39.5 118l26 208h145l-33 -267q-7 -53 0 -75t28 -22q30 0 61.5 45.5t44.5 147.5q11 81 0 171h151q17 -97 0 -201q-22 -155 -99 -226t-183 -71
q-110 0 -134 89h-2q-25 -42 -68 -65.5t-87 -23.5z" />
    <glyph glyph-name="Wacute" unicode="&#x1e82;" horiz-adv-x="932" 
d="M460 761l115 139l151 1l-131 -140h-135zM186 0l-112 710h166l52 -447h3l150 447h162l39 -435h3l154 435h171l-287 -710h-146l-48 459h-2l-163 -459h-142z" />
    <glyph glyph-name="wacute" unicode="&#x1e83;" horiz-adv-x="759" 
d="M350 556l117 149l152 1l-129 -150h-140zM165 -9q-76 0 -109 55t-21 147l42 296h148l-36 -261q-14 -103 30 -103q27 0 56.5 38t39.5 118l26 208h145l-33 -267q-7 -53 0 -75t28 -22q30 0 61.5 45.5t44.5 147.5q11 81 0 171h151q17 -97 0 -201q-22 -155 -99 -226t-183 -71
q-110 0 -134 89h-2q-25 -42 -68 -65.5t-87 -23.5z" />
    <glyph glyph-name="Wdieresis" unicode="&#x1e84;" horiz-adv-x="932" 
d="M424 757q-39 0 -64.5 24.5t-25.5 61.5q0 38 26 63t67 25q40 0 65 -24t25 -61q0 -39 -26 -64t-67 -25zM641 757q-39 0 -64.5 24.5t-25.5 61.5q0 39 26 63.5t68 24.5q39 0 64 -24t25 -61q0 -39 -26 -64t-67 -25zM186 0l-112 710h166l52 -447h3l150 447h162l39 -435h3
l154 435h171l-287 -710h-146l-48 459h-2l-163 -459h-142z" />
    <glyph glyph-name="wdieresis" unicode="&#x1e85;" horiz-adv-x="759" 
d="M321 552q-39 0 -64.5 24.5t-25.5 61.5q0 38 26 63t67 25q40 0 65 -24t25 -61q0 -39 -26 -64t-67 -25zM538 552q-39 0 -64.5 24.5t-25.5 61.5q0 39 26 63.5t68 24.5q39 0 64 -24t25 -61q0 -39 -26 -64t-67 -25zM165 -9q-76 0 -109 55t-21 147l42 296h148l-36 -261
q-14 -103 30 -103q27 0 56.5 38t39.5 118l26 208h145l-33 -267q-7 -53 0 -75t28 -22q30 0 61.5 45.5t44.5 147.5q11 81 0 171h151q17 -97 0 -201q-22 -155 -99 -226t-183 -71q-110 0 -134 89h-2q-25 -42 -68 -65.5t-87 -23.5z" />
    <glyph glyph-name="uni1E8E" unicode="&#x1e8e;" horiz-adv-x="581" 
d="M362 776q-39 0 -64.5 24.5t-25.5 61.5q0 38 26 63t67 25q40 0 65 -24t25 -61q0 -39 -26 -64t-67 -25zM179 0l39 310l-159 400h176l79 -250h3l138 250h183l-259 -400l-38 -310h-162z" />
    <glyph glyph-name="uni1E8F" unicode="&#x1e8f;" horiz-adv-x="534" 
d="M309 552q-39 0 -64.5 24.5t-25.5 61.5q0 38 26 63t67 25q40 0 65 -24t25 -61q0 -39 -26 -64t-67 -25zM363 489h149l-52 -423q-32 -273 -276 -273q-99 0 -177 48l47 113q58 -38 122 -38q57 0 89.5 31.5t45.5 121.5v1l-3 1q-59 -80 -145 -80q-153 0 -125 194l42 304h149
l-36 -259q-8 -59 -1.5 -82t33.5 -23q33 0 68.5 44.5t41.5 96.5z" />
    <glyph glyph-name="uni1E92" unicode="&#x1e92;" horiz-adv-x="570" 
d="M13 0l15 125l335 439l-2 3h-269l17 143h474l-14 -122l-342 -441l2 -4h284l-17 -143h-483zM249 -60q39 0 64.5 -24.5t25.5 -61.5q0 -38 -26 -63t-67 -25q-40 0 -65 24t-25 61q0 39 26 64t67 25z" />
    <glyph glyph-name="uni1E93" unicode="&#x1e93;" horiz-adv-x="447" 
d="M367 -28q-117 28 -366 28l11 100l217 267v3h-165l14 119h365l-11 -100l-222 -267v-2q111 -5 192 -30zM179 -60q39 0 64.5 -24.5t25.5 -61.5q0 -38 -26 -63t-67 -25q-40 0 -65 24t-25 61q0 39 26 64t67 25z" />
    <glyph glyph-name="uni1E97" unicode="&#x1e97;" horiz-adv-x="342" 
d="M124 698q-39 0 -64.5 24.5t-25.5 61.5q0 38 26 63t67 25q40 0 65 -24t25 -61q0 -39 -26 -64t-67 -25zM341 698q-39 0 -64.5 24.5t-25.5 61.5q0 39 26 63.5t68 24.5q39 0 64 -24t25 -61q0 -39 -26 -64t-67 -25zM170 -9q-61 0 -94 38t-23 118l26 221h-48l15 121h48l19 143
l153 30l-21 -173h101l-15 -121h-101l-24 -201q-6 -41 22 -41q19 0 49 16l24 -117q-62 -34 -131 -34z" />
    <glyph glyph-name="uni1E9E" unicode="&#x1e9e;" horiz-adv-x="756" 
d="M553 426q11 -7 40.5 -24t40.5 -23.5t33 -22t31 -27t20.5 -28.5t16 -36t4.5 -42q0 -108 -69 -170t-178 -62q-131 0 -214 86l83 137q24 -40 60 -61t73 -21t57.5 20t20.5 49q0 24 -18.5 39.5t-73.5 45.5q-89 49 -119 81l129 205l-1 5q-57 7 -102 7q-126 0 -141 -129
l-57 -455h-156l57 461q17 139 95.5 199t208.5 60q141 0 313 -48z" />
    <glyph glyph-name="uni1EA0" unicode="&#x1ea0;" horiz-adv-x="635" 
d="M-23 0l320 710h154l146 -710h-166l-22 131h-213l-51 -131h-168zM247 266h141l-42 249h-2zM277 -60q39 0 64.5 -24.5t25.5 -61.5q0 -38 -26 -63t-67 -25q-40 0 -65 24t-25 61q0 39 26 64t67 25z" />
    <glyph glyph-name="uni1EA1" unicode="&#x1ea1;" horiz-adv-x="553" 
d="M186 -9q-76 0 -117.5 56t-41.5 144q0 130 67 218.5t164 88.5q74 0 115 -43h3l4 34h151l-60 -489h-151l9 72l-3 1q-57 -82 -140 -82zM234 124q42 0 79.5 51.5t49.5 139.5l2 14q-33 35 -81 35q-47 0 -76.5 -51t-29.5 -111q0 -35 15.5 -56.5t40.5 -21.5zM230 -60
q39 0 64.5 -24.5t25.5 -61.5q0 -38 -26 -63t-67 -25q-40 0 -65 24t-25 61q0 39 26 64t67 25z" />
    <glyph glyph-name="uni1EA2" unicode="&#x1ea2;" horiz-adv-x="635" 
d="M415 770l-81 1q56 42 59 77q3 22 -23 22q-30 0 -65 -23l-18 63q23 22 61 38t77 16q40 0 63 -18t23 -51q0 -38 -27.5 -72t-68.5 -53zM-23 0l320 710h154l146 -710h-166l-22 131h-213l-51 -131h-168zM247 266h141l-42 249h-2z" />
    <glyph glyph-name="uni1EA3" unicode="&#x1ea3;" horiz-adv-x="553" 
d="M349 546l-81 1q56 42 59 77q3 22 -23 22q-30 0 -65 -23l-18 63q23 22 61 38t77 16q40 0 63 -18t23 -51q0 -38 -27.5 -72t-68.5 -53zM186 -9q-76 0 -117.5 56t-41.5 144q0 130 67 218.5t164 88.5q74 0 115 -43h3l4 34h151l-60 -489h-151l9 72l-3 1q-57 -82 -140 -82z
M234 124q42 0 79.5 51.5t49.5 139.5l2 14q-33 35 -81 35q-47 0 -76.5 -51t-29.5 -111q0 -35 15.5 -56.5t40.5 -21.5z" />
    <glyph glyph-name="uni1EA4" unicode="&#x1ea4;" horiz-adv-x="635" 
d="M546 824l105 144l139 1l-139 -145h-105zM222 761l108 140h150l73 -140h-126l-32 64h-1l-48 -64h-124zM-23 0l320 710h154l146 -710h-166l-22 131h-213l-51 -131h-168zM247 266h141l-42 249h-2z" />
    <glyph glyph-name="uni1EA5" unicode="&#x1ea5;" horiz-adv-x="553" 
d="M458 652l99 150h140l-140 -150h-99zM155 555l115 152h131l84 -152h-130l-24 74h-1l-42 -74h-133zM186 -9q-76 0 -117.5 56t-41.5 144q0 130 67 218.5t164 88.5q74 0 115 -43h3l4 34h151l-60 -489h-151l9 72l-3 1q-57 -82 -140 -82zM234 124q42 0 79.5 51.5t49.5 139.5
l2 14q-33 35 -81 35q-47 0 -76.5 -51t-29.5 -111q0 -35 15.5 -56.5t40.5 -21.5z" />
    <glyph glyph-name="uni1EA6" unicode="&#x1ea6;" horiz-adv-x="635" 
d="M571 822l-92 147h135l60 -147h-103zM222 760l108 140h150l73 -140h-126l-32 64h-1l-48 -64h-124zM-23 0l320 710h154l146 -710h-166l-22 131h-213l-51 -131h-168zM247 266h141l-42 249h-2z" />
    <glyph glyph-name="uni1EA7" unicode="&#x1ea7;" horiz-adv-x="553" 
d="M479 652l-88 151l136 -1l49 -150h-97zM156 555l115 152h131l84 -152h-130l-24 74h-1l-42 -74h-133zM186 -9q-76 0 -117.5 56t-41.5 144q0 130 67 218.5t164 88.5q74 0 115 -43h3l4 34h151l-60 -489h-151l9 72l-3 1q-57 -82 -140 -82zM234 124q42 0 79.5 51.5t49.5 139.5
l2 14q-33 35 -81 35q-47 0 -76.5 -51t-29.5 -111q0 -35 15.5 -56.5t40.5 -21.5z" />
    <glyph glyph-name="uni1EA8" unicode="&#x1ea8;" horiz-adv-x="635" 
d="M611 837l-73 1q50 35 53 54q1 8 -4.5 12.5t-17.5 4.5q-25 0 -57 -18l-16 55q21 18 55 31.5t69 13.5t55 -14.5t20 -41.5q0 -31 -23.5 -57t-60.5 -41zM221 761l108 140h150l73 -140h-126l-32 64h-1l-48 -64h-124zM-23 0l320 710h154l146 -710h-166l-22 131h-213l-51 -131
h-168zM247 266h141l-42 249h-2z" />
    <glyph glyph-name="uni1EA9" unicode="&#x1ea9;" horiz-adv-x="553" 
d="M537 641l-74 1q52 41 54 71q1 9 -4.5 14.5t-16.5 5.5q-28 0 -60 -21l-16 58q20 20 55.5 34.5t70.5 14.5q37 0 58 -16.5t21 -46.5q0 -35 -25 -66.5t-63 -48.5zM155 555l115 152h131l84 -152h-130l-24 74h-1l-42 -74h-133zM186 -9q-76 0 -117.5 56t-41.5 144
q0 130 67 218.5t164 88.5q74 0 115 -43h3l4 34h151l-60 -489h-151l9 72l-3 1q-57 -82 -140 -82zM234 124q42 0 79.5 51.5t49.5 139.5l2 14q-33 35 -81 35q-47 0 -76.5 -51t-29.5 -111q0 -35 15.5 -56.5t40.5 -21.5z" />
    <glyph glyph-name="uni1EAA" unicode="&#x1eaa;" horiz-adv-x="635" 
d="M480 922q-29 0 -72 28q-26 17 -41 17q-29 0 -53 -47l-78 38q50 103 119 103q36 0 71 -25q28 -18 41 -18q32 0 54 44l79 -29q-48 -111 -120 -111zM222 761l108 140h150l73 -140h-126l-32 64h-1l-48 -64h-124zM-23 0l320 710h154l146 -710h-166l-22 131h-213l-51 -131h-168
zM247 266h141l-42 249h-2z" />
    <glyph glyph-name="uni1EAB" unicode="&#x1eab;" horiz-adv-x="553" 
d="M420 734q-8 0 -15 1.5t-12 3t-11.5 5.5t-9.5 6t-9 7t-8 6q-25 17 -40 17q-30 0 -55 -47l-79 38q51 105 122 105q32 0 69 -22q4 -3 11.5 -8.5t12 -8t10.5 -5t11 -2.5q29 0 53 50l79 -33q-22 -50 -55.5 -81.5t-73.5 -31.5zM155 555l115 152h131l84 -152h-130l-24 74h-1
l-42 -74h-133zM186 -9q-76 0 -117.5 56t-41.5 144q0 130 67 218.5t164 88.5q74 0 115 -43h3l4 34h151l-60 -489h-151l9 72l-3 1q-57 -82 -140 -82zM234 124q42 0 79.5 51.5t49.5 139.5l2 14q-33 35 -81 35q-47 0 -76.5 -51t-29.5 -111q0 -35 15.5 -56.5t40.5 -21.5z" />
    <glyph glyph-name="uni1EAC" unicode="&#x1eac;" horiz-adv-x="635" 
d="M220 761l108 140h150l73 -140h-126l-32 64h-1l-48 -64h-124zM-23 0l320 710h154l146 -710h-166l-22 131h-213l-51 -131h-168zM247 266h141l-42 249h-2zM277 -60q39 0 64.5 -24.5t25.5 -61.5q0 -38 -26 -63t-67 -25q-40 0 -65 24t-25 61q0 39 26 64t67 25z" />
    <glyph glyph-name="uni1EAD" unicode="&#x1ead;" horiz-adv-x="553" 
d="M154 555l115 152h131l84 -152h-130l-24 74h-1l-42 -74h-133zM186 -9q-76 0 -117.5 56t-41.5 144q0 130 67 218.5t164 88.5q74 0 115 -43h3l4 34h151l-60 -489h-151l9 72l-3 1q-57 -82 -140 -82zM234 124q42 0 79.5 51.5t49.5 139.5l2 14q-33 35 -81 35q-47 0 -76.5 -51
t-29.5 -111q0 -35 15.5 -56.5t40.5 -21.5zM230 -60q39 0 64.5 -24.5t25.5 -61.5q0 -38 -26 -63t-67 -25q-40 0 -65 24t-25 61q0 39 26 64t67 25z" />
    <glyph glyph-name="uni1EAE" unicode="&#x1eae;" horiz-adv-x="635" 
d="M357 899l101 133l138 1l-137 -134h-102zM385 748q-75 0 -111.5 36.5t-31.5 100.5h112q-2 -17 8.5 -29.5t32.5 -12.5q23 0 40.5 12.5t24.5 29.5h114q-15 -61 -62 -99t-127 -38zM-23 0l320 710h154l146 -710h-166l-22 131h-213l-51 -131h-168zM247 266h141l-42 249h-2z" />
    <glyph glyph-name="uni1EAF" unicode="&#x1eaf;" horiz-adv-x="553" 
d="M282 715l107 149h139l-141 -149h-105zM316 540q-69 0 -105 41t-32 115h108q-2 -21 8 -34.5t31 -13.5q22 0 39 14t23 34h108q-13 -71 -60 -113.5t-120 -42.5zM186 -9q-76 0 -117.5 56t-41.5 144q0 130 67 218.5t164 88.5q74 0 115 -43h3l4 34h151l-60 -489h-151l9 72l-3 1
q-57 -82 -140 -82zM234 124q42 0 79.5 51.5t49.5 139.5l2 14q-33 35 -81 35q-47 0 -76.5 -51t-29.5 -111q0 -35 15.5 -56.5t40.5 -21.5z" />
    <glyph glyph-name="uni1EB0" unicode="&#x1eb0;" horiz-adv-x="635" 
d="M362 902l-93 134l136 -1l57 -133h-100zM386 748q-75 0 -111.5 36.5t-31.5 100.5h112q-2 -17 8.5 -29.5t32.5 -12.5q23 0 40.5 12.5t24.5 29.5h114q-15 -61 -62 -99t-127 -38zM-23 0l320 710h154l146 -710h-166l-22 131h-213l-51 -131h-168zM247 266h141l-42 249h-2z" />
    <glyph glyph-name="uni1EB1" unicode="&#x1eb1;" horiz-adv-x="553" 
d="M293 715l-88 151l136 -1l49 -150h-97zM317 540q-69 0 -105 41t-32 115h108q-2 -21 8 -34.5t31 -13.5q22 0 39 14t23 34h108q-13 -71 -60 -113.5t-120 -42.5zM186 -9q-76 0 -117.5 56t-41.5 144q0 130 67 218.5t164 88.5q74 0 115 -43h3l4 34h151l-60 -489h-151l9 72l-3 1
q-57 -82 -140 -82zM234 124q42 0 79.5 51.5t49.5 139.5l2 14q-33 35 -81 35q-47 0 -76.5 -51t-29.5 -111q0 -35 15.5 -56.5t40.5 -21.5z" />
    <glyph glyph-name="uni1EB2" unicode="&#x1eb2;" horiz-adv-x="635" 
d="M438 890l-73 1q50 35 53 54q1 8 -4.5 12.5t-17.5 4.5q-26 0 -57 -18l-16 55q21 18 55 31.5t69 13.5t55 -14.5t20 -41.5q0 -31 -23.5 -57t-60.5 -41zM386 748q-75 0 -111.5 36.5t-31.5 100.5h112q-2 -17 8.5 -29.5t32.5 -12.5q23 0 40.5 12.5t24.5 29.5h114
q-15 -61 -62 -99t-127 -38zM-23 0l320 710h154l146 -710h-166l-22 131h-213l-51 -131h-168zM247 266h141l-42 249h-2z" />
    <glyph glyph-name="uni1EB3" unicode="&#x1eb3;" horiz-adv-x="553" 
d="M377 695l-74 1q52 41 54 71q1 9 -4.5 14.5t-16.5 5.5q-28 0 -60 -21l-16 58q20 20 55.5 34.5t70.5 14.5q37 0 58 -16.5t21 -46.5q0 -35 -25 -66.5t-63 -48.5zM318 539q-71 0 -108 39t-33 110h111q-2 -20 8 -33t32 -13q23 0 40.5 13.5t23.5 32.5h111q-14 -68 -61.5 -108.5
t-123.5 -40.5zM186 -9q-76 0 -117.5 56t-41.5 144q0 130 67 218.5t164 88.5q74 0 115 -43h3l4 34h151l-60 -489h-151l9 72l-3 1q-57 -82 -140 -82zM234 124q42 0 79.5 51.5t49.5 139.5l2 14q-33 35 -81 35q-47 0 -76.5 -51t-29.5 -111q0 -35 15.5 -56.5t40.5 -21.5z" />
    <glyph glyph-name="uni1EB4" unicode="&#x1eb4;" horiz-adv-x="635" 
d="M479 903q-29 0 -72 28q-26 17 -41 17q-30 0 -53 -47l-78 38q50 103 119 103q36 0 71 -25q28 -18 41 -18q32 0 54 44l79 -29q-48 -111 -120 -111zM386 748q-75 0 -111.5 36.5t-31.5 100.5h112q-2 -17 8.5 -29.5t32.5 -12.5q23 0 40.5 12.5t24.5 29.5h114q-15 -61 -62 -99
t-127 -38zM-23 0l320 710h154l146 -710h-166l-22 131h-213l-51 -131h-168zM247 266h141l-42 249h-2z" />
    <glyph glyph-name="uni1EB5" unicode="&#x1eb5;" horiz-adv-x="553" 
d="M416 715q-8 0 -15 1.5t-12 3t-11.5 5.5t-9.5 6t-9 7t-8 6q-25 17 -40 17q-30 0 -55 -47l-79 38q51 105 122 105q32 0 69 -22q4 -3 11.5 -8.5t12 -8t10.5 -5t11 -2.5q29 0 53 50l79 -33q-22 -50 -55.5 -81.5t-73.5 -31.5zM316 540q-69 0 -105 41t-32 115h108
q-2 -21 8 -34.5t31 -13.5q22 0 39 14t23 34h108q-13 -71 -60 -113.5t-120 -42.5zM186 -9q-76 0 -117.5 56t-41.5 144q0 130 67 218.5t164 88.5q74 0 115 -43h3l4 34h151l-60 -489h-151l9 72l-3 1q-57 -82 -140 -82zM234 124q42 0 79.5 51.5t49.5 139.5l2 14q-33 35 -81 35
q-47 0 -76.5 -51t-29.5 -111q0 -35 15.5 -56.5t40.5 -21.5z" />
    <glyph glyph-name="uni1EB6" unicode="&#x1eb6;" horiz-adv-x="635" 
d="M384 754q-72 0 -107 39t-30 108h107q-2 -19 8 -32t31 -13q23 0 39.5 13.5t22.5 31.5h109q-14 -66 -59 -106.5t-121 -40.5zM-23 0l320 710h154l146 -710h-166l-22 131h-213l-51 -131h-168zM247 266h141l-42 249h-2zM277 -60q39 0 64.5 -24.5t25.5 -61.5q0 -38 -26 -63
t-67 -25q-40 0 -65 24t-25 61q0 39 26 64t67 25z" />
    <glyph glyph-name="uni1EB7" unicode="&#x1eb7;" horiz-adv-x="553" 
d="M317 540q-69 0 -105 41t-32 115h108q-2 -21 8 -34.5t31 -13.5q22 0 39 14t23 34h108q-13 -71 -60 -113.5t-120 -42.5zM186 -9q-76 0 -117.5 56t-41.5 144q0 130 67 218.5t164 88.5q74 0 115 -43h3l4 34h151l-60 -489h-151l9 72l-3 1q-57 -82 -140 -82zM234 124
q42 0 79.5 51.5t49.5 139.5l2 14q-33 35 -81 35q-47 0 -76.5 -51t-29.5 -111q0 -35 15.5 -56.5t40.5 -21.5zM230 -60q39 0 64.5 -24.5t25.5 -61.5q0 -38 -26 -63t-67 -25q-40 0 -65 24t-25 61q0 39 26 64t67 25z" />
    <glyph glyph-name="uni1EB8" unicode="&#x1eb8;" horiz-adv-x="547" 
d="M37 0l87 710h422l-18 -143h-265l-18 -145h209l-16 -138h-209l-18 -141h284l-18 -143h-440zM253 -60q39 0 64.5 -24.5t25.5 -61.5q0 -38 -26 -63t-67 -25q-40 0 -65 24t-25 61q0 39 26 64t67 25z" />
    <glyph glyph-name="uni1EB9" unicode="&#x1eb9;" horiz-adv-x="476" 
d="M463 363q-3 -156 -289 -186q6 -31 26 -46.5t44 -15.5q52 0 89 49l112 -66q-78 -107 -213 -107q-93 0 -149 55.5t-55 149.5q0 128 73.5 215t194.5 87q66 0 117 -35.5t50 -99.5zM319 342q1 15 -9 23t-27 8q-33 0 -62.5 -28.5t-41.5 -77.5q139 15 140 75zM211 -60
q39 0 64.5 -24.5t25.5 -61.5q0 -38 -26 -63t-67 -25q-40 0 -65 24t-25 61q0 39 26 64t67 25z" />
    <glyph glyph-name="uni1EBA" unicode="&#x1eba;" horiz-adv-x="547" 
d="M375 760l-81 1q56 39 59 61q1 8 -5 13t-19 5q-31 0 -64 -20l-18 62q23 20 61 34.5t77 14.5q38 0 60.5 -16t22.5 -46q0 -34 -26 -62.5t-67 -46.5zM37 0l87 710h422l-18 -143h-265l-18 -145h209l-16 -138h-209l-18 -141h284l-18 -143h-440z" />
    <glyph glyph-name="uni1EBB" unicode="&#x1ebb;" horiz-adv-x="476" 
d="M276 646q-30 0 -65 -23l-18 63q23 22 61 38t77 16q40 0 63 -18t23 -51q0 -38 -27.5 -72t-68.5 -53l-81 1q56 42 59 77q3 22 -23 22zM463 363q-3 -156 -289 -186q6 -31 26 -46.5t44 -15.5q52 0 89 49l112 -66q-78 -107 -213 -107q-93 0 -149 55.5t-55 149.5
q0 128 73.5 215t194.5 87q66 0 117 -35.5t50 -99.5zM319 342q1 15 -9 23t-27 8q-33 0 -62.5 -28.5t-41.5 -77.5q139 15 140 75z" />
    <glyph glyph-name="uni1EBC" unicode="&#x1ebc;" horiz-adv-x="547" 
d="M430 761q-32 0 -77 30q-26 18 -44 18q-32 0 -57 -50l-84 41q53 110 128 110q37 0 76 -26q30 -20 44 -20q34 0 58 48l84 -32q-52 -119 -128 -119zM37 0l87 710h422l-18 -143h-265l-18 -145h209l-16 -138h-209l-18 -141h284l-18 -143h-440z" />
    <glyph glyph-name="uni1EBD" unicode="&#x1ebd;" horiz-adv-x="476" 
d="M255 599q-33 0 -58 -51l-84 42q50 120 129 120q8 0 15.5 -1t14.5 -3t11.5 -3.5t10.5 -5t8.5 -5t8 -5t6.5 -4.5q27 -19 42 -19q35 0 60 49l84 -34q-23 -59 -55.5 -93.5t-72.5 -34.5q-33 0 -76 30q-24 18 -44 18zM296 498q66 0 117 -35.5t50 -99.5q-3 -156 -289 -186
q6 -31 26 -46.5t44 -15.5q52 0 89 49l112 -66q-78 -107 -213 -107q-93 0 -149 55.5t-55 149.5q0 128 73.5 215t194.5 87zM319 342q1 15 -9 23t-27 8q-33 0 -62.5 -28.5t-41.5 -77.5q139 15 140 75z" />
    <glyph glyph-name="uni1EBE" unicode="&#x1ebe;" horiz-adv-x="547" 
d="M507 823l105 144l139 1l-139 -145h-105zM183 760l108 140h150l73 -140h-126l-32 64h-1l-48 -64h-124zM37 0l87 710h422l-18 -143h-265l-18 -145h209l-16 -138h-209l-18 -141h284l-18 -143h-440z" />
    <glyph glyph-name="uni1EBF" unicode="&#x1ebf;" horiz-adv-x="476" 
d="M529 802h140l-140 -150h-99zM302 629l-42 -74h-133l115 152h131l84 -152h-130l-24 74h-1zM296 498q66 0 117 -35.5t50 -99.5q-3 -156 -289 -186q6 -31 26 -46.5t44 -15.5q52 0 89 49l112 -66q-78 -107 -213 -107q-93 0 -149 55.5t-55 149.5q0 128 73.5 215t194.5 87z
M319 342q1 15 -9 23t-27 8q-33 0 -62.5 -28.5t-41.5 -77.5q139 15 140 75z" />
    <glyph glyph-name="uni1EC0" unicode="&#x1ec0;" horiz-adv-x="547" 
d="M532 821l-92 147h135l60 -147h-103zM183 759l108 140h150l73 -140h-126l-32 64h-1l-48 -64h-124zM37 0l87 710h422l-18 -143h-265l-18 -145h209l-16 -138h-209l-18 -141h284l-18 -143h-440z" />
    <glyph glyph-name="uni1EC1" unicode="&#x1ec1;" horiz-adv-x="476" 
d="M548 652h-97l-88 151l136 -1zM303 629l-42 -74h-133l115 152h131l84 -152h-130l-24 74h-1zM296 498q66 0 117 -35.5t50 -99.5q-3 -156 -289 -186q6 -31 26 -46.5t44 -15.5q52 0 89 49l112 -66q-78 -107 -213 -107q-93 0 -149 55.5t-55 149.5q0 128 73.5 215t194.5 87z
M319 342q1 15 -9 23t-27 8q-33 0 -62.5 -28.5t-41.5 -77.5q139 15 140 75z" />
    <glyph glyph-name="uni1EC2" unicode="&#x1ec2;" horiz-adv-x="547" 
d="M572 836l-73 1q50 35 53 54q1 8 -4.5 12.5t-17.5 4.5q-26 0 -57 -18l-16 55q21 18 55 31.5t69 13.5t55 -14.5t20 -41.5q0 -31 -23.5 -57t-60.5 -41zM182 760l108 140h150l73 -140h-126l-32 64h-1l-48 -64h-124zM37 0l87 710h422l-18 -143h-265l-18 -145h209l-16 -138
h-209l-18 -141h284l-18 -143h-440z" />
    <glyph glyph-name="uni1EC3" unicode="&#x1ec3;" horiz-adv-x="476" 
d="M518 819q37 0 58 -16.5t21 -46.5q0 -35 -25 -66.5t-63 -48.5l-74 1q52 41 54 71q1 9 -4.5 14.5t-16.5 5.5q-28 0 -60 -21l-16 58q20 20 55.5 34.5t70.5 14.5zM302 629l-42 -74h-133l115 152h131l84 -152h-130l-24 74h-1zM296 498q66 0 117 -35.5t50 -99.5
q-3 -156 -289 -186q6 -31 26 -46.5t44 -15.5q52 0 89 49l112 -66q-78 -107 -213 -107q-93 0 -149 55.5t-55 149.5q0 128 73.5 215t194.5 87zM319 342q1 15 -9 23t-27 8q-33 0 -62.5 -28.5t-41.5 -77.5q139 15 140 75z" />
    <glyph glyph-name="uni1EC4" unicode="&#x1ec4;" horiz-adv-x="547" 
d="M441 921q-29 0 -72 28q-25 17 -41 17q-30 0 -53 -47l-78 38q50 103 119 103q36 0 71 -25q28 -18 41 -18q32 0 54 44l79 -29q-48 -111 -120 -111zM183 760l108 140h150l73 -140h-126l-32 64h-1l-48 -64h-124zM37 0l87 710h422l-18 -143h-265l-18 -145h209l-16 -138h-209
l-18 -141h284l-18 -143h-440z" />
    <glyph glyph-name="uni1EC5" unicode="&#x1ec5;" horiz-adv-x="476" 
d="M442 880l79 -33q-22 -50 -55.5 -81.5t-73.5 -31.5q-8 0 -15 1.5t-12 3t-11.5 5.5t-9.5 6t-9 7t-8 6q-25 17 -40 17q-30 0 -55 -47l-79 38q51 105 122 105q32 0 69 -22q4 -3 11.5 -8.5t12 -8t10.5 -5t11 -2.5q29 0 53 50zM303 629h-1l-42 -74h-133l115 152h131l84 -152
h-130zM296 498q66 0 117 -35.5t50 -99.5q-3 -156 -289 -186q6 -31 26 -46.5t44 -15.5q52 0 89 49l112 -66q-78 -107 -213 -107q-93 0 -149 55.5t-55 149.5q0 128 73.5 215t194.5 87zM319 342q1 15 -9 23t-27 8q-33 0 -62.5 -28.5t-41.5 -77.5q139 15 140 75z" />
    <glyph glyph-name="uni1EC6" unicode="&#x1ec6;" horiz-adv-x="547" 
d="M181 760l108 140h150l73 -140h-126l-32 64h-1l-48 -64h-124zM37 0l87 710h422l-18 -143h-265l-18 -145h209l-16 -138h-209l-18 -141h284l-18 -143h-440zM253 -60q39 0 64.5 -24.5t25.5 -61.5q0 -38 -26 -63t-67 -25q-40 0 -65 24t-25 61q0 39 26 64t67 25z" />
    <glyph glyph-name="uni1EC7" unicode="&#x1ec7;" horiz-adv-x="476" 
d="M301 629l-42 -74h-133l115 152h131l84 -152h-130l-24 74h-1zM463 363q-3 -156 -289 -186q6 -31 26 -46.5t44 -15.5q52 0 89 49l112 -66q-78 -107 -213 -107q-93 0 -149 55.5t-55 149.5q0 128 73.5 215t194.5 87q66 0 117 -35.5t50 -99.5zM319 342q1 15 -9 23t-27 8
q-33 0 -62.5 -28.5t-41.5 -77.5q139 15 140 75zM211 -60q39 0 64.5 -24.5t25.5 -61.5q0 -38 -26 -63t-67 -25q-40 0 -65 24t-25 61q0 39 26 64t67 25z" />
    <glyph glyph-name="uni1EC8" unicode="&#x1ec8;" horiz-adv-x="308" 
d="M244 760l-81 1q56 39 59 61q1 8 -5 13t-19 5q-31 0 -64 -20l-18 62q23 20 61 34.5t77 14.5q38 0 60.5 -16t22.5 -46q0 -34 -26 -62.5t-67 -46.5zM43 0l87 710h162l-87 -710h-162z" />
    <glyph glyph-name="uni1EC9" unicode="&#x1ec9;" horiz-adv-x="268" 
d="M203 546l-81 1q56 42 59 77q3 22 -23 22q-30 0 -65 -23l-18 63q23 22 61 38t77 16q40 0 63 -18t23 -51q0 -38 -27.5 -72t-68.5 -53zM29 0l60 489h150l-60 -489h-150z" />
    <glyph glyph-name="uni1ECA" unicode="&#x1eca;" horiz-adv-x="308" 
d="M43 0l87 710h162l-87 -710h-162zM108 -60q39 0 64.5 -24.5t25.5 -61.5q0 -38 -26 -63t-67 -25q-40 0 -65 24t-25 61q0 39 26 64t67 25z" />
    <glyph glyph-name="uni1ECB" unicode="&#x1ecb;" horiz-adv-x="268" 
d="M182 552q-39 0 -64.5 24.5t-25.5 61.5q0 38 26 63t67 25q40 0 65 -24t25 -61q0 -39 -26 -64t-67 -25zM29 0l60 489h150l-60 -489h-150zM88 -60q39 0 64.5 -24.5t25.5 -61.5q0 -38 -26 -63t-67 -25q-40 0 -65 24t-25 61q0 39 26 64t67 25z" />
    <glyph glyph-name="uni1ECC" unicode="&#x1ecc;" horiz-adv-x="739" 
d="M339 -9q-132 0 -210.5 79.5t-78.5 221.5q0 114 45.5 210.5t132.5 156.5t198 60q132 0 211 -79.5t79 -219.5q0 -118 -43.5 -214.5t-130.5 -155.5t-203 -59zM351 141q86 0 142 78t56 192q0 79 -37.5 119t-100.5 40q-82 0 -138 -81t-56 -187q0 -79 36.5 -120t97.5 -41z
M325 -60q39 0 64.5 -24.5t25.5 -61.5q0 -38 -26 -63t-67 -25q-40 0 -65 24t-25 61q0 39 26 64t67 25z" />
    <glyph glyph-name="uni1ECD" unicode="&#x1ecd;" horiz-adv-x="535" 
d="M235 -9q-94 0 -150.5 55.5t-56.5 154.5q0 124 73 210.5t197 86.5q96 0 152.5 -55.5t56.5 -153.5q0 -128 -69.5 -213t-202.5 -85zM246 125q48 0 78.5 46t30.5 108q0 47 -21 66t-48 19q-47 0 -76.5 -47.5t-29.5 -107.5q0 -41 19.5 -62.5t46.5 -21.5zM219 -60
q39 0 64.5 -24.5t25.5 -61.5q0 -38 -26 -63t-67 -25q-40 0 -65 24t-25 61q0 39 26 64t67 25z" />
    <glyph glyph-name="uni1ECE" unicode="&#x1ece;" horiz-adv-x="739" 
d="M489 761l-81 1q56 39 59 61q1 8 -5 13t-19 5q-31 0 -64 -20l-18 62q23 20 61 34.5t77 14.5q38 0 60.5 -16t22.5 -46q0 -34 -26 -62.5t-67 -46.5zM339 -9q-132 0 -210.5 79.5t-78.5 221.5q0 114 45.5 210.5t132.5 156.5t198 60q132 0 211 -79.5t79 -219.5
q0 -118 -43.5 -214.5t-130.5 -155.5t-203 -59zM351 141q86 0 142 78t56 192q0 79 -37.5 119t-100.5 40q-82 0 -138 -81t-56 -187q0 -79 36.5 -120t97.5 -41z" />
    <glyph glyph-name="uni1ECF" unicode="&#x1ecf;" horiz-adv-x="535" 
d="M342 546l-81 1q56 42 59 77q3 22 -23 22q-30 0 -65 -23l-18 63q23 22 61 38t77 16q40 0 63 -18t23 -51q0 -38 -27.5 -72t-68.5 -53zM235 -9q-94 0 -150.5 55.5t-56.5 154.5q0 124 73 210.5t197 86.5q96 0 152.5 -55.5t56.5 -153.5q0 -128 -69.5 -213t-202.5 -85zM246 125
q48 0 78.5 46t30.5 108q0 47 -21 66t-48 19q-47 0 -76.5 -47.5t-29.5 -107.5q0 -41 19.5 -62.5t46.5 -21.5z" />
    <glyph glyph-name="uni1ED0" unicode="&#x1ed0;" horiz-adv-x="739" 
d="M621 824l105 144l139 1l-139 -145h-105zM297 761l108 140h150l73 -140h-126l-32 64h-1l-48 -64h-124zM339 -9q-132 0 -210.5 79.5t-78.5 221.5q0 114 45.5 210.5t132.5 156.5t198 60q132 0 211 -79.5t79 -219.5q0 -118 -43.5 -214.5t-130.5 -155.5t-203 -59zM351 141
q86 0 142 78t56 192q0 79 -37.5 119t-100.5 40q-82 0 -138 -81t-56 -187q0 -79 36.5 -120t97.5 -41z" />
    <glyph glyph-name="uni1ED1" unicode="&#x1ed1;" horiz-adv-x="535" 
d="M451 652l99 150h140l-140 -150h-99zM148 555l115 152h131l84 -152h-130l-24 74h-1l-42 -74h-133zM235 -9q-94 0 -150.5 55.5t-56.5 154.5q0 124 73 210.5t197 86.5q96 0 152.5 -55.5t56.5 -153.5q0 -128 -69.5 -213t-202.5 -85zM246 125q48 0 78.5 46t30.5 108
q0 47 -21 66t-48 19q-47 0 -76.5 -47.5t-29.5 -107.5q0 -41 19.5 -62.5t46.5 -21.5z" />
    <glyph glyph-name="uni1ED2" unicode="&#x1ed2;" horiz-adv-x="739" 
d="M646 822l-92 147h135l60 -147h-103zM297 760l108 140h150l73 -140h-126l-32 64h-1l-48 -64h-124zM339 -9q-132 0 -210.5 79.5t-78.5 221.5q0 114 45.5 210.5t132.5 156.5t198 60q132 0 211 -79.5t79 -219.5q0 -118 -43.5 -214.5t-130.5 -155.5t-203 -59zM351 141
q86 0 142 78t56 192q0 79 -37.5 119t-100.5 40q-82 0 -138 -81t-56 -187q0 -79 36.5 -120t97.5 -41z" />
    <glyph glyph-name="uni1ED3" unicode="&#x1ed3;" horiz-adv-x="535" 
d="M472 652l-88 151l136 -1l49 -150h-97zM149 555l115 152h131l84 -152h-130l-24 74h-1l-42 -74h-133zM235 -9q-94 0 -150.5 55.5t-56.5 154.5q0 124 73 210.5t197 86.5q96 0 152.5 -55.5t56.5 -153.5q0 -128 -69.5 -213t-202.5 -85zM246 125q48 0 78.5 46t30.5 108
q0 47 -21 66t-48 19q-47 0 -76.5 -47.5t-29.5 -107.5q0 -41 19.5 -62.5t46.5 -21.5z" />
    <glyph glyph-name="uni1ED4" unicode="&#x1ed4;" horiz-adv-x="739" 
d="M686 837l-73 1q50 35 53 54q1 8 -4.5 12.5t-17.5 4.5q-26 0 -57 -18l-16 55q21 18 55 31.5t69 13.5t55 -14.5t20 -41.5q0 -31 -23.5 -57t-60.5 -41zM296 761l108 140h150l73 -140h-126l-32 64h-1l-48 -64h-124zM339 -9q-132 0 -210.5 79.5t-78.5 221.5q0 114 45.5 210.5
t132.5 156.5t198 60q132 0 211 -79.5t79 -219.5q0 -118 -43.5 -214.5t-130.5 -155.5t-203 -59zM351 141q86 0 142 78t56 192q0 79 -37.5 119t-100.5 40q-82 0 -138 -81t-56 -187q0 -79 36.5 -120t97.5 -41z" />
    <glyph glyph-name="uni1ED5" unicode="&#x1ed5;" horiz-adv-x="535" 
d="M530 641l-74 1q52 41 54 71q1 9 -4.5 14.5t-16.5 5.5q-29 0 -60 -21l-16 58q20 20 55.5 34.5t70.5 14.5q37 0 58 -16.5t21 -46.5q0 -35 -25 -66.5t-63 -48.5zM148 555l115 152h131l84 -152h-130l-24 74h-1l-42 -74h-133zM235 -9q-94 0 -150.5 55.5t-56.5 154.5
q0 124 73 210.5t197 86.5q96 0 152.5 -55.5t56.5 -153.5q0 -128 -69.5 -213t-202.5 -85zM246 125q48 0 78.5 46t30.5 108q0 47 -21 66t-48 19q-47 0 -76.5 -47.5t-29.5 -107.5q0 -41 19.5 -62.5t46.5 -21.5z" />
    <glyph glyph-name="uni1ED6" unicode="&#x1ed6;" horiz-adv-x="739" 
d="M555 922q-29 0 -72 28q-25 17 -41 17q-30 0 -53 -47l-78 38q50 103 119 103q36 0 71 -25q28 -18 41 -18q32 0 54 44l79 -29q-48 -111 -120 -111zM297 761l108 140h150l73 -140h-126l-32 64h-1l-48 -64h-124zM339 -9q-132 0 -210.5 79.5t-78.5 221.5q0 114 45.5 210.5
t132.5 156.5t198 60q132 0 211 -79.5t79 -219.5q0 -118 -43.5 -214.5t-130.5 -155.5t-203 -59zM351 141q86 0 142 78t56 192q0 79 -37.5 119t-100.5 40q-82 0 -138 -81t-56 -187q0 -79 36.5 -120t97.5 -41z" />
    <glyph glyph-name="uni1ED7" unicode="&#x1ed7;" horiz-adv-x="535" 
d="M413 734q-8 0 -15 1.5t-12 3t-11.5 5.5t-9.5 6t-9 7t-8 6q-25 17 -40 17q-30 0 -55 -47l-79 38q51 105 122 105q32 0 69 -22q4 -3 11.5 -8.5t12 -8t10.5 -5t11 -2.5q29 0 53 50l79 -33q-22 -50 -55.5 -81.5t-73.5 -31.5zM148 555l115 152h131l84 -152h-130l-24 74h-1
l-42 -74h-133zM235 -9q-94 0 -150.5 55.5t-56.5 154.5q0 124 73 210.5t197 86.5q96 0 152.5 -55.5t56.5 -153.5q0 -128 -69.5 -213t-202.5 -85zM246 125q48 0 78.5 46t30.5 108q0 47 -21 66t-48 19q-47 0 -76.5 -47.5t-29.5 -107.5q0 -41 19.5 -62.5t46.5 -21.5z" />
    <glyph glyph-name="uni1ED8" unicode="&#x1ed8;" horiz-adv-x="739" 
d="M295 761l108 140h150l73 -140h-126l-32 64h-1l-48 -64h-124zM339 -9q-132 0 -210.5 79.5t-78.5 221.5q0 114 45.5 210.5t132.5 156.5t198 60q132 0 211 -79.5t79 -219.5q0 -118 -43.5 -214.5t-130.5 -155.5t-203 -59zM351 141q86 0 142 78t56 192q0 79 -37.5 119
t-100.5 40q-82 0 -138 -81t-56 -187q0 -79 36.5 -120t97.5 -41zM325 -60q39 0 64.5 -24.5t25.5 -61.5q0 -38 -26 -63t-67 -25q-40 0 -65 24t-25 61q0 39 26 64t67 25z" />
    <glyph glyph-name="uni1ED9" unicode="&#x1ed9;" horiz-adv-x="535" 
d="M147 555l115 152h131l84 -152h-130l-24 74h-1l-42 -74h-133zM235 -9q-94 0 -150.5 55.5t-56.5 154.5q0 124 73 210.5t197 86.5q96 0 152.5 -55.5t56.5 -153.5q0 -128 -69.5 -213t-202.5 -85zM246 125q48 0 78.5 46t30.5 108q0 47 -21 66t-48 19q-47 0 -76.5 -47.5
t-29.5 -107.5q0 -41 19.5 -62.5t46.5 -21.5zM219 -60q39 0 64.5 -24.5t25.5 -61.5q0 -38 -26 -63t-67 -25q-40 0 -65 24t-25 61q0 39 26 64t67 25z" />
    <glyph glyph-name="uni1EDA" unicode="&#x1eda;" horiz-adv-x="796" 
d="M628 901l-131 -140h-135l115 139zM720 774h122l-10 -86q-20 -156 -126 -176q10 -47 10 -92q0 -118 -43.5 -214.5t-130.5 -155.5t-203 -59q-132 0 -210.5 79.5t-78.5 221.5q0 114 45.5 210.5t132.5 156.5t198 60q85 0 150 -34.5t101 -99.5q22 18 33 111zM351 141
q86 0 142 78t56 192q0 79 -37.5 119t-100.5 40q-82 0 -138 -81t-56 -187q0 -79 36.5 -120t97.5 -41z" />
    <glyph glyph-name="uni1EDB" unicode="&#x1edb;" horiz-adv-x="633" 
d="M511 706l-129 -150h-140l117 149zM538 565h122l-10 -86q-11 -85 -48.5 -129.5t-94.5 -49.5v-11q0 -128 -69.5 -213t-202.5 -85q-94 0 -150.5 55.5t-56.5 154.5q0 124 73 210.5t197 86.5q72 0 123 -32t72 -91q24 16 35 112zM246 125q48 0 78.5 46t30.5 108q0 47 -21 66
t-48 19q-47 0 -76.5 -47.5t-29.5 -107.5q0 -41 19.5 -62.5t46.5 -21.5z" />
    <glyph glyph-name="uni1EDC" unicode="&#x1edc;" horiz-adv-x="796" 
d="M524 761h-137l-94 140l150 -1zM720 774h122l-10 -86q-20 -156 -126 -176q10 -47 10 -92q0 -118 -43.5 -214.5t-130.5 -155.5t-203 -59q-132 0 -210.5 79.5t-78.5 221.5q0 114 45.5 210.5t132.5 156.5t198 60q85 0 150 -34.5t101 -99.5q22 18 33 111zM351 141q86 0 142 78
t56 192q0 79 -37.5 119t-100.5 40q-82 0 -138 -81t-56 -187q0 -79 36.5 -120t97.5 -41z" />
    <glyph glyph-name="uni1EDD" unicode="&#x1edd;" horiz-adv-x="633" 
d="M385 557h-137l-93 150l150 -1zM538 565h122l-10 -86q-11 -85 -48.5 -129.5t-94.5 -49.5v-11q0 -128 -69.5 -213t-202.5 -85q-94 0 -150.5 55.5t-56.5 154.5q0 124 73 210.5t197 86.5q72 0 123 -32t72 -91q24 16 35 112zM246 125q48 0 78.5 46t30.5 108q0 47 -21 66
t-48 19q-47 0 -76.5 -47.5t-29.5 -107.5q0 -41 19.5 -62.5t46.5 -21.5z" />
    <glyph glyph-name="uni1EDE" unicode="&#x1ede;" horiz-adv-x="796" 
d="M443 841q-31 0 -64 -20l-18 62q23 20 61 34.5t77 14.5q38 0 60.5 -16t22.5 -46q0 -34 -26 -62.5t-67 -46.5l-81 1q56 39 59 61q1 8 -5 13t-19 5zM720 774h122l-10 -86q-20 -156 -126 -176q10 -47 10 -92q0 -118 -43.5 -214.5t-130.5 -155.5t-203 -59q-132 0 -210.5 79.5
t-78.5 221.5q0 114 45.5 210.5t132.5 156.5t198 60q85 0 150 -34.5t101 -99.5q22 18 33 111zM351 141q86 0 142 78t56 192q0 79 -37.5 119t-100.5 40q-82 0 -138 -81t-56 -187q0 -79 36.5 -120t97.5 -41z" />
    <glyph glyph-name="uni1EDF" unicode="&#x1edf;" horiz-adv-x="633" 
d="M297 646q-30 0 -65 -23l-18 63q23 22 61 38t77 16q40 0 63 -18t23 -51q0 -38 -27.5 -72t-68.5 -53l-81 1q56 42 59 77q3 22 -23 22zM538 565h122l-10 -86q-11 -85 -48.5 -129.5t-94.5 -49.5v-11q0 -128 -69.5 -213t-202.5 -85q-94 0 -150.5 55.5t-56.5 154.5
q0 124 73 210.5t197 86.5q72 0 123 -32t72 -91q24 16 35 112zM246 125q48 0 78.5 46t30.5 108q0 47 -21 66t-48 19q-47 0 -76.5 -47.5t-29.5 -107.5q0 -41 19.5 -62.5t46.5 -21.5z" />
    <glyph glyph-name="uni1EE0" unicode="&#x1ee0;" horiz-adv-x="796" 
d="M423 810q-32 0 -57 -50l-84 41q53 110 128 110q37 0 76 -26q30 -20 44 -20q34 0 58 48l84 -32q-52 -119 -128 -119q-32 0 -77 30q-26 18 -44 18zM720 774h122l-10 -86q-20 -156 -126 -176q10 -47 10 -92q0 -118 -43.5 -214.5t-130.5 -155.5t-203 -59q-132 0 -210.5 79.5
t-78.5 221.5q0 114 45.5 210.5t132.5 156.5t198 60q85 0 150 -34.5t101 -99.5q22 18 33 111zM351 141q86 0 142 78t56 192q0 79 -37.5 119t-100.5 40q-82 0 -138 -81t-56 -187q0 -79 36.5 -120t97.5 -41z" />
    <glyph glyph-name="uni1EE1" unicode="&#x1ee1;" horiz-adv-x="633" 
d="M276 599q-33 0 -58 -51l-84 42q50 120 129 120q35 0 75 -27q27 -19 42 -19q36 0 60 49l84 -34q-23 -59 -55.5 -93.5t-72.5 -34.5q-34 0 -76 30q-24 18 -44 18zM538 565h122l-10 -86q-11 -85 -48.5 -129.5t-94.5 -49.5v-11q0 -128 -69.5 -213t-202.5 -85
q-94 0 -150.5 55.5t-56.5 154.5q0 124 73 210.5t197 86.5q72 0 123 -32t72 -91q24 16 35 112zM246 125q48 0 78.5 46t30.5 108q0 47 -21 66t-48 19q-47 0 -76.5 -47.5t-29.5 -107.5q0 -41 19.5 -62.5t46.5 -21.5z" />
    <glyph glyph-name="uni1EE2" unicode="&#x1ee2;" horiz-adv-x="796" 
d="M720 774h122l-10 -86q-20 -156 -126 -176q10 -47 10 -92q0 -118 -43.5 -214.5t-130.5 -155.5t-203 -59q-132 0 -210.5 79.5t-78.5 221.5q0 114 45.5 210.5t132.5 156.5t198 60q85 0 150 -34.5t101 -99.5q22 18 33 111zM351 141q86 0 142 78t56 192q0 79 -37.5 119
t-100.5 40q-82 0 -138 -81t-56 -187q0 -79 36.5 -120t97.5 -41zM325 -60q39 0 64.5 -24.5t25.5 -61.5q0 -38 -26 -63t-67 -25q-40 0 -65 24t-25 61q0 39 26 64t67 25z" />
    <glyph glyph-name="uni1EE3" unicode="&#x1ee3;" horiz-adv-x="633" 
d="M538 565h122l-10 -86q-11 -85 -48.5 -129.5t-94.5 -49.5v-11q0 -128 -69.5 -213t-202.5 -85q-94 0 -150.5 55.5t-56.5 154.5q0 124 73 210.5t197 86.5q72 0 123 -32t72 -91q24 16 35 112zM246 125q48 0 78.5 46t30.5 108q0 47 -21 66t-48 19q-47 0 -76.5 -47.5
t-29.5 -107.5q0 -41 19.5 -62.5t46.5 -21.5zM219 -60q39 0 64.5 -24.5t25.5 -61.5q0 -38 -26 -63t-67 -25q-40 0 -65 24t-25 61q0 39 26 64t67 25z" />
    <glyph glyph-name="uni1EE4" unicode="&#x1ee4;" horiz-adv-x="653" 
d="M299 -9q-139 0 -194.5 85.5t-36.5 241.5l49 392h160l-50 -405q-20 -164 85 -164q53 0 85.5 36t42.5 120l51 413h160l-51 -417q-20 -161 -93.5 -231.5t-207.5 -70.5zM285 -60q39 0 64.5 -24.5t25.5 -61.5q0 -38 -26 -63t-67 -25q-40 0 -65 24t-25 61q0 39 26 64t67 25z
" />
    <glyph glyph-name="uni1EE5" unicode="&#x1ee5;" horiz-adv-x="539" 
d="M167 -9q-153 0 -125 194l42 304h149l-37 -259q-8 -59 -1 -82t33 -23q32 0 67.5 43.5t42.5 96.5l27 224h150l-60 -489h-147l6 72h-2q-60 -81 -145 -81zM223 -60q39 0 64.5 -24.5t25.5 -61.5q0 -38 -26 -63t-67 -25q-40 0 -65 24t-25 61q0 39 26 64t67 25z" />
    <glyph glyph-name="uni1EE6" unicode="&#x1ee6;" horiz-adv-x="653" 
d="M421 761l-81 1q56 39 59 61q1 8 -5 13t-19 5q-31 0 -64 -20l-18 62q23 20 61 34.5t77 14.5q38 0 60.5 -16t22.5 -46q0 -34 -26 -62.5t-67 -46.5zM299 -9q-139 0 -194.5 85.5t-36.5 241.5l49 392h160l-50 -405q-20 -164 85 -164q53 0 85.5 36t42.5 120l51 413h160
l-51 -417q-20 -161 -93.5 -231.5t-207.5 -70.5z" />
    <glyph glyph-name="uni1EE7" unicode="&#x1ee7;" horiz-adv-x="539" 
d="M339 546l-81 1q56 42 59 77q3 22 -23 22q-30 0 -65 -23l-18 63q23 22 61 38t77 16q40 0 63 -18t23 -51q0 -38 -27.5 -72t-68.5 -53zM167 -9q-153 0 -125 194l42 304h149l-37 -259q-8 -59 -1 -82t33 -23q32 0 67.5 43.5t42.5 96.5l27 224h150l-60 -489h-147l6 72h-2
q-60 -81 -145 -81z" />
    <glyph glyph-name="uni1EE8" unicode="&#x1ee8;" horiz-adv-x="770" 
d="M579 901l-131 -140h-135l115 139zM712 774h122l-10 -86q-12 -90 -53 -134.5t-103 -44.5q-19 0 -41 5l-27 -221q-20 -161 -93.5 -231.5t-207.5 -70.5q-139 0 -194.5 85.5t-36.5 241.5l49 392h160l-50 -405q-20 -164 85 -164q53 0 85.5 36t42.5 120l51 413h160l-16 -130
q10 -2 13 -2q14 0 23.5 8.5t15 27t8.5 35.5t7 47z" />
    <glyph glyph-name="uni1EE9" unicode="&#x1ee9;" horiz-adv-x="661" 
d="M511 706l-129 -150h-140l117 149zM574 565h122l-10 -86q-12 -90 -53 -134.5t-103 -44.5q-21 0 -38 4l-37 -304h-147l6 72h-2q-60 -81 -145 -81q-153 0 -125 194l42 304h149l-37 -259q-8 -59 -1 -82t33 -23q32 0 67.5 43.5t42.5 96.5l27 224h150l-15 -119q4 -1 10 -1
q14 0 23.5 8.5t15 27t8.5 35.5t7 47z" />
    <glyph glyph-name="uni1EEA" unicode="&#x1eea;" horiz-adv-x="770" 
d="M463 761h-137l-94 140l150 -1zM712 774h122l-10 -86q-12 -90 -53 -134.5t-103 -44.5q-19 0 -41 5l-27 -221q-20 -161 -93.5 -231.5t-207.5 -70.5q-139 0 -194.5 85.5t-36.5 241.5l49 392h160l-50 -405q-20 -164 85 -164q53 0 85.5 36t42.5 120l51 413h160l-16 -130
q10 -2 13 -2q14 0 23.5 8.5t15 27t8.5 35.5t7 47z" />
    <glyph glyph-name="uni1EEB" unicode="&#x1eeb;" horiz-adv-x="661" 
d="M377 557h-137l-93 150l150 -1zM574 565h122l-10 -86q-12 -90 -53 -134.5t-103 -44.5q-21 0 -38 4l-37 -304h-147l6 72h-2q-60 -81 -145 -81q-153 0 -125 194l42 304h149l-37 -259q-8 -59 -1 -82t33 -23q32 0 67.5 43.5t42.5 96.5l27 224h150l-15 -119q4 -1 10 -1
q14 0 23.5 8.5t15 27t8.5 35.5t7 47z" />
    <glyph glyph-name="uni1EEC" unicode="&#x1eec;" horiz-adv-x="770" 
d="M375 841q-31 0 -64 -20l-18 62q23 20 61 34.5t77 14.5q38 0 60.5 -16t22.5 -46q0 -34 -26 -62.5t-67 -46.5l-81 1q56 39 59 61q1 8 -5 13t-19 5zM712 774h122l-10 -86q-12 -90 -53 -134.5t-103 -44.5q-19 0 -41 5l-27 -221q-20 -161 -93.5 -231.5t-207.5 -70.5
q-139 0 -194.5 85.5t-36.5 241.5l49 392h160l-50 -405q-20 -164 85 -164q53 0 85.5 36t42.5 120l51 413h160l-16 -130q10 -2 13 -2q14 0 23.5 8.5t15 27t8.5 35.5t7 47z" />
    <glyph glyph-name="uni1EED" unicode="&#x1eed;" horiz-adv-x="661" 
d="M294 646q-30 0 -65 -23l-18 63q23 22 61 38t77 16q40 0 63 -18t23 -51q0 -38 -27.5 -72t-68.5 -53l-81 1q56 42 59 77q3 22 -23 22zM574 565h122l-10 -86q-12 -90 -53 -134.5t-103 -44.5q-21 0 -38 4l-37 -304h-147l6 72h-2q-60 -81 -145 -81q-153 0 -125 194l42 304h149
l-37 -259q-8 -59 -1 -82t33 -23q32 0 67.5 43.5t42.5 96.5l27 224h150l-15 -119q4 -1 10 -1q14 0 23.5 8.5t15 27t8.5 35.5t7 47z" />
    <glyph glyph-name="uni1EEE" unicode="&#x1eee;" horiz-adv-x="770" 
d="M355 810q-32 0 -57 -50l-84 41q53 110 128 110q37 0 76 -26q30 -20 44 -20q34 0 58 48l84 -32q-52 -119 -128 -119q-32 0 -77 30q-26 18 -44 18zM712 774h122l-10 -86q-12 -90 -53 -134.5t-103 -44.5q-19 0 -41 5l-27 -221q-20 -161 -93.5 -231.5t-207.5 -70.5
q-139 0 -194.5 85.5t-36.5 241.5l49 392h160l-50 -405q-20 -164 85 -164q53 0 85.5 36t42.5 120l51 413h160l-16 -130q10 -2 13 -2q14 0 23.5 8.5t15 27t8.5 35.5t7 47z" />
    <glyph glyph-name="uni1EEF" unicode="&#x1eef;" horiz-adv-x="661" 
d="M273 599q-33 0 -58 -51l-84 42q50 120 129 120q8 0 15.5 -1t14.5 -3t11.5 -3.5t10.5 -5t8.5 -5t8 -5t6.5 -4.5q27 -19 42 -19q35 0 60 49l84 -34q-23 -59 -55.5 -93.5t-72.5 -34.5q-33 0 -76 30q-24 18 -44 18zM574 565h122l-10 -86q-12 -90 -53 -134.5t-103 -44.5
q-21 0 -38 4l-37 -304h-147l6 72h-2q-60 -81 -145 -81q-153 0 -125 194l42 304h149l-37 -259q-8 -59 -1 -82t33 -23q32 0 67.5 43.5t42.5 96.5l27 224h150l-15 -119q4 -1 10 -1q14 0 23.5 8.5t15 27t8.5 35.5t7 47z" />
    <glyph glyph-name="uni1EF0" unicode="&#x1ef0;" horiz-adv-x="770" 
d="M712 774h122l-10 -86q-12 -90 -53 -134.5t-103 -44.5q-19 0 -41 5l-27 -221q-20 -161 -93.5 -231.5t-207.5 -70.5q-139 0 -194.5 85.5t-36.5 241.5l49 392h160l-50 -405q-20 -164 85 -164q53 0 85.5 36t42.5 120l51 413h160l-16 -130q10 -2 13 -2q14 0 23.5 8.5t15 27
t8.5 35.5t7 47zM285 -60q39 0 64.5 -24.5t25.5 -61.5q0 -38 -26 -63t-67 -25q-40 0 -65 24t-25 61q0 39 26 64t67 25z" />
    <glyph glyph-name="uni1EF1" unicode="&#x1ef1;" horiz-adv-x="661" 
d="M574 565h122l-10 -86q-12 -90 -53 -134.5t-103 -44.5q-21 0 -38 4l-37 -304h-147l6 72h-2q-60 -81 -145 -81q-153 0 -125 194l42 304h149l-37 -259q-8 -59 -1 -82t33 -23q32 0 67.5 43.5t42.5 96.5l27 224h150l-15 -119q4 -1 10 -1q14 0 23.5 8.5t15 27t8.5 35.5t7 47z
M223 -60q39 0 64.5 -24.5t25.5 -61.5q0 -38 -26 -63t-67 -25q-40 0 -65 24t-25 61q0 39 26 64t67 25z" />
    <glyph glyph-name="Ygrave" unicode="&#x1ef2;" horiz-adv-x="581" 
d="M294 761l-94 140l150 -1l81 -139h-137zM179 0l39 310l-159 400h176l79 -250h3l138 250h183l-259 -400l-38 -310h-162z" />
    <glyph glyph-name="ygrave" unicode="&#x1ef3;" horiz-adv-x="534" 
d="M386 557h-137l-93 150l150 -1zM363 489h149l-52 -423q-32 -273 -276 -273q-99 0 -177 48l47 113q58 -38 122 -38q57 0 89.5 31.5t45.5 121.5v1l-3 1q-59 -80 -145 -80q-153 0 -125 194l42 304h149l-36 -259q-8 -59 -1.5 -82t33.5 -23q33 0 68.5 44.5t41.5 96.5z" />
    <glyph glyph-name="uni1EF4" unicode="&#x1ef4;" horiz-adv-x="581" 
d="M179 0l39 310l-159 400h176l79 -250h3l138 250h183l-259 -400l-38 -310h-162zM244 -60q39 0 64.5 -24.5t25.5 -61.5q0 -38 -26 -63t-67 -25q-40 0 -65 24t-25 61q0 39 26 64t67 25z" />
    <glyph glyph-name="uni1EF5" unicode="&#x1ef5;" horiz-adv-x="534" 
d="M363 489h149l-52 -423q-32 -273 -276 -273q-99 0 -177 48l47 113q58 -38 122 -38q57 0 89.5 31.5t45.5 121.5v1l-3 1q-59 -80 -145 -80q-153 0 -125 194l42 304h149l-36 -259q-8 -59 -1.5 -82t33.5 -23q33 0 68.5 44.5t41.5 96.5zM207 -215q39 0 64.5 -24.5t25.5 -61.5
q0 -38 -26 -63t-67 -25q-40 0 -65 24t-25 61q0 39 26 64t67 25z" />
    <glyph glyph-name="uni1EF6" unicode="&#x1ef6;" horiz-adv-x="581" 
d="M382 761l-81 1q56 39 59 61q1 8 -5 13t-19 5q-31 0 -64 -20l-18 62q23 20 61 34.5t77 14.5q38 0 60.5 -16t22.5 -46q0 -34 -26 -62.5t-67 -46.5zM179 0l39 310l-159 400h176l79 -250h3l138 250h183l-259 -400l-38 -310h-162z" />
    <glyph glyph-name="uni1EF7" unicode="&#x1ef7;" horiz-adv-x="534" 
d="M285 646q-30 0 -65 -23l-18 63q23 22 61 38t77 16q40 0 63 -18t23 -51q0 -38 -27.5 -72t-68.5 -53l-81 1q56 42 59 77q3 22 -23 22zM363 489h149l-52 -423q-32 -273 -276 -273q-99 0 -177 48l47 113q58 -38 122 -38q57 0 89.5 31.5t45.5 121.5v1l-3 1q-59 -80 -145 -80
q-153 0 -125 194l42 304h149l-36 -259q-8 -59 -1.5 -82t33.5 -23q33 0 68.5 44.5t41.5 96.5z" />
    <glyph glyph-name="uni1EF8" unicode="&#x1ef8;" horiz-adv-x="581" 
d="M437 762q-32 0 -77 30q-26 18 -44 18q-32 0 -57 -50l-84 41q53 110 128 110q37 0 76 -26q30 -20 44 -20q34 0 58 48l84 -32q-52 -119 -128 -119zM179 0l39 310l-159 400h176l79 -250h3l138 250h183l-259 -400l-38 -310h-162z" />
    <glyph glyph-name="uni1EF9" unicode="&#x1ef9;" horiz-adv-x="534" 
d="M264 599q-33 0 -58 -51l-84 42q50 120 129 120q35 0 75 -27q27 -19 42 -19q36 0 60 49l84 -34q-23 -59 -55.5 -93.5t-72.5 -34.5q-34 0 -76 30q-24 18 -44 18zM335 266l28 223h149l-52 -423q-32 -273 -276 -273q-99 0 -177 48l47 113q58 -38 122 -38q57 0 89.5 31.5
t45.5 121.5v1l-3 1q-59 -80 -145 -80q-153 0 -125 194l42 304h149l-36 -259q-8 -59 -1.5 -82t33.5 -23q33 0 68.5 44.5t41.5 96.5z" />
    <glyph glyph-name="uni2002" unicode="&#x2002;" horiz-adv-x="467" 
 />
    <glyph glyph-name="uni2003" unicode="&#x2003;" horiz-adv-x="934" 
 />
    <glyph glyph-name="uni2007" unicode="&#x2007;" horiz-adv-x="586" 
 />
    <glyph glyph-name="uni2009" unicode="&#x2009;" horiz-adv-x="16" 
 />
    <glyph glyph-name="uni2010" unicode="&#x2010;" horiz-adv-x="359" 
d="M40 240l17 137h277l-17 -137h-277z" />
    <glyph glyph-name="figuredash" unicode="&#x2012;" horiz-adv-x="586" 
d="M39 236l15 126h507l-15 -126h-507z" />
    <glyph glyph-name="endash" unicode="&#x2013;" horiz-adv-x="548" 
d="M40 236l15 126h467l-15 -126h-467z" />
    <glyph glyph-name="emdash" unicode="&#x2014;" horiz-adv-x="1015" 
d="M40 236l15 126h934l-15 -126h-934z" />
    <glyph glyph-name="uni2015" unicode="&#x2015;" horiz-adv-x="1182" 
d="M40 236l15 126h1101l-16 -126h-1100z" />
    <glyph glyph-name="quoteleft" unicode="&#x2018;" horiz-adv-x="227" 
d="M262 709l-59 -267h-149l96 267h112z" />
    <glyph glyph-name="quoteright" unicode="&#x2019;" horiz-adv-x="227" 
d="M54 443l59 267h149l-96 -267h-112z" />
    <glyph glyph-name="quotesinglbase" unicode="&#x201a;" horiz-adv-x="238" 
d="M-27 -133l59 267h148l-101 -267h-106z" />
    <glyph glyph-name="quotedblleft" unicode="&#x201c;" horiz-adv-x="425" 
d="M262 709l-59 -267h-150l97 267h112zM459 709l-59 -267h-149l96 267h112z" />
    <glyph glyph-name="quotedblright" unicode="&#x201d;" horiz-adv-x="424" 
d="M55 443l59 267h149l-96 -267h-112zM252 443l59 267h150l-97 -267h-112z" />
    <glyph glyph-name="quotedblbase" unicode="&#x201e;" horiz-adv-x="436" 
d="M-19 -79l59 267h149l-96 -267h-112zM178 -79l59 267h150l-97 -267h-112z" />
    <glyph glyph-name="dagger" unicode="&#x2020;" horiz-adv-x="352" 
d="M175 220l-33 69l19 124l12 107h-16l-82 -5l11 81l80 -4h15l9 95h82l-16 -95h16l82 6l-11 -83l-80 5h-17l-13 -107l-9 -124z" />
    <glyph glyph-name="daggerdbl" unicode="&#x2021;" horiz-adv-x="353" 
d="M112 52l15 94h-15l-83 -6l10 82l81 -4h17l5 48l9 103l17 101l6 50h-17l-82 -4l11 80l80 -5h16l7 96h83l-17 -96h17l82 5l-11 -80l-81 4h-15l-6 -50l-9 -101l-18 -103l-4 -48h16l82 4l-10 -81l-81 5h-17l-6 -94h-82z" />
    <glyph glyph-name="bullet" unicode="&#x2022;" horiz-adv-x="421" 
d="M217 194q-52 0 -86.5 34.5t-34.5 86.5t36 87.5t90 35.5q52 0 86 -34t34 -85q0 -54 -36 -89.5t-89 -35.5z" />
    <glyph glyph-name="ellipsis" unicode="&#x2026;" horiz-adv-x="1000" 
d="M139 -11q-39 0 -62.5 24.5t-23.5 62.5q0 39 24.5 63.5t64.5 24.5t63.5 -24t23.5 -61q0 -40 -24.5 -65t-65.5 -25zM473 -11q-39 0 -62.5 24.5t-23.5 62.5q0 39 24.5 63.5t64.5 24.5t63.5 -24t23.5 -61q0 -40 -24.5 -65t-65.5 -25zM807 -11q-39 0 -62.5 24.5t-23.5 62.5
q0 39 24.5 63.5t64.5 24.5t63.5 -24t23.5 -61q0 -40 -24.5 -65t-65.5 -25z" />
    <glyph glyph-name="perthousand" unicode="&#x2030;" horiz-adv-x="1422" 
d="M375 -25l-107 49l371 704l107 -49zM247 319q-79 0 -131.5 52.5t-52.5 134.5q0 89 60 150t146 61q80 0 132.5 -52t52.5 -134q0 -90 -60.5 -151t-146.5 -61zM251 421q38 0 64.5 30.5t26.5 76.5q0 39 -22 62.5t-56 23.5q-37 0 -63 -30.5t-26 -75.5q0 -40 21.5 -63.5
t54.5 -23.5zM746 -9q-80 0 -132 52.5t-52 134.5q0 89 60 150t146 61q80 0 132.5 -52t52.5 -134q0 -91 -60.5 -151.5t-146.5 -60.5zM1179 -9q-79 0 -131.5 52.5t-52.5 134.5q0 89 60 150t146 61q80 0 132.5 -52t52.5 -134q0 -90 -60.5 -151t-146.5 -61zM750 93
q38 0 64.5 30.5t26.5 76.5q0 39 -22 62.5t-56 23.5q-36 0 -62.5 -30.5t-26.5 -75.5q0 -40 21.5 -63.5t54.5 -23.5zM1183 93q38 0 64.5 30.5t26.5 76.5q0 39 -22 62.5t-56 23.5q-36 0 -62.5 -30.5t-26.5 -75.5q0 -40 21.5 -63.5t54.5 -23.5z" />
    <glyph glyph-name="minute" unicode="&#x2032;" horiz-adv-x="281" 
d="M50 443l106 267h149l-143 -267h-112z" />
    <glyph glyph-name="second" unicode="&#x2033;" horiz-adv-x="475" 
d="M50 443l106 267h149l-143 -267h-112zM244 443l106 267h149l-143 -267h-112z" />
    <glyph glyph-name="guilsinglleft" unicode="&#x2039;" horiz-adv-x="289" 
d="M111 46l-78 201l129 205h138l-129 -205l77 -201h-137z" />
    <glyph glyph-name="guilsinglright" unicode="&#x203a;" horiz-adv-x="287" 
d="M-10 46l128 201l-79 205h139l78 -205l-126 -201h-140z" />
    <glyph glyph-name="uni203D" unicode="&#x203d;" horiz-adv-x="433" 
d="M263 745q74 0 126 -42t52 -118q0 -114 -108 -202q-69 -59 -78 -100l-9 -44h-123l10 290h156l-5 -23q9 20 9 41q0 59 -62 59q-47 0 -83 -46l-92 91q78 94 207 94zM172 164q40 0 63.5 -24t23.5 -61q0 -40 -24.5 -65t-65.5 -25q-39 0 -62.5 24.5t-23.5 62.5q0 39 24.5 63.5
t64.5 24.5z" />
    <glyph glyph-name="uni2042" unicode="&#x2042;" horiz-adv-x="754" 
d="M332 380l17 97l-73 -52l-37 76l77 43l-67 45l53 76l63 -52l8 97h86l-16 -97l74 51l36 -75l-78 -44l68 -44l-53 -76l-61 52l-10 -97h-87zM115 45l17 97l-73 -52l-37 76l77 43l-67 45l53 76l63 -52l8 97h86l-16 -97l74 51l36 -75l-78 -44l68 -44l-53 -76l-61 52l-10 -97
h-87zM503 45l17 97l-73 -52l-37 76l77 43l-67 45l53 76l63 -52l8 97h86l-16 -97l74 51l36 -75l-78 -44l68 -44l-53 -76l-61 52l-10 -97h-87z" />
    <glyph glyph-name="fraction" unicode="&#x2044;" horiz-adv-x="196" 
d="M-7 -25l-105 49l371 704l106 -49z" />
    <glyph glyph-name="uni2051" unicode="&#x2051;" horiz-adv-x="366" 
d="M156 380l17 97l-73 -52l-36 76l76 43l-67 45l53 76l63 -52l8 97h86l-16 -97l74 51l36 -75l-78 -44l68 -44l-52 -76l-62 52l-9 -97h-88zM112 13l16 97l-73 -51l-36 76l77 43l-68 45l53 76l63 -52l9 97h86l-17 -97l74 50l36 -74l-78 -44l68 -44l-53 -77l-60 52l-11 -97h-86
z" />
    <glyph glyph-name="uni2070" unicode="&#x2070;" horiz-adv-x="372" 
d="M212 426q-69 0 -107 46t-38 127q0 105 50.5 181t137.5 76q69 0 108 -46t39 -126q0 -107 -50 -182.5t-140 -75.5zM217 530q24 0 41.5 26.5t24.5 60.5t7 69q0 32 -10 49.5t-27 17.5q-36 0 -55 -49.5t-19 -106.5q0 -67 38 -67z" />
    <glyph glyph-name="colonmonetary" unicode="&#x20a1;" horiz-adv-x="565" 
d="M576 605l-90 -110l-181 -362q5 -1 15 -1q62 0 110 54l91 -107q-82 -87 -207 -87q-41 0 -75 10l-41 -82l-50 24l39 78q-18 9 -34 22l-62 -124l-50 24l71 141q-61 79 -61 206q0 175 91.5 289t239.5 114q11 0 35 -2l24 47l49 -23l-18 -36q26 -10 38 -17l38 76l49 -23
l-43 -86q8 -7 22 -25zM225 188q11 -19 29 -34l189 377q-18 13 -37 17zM202 288q0 -15 1 -22l142 282q-62 -17 -102.5 -92t-40.5 -168z" />
    <glyph glyph-name="lira" unicode="&#x20a4;" horiz-adv-x="517" 
d="M252 235l-11 -93h238l-17 -142h-451l17 142h52l11 93h-45l10 79h45l6 53h-44l10 80h44l1 10q15 125 75.5 181.5t144.5 56.5q55 0 103 -26t77 -73l-87 -96q-16 25 -37.5 39.5t-39.5 14.5q-63 0 -77 -107h128l-10 -80h-127l-6 -53h126l-10 -79h-126z" />
    <glyph glyph-name="uni20A6" unicode="&#x20a6;" horiz-adv-x="637" 
d="M626 369h-51l-6 -53h51l-11 -80h-50l-29 -236h-151l-72 236h-86l-29 -236h-146l29 236h-51l10 80h51l6 53h-50l10 79h50l29 239h148l71 -239h89l29 239h147l-29 -239h52zM249 465l-18 -149h52l-32 149h-2zM411 219l18 150h-56l1 -4l35 -146h2z" />
    <glyph glyph-name="peseta" unicode="&#x20a7;" horiz-adv-x="601" 
d="M614 499l-11 -82h-52q-18 -90 -84 -139.5t-175 -49.5h-61l-27 -228h-157l52 417h-59l10 82h59l23 189h223q103 0 153 -50.5t51 -138.5h55zM269 559l-7 -60h138q-11 60 -72 60h-59zM293 355q81 0 101 62h-142l-7 -62h48z" />
    <glyph glyph-name="dong" unicode="&#x20ab;" horiz-adv-x="539" 
d="M592 637l-11 -90h-41l-68 -547h-150l9 72l-3 1q-58 -82 -141 -82q-77 0 -118.5 56t-41.5 144q0 130 67 218.5t164 88.5q72 0 117 -43h3l11 92h-158l11 90h158l12 99h151l-12 -99h41zM365 315l2 14q-32 35 -83 35q-47 0 -76.5 -51t-29.5 -111q0 -35 15.5 -56.5t40.5 -21.5
q42 0 80 51.5t51 139.5zM19 -173l16 126h430l-15 -126h-431z" />
    <glyph glyph-name="Euro" unicode="&#x20ac;" horiz-adv-x="547" 
d="M341 134q55 0 90 35l77 -119q-83 -58 -177 -58q-103 0 -174 62.5t-85 184.5h-61l10 79h48q1 20 5 53h-46l10 79h54q34 112 115.5 178t191.5 66q99 0 171 -60l-102 -110q-28 28 -68 28q-92 0 -140 -102h186l-10 -79h-199q-4 -25 -6 -53h198l-10 -79h-182q11 -51 38.5 -78
t65.5 -27z" />
    <glyph glyph-name="uni20AE" unicode="&#x20ae;" horiz-adv-x="513" 
d="M520 544h-151l-14 -117l108 44l22 -70l-141 -58l-7 -61l102 42l23 -71l-136 -56l-24 -197h-156l16 130l-103 -42l-22 71l135 56l8 61l-97 -40l-22 71l129 53l23 184h-149l17 143h456z" />
    <glyph glyph-name="uni20B1" unicode="&#x20b1;" horiz-adv-x="610" 
d="M608 469h-51q0 -15 -3 -30h51l-10 -80h-64q-60 -131 -240 -131h-61l-27 -228h-156l44 359h-58l9 80h59l3 30h-58l10 80h58l17 139h223q171 0 199 -139h65zM330 565h-64l-4 -35h142q-20 35 -74 35zM254 469l-4 -30h164q2 18 2 30h-162zM295 339q67 0 95 39h-147l-5 -39h57
z" />
    <glyph glyph-name="uni20B2" unicode="&#x20b2;" horiz-adv-x="588" 
d="M407 548l-18 -159h180l-41 -336q-65 -50 -179 -60l-13 -110h-98l14 115q-93 17 -147 90t-54 203q0 160 76.5 270t204.5 129l11 92h99l-11 -92q97 -17 155 -96l-110 -99q-29 42 -69 53zM321 538q-51 -25 -80 -89.5t-29 -148.5q0 -123 64 -156zM423 257h-49l-15 -123
q27 3 51 15z" />
    <glyph glyph-name="uni20B4" unicode="&#x20b4;" horiz-adv-x="518" 
d="M506 550q0 -68 -66 -114h58l-10 -74h-90q-15 -9 -44 -27.5t-35 -21.5h163l-10 -75h-232q-48 -30 -48 -63q0 -20 18.5 -32t46.5 -12q71 0 131 64l84 -105q-92 -100 -254 -100q-87 0 -138 35t-51 98q0 68 64 115h-59l9 75h85l81 49h-159l9 74h230q55 35 55 72q0 41 -52 41
q-54 0 -121 -64l-86 102q46 50 111 76.5t133 26.5q85 0 131 -38.5t46 -101.5z" />
    <glyph glyph-name="uni20B5" unicode="&#x20b5;" horiz-adv-x="565" 
d="M358 137q38 11 72 49l91 -107q-73 -77 -173 -85l-13 -111h-99l14 115q-92 18 -145.5 91t-53.5 202q0 159 76.5 269t203.5 130l11 92h98l-11 -92q97 -16 147 -85l-111 -99q-24 34 -59 43zM319 537q-50 -26 -78.5 -90t-28.5 -147q0 -121 62 -155z" />
    <glyph glyph-name="uni20B8" unicode="&#x20b8;" horiz-adv-x="507" 
d="M79 687h456l-13 -107h-456zM47 417l13 107h456l-13 -107h-151l-51 -417h-158l51 417h-147z" />
    <glyph glyph-name="uni20B9" unicode="&#x20b9;" horiz-adv-x="489" 
d="M507 580h-139l-1 -2q23 -17 34 -57h99l-11 -97h-84q-10 -67 -58.5 -115t-132.5 -62l176 -247h-182l-169 253l14 114h73q90 0 114 67h-179l10 83h175q-12 69 -109 69h-57l12 101h429z" />
    <glyph glyph-name="uni20BA" unicode="&#x20ba;" horiz-adv-x="595" 
d="M443 287l121 -43q-51 -132 -125.5 -188t-180.5 -56h-190l23 189l-64 -29l-25 74l100 45l7 58l-64 -29l-25 74l100 45l32 260h160l-22 -184l136 61l25 -73l-172 -78l-7 -57l136 61l25 -74l-172 -78l-17 -138h24q58 0 98.5 37t76.5 123z" />
    <glyph glyph-name="uni20BC" unicode="&#x20bc;" horiz-adv-x="687" 
d="M449 692q119 -15 167 -98.5t29 -223.5l-47 -370h-152l48 382q15 126 -56 156l-55 -441h-114l54 441q-80 -29 -95 -148l-49 -390h-152l49 394q18 147 86 217.5t188 81.5l11 89h99z" />
    <glyph glyph-name="uni20BD" unicode="&#x20bd;" horiz-adv-x="550" 
d="M293 258h-59l-6 -53h199l-10 -82h-199l-14 -123h-156l15 123h-56l9 82h57l7 53h-56l10 89h56l42 340h223q105 0 154.5 -50.5t49.5 -138.5q0 -107 -68 -173.5t-198 -66.5zM323 550h-54l-22 -178h38q56 0 83.5 31t26.5 76q0 35 -20.5 53t-51.5 18z" />
    <glyph glyph-name="uni2113" unicode="&#x2113;" horiz-adv-x="466" 
d="M399 130l45 -31q-63 -109 -177 -109q-159 0 -181 141q-3 -2 -56 -44l-27 39q11 9 38.5 30.5t40.5 33.5l2 258q1 120 47 175.5t126 55.5q58 0 88 -41t30 -105q0 -146 -175 -311v-21q0 -142 92 -142q56 0 107 71zM272 605q-28 0 -50.5 -37.5t-21.5 -115.5v-164
q125 135 125 235q0 82 -53 82z" />
    <glyph glyph-name="uni2116" unicode="&#x2116;" horiz-adv-x="983" 
d="M818 410q-57 0 -90.5 33.5t-33.5 93.5q0 74 43.5 126t122.5 52q56 0 89 -32.5t33 -93.5q0 -75 -41.5 -127t-122.5 -52zM38 0l87 710h150l188 -440l3 1l54 439h156l-88 -710h-155l-183 429h-3l-54 -429h-155zM827 503q22 0 38 22.5t16 53.5q0 43 -32 43q-23 0 -38.5 -23.5
t-15.5 -53.5q0 -21 9.5 -31.5t22.5 -10.5zM676 267l8 95h254l-9 -95h-253z" />
    <glyph glyph-name="uni2117" unicode="&#x2117;" horiz-adv-x="724" 
d="M361 -6q-135 0 -229 95.5t-94 229.5t94.5 230t229.5 96q136 0 229.5 -96t93.5 -230q0 -133 -94.5 -229t-229.5 -96zM361 89q96 0 161.5 67.5t65.5 162.5q0 97 -65 163.5t-161 66.5q-97 0 -162.5 -67.5t-65.5 -163.5t65 -162.5t162 -66.5zM244 159v324h129q58 0 87 -31
t29 -83q0 -54 -32.5 -82t-89.5 -28h-41v-100h-82zM326 333h28q22 0 35 10t13 28q0 16 -12.5 26.5t-35.5 10.5h-28v-75z" />
    <glyph glyph-name="uni2120" unicode="&#x2120;" horiz-adv-x="644" 
d="M193 637q-13 0 -21.5 -6t-8.5 -15q0 -15 39 -31q46 -18 68 -37t22 -56q0 -53 -35.5 -81t-93.5 -28q-76 0 -122 48l52 61q32 -35 74 -35q35 0 35 24q-1 14 -47 34q-18 8 -28.5 14t-25 17.5t-21.5 27.5t-7 37q0 44 33 72.5t87 28.5q64 0 112 -39l-50 -63q-34 27 -62 27z
M578 710h90l-40 -323h-86l21 163l-53 -103h-55l-28 103l-21 -163h-86l40 323h88l44 -161z" />
    <glyph glyph-name="trademark" unicode="&#x2122;" horiz-adv-x="621" 
d="M73 710h228l-9 -78h-70l-31 -245h-87l30 245h-70zM555 710h90l-40 -323h-86l21 163l-53 -103h-55l-28 103l-21 -163h-86l40 323h88l44 -161z" />
    <glyph glyph-name="uni2126" unicode="&#x2126;" horiz-adv-x="683" 
d="M17 0l18 143h97l1 3q-75 86 -75 219q0 150 95.5 252t241.5 102q124 0 197 -81.5t73 -204.5q0 -85 -35.5 -160t-99.5 -129v-1h93l-18 -143h-257l18 143q131 119 131 276q0 74 -29.5 114t-80.5 40q-75 -1 -120 -69.5t-45 -160.5q0 -110 70 -200l-17 -143h-258z" />
    <glyph glyph-name="estimated" unicode="&#x212e;" horiz-adv-x="790" 
d="M395 -10q-147 0 -250 94t-103 227q0 134 103 227.5t250 93.5t249.5 -94t102.5 -227v-9h-496v-233q61 -41 145 -41q134 0 210 84h64q-47 -56 -120 -89t-155 -33zM251 347h287v206q-63 40 -142 40q-83 0 -145 -41v-205z" />
    <glyph glyph-name="partialdiff" unicode="&#x2202;" horiz-adv-x="541" 
d="M232 -9q-85 0 -138.5 51.5t-53.5 140.5q0 109 63.5 184.5t161.5 75.5q58 0 98 -37l3 1v5q0 156 -92 156q-38 0 -121 -29l-22 114q95 42 188 42q194 0 194 -276q0 -120 -28 -214t-93 -154t-160 -60zM248 130q71 0 103 141q-31 51 -70 51q-41 0 -65.5 -32.5t-24.5 -81.5
q0 -34 14.5 -56t42.5 -22z" />
    <glyph glyph-name="emptyset" unicode="&#x2205;" horiz-adv-x="734" 
d="M625 508q61 -87 61 -190q0 -132 -93.5 -227t-227.5 -95q-104 0 -190 63l-52 -52l-63 61l53 53q-67 88 -67 197q0 132 93.5 226.5t227.5 94.5q112 0 196 -68l49 49l62 -63zM169 316q0 -60 31 -108l275 275q-49 33 -109 33q-83 0 -140 -58.5t-57 -141.5zM365 119
q83 0 140 58.5t57 140.5q0 52 -26 101l-273 -272q47 -28 102 -28z" />
    <glyph glyph-name="uni2206" unicode="&#x2206;" horiz-adv-x="619" 
d="M0 0l14 122l275 588h154l130 -588l-15 -122h-558zM186 143h221l-63 365h-2z" />
    <glyph glyph-name="product" unicode="&#x220f;" horiz-adv-x="639" 
d="M24 -106l100 816h505l-100 -816h-161l82 673h-182l-83 -673h-161z" />
    <glyph glyph-name="summation" unicode="&#x2211;" horiz-adv-x="565" 
d="M6 -73l13 112l230 280l-159 276l13 115h478l-17 -143h-273v-2l132 -246l-190 -247v-2h270l-18 -143h-479z" />
    <glyph glyph-name="minus" unicode="&#x2212;" horiz-adv-x="517" 
d="M40 214l16 126h430l-15 -126h-431z" />
    <glyph glyph-name="radical" unicode="&#x221a;" horiz-adv-x="680" 
d="M254 0l-89 500h-105l14 121h222l66 -423h2l340 624h105l-461 -822h-94z" />
    <glyph glyph-name="infinity" unicode="&#x221e;" horiz-adv-x="691" 
d="M512 455q62 0 101 -43.5t39 -110.5q0 -80 -50 -138t-122 -58q-83 0 -139 91q-77 -91 -154 -91q-62 0 -100.5 43t-38.5 110q0 80 49.5 138.5t121.5 58.5q81 0 137 -91q83 91 156 91zM205 216q22 0 40.5 16.5t43.5 51.5q-10 20 -17 31t-18.5 19.5t-24.5 8.5q-28 0 -45 -25
t-17 -57q0 -45 38 -45zM473 216q25 0 42 24.5t17 58.5q0 44 -38 44q-35 0 -85 -68q16 -30 30 -44.5t34 -14.5z" />
    <glyph glyph-name="integral" unicode="&#x222b;" horiz-adv-x="333" 
d="M6 -174q-36 -2 -85 7l18 113h8q47 0 59.5 19t23.5 89l75 498q11 73 56 112t106 41q33 0 60 -4t41 -9l13 -4l-17 -104h-39q-47 0 -59.5 -18.5t-22.5 -90.5l-75 -498q-12 -72 -56.5 -110.5t-105.5 -40.5z" />
    </font>
</defs>
</svg>
