<?xml version="1.0" standalone="no"?>
<!DOCTYPE svg PUBLIC "-//W3C//DTD SVG 1.1//EN" "http://www.w3.org/Graphics/SVG/1.1/DTD/svg11.dtd" >
<svg xmlns="http://www.w3.org/2000/svg" xmlns:xlink="http://www.w3.org/1999/xlink" version="1.1">
<metadata>
Created by FontForge 20170731 at Sat Jul 15 13:37:27 2017
 By Aleksey,,,
Copyright (c) 2015 by Kostas Bartsokas. All rights reserved.
</metadata>
<defs>
<font id="AvertaStd-ExtrathinItalic" horiz-adv-x="0" >
  <font-face 
    font-family="Averta Std Extrathin"
    font-weight="250"
    font-style="italic"
    font-stretch="normal"
    units-per-em="1000"
    panose-1="0 0 3 0 0 0 0 0 0 0"
    ascent="800"
    descent="-200"
    x-height="484"
    cap-height="710"
    bbox="-669 -308 1285 1033"
    underline-thickness="18"
    underline-position="-114"
    slope="-7"
    unicode-range="U+000D-2E18"
  />
<missing-glyph horiz-adv-x="395" 
 />
    <glyph glyph-name=".notdef" horiz-adv-x="395" 
 />
    <glyph glyph-name=".null" 
 />
    <glyph glyph-name="nonmarkingreturn" horiz-adv-x="333" 
 />
    <glyph glyph-name="CR" unicode="&#xd;" 
 />
    <glyph glyph-name="space" unicode=" " horiz-adv-x="237" 
 />
    <glyph glyph-name="exclam" unicode="!" horiz-adv-x="200" 
d="M88 180l65 556h25l-72 -556h-18zM82 -4q-26 0 -26 27q0 11 7.5 19t19.5 8q11 0 18.5 -7.5t7.5 -18.5q0 -12 -8 -20t-19 -8z" />
    <glyph glyph-name="quotedbl" unicode="&#x22;" horiz-adv-x="241" 
d="M83 493l59 217h27l-65 -217h-21zM161 493l58 217h27l-64 -217h-21z" />
    <glyph glyph-name="numbersign" unicode="#" horiz-adv-x="563" 
d="M103 -25l58 224h-119l3 22h121l49 187h-130l3 21h132l59 227h22l-59 -227h173l58 227h22l-59 -227h124l-3 -21h-127l-48 -187h135l-3 -22h-139l-57 -224h-22l58 224h-172l-58 -224h-21zM187 221h173l49 187h-173z" />
    <glyph glyph-name="dollar" unicode="$" horiz-adv-x="511" 
d="M324 664q89 -10 149 -74l-17 -18q-64 70 -156 70q-70 0 -116.5 -38t-46.5 -100q0 -28 10.5 -50.5t36 -42.5t42.5 -30.5t55 -31.5q42 -23 63.5 -36t50.5 -36t41.5 -48t12.5 -55q0 -79 -55 -128t-144 -49h-8l-15 -122h-21l15 124q-116 13 -176 104l19 17q66 -100 186 -100
q79 0 127 42.5t48 110.5q0 21 -10 40.5t-20 32t-37.5 31t-39 25t-48.5 26.5t-58 33t-47.5 35t-39 48.5t-12.5 57.5q0 72 52.5 117.5t136.5 45.5h1l15 127h21z" />
    <glyph glyph-name="percent" unicode="%" horiz-adv-x="909" 
d="M295 -7l-20 8l362 717l20 -9zM250 329q-76 0 -126 50t-50 128q0 86 57.5 146t139.5 60q78 0 129 -49t51 -127q0 -89 -58.5 -148.5t-142.5 -59.5zM250 351q75 0 127 53.5t52 132.5q0 69 -44.5 111.5t-113.5 42.5q-73 0 -124 -54t-51 -130q0 -69 44 -112.5t110 -43.5z
M653 -3q-76 0 -126 50t-50 128q0 85 57.5 145t139.5 60q78 0 129 -48.5t51 -127.5q0 -89 -58.5 -148t-142.5 -59zM653 19q75 0 127 53t52 132q0 69 -44 111.5t-114 42.5q-73 0 -124 -54t-51 -129q0 -69 43.5 -112.5t110.5 -43.5z" />
    <glyph glyph-name="ampersand" unicode="&#x26;" horiz-adv-x="711" 
d="M209 -3q-76 0 -122 46t-46 124q0 82 43 145.5t109 89.5q-30 15 -50 45.5t-20 72.5q0 81 55.5 137.5t143.5 56.5q65 0 104 -33.5t46 -90.5l-22 -7q-5 50 -38.5 79t-90.5 29q-80 0 -127.5 -49.5t-47.5 -123.5q0 -42 25 -72.5t63 -30.5h467l-3 -23h-177
q-6 -111 -39.5 -197.5t-103.5 -142t-169 -55.5zM210 19q128 0 204.5 101t84.5 272h-249q-72 0 -129.5 -67.5t-57.5 -156.5q0 -66 39 -107.5t108 -41.5z" />
    <glyph glyph-name="quotesingle" unicode="'" horiz-adv-x="164" 
d="M83 493l59 217h27l-65 -217h-21z" />
    <glyph glyph-name="parenleft" unicode="(" horiz-adv-x="227" 
d="M116 -137q-46 152 -46 302t41 298t117 269l17 -10q-74 -119 -113.5 -263t-39.5 -290q0 -142 45 -296z" />
    <glyph glyph-name="parenright" unicode=")" horiz-adv-x="227" 
d="M18 -136l-19 8q149 274 149 550q0 165 -49 299l20 12q51 -132 51 -308q0 -283 -152 -561z" />
    <glyph glyph-name="asterisk" unicode="*" horiz-adv-x="383" 
d="M201 406l20 139l-114 -74l-8 21l118 66l-103 66l13 20l98 -73l14 139h21l-21 -139l115 74l8 -21l-119 -66l104 -66l-13 -19l-98 72l-14 -139h-21z" />
    <glyph glyph-name="plus" unicode="+" horiz-adv-x="543" 
d="M237 46l27 219h-197l3 22h197l27 220h22l-27 -220h195l-3 -22h-195l-27 -219h-22z" />
    <glyph glyph-name="comma" unicode="," horiz-adv-x="160" 
d="M-7 -128l58 218h28l-67 -218h-19z" />
    <glyph glyph-name="hyphen" unicode="-" horiz-adv-x="380" 
d="M67 296l3 23h259l-2 -23h-260z" />
    <glyph glyph-name="period" unicode="." horiz-adv-x="178" 
d="M61 -4q-26 0 -26 27q0 11 7.5 19t19.5 8q11 0 18.5 -7.5t7.5 -18.5q0 -12 -8 -20t-19 -8z" />
    <glyph glyph-name="slash" unicode="/" horiz-adv-x="333" 
d="M-48 -115l-18 10l454 851l17 -11z" />
    <glyph glyph-name="zero" unicode="0" horiz-adv-x="564" 
d="M248 -3q-79 0 -130 65.5t-51 191.5q0 80 17.5 156t50 139.5t86 102t120.5 38.5q81 0 130.5 -65t49.5 -193q0 -110 -27.5 -206t-91.5 -162.5t-154 -66.5zM249 20q63 0 112.5 36.5t78 97t43.5 131.5t15 146q0 119 -43.5 177.5t-114.5 58.5q-81 0 -139.5 -64t-84 -155
t-25.5 -193q0 -116 45 -175.5t113 -59.5z" />
    <glyph glyph-name="one" unicode="1" horiz-adv-x="310" 
d="M238 687h23l-84 -687h-23l79 654l-157 -121l-13 19z" />
    <glyph glyph-name="two" unicode="2" horiz-adv-x="448" 
d="M3 0l3 22l247 236q72 69 112 133.5t40 138.5q0 58 -33 97.5t-92 39.5q-57 0 -108.5 -33.5t-76.5 -90.5l-19 13q28 60 84 97t121 37t106 -45t41 -115q0 -137 -157 -287l-229 -218v-2h336l-3 -23h-372z" />
    <glyph glyph-name="three" unicode="3" horiz-adv-x="460" 
d="M189 -3q-73 0 -119.5 34t-61.5 91l21 9q12 -51 53.5 -81t106.5 -30q87 0 140.5 54.5t53.5 142.5q0 59 -37.5 95t-109.5 36h-65l3 23h67q76 0 123 48.5t47 126.5q0 58 -36.5 89.5t-98.5 31.5q-103 0 -175 -89l-19 14q82 98 195 98q71 0 114 -37t43 -107q0 -69 -34 -117.5
t-92 -67.5v-2q48 -16 73.5 -53.5t25.5 -91.5q0 -97 -61 -157t-157 -60z" />
    <glyph glyph-name="four" unicode="4" horiz-adv-x="489" 
d="M356 154h96l-3 -23h-96l-16 -131h-23l16 131h-320l3 23l386 533h22zM333 154l59 483l-350 -483h291z" />
    <glyph glyph-name="five" unicode="5" horiz-adv-x="490" 
d="M475 664h-290l-47 -270q50 33 128 33q84 0 132 -45.5t48 -131.5q0 -110 -67.5 -181.5t-173.5 -71.5q-64 0 -112.5 35t-64.5 90l21 9q17 -52 58 -81.5t99 -29.5q95 0 155.5 65t60.5 164q0 76 -41 115t-116 39q-36 0 -75.5 -11t-60.5 -31l-20 3l57 323h312z" />
    <glyph glyph-name="six" unicode="6" horiz-adv-x="522" 
d="M238 -3q-84 0 -132.5 56t-48.5 148q0 109 45.5 217t130 188.5t185.5 101.5v-23q-117 -24 -205.5 -131t-119.5 -241l2 -1q34 53 90.5 82.5t122.5 29.5q76 0 121 -48.5t45 -125.5q0 -107 -69 -180t-167 -73zM239 21q86 0 149 66t63 163q0 68 -39.5 109t-107.5 41
q-77 0 -135.5 -42t-85.5 -111q-2 -28 -2 -41q0 -85 41.5 -135t116.5 -50z" />
    <glyph glyph-name="seven" unicode="7" horiz-adv-x="442" 
d="M87 687h380l-3 -24l-361 -671l-21 9l356 663h-354z" />
    <glyph glyph-name="eight" unicode="8" horiz-adv-x="521" 
d="M224 -3q-86 0 -135 44.5t-49 119.5t44.5 133.5t121.5 76.5v1q-40 9 -67 40t-27 83q0 85 58 140t147 55q73 0 115 -39t42 -102q0 -61 -36.5 -112t-92.5 -64v-1q56 -13 87.5 -53t31.5 -99q0 -98 -68 -160.5t-172 -62.5zM277 383q73 0 123.5 45.5t50.5 115.5q0 60 -37 91.5
t-102 31.5q-76 0 -126.5 -48t-50.5 -119q0 -58 38 -87.5t104 -29.5zM229 21q90 0 150.5 56.5t60.5 139.5q0 70 -44 106t-118 36q-94 0 -154.5 -56.5t-60.5 -138.5q0 -68 45.5 -105.5t120.5 -37.5z" />
    <glyph glyph-name="nine" unicode="9" horiz-adv-x="525" 
d="M124 -24v23q119 27 214 140t123 250l-1 1q-86 -129 -228 -129q-72 0 -114.5 47t-42.5 121q0 108 69.5 184.5t174.5 76.5q81 0 128 -53.5t47 -155.5q0 -107 -48.5 -215.5t-135 -188t-186.5 -101.5zM232 285q70 0 132 39t105 119q1 13 1 39q-1 94 -41.5 139.5t-109.5 45.5
q-94 0 -157.5 -68.5t-63.5 -163.5q0 -68 34.5 -109t99.5 -41z" />
    <glyph glyph-name="colon" unicode=":" horiz-adv-x="171" 
d="M112 434q-26 0 -26 27q0 11 7.5 19t19.5 8q11 0 18.5 -7.5t7.5 -18.5q0 -12 -8 -20t-19 -8zM58 -4q-26 0 -26 27q0 11 7.5 19t19.5 8q11 0 18.5 -7.5t7.5 -18.5q0 -12 -8 -20t-19 -8z" />
    <glyph glyph-name="semicolon" unicode=";" horiz-adv-x="175" 
d="M121 434q-26 0 -26 27q0 11 7.5 19t19.5 8q11 0 18.5 -7.5t7.5 -18.5q0 -12 -8 -20t-19 -8zM2 -128l58 218h28l-67 -218h-19z" />
    <glyph glyph-name="less" unicode="&#x3c;" horiz-adv-x="517" 
d="M418 65l-361 210l2 16l413 210l-3 -24l-377 -194l329 -193z" />
    <glyph glyph-name="equal" unicode="=" horiz-adv-x="521" 
d="M80 377l3 22h414l-3 -22h-414zM56 153l3 22h414l-3 -22h-414z" />
    <glyph glyph-name="greater" unicode="&#x3e;" horiz-adv-x="514" 
d="M55 65l3 25l377 193l-330 194l3 24l362 -210l-2 -16z" />
    <glyph glyph-name="question" unicode="?" horiz-adv-x="386" 
d="M157 176l8 59q1 13 4.5 25.5t11 25.5t12.5 21t17.5 22.5t17.5 20t21.5 22.5t20.5 21q52 54 76 97.5t24 100.5q0 61 -33 93t-88 32q-97 0 -154 -86l-14 16q68 94 171 94q66 0 103.5 -42.5t37.5 -111.5q0 -60 -27.5 -106t-81.5 -102q-5 -5 -20 -20.5t-20 -21t-16.5 -18.5
t-16.5 -20.5t-11.5 -18.5t-10 -21.5t-4.5 -21.5l-8 -60h-20zM156 -4q-26 0 -26 27q0 11 7.5 19t19.5 8q11 0 18.5 -7.5t7.5 -18.5q0 -12 -8 -20t-19 -8z" />
    <glyph glyph-name="at" unicode="@" horiz-adv-x="898" 
d="M404 -130q-151 0 -250 99t-99 255q0 53 14 108.5t47.5 113t81.5 102.5t124.5 73.5t168.5 28.5q157 0 257 -96t100 -255q0 -56 -15 -111.5t-53.5 -99t-93.5 -43.5q-53 0 -77.5 35t-22.5 90q0 3 0.5 9.5t0.5 7.5h-2q-30 -59 -80.5 -94.5t-109.5 -35.5q-68 0 -107.5 42.5
t-39.5 120.5q0 101 59 172.5t163 71.5q43 0 82 -13.5t60 -37.5l2 1l5 47h22l-27 -225q-1 -10 -4 -45q-6 -123 73 -123q49 0 82.5 39.5t46.5 89t13 101.5q0 150 -92.5 240t-241.5 90q-85 0 -156 -25.5t-117.5 -67t-79 -95.5t-46.5 -108.5t-14 -107.5q0 -146 92 -238.5
t234 -92.5q134 0 228 53l14 -19q-102 -57 -242 -57zM399 80q69 0 129 61t70 145l13 100q-22 26 -62.5 40.5t-76.5 14.5q-94 0 -147 -64t-53 -156q0 -65 31.5 -103t95.5 -38z" />
    <glyph glyph-name="A" unicode="A" horiz-adv-x="585" 
d="M0 0l334 710h27l164 -710h-24l-48 211h-329l-99 -211h-25zM135 234h313l-102 446h-2z" />
    <glyph glyph-name="B" unicode="B" horiz-adv-x="574" 
d="M65 0l87 710h202q71 0 116.5 -33t45.5 -104q0 -64 -35.5 -119.5t-99.5 -76.5v-1q127 -25 127 -149q0 -109 -70.5 -168t-192.5 -59h-180zM135 385h177q79 0 129.5 54.5t50.5 133.5q0 114 -144 114h-176zM91 23h157q108 0 172 51.5t64 148.5q0 139 -174 139h-178z" />
    <glyph glyph-name="C" unicode="C" horiz-adv-x="669" 
d="M342 -3q-122 0 -194.5 81t-72.5 219q0 167 101.5 292t252.5 125q148 0 242 -153l-20 -13q-46 76 -98.5 109.5t-122.5 33.5q-95 0 -172 -56.5t-118 -146t-41 -190.5q0 -129 65.5 -203.5t178.5 -74.5q60 0 122.5 27.5t110.5 80.5l18 -14q-48 -54 -115 -85.5t-137 -31.5z
" />
    <glyph glyph-name="D" unicode="D" horiz-adv-x="659" 
d="M65 0l87 710h177q135 0 209 -76.5t74 -211.5q0 -185 -105.5 -303.5t-274.5 -118.5h-167zM91 23h140q158 0 257.5 112t99.5 285q0 126 -67 196.5t-193 70.5h-155z" />
    <glyph glyph-name="E" unicode="E" horiz-adv-x="530" 
d="M65 0l87 710h371l-2 -23h-349l-39 -320h292l-2 -23h-293l-39 -321h367l-2 -23h-391z" />
    <glyph glyph-name="F" unicode="F" horiz-adv-x="512" 
d="M65 0l87 710h388l-2 -23h-366l-39 -322h315l-2 -23h-316l-42 -342h-23z" />
    <glyph glyph-name="G" unicode="G" horiz-adv-x="705" 
d="M350 -3q-129 0 -202 80t-73 218q0 110 44.5 205.5t127 154.5t185.5 59q133 0 225 -109l-17 -17q-86 103 -209 103q-95 0 -172.5 -56t-118.5 -146.5t-41 -193.5q0 -128 66 -201.5t186 -73.5q137 0 232 81l26 217h-239l3 23h262l-31 -251q-50 -46 -117.5 -69.5
t-136.5 -23.5z" />
    <glyph glyph-name="H" unicode="H" horiz-adv-x="652" 
d="M65 0l87 710h23l-45 -364h417l44 364h23l-86 -710h-23l39 323h-416l-40 -323h-23z" />
    <glyph glyph-name="I" unicode="I" horiz-adv-x="226" 
d="M72 0l87 710h23l-87 -710h-23z" />
    <glyph glyph-name="J" unicode="J" horiz-adv-x="435" 
d="M159 -3q-40 0 -81.5 24.5t-68.5 69.5l15 19q26 -42 63 -66t73 -24q144 0 166 189l61 501h23l-61 -502q-13 -109 -60.5 -160t-129.5 -51z" />
    <glyph glyph-name="K" unicode="K" horiz-adv-x="569" 
d="M579 710l-297 -328l215 -382h-28l-203 364l-154 -171l-24 -193h-23l87 710h23l-59 -477l2 -1l431 478h30z" />
    <glyph glyph-name="L" unicode="L" horiz-adv-x="489" 
d="M65 0l87 710h23l-84 -687h352l-2 -23h-376z" />
    <glyph glyph-name="M" unicode="M" horiz-adv-x="796" 
d="M65 0l87 710h22l217 -523h2l343 523h22l-86 -710h-23l80 657h-3l-329 -502h-19l-208 504h-2l-80 -659h-23z" />
    <glyph glyph-name="N" unicode="N" horiz-adv-x="684" 
d="M65 0l87 710h20l368 -667h2l81 667h23l-87 -710h-22l-366 665h-2l-81 -665h-23z" />
    <glyph glyph-name="O" unicode="O" horiz-adv-x="750" 
d="M347 -3q-125 0 -200 78.5t-75 216.5q0 111 44 207t127 155.5t188 59.5q126 0 200.5 -77t74.5 -218q0 -176 -99.5 -299t-259.5 -123zM347 20q150 0 242.5 116t92.5 282q0 131 -67 202t-185 71q-98 0 -175.5 -56.5t-118 -147t-40.5 -195.5q0 -128 67.5 -200t183.5 -72z" />
    <glyph glyph-name="P" unicode="P" horiz-adv-x="545" 
d="M65 0l87 710h210q85 0 129.5 -44t44.5 -121q0 -107 -63 -173.5t-172 -66.5h-176l-37 -305h-23zM128 328h174q98 0 154 60t56 157q0 73 -41.5 107.5t-110.5 34.5h-188z" />
    <glyph glyph-name="Q" unicode="Q" horiz-adv-x="766" 
d="M709 419q0 -192 -113 -314l80 -91l-17 -16l-79 90q-96 -91 -230 -91q-125 0 -200 78.5t-75 216.5q0 111 44 207t127 155.5t188 59.5q126 0 200.5 -77t74.5 -218zM350 20q126 0 214 85l-83 94l17 17l83 -94q104 115 104 296q0 131 -67 202t-186 71q-97 0 -174.5 -56.5
t-118 -147t-40.5 -195.5q0 -128 67.5 -200t183.5 -72z" />
    <glyph glyph-name="R" unicode="R" horiz-adv-x="576" 
d="M65 0l87 710h210q85 0 129.5 -44t44.5 -121q0 -101 -56 -166t-154 -73l154 -306h-26l-154 305h-175l-37 -305h-23zM128 328h174q98 0 154 60t56 157q0 73 -41.5 107.5t-110.5 34.5h-188z" />
    <glyph glyph-name="S" unicode="S" horiz-adv-x="525" 
d="M248 -3q-61 0 -121 28.5t-98 84.5l19 15q74 -105 201 -105q84 0 136 45t52 121q0 23 -10.5 44t-22 34.5t-40 33t-42 27t-51.5 28.5q-40 22 -62.5 36t-51 37.5t-42 51.5t-13.5 62q0 77 56 125.5t146 48.5q110 0 184 -79l-17 -17q-67 73 -169 73q-76 0 -126 -41t-50 -108
q0 -30 11.5 -54.5t38.5 -46.5t46 -33.5t59 -33.5q46 -25 69 -39t53.5 -38.5t44 -51t13.5 -58.5q0 -86 -58.5 -138t-154.5 -52z" />
    <glyph glyph-name="T" unicode="T" horiz-adv-x="496" 
d="M206 0l84 687h-208l3 23h442l-3 -23h-211l-84 -687h-23z" />
    <glyph glyph-name="U" unicode="U" horiz-adv-x="639" 
d="M286 -3q-116 0 -164 76.5t-32 210.5l53 426h23l-53 -427q-15 -124 28 -193.5t146 -69.5q105 0 169.5 65t80.5 194l52 431h23l-53 -432q-17 -140 -87 -210.5t-186 -70.5z" />
    <glyph glyph-name="V" unicode="V" horiz-adv-x="577" 
d="M249 0l-160 710h24l151 -670h1l314 670h24l-332 -710h-22z" />
    <glyph glyph-name="W" unicode="W" horiz-adv-x="903" 
d="M214 0l-121 710h24l113 -670h2l262 670h28l100 -670h2l276 670h25l-294 -710h-27l-99 671h-2l-262 -671h-27z" />
    <glyph glyph-name="X" unicode="X" horiz-adv-x="556" 
d="M7 0l271 353l-186 357h26l175 -334h2l255 334h29l-274 -357l185 -353h-27l-172 330h-2l-254 -330h-28z" />
    <glyph glyph-name="Y" unicode="Y" horiz-adv-x="506" 
d="M212 0l39 323l-174 387h25l162 -359h2l252 359h27l-271 -387l-39 -323h-23z" />
    <glyph glyph-name="Z" unicode="Z" horiz-adv-x="548" 
d="M29 0l3 21l469 664v2h-363l3 23h393l-3 -23l-469 -661l1 -3h391l-3 -23h-422z" />
    <glyph glyph-name="bracketleft" unicode="[" horiz-adv-x="252" 
d="M40 -140l106 864h127l-2 -21h-107l-101 -823h107l-3 -20h-127z" />
    <glyph glyph-name="backslash" unicode="\" horiz-adv-x="333" 
d="M294 -115l-246 850l20 11l246 -851z" />
    <glyph glyph-name="bracketright" unicode="]" horiz-adv-x="252" 
d="M-9 -140l3 20h107l101 823h-107l2 21h128l-106 -864h-128z" />
    <glyph glyph-name="asciicircum" unicode="^" horiz-adv-x="431" 
d="M103 500l157 210h25l106 -210h-28l-92 188l-140 -188h-28z" />
    <glyph glyph-name="underscore" unicode="_" horiz-adv-x="457" 
d="M-43 -50l2 22h472l-2 -22h-472z" />
    <glyph glyph-name="grave" unicode="`" horiz-adv-x="473" 
d="M301 548l-96 135h29l95 -135h-28z" />
    <glyph glyph-name="a" unicode="a" horiz-adv-x="531" 
d="M214 -3q-77 0 -121.5 54.5t-44.5 137.5q0 126 70 212.5t182 86.5q45 0 88 -16.5t67 -44.5l2 1l7 56h22l-59 -484h-22l19 154h-2q-34 -71 -87 -114t-121 -43zM215 19q87 0 149 81t76 187l14 109q-26 38 -71 54t-85 16q-101 0 -164.5 -81t-63.5 -197q0 -75 38 -122t107 -47
z" />
    <glyph glyph-name="b" unicode="b" horiz-adv-x="545" 
d="M238 -3q-109 0 -177 47l85 692h21l-48 -404l2 -1q32 70 85.5 113.5t122.5 43.5q82 0 125.5 -55.5t43.5 -146.5q0 -120 -71.5 -204.5t-188.5 -84.5zM240 19q106 0 170.5 79t64.5 189q0 83 -36.5 130.5t-110.5 47.5q-88 0 -150 -81t-76 -188l-18 -141q59 -36 156 -36z" />
    <glyph glyph-name="c" unicode="c" horiz-adv-x="475" 
d="M224 -3q-73 0 -125 52.5t-52 143.5q0 123 70 209t184 86q102 0 155 -77l-19 -15q-46 70 -136 70q-105 0 -168 -79.5t-63 -193.5q0 -76 44.5 -125t112.5 -49q109 0 171 77l17 -13q-67 -86 -191 -86z" />
    <glyph glyph-name="d" unicode="d" horiz-adv-x="543" 
d="M215 -3q-77 0 -122 54t-45 138q0 126 70 212.5t182 86.5q47 0 90 -16.5t68 -46.5l1 1l38 310h22l-90 -736h-22l19 155l-2 1q-33 -72 -86.5 -115.5t-122.5 -43.5zM215 19q88 0 151 81.5t76 187.5l13 106q-24 40 -69.5 56t-86.5 16q-101 0 -164.5 -81t-63.5 -197
q0 -75 37.5 -122t106.5 -47z" />
    <glyph glyph-name="e" unicode="e" horiz-adv-x="459" 
d="M233 19q88 0 154 77l17 -13q-69 -86 -171 -86q-83 0 -134.5 54t-51.5 146q0 121 71 206t178 85q20 0 41 -5t44 -16.5t38 -36t15 -58.5q0 -147 -365 -173v-2q0 -82 45 -130t119 -48zM296 466q-92 0 -155 -71t-71 -174q341 24 341 149q0 53 -36.5 74.5t-78.5 21.5z" />
    <glyph glyph-name="f" unicode="f" horiz-adv-x="279" 
d="M67 0l56 462h-61l2 22h62l14 113q17 143 122 143q48 0 85 -24l-7 -23q-30 24 -80 24q-85 0 -99 -126l-13 -107h153l-2 -22h-154l-56 -462h-22z" />
    <glyph glyph-name="g" unicode="g" horiz-adv-x="532" 
d="M176 -201q-83 0 -156 37l7 24q70 -39 151 -39q47 0 82.5 10.5t68 36.5t53.5 76t30 125l13 99h-2q-35 -69 -88.5 -113t-121.5 -44q-77 0 -121.5 54.5t-44.5 138.5q0 115 70.5 199.5t181.5 84.5q45 0 89 -16.5t67 -44.5l1 1l7 56h22l-51 -417q-19 -153 -84 -210.5
t-174 -57.5zM214 34q84 0 148.5 77t75.5 171l14 115q-25 38 -70 53t-85 15q-100 0 -164 -78.5t-64 -183.5q0 -75 38 -122t107 -47z" />
    <glyph glyph-name="h" unicode="h" horiz-adv-x="532" 
d="M56 0l90 736h22l-51 -415h2q35 75 97 121t127 46q145 0 120 -197l-38 -291h-22l38 291q13 97 -14.5 136t-84.5 39q-80 0 -153 -76t-85 -178l-26 -212h-22z" />
    <glyph glyph-name="i" unicode="i" horiz-adv-x="205" 
d="M150 606q-11 0 -18 7.5t-7 19.5q0 11 7.5 19t18.5 8t18.5 -7.5t7.5 -18.5q0 -12 -7.5 -20t-19.5 -8zM62 0l59 484h22l-60 -484h-21z" />
    <glyph glyph-name="j" unicode="j" horiz-adv-x="161" 
d="M124 606q-11 0 -18 7.5t-7 19.5q0 11 7.5 19t18.5 8t18.5 -7.5t7.5 -18.5q0 -12 -7.5 -20t-19.5 -8zM-62 -201q-29 0 -54 15l5 23q22 -16 51 -16q34 0 56.5 23.5t30.5 90.5l67 549h22l-68 -550q-8 -69 -33 -102t-77 -33z" />
    <glyph glyph-name="k" unicode="k" horiz-adv-x="461" 
d="M395 -3q-11 -2 -22 4q-13 7 -26 25.5t-19.5 32.5t-22.5 51l-49 111q-79 -70 -166 -113l-12 -108h-22l90 736h22l-74 -599l2 -1q111 60 201.5 157.5t121.5 190.5h23q-38 -126 -168 -247l52 -117q27 -61 41 -80t34 -22z" />
    <glyph glyph-name="l" unicode="l" horiz-adv-x="197" 
d="M61 0l90 736h22l-90 -736h-22z" />
    <glyph glyph-name="m" unicode="m" horiz-adv-x="813" 
d="M56 0l59 484h22l-19 -151l2 -1q34 71 88 113.5t109 42.5q124 0 121 -153h1q32 69 85.5 111t108.5 42q142 0 117 -197l-39 -291h-22l39 291q22 175 -96 175q-69 0 -132.5 -73.5t-77.5 -185.5l-27 -207h-22l38 291q23 175 -94 175q-70 0 -135.5 -76t-77.5 -178l-26 -212
h-22z" />
    <glyph glyph-name="n" unicode="n" horiz-adv-x="532" 
d="M56 0l60 484h22l-20 -158h2q36 72 97.5 117t125.5 45q145 0 120 -197l-38 -291h-22l38 291q13 97 -14.5 135.5t-84.5 38.5q-80 0 -153 -74.5t-85 -179.5l-26 -211h-22z" />
    <glyph glyph-name="o" unicode="o" horiz-adv-x="535" 
d="M240 -3q-88 0 -141 53.5t-53 147.5q0 120 69.5 205t182.5 85q87 0 139 -51.5t52 -145.5q0 -126 -68 -210t-181 -84zM240 19q100 0 163 75t63 197q0 84 -44.5 129.5t-123.5 45.5q-99 0 -164 -76.5t-65 -191.5q0 -84 46 -131.5t125 -47.5z" />
    <glyph glyph-name="p" unicode="p" horiz-adv-x="544" 
d="M31 -198l84 682h22l-19 -154h2q34 71 87 114.5t122 43.5q79 0 124 -54.5t45 -138.5q0 -126 -70.5 -212t-184.5 -86q-46 0 -89.5 16.5t-66.5 44.5l-2 -1l-32 -255h-22zM245 19q102 0 166 80.5t64 196.5q0 76 -38.5 123t-108.5 47q-88 0 -150 -80.5t-76 -186.5l-14 -110
q25 -39 70.5 -54.5t86.5 -15.5z" />
    <glyph glyph-name="q" unicode="q" horiz-adv-x="535" 
d="M381 -198l43 353h-2q-32 -71 -85.5 -114.5t-121.5 -43.5q-77 0 -122 54t-45 138q0 126 70 212.5t182 86.5q45 0 88 -16t67 -43l2 1l7 54h22l-83 -682h-22zM215 19q87 0 149.5 82t76.5 191l13 104q-25 38 -69.5 53.5t-85.5 15.5q-101 0 -164.5 -80.5t-63.5 -196.5
q0 -75 37.5 -122t106.5 -47z" />
    <glyph glyph-name="r" unicode="r" horiz-adv-x="272" 
d="M56 0l59 484h22l-18 -146h2q56 120 172 150l-2 -30q-74 -16 -125 -83.5t-62 -162.5l-26 -212h-22z" />
    <glyph glyph-name="s" unicode="s" horiz-adv-x="391" 
d="M172 -3q-95 0 -158 67l15 18q59 -63 143 -63q61 0 99.5 29t38.5 78q0 42 -29.5 65t-86.5 47q-9 3 -13 5q-26 11 -43 20t-35.5 23.5t-27.5 34t-9 44.5q0 56 43 89.5t103 33.5q80 0 132 -58l-15 -16q-48 52 -121 52q-50 0 -84.5 -28.5t-34.5 -75.5q0 -35 26 -56.5t75 -42.5
q3 -1 22 -9t23.5 -10.5t20.5 -10t21.5 -12t17.5 -13t16.5 -16t11 -18t8.5 -22t2 -24.5q0 -62 -47 -96.5t-114 -34.5z" />
    <glyph glyph-name="t" unicode="t" horiz-adv-x="329" 
d="M153 -3q-93 0 -76 131l41 334h-60l2 22h60l22 175l22 3l-22 -178h173l-2 -22h-173l-41 -334q-7 -53 4 -81t52 -28q52 0 98 37l3 -25q-46 -34 -103 -34z" />
    <glyph glyph-name="u" unicode="u" horiz-adv-x="513" 
d="M196 -3q-156 0 -129 196l39 291h22l-39 -290q-13 -98 16.5 -136.5t91.5 -38.5q72 0 138 72.5t80 170.5l27 222h22l-59 -484h-22l19 153h-2q-34 -70 -89.5 -113t-114.5 -43z" />
    <glyph glyph-name="v" unicode="v" horiz-adv-x="470" 
d="M183 -3q-69 0 -99 48.5t-16 157.5l35 281h22l-36 -280q-13 -105 13 -145t81 -40q65 0 128 64.5t90 166.5q28 114 6 234h24q19 -129 -10 -243q-31 -118 -101 -181t-137 -63z" />
    <glyph glyph-name="w" unicode="w" horiz-adv-x="765" 
d="M189 -3q-149 0 -122 196l37 291h22l-37 -290q-24 -175 99 -175q57 0 119 75t74 175l26 215h22l-34 -280q-13 -104 12 -144.5t77 -40.5q62 0 124.5 65t87.5 166q28 114 6 234h24q19 -132 -10 -243q-31 -118 -100 -181t-132 -63q-118 0 -114 156h-2q-34 -69 -84 -112.5
t-95 -43.5z" />
    <glyph glyph-name="x" unicode="x" horiz-adv-x="431" 
d="M5 0l197 242l-139 242h27l126 -221h4l179 221h29l-198 -243l137 -241h-26l-126 221h-2l-180 -221h-28z" />
    <glyph glyph-name="y" unicode="y" horiz-adv-x="509" 
d="M439 484h22l-51 -418q-10 -79 -32.5 -133.5t-55.5 -82.5t-69 -39.5t-81 -11.5q-73 0 -147 37l7 23q69 -38 142 -38q40 0 71.5 10.5t62 36t51.5 76t30 124.5l10 86h-2q-34 -71 -89.5 -114t-114.5 -43q-156 0 -129 196l39 291h22l-39 -290q-13 -98 16.5 -136.5t91.5 -38.5
q74 0 140.5 75.5t78.5 175.5z" />
    <glyph glyph-name="z" unicode="z" horiz-adv-x="407" 
d="M341 -21q-48 15 -112 18t-227 3l2 22l361 439v1h-296l3 22h324l-2 -20l-360 -440v-2q97 0 141 -1t93.5 -5.5t79.5 -14.5z" />
    <glyph glyph-name="braceleft" unicode="{" horiz-adv-x="274" 
d="M145 -140q-37 0 -58.5 24t-16.5 66l31 251q1 18 0.5 33t-15 26t-44.5 14l2 22q32 4 49 16t21.5 24.5t6.5 34.5l33 263q5 39 30.5 64.5t65.5 25.5h26l-3 -21h-25q-28 0 -49.5 -19.5t-25.5 -52.5l-31 -256q-5 -42 -18 -62.5t-48 -26.5v-2q32 -6 40.5 -26.5t3.5 -63.5
l-28 -227q-6 -47 7.5 -67t46.5 -20h26l-2 -20h-25z" />
    <glyph glyph-name="bar" unicode="|" horiz-adv-x="252" 
d="M71 -115l105 852h22l-105 -852h-22z" />
    <glyph glyph-name="braceright" unicode="}" horiz-adv-x="275" 
d="M10 -140l3 20h25q33 0 52 20.5t25 67.5l28 227q5 42 18.5 62.5t47.5 26.5v2q-32 6 -40.5 27t-2.5 63l31 256q4 33 -12 52t-45 19h-26l2 21h27q40 0 60 -26.5t15 -64.5l-33 -263q-1 -19 -1 -33.5t14 -25.5t45 -15l-2 -22q-24 -2 -39.5 -8.5t-22.5 -18.5t-10 -21.5
t-4 -25.5l-31 -251q-6 -42 -33 -65.5t-64 -23.5h-27z" />
    <glyph glyph-name="asciitilde" unicode="~" horiz-adv-x="508" 
d="M345 231q-8 0 -15.5 1t-15.5 4t-13.5 5t-13.5 7t-11.5 7t-12 7.5t-9.5 6.5q-46 30 -81 30q-51 0 -84 -61l-17 7q38 77 102 77q35 0 84 -30q4 -3 13.5 -9t13.5 -8t12 -7t13 -6.5t12 -4t13 -3.5t13 -1q51 0 77 62l18 -8q-18 -38 -44.5 -57t-53.5 -19z" />
    <glyph glyph-name="uni00A0" unicode="&#xa0;" horiz-adv-x="237" 
 />
    <glyph glyph-name="exclamdown" unicode="&#xa1;" horiz-adv-x="193" 
d="M121 488q26 0 26 -27q0 -11 -7.5 -19t-19.5 -8q-11 0 -18.5 7.5t-7.5 18.5q0 12 8 20t19 8zM115 304l-65 -556h-25l72 556h18z" />
    <glyph glyph-name="cent" unicode="&#xa2;" horiz-adv-x="481" 
d="M331 542q96 -5 144 -77l-19 -14q-45 69 -136 69q-104 0 -167 -79t-63 -193q0 -76 43.5 -125t110.5 -49q110 0 173 76l17 -13q-60 -76 -164 -85l-14 -115h-19l14 114h-10q-70 0 -122.5 53.5t-52.5 143.5q0 121 67.5 205.5t178.5 88.5l15 125h19z" />
    <glyph glyph-name="sterling" unicode="&#xa3;" horiz-adv-x="504" 
d="M18 0l3 23h84l43 352h-65l3 23h65l8 67q15 119 67 171.5t125 52.5q102 0 144 -99l-19 -14q-35 90 -125 90q-67 0 -112 -50t-57 -155l-8 -63h161l-3 -23h-161l-43 -352h325l-3 -23h-432z" />
    <glyph glyph-name="currency" unicode="&#xa4;" horiz-adv-x="448" 
d="M411 409q0 -90 -62 -150l58 -73l-15 -16l-59 75q-50 -40 -116 -40q-67 0 -107 40l-76 -74l-13 16l76 74q-27 38 -27 92q0 92 58 155l-58 75l16 15l58 -74q52 44 118 44q64 0 106 -42l75 73l13 -15l-75 -74q30 -41 30 -101zM93 353q0 -58 33.5 -91.5t90.5 -33.5
q72 0 121 52.5t49 128.5q0 61 -34.5 98t-90.5 37q-71 0 -120 -55.5t-49 -135.5z" />
    <glyph glyph-name="yen" unicode="&#xa5;" horiz-adv-x="471" 
d="M509 687l-229 -350h147l-3 -22h-158l-10 -15l-10 -80h166l-3 -22h-166l-24 -198h-23l24 198h-171l3 22h171l10 80l-6 15h-163l3 22h151l-142 350h27l144 -359h1l235 359h26z" />
    <glyph glyph-name="brokenbar" unicode="&#xa6;" horiz-adv-x="253" 
d="M133 386l43 351h22l-43 -351h-22zM71 -114l44 354h23l-44 -354h-23z" />
    <glyph glyph-name="section" unicode="&#xa7;" horiz-adv-x="468" 
d="M262 404q33 -13 47 -19.5t38.5 -20t35.5 -26t20 -31.5t9 -42q0 -100 -112 -150q68 -41 68 -106q0 -75 -49.5 -118t-130.5 -43q-117 0 -168 87l17 17q19 -40 59.5 -60t90.5 -20q72 0 115 35t43 99q0 20 -8 37t-16.5 27.5t-31 24.5t-32.5 19t-41 19q-86 40 -110 59
q-43 35 -43 86q0 50 30.5 88.5t80.5 55.5q-60 39 -60 102q0 70 48 114.5t116 44.5q44 0 85 -17t65 -44l-17 -17q-22 27 -58.5 41t-73.5 14q-58 0 -100 -36.5t-42 -96.5q0 -25 9 -43.5t31 -34t37.5 -23.5t47.5 -22zM276 129q113 39 113 133q0 29 -19.5 52t-38 33t-63.5 30
l-7 3.5t-6 2.5q-6 3 -17 7.5t-20 8.5t-17 8q-51 -11 -83 -45.5t-32 -81.5q0 -22 8.5 -39t27.5 -31t37.5 -24t50.5 -25q9 -4 13 -6q6 -3 24.5 -12t28.5 -14z" />
    <glyph glyph-name="dieresis" unicode="&#xa8;" horiz-adv-x="460" 
d="M209 593q-11 0 -18 7.5t-7 19.5q0 11 7.5 19t18.5 8q12 0 19.5 -7.5t7.5 -18.5q0 -12 -8 -20t-20 -8zM342 593q-11 0 -18.5 7.5t-7.5 19.5q0 11 8 19t19 8t18.5 -7.5t7.5 -18.5q0 -12 -8 -20t-19 -8z" />
    <glyph glyph-name="copyright" unicode="&#xa9;" horiz-adv-x="666" 
d="M333 30q-119 0 -202.5 85t-83.5 203t83.5 203t203.5 85q119 0 201.5 -84.5t82.5 -203.5q0 -117 -83 -202.5t-202 -85.5zM333 52q109 0 186 78.5t77 187.5t-76.5 187.5t-185.5 78.5q-110 0 -187.5 -78.5t-77.5 -187.5t77 -187.5t187 -78.5zM341 154q-69 0 -114 43t-45 118
q0 72 42 118.5t117 46.5t125 -61l-18 -14q-43 53 -107 53q-65 0 -101 -39.5t-36 -103.5q0 -66 38.5 -102.5t98.5 -36.5q67 0 107 53l18 -15q-48 -60 -125 -60z" />
    <glyph glyph-name="ordfeminine" unicode="&#xaa;" horiz-adv-x="361" 
d="M187 396q-47 0 -75 31t-28 87q0 72 41.5 123.5t112.5 51.5q59 0 96 -32h2l4 30h22l-36 -289h-21l9 81h-1q-45 -83 -126 -83zM189 419q48 0 87.5 40t47.5 101l9 68q-8 17 -34 28t-57 11q-61 0 -98.5 -42.5t-37.5 -109.5q0 -45 22 -70.5t61 -25.5z" />
    <glyph glyph-name="guillemotleft" unicode="&#xab;" horiz-adv-x="367" 
d="M130 13l-91 231l147 229h22l-145 -229l89 -231h-22zM262 13l-91 231l147 229h22l-144 -229l88 -231h-22z" />
    <glyph glyph-name="logicalnot" unicode="&#xac;" horiz-adv-x="535" 
d="M435 187l19 153h-371l3 22h392l-21 -175h-22z" />
    <glyph glyph-name="registered" unicode="&#xae;" horiz-adv-x="666" 
d="M334 606q119 0 201.5 -84.5t82.5 -203.5q0 -117 -83 -202.5t-202 -85.5t-202.5 85t-83.5 203t83.5 203t203.5 85zM333 52q109 0 186 78.5t77 187.5t-76.5 187.5t-185.5 78.5q-110 0 -187.5 -78.5t-77.5 -187.5t77 -187.5t187 -78.5zM445 391q0 -83 -87 -93l101 -140h-27
l-100 139h-70v-139h-22v324h105q51 0 75.5 -25t24.5 -66zM262 460v-142h77q84 0 84 73q0 33 -20 51t-55 18h-86z" />
    <glyph glyph-name="macron" unicode="&#xaf;" horiz-adv-x="442" 
d="M146 606l3 23h239l-3 -23h-239z" />
    <glyph glyph-name="degree" unicode="&#xb0;" horiz-adv-x="371" 
d="M210 452q-50 0 -78.5 29.5t-28.5 77.5q0 64 40 109.5t99 45.5q47 0 78 -31t31 -83q0 -60 -40 -104t-101 -44zM210 475q50 0 84 36.5t34 88.5q0 41 -23.5 66t-62.5 25q-50 0 -83.5 -38t-33.5 -94q0 -40 22.5 -62t62.5 -22z" />
    <glyph glyph-name="plusminus" unicode="&#xb1;" horiz-adv-x="528" 
d="M243 140l27 219h-197l3 22h197l27 220h22l-27 -220h195l-3 -22h-195l-27 -219h-22zM28 0l3 22h414l-3 -22h-414z" />
    <glyph glyph-name="uni00B2" unicode="&#xb2;" horiz-adv-x="301" 
d="M48 436l3 18l166 149q40 36 61.5 68.5t21.5 72.5q0 39 -21 62t-60 23q-31 0 -62 -18t-48 -51l-17 13q19 35 54.5 56.5t73.5 21.5q45 0 73.5 -28.5t28.5 -76.5q0 -78 -89 -157l-148 -131l1 -1h207l-3 -21h-242z" />
    <glyph glyph-name="uni00B3" unicode="&#xb3;" horiz-adv-x="302" 
d="M175 433q-47 0 -78.5 20.5t-43.5 54.5l21 8q21 -61 102 -61q51 0 82.5 29t31.5 77q0 33 -25 55.5t-70 22.5h-37l2 22h43q45 0 73.5 27t28.5 69q0 72 -85 72q-63 0 -102 -49l-18 13q46 58 121 58q47 0 76.5 -24.5t29.5 -67.5q0 -81 -75 -107v-3q60 -21 60 -88
q0 -58 -39 -93t-98 -35z" />
    <glyph glyph-name="acute" unicode="&#xb4;" horiz-adv-x="473" 
d="M219 548l127 135h31l-128 -135h-30z" />
    <glyph glyph-name="uni00B5" unicode="&#xb5;" horiz-adv-x="533" 
d="M489 25l6 -22q-19 -6 -41 -6q-48 0 -60 29t-6 83l2 18h-1q-31 -64 -82 -97t-108 -33q-91 0 -116 88h-2q-6 -72 -10 -103l-22 -180h-22l84 682h22l-37 -297q-11 -87 21 -127.5t83 -40.5q73 0 132.5 62.5t73.5 172.5l29 230h22l-46 -366q-9 -42 0 -70.5t47 -28.5q13 0 31 6
z" />
    <glyph glyph-name="paragraph" unicode="&#xb6;" horiz-adv-x="344" 
d="M178 -148l93 754h-51l-75 -606h-22l51 417q-41 0 -67 22.5t-26 63.5q0 52 34.5 89t90.5 37h89l-95 -777h-22z" />
    <glyph glyph-name="periodcentered" unicode="&#xb7;" horiz-adv-x="161" 
d="M83 212q-26 0 -26 27q0 11 7.5 19t19.5 8q11 0 18.5 -7.5t7.5 -18.5q0 -12 -8 -20t-19 -8z" />
    <glyph glyph-name="cedilla" unicode="&#xb8;" horiz-adv-x="321" 
d="M88 -181q-21 0 -38 4l3 22q16 -4 35 -4q33 0 52.5 16t19.5 46q0 38 -70 41l4 21l22 41h22l-24 -43l1 -1q67 -7 67 -59q0 -39 -26.5 -61.5t-67.5 -22.5z" />
    <glyph glyph-name="uni00B9" unicode="&#xb9;" horiz-adv-x="211" 
d="M197 847h18l-51 -411h-21l47 379l-98 -67l-10 18z" />
    <glyph glyph-name="ordmasculine" unicode="&#xba;" horiz-adv-x="358" 
d="M199 396q-53 0 -84 32t-31 89q0 70 42.5 121t107.5 51q52 0 83 -30.5t31 -86.5q0 -75 -41.5 -125.5t-107.5 -50.5zM200 419q55 0 90 42.5t35 108.5q0 47 -24 72t-68 25q-54 0 -90.5 -42.5t-36.5 -106.5q0 -47 25 -73t69 -26z" />
    <glyph glyph-name="guillemotright" unicode="&#xbb;" horiz-adv-x="368" 
d="M28 13l145 231l-89 229h23l90 -229l-147 -231h-22zM160 13l145 231l-88 229h22l91 -229l-148 -231h-22z" />
    <glyph glyph-name="onequarter" unicode="&#xbc;" horiz-adv-x="622" 
d="M477 718l20 -9l-363 -716l-20 8zM126 299l47 379l-98 -67l-10 18l115 81h18l-51 -411h-21zM518 98h62l-3 -21h-62l-9 -77h-21l9 77h-196l3 20l238 314h18zM497 98l32 266l-199 -266h167z" />
    <glyph glyph-name="onehalf" unicode="&#xbd;" horiz-adv-x="654" 
d="M477 718l20 -9l-363 -716l-20 8zM126 299l47 379l-98 -67l-10 18l115 81h18l-51 -411h-21zM384 22l1 -1h207l-3 -21h-242l3 18l166 149q40 36 61.5 68.5t21.5 72.5q0 39 -21 62t-60 23q-31 0 -62 -18t-48 -51l-17 13q19 35 54.5 56.5t73.5 21.5q45 0 73.5 -28.5
t28.5 -76.5q0 -78 -89 -157z" />
    <glyph glyph-name="threequarters" unicode="&#xbe;" horiz-adv-x="699" 
d="M554 718l20 -9l-363 -716l-20 8zM295 424q0 -58 -39 -93t-98 -35q-47 0 -78.5 20.5t-43.5 54.5l21 8q21 -61 102 -61q51 0 82.5 29t31.5 77q0 33 -25 55.5t-70 22.5h-37l2 22h43q45 0 73.5 27t28.5 69q0 72 -85 72q-63 0 -102 -49l-18 13q46 58 121 58q47 0 76.5 -24.5
t29.5 -67.5q0 -81 -75 -107v-3q60 -21 60 -88zM595 98h62l-3 -21h-62l-9 -77h-21l9 77h-196l3 20l238 314h18zM574 98l32 266l-199 -266h167z" />
    <glyph glyph-name="questiondown" unicode="&#xbf;" horiz-adv-x="351" 
d="M240 488q26 0 26 -27q0 -11 -7.5 -19t-19.5 -8q-11 0 -18.5 7.5t-7.5 18.5q0 12 8 20t19 8zM239 308l-8 -59q-1 -13 -4.5 -25.5t-11 -25.5t-12.5 -21t-17.5 -22.5t-17.5 -20t-21.5 -22.5t-20.5 -21q-52 -54 -76 -97.5t-24 -100.5q0 -61 33 -93t88 -32q97 0 154 86l14 -16
q-68 -94 -171 -94q-66 0 -103.5 42.5t-37.5 111.5q0 60 27.5 106t81.5 102q5 5 20 20.5t20 21t16.5 18.5t16.5 20.5t11.5 18.5t10 21.5t4.5 21.5l8 60h20z" />
    <glyph glyph-name="Agrave" unicode="&#xc0;" horiz-adv-x="585" 
d="M347 795l-98 124h29l97 -124h-28zM0 0l334 710h27l164 -710h-24l-48 211h-329l-99 -211h-25zM135 234h313l-102 446h-2z" />
    <glyph glyph-name="Aacute" unicode="&#xc1;" horiz-adv-x="585" 
d="M352 795l127 124h29l-128 -124h-28zM0 0l334 710h27l164 -710h-24l-48 211h-329l-99 -211h-25zM135 234h313l-102 446h-2z" />
    <glyph glyph-name="Acircumflex" unicode="&#xc2;" horiz-adv-x="585" 
d="M234 795l129 109h23l94 -109h-28l-78 90h-2l-108 -90h-30zM0 0l334 710h27l164 -710h-24l-48 211h-329l-99 -211h-25zM135 234h313l-102 446h-2z" />
    <glyph glyph-name="Atilde" unicode="&#xc3;" horiz-adv-x="585" 
d="M435 795q-6 0 -12 1t-12.5 4t-10.5 5t-11 7.5t-9 7t-10 8.5t-9 8q-34 28 -53 28q-40 0 -66 -62l-19 8q32 76 84 76q29 0 65 -32q41 -37 62 -37q38 0 63 63l18 -9q-15 -38 -36.5 -57t-43.5 -19zM0 0l334 710h27l164 -710h-24l-48 211h-329l-99 -211h-25zM135 234h313
l-102 446h-2z" />
    <glyph glyph-name="Adieresis" unicode="&#xc4;" horiz-adv-x="585" 
d="M299 828q-11 0 -18 7.5t-7 19.5q0 11 7.5 19t18.5 8q12 0 19.5 -7.5t7.5 -18.5q0 -12 -8 -20t-20 -8zM432 828q-11 0 -18.5 7.5t-7.5 19.5q0 11 8 19t19 8t18.5 -7.5t7.5 -18.5q0 -12 -8 -20t-19 -8zM0 0l334 710h27l164 -710h-24l-48 211h-329l-99 -211h-25zM135 234
h313l-102 446h-2z" />
    <glyph glyph-name="Aring" unicode="&#xc5;" horiz-adv-x="585" 
d="M363 787q-31 0 -51 20.5t-20 51.5q0 32 21 52.5t53 20.5q31 0 51.5 -20t20.5 -51q0 -32 -21.5 -53t-53.5 -21zM363 810q23 0 38 14.5t15 36.5t-14 35.5t-36 13.5q-23 0 -37.5 -14.5t-14.5 -36.5t14 -35.5t35 -13.5zM0 0l334 710h27l164 -710h-24l-48 211h-329l-99 -211
h-25zM135 234h313l-102 446h-2z" />
    <glyph glyph-name="AE" unicode="&#xc6;" horiz-adv-x="824" 
d="M-24 0l458 710h384l-3 -23h-349l-38 -321h295l-2 -23h-296l-39 -320h366l-2 -23h-390l26 211h-247l-136 -211h-27zM153 233h236l54 449h-1z" />
    <glyph glyph-name="Ccedilla" unicode="&#xc7;" horiz-adv-x="669" 
d="M430 691q-95 0 -172 -56.5t-118 -146t-41 -190.5q0 -129 65.5 -203.5t178.5 -74.5q60 0 122.5 27.5t110.5 80.5l18 -14q-48 -54 -115 -85.5t-137 -31.5l-19 -34l1 -1q67 -7 67 -59q0 -39 -26.5 -61.5t-67.5 -22.5q-21 0 -38 4l3 22q16 -4 35 -4q33 0 52.5 16t19.5 46
q0 38 -70 41l4 21l18 33q-113 8 -179.5 88t-66.5 211q0 167 101.5 292t252.5 125q148 0 242 -153l-20 -13q-46 76 -98.5 109.5t-122.5 33.5z" />
    <glyph glyph-name="Egrave" unicode="&#xc8;" horiz-adv-x="530" 
d="M391 798l-98 124h29l97 -124h-28zM65 0l87 710h371l-2 -23h-349l-39 -320h292l-2 -23h-293l-39 -321h367l-2 -23h-391z" />
    <glyph glyph-name="Eacute" unicode="&#xc9;" horiz-adv-x="530" 
d="M293 798l127 124h29l-128 -124h-28zM65 0l87 710h371l-2 -23h-349l-39 -320h292l-2 -23h-293l-39 -321h367l-2 -23h-391z" />
    <glyph glyph-name="Ecircumflex" unicode="&#xca;" horiz-adv-x="530" 
d="M233 798l129 109h23l94 -109h-28l-78 90h-2l-108 -90h-30zM65 0l87 710h371l-2 -23h-349l-39 -320h292l-2 -23h-293l-39 -321h367l-2 -23h-391z" />
    <glyph glyph-name="Edieresis" unicode="&#xcb;" horiz-adv-x="530" 
d="M298 831q-11 0 -18 7.5t-7 19.5q0 11 7.5 19t18.5 8q12 0 19.5 -7.5t7.5 -18.5q0 -12 -8 -20t-20 -8zM431 831q-11 0 -18.5 7.5t-7.5 19.5q0 11 8 19t19 8t18.5 -7.5t7.5 -18.5q0 -12 -8 -20t-19 -8zM65 0l87 710h371l-2 -23h-349l-39 -320h292l-2 -23h-293l-39 -321h367
l-2 -23h-391z" />
    <glyph glyph-name="Igrave" unicode="&#xcc;" horiz-adv-x="226" 
d="M165 795l-98 124h29l97 -124h-28zM72 0l87 710h23l-87 -710h-23z" />
    <glyph glyph-name="Iacute" unicode="&#xcd;" horiz-adv-x="226" 
d="M170 795l127 124h29l-128 -124h-28zM72 0l87 710h23l-87 -710h-23z" />
    <glyph glyph-name="Icircumflex" unicode="&#xce;" horiz-adv-x="226" 
d="M56 795l129 109h23l94 -109h-28l-78 90h-2l-108 -90h-30zM72 0l87 710h23l-87 -710h-23z" />
    <glyph glyph-name="Idieresis" unicode="&#xcf;" horiz-adv-x="226" 
d="M121 828q-11 0 -18 7.5t-7 19.5q0 11 7.5 19t18.5 8q12 0 19.5 -7.5t7.5 -18.5q0 -12 -8 -20t-20 -8zM254 828q-11 0 -18.5 7.5t-7.5 19.5q0 11 8 19t19 8t18.5 -7.5t7.5 -18.5q0 -12 -8 -20t-19 -8zM72 0l87 710h23l-87 -710h-23z" />
    <glyph glyph-name="Eth" unicode="&#xd0;" horiz-adv-x="659" 
d="M329 710q135 0 209 -76.5t74 -211.5q0 -185 -105.5 -303.5t-274.5 -118.5h-167l42 346h-85l4 23h84l42 341h177zM231 23q158 0 257.5 112t99.5 285q0 126 -67 196.5t-193 70.5h-155l-39 -318h190l-2 -23h-191l-40 -323h140z" />
    <glyph glyph-name="Ntilde" unicode="&#xd1;" horiz-adv-x="684" 
d="M486 795q-6 0 -12 1t-12.5 4t-10.5 5t-11 7.5t-9 7t-10 8.5t-9 8q-34 28 -53 28q-40 0 -66 -62l-19 8q32 76 84 76q29 0 65 -32q41 -37 62 -37q38 0 63 63l18 -9q-15 -38 -36.5 -57t-43.5 -19zM65 0l87 710h20l368 -667h2l81 667h23l-87 -710h-22l-366 665h-2l-81 -665
h-23z" />
    <glyph glyph-name="Ograve" unicode="&#xd2;" horiz-adv-x="750" 
d="M461 795l-98 124h29l97 -124h-28zM347 -3q-125 0 -200 78.5t-75 216.5q0 111 44 207t127 155.5t188 59.5q126 0 200.5 -77t74.5 -218q0 -176 -99.5 -299t-259.5 -123zM347 20q150 0 242.5 116t92.5 282q0 131 -67 202t-185 71q-98 0 -175.5 -56.5t-118 -147t-40.5 -195.5
q0 -128 67.5 -200t183.5 -72z" />
    <glyph glyph-name="Oacute" unicode="&#xd3;" horiz-adv-x="750" 
d="M445 795l127 124h29l-128 -124h-28zM347 -3q-125 0 -200 78.5t-75 216.5q0 111 44 207t127 155.5t188 59.5q126 0 200.5 -77t74.5 -218q0 -176 -99.5 -299t-259.5 -123zM347 20q150 0 242.5 116t92.5 282q0 131 -67 202t-185 71q-98 0 -175.5 -56.5t-118 -147
t-40.5 -195.5q0 -128 67.5 -200t183.5 -72z" />
    <glyph glyph-name="Ocircumflex" unicode="&#xd4;" horiz-adv-x="750" 
d="M334 795l129 109h23l94 -109h-28l-78 90h-2l-108 -90h-30zM347 -3q-125 0 -200 78.5t-75 216.5q0 111 44 207t127 155.5t188 59.5q126 0 200.5 -77t74.5 -218q0 -176 -99.5 -299t-259.5 -123zM347 20q150 0 242.5 116t92.5 282q0 131 -67 202t-185 71q-98 0 -175.5 -56.5
t-118 -147t-40.5 -195.5q0 -128 67.5 -200t183.5 -72z" />
    <glyph glyph-name="Otilde" unicode="&#xd5;" horiz-adv-x="750" 
d="M535 795q-6 0 -12 1t-12.5 4t-10.5 5t-11 7.5t-9 7t-10 8.5t-9 8q-34 28 -53 28q-40 0 -66 -62l-19 8q32 76 84 76q29 0 65 -32q41 -37 62 -37q38 0 63 63l18 -9q-15 -38 -36.5 -57t-43.5 -19zM347 -3q-125 0 -200 78.5t-75 216.5q0 111 44 207t127 155.5t188 59.5
q126 0 200.5 -77t74.5 -218q0 -176 -99.5 -299t-259.5 -123zM347 20q150 0 242.5 116t92.5 282q0 131 -67 202t-185 71q-98 0 -175.5 -56.5t-118 -147t-40.5 -195.5q0 -128 67.5 -200t183.5 -72z" />
    <glyph glyph-name="Odieresis" unicode="&#xd6;" horiz-adv-x="750" 
d="M399 828q-11 0 -18 7.5t-7 19.5q0 11 7.5 19t18.5 8q12 0 19.5 -7.5t7.5 -18.5q0 -12 -8 -20t-20 -8zM532 828q-11 0 -18.5 7.5t-7.5 19.5q0 11 8 19t19 8t18.5 -7.5t7.5 -18.5q0 -12 -8 -20t-19 -8zM347 -3q-125 0 -200 78.5t-75 216.5q0 111 44 207t127 155.5t188 59.5
q126 0 200.5 -77t74.5 -218q0 -176 -99.5 -299t-259.5 -123zM347 20q150 0 242.5 116t92.5 282q0 131 -67 202t-185 71q-98 0 -175.5 -56.5t-118 -147t-40.5 -195.5q0 -128 67.5 -200t183.5 -72z" />
    <glyph glyph-name="multiply" unicode="&#xd7;" horiz-adv-x="451" 
d="M61 97l-15 15l168 164l-127 164l17 16l126 -164l168 164l14 -15l-168 -165l127 -164l-17 -15l-127 163z" />
    <glyph glyph-name="Oslash" unicode="&#xd8;" horiz-adv-x="757" 
d="M723 697l-73 -82q56 -76 56 -196q0 -176 -99.5 -299t-259.5 -123q-116 0 -188 66l-64 -72l-16 15l65 73q-72 78 -72 213q0 111 44 207t127 155.5t188 59.5q133 0 205 -83l71 80zM96 292q0 -122 63 -196l461 518q-66 77 -190 77q-98 0 -175.5 -56.5t-118 -147
t-40.5 -195.5zM682 418q0 109 -48 179l-459 -516q66 -61 172 -61q150 0 242.5 116t92.5 282z" />
    <glyph glyph-name="Ugrave" unicode="&#xd9;" horiz-adv-x="639" 
d="M384 791l-98 124h29l97 -124h-28zM286 -3q-116 0 -164 76.5t-32 210.5l53 426h23l-53 -427q-15 -124 28 -193.5t146 -69.5q105 0 169.5 65t80.5 194l52 431h23l-53 -432q-17 -140 -87 -210.5t-186 -70.5z" />
    <glyph glyph-name="Uacute" unicode="&#xda;" horiz-adv-x="639" 
d="M357 795l127 124h29l-128 -124h-28zM286 -3q-116 0 -164 76.5t-32 210.5l53 426h23l-53 -427q-15 -124 28 -193.5t146 -69.5q105 0 169.5 65t80.5 194l52 431h23l-53 -432q-17 -140 -87 -210.5t-186 -70.5z" />
    <glyph glyph-name="Ucircumflex" unicode="&#xdb;" horiz-adv-x="639" 
d="M262 795l129 109h23l94 -109h-28l-78 90h-2l-108 -90h-30zM286 -3q-116 0 -164 76.5t-32 210.5l53 426h23l-53 -427q-15 -124 28 -193.5t146 -69.5q105 0 169.5 65t80.5 194l52 431h23l-53 -432q-17 -140 -87 -210.5t-186 -70.5z" />
    <glyph glyph-name="Udieresis" unicode="&#xdc;" horiz-adv-x="639" 
d="M327 828q-11 0 -18 7.5t-7 19.5q0 11 7.5 19t18.5 8q12 0 19.5 -7.5t7.5 -18.5q0 -12 -8 -20t-20 -8zM460 828q-11 0 -18.5 7.5t-7.5 19.5q0 11 8 19t19 8t18.5 -7.5t7.5 -18.5q0 -12 -8 -20t-19 -8zM286 -3q-116 0 -164 76.5t-32 210.5l53 426h23l-53 -427
q-15 -124 28 -193.5t146 -69.5q105 0 169.5 65t80.5 194l52 431h23l-53 -432q-17 -140 -87 -210.5t-186 -70.5z" />
    <glyph glyph-name="Yacute" unicode="&#xdd;" horiz-adv-x="506" 
d="M296 795l127 124h29l-128 -124h-28zM212 0l39 323l-174 387h25l162 -359h2l252 359h27l-271 -387l-39 -323h-23z" />
    <glyph glyph-name="Thorn" unicode="&#xde;" horiz-adv-x="559" 
d="M65 0l87 710h22l-18 -157h201q85 0 129.5 -44t44.5 -121q0 -108 -63 -174.5t-172 -66.5h-190l-18 -147h-23zM109 170h188q98 0 154 60.5t56 157.5q0 73 -41.5 107.5t-110.5 34.5h-202z" />
    <glyph glyph-name="germandbls" unicode="&#xdf;" horiz-adv-x="560" 
d="M371 -3q-100 0 -163 67l16 19q19 -21 33 -32.5t44 -21.5t70 -10q61 0 97 29.5t37 79.5q0 41 -27.5 66.5t-88.5 57.5q-32 17 -47.5 26.5t-35 26t-27 36t-5.5 44.5q1 13 5 24.5t13.5 22.5t16 18t22.5 17.5t22.5 15t26 15.5t24.5 14q40 25 61.5 50t21.5 60q0 43 -41 69
t-113 26q-41 0 -78.5 -14t-69.5 -51.5t-39 -94.5l-68 -557h-22l69 563q7 60 40.5 101.5t77 58.5t91.5 17q79 0 127 -31.5t48 -84.5q0 -43 -25 -73t-71 -58q-7 -4 -26.5 -15.5t-27.5 -16.5t-22 -15.5t-20.5 -18.5t-12.5 -19.5t-7 -23.5q-1 -17 4.5 -31.5t11.5 -23.5t24 -21.5
t25 -16.5t32 -17q36 -19 54 -30t39.5 -29t30.5 -39t9 -47q0 -63 -44.5 -97.5t-111.5 -34.5z" />
    <glyph glyph-name="agrave" unicode="&#xe0;" horiz-adv-x="531" 
d="M328 561l-96 135h29l95 -135h-28zM214 -3q-77 0 -121.5 54.5t-44.5 137.5q0 126 70 212.5t182 86.5q45 0 88 -16.5t67 -44.5l2 1l7 56h22l-59 -484h-22l19 154h-2q-34 -71 -87 -114t-121 -43zM215 19q87 0 149 81t76 187l14 109q-26 38 -71 54t-85 16q-101 0 -164.5 -81
t-63.5 -197q0 -75 38 -122t107 -47z" />
    <glyph glyph-name="aacute" unicode="&#xe1;" horiz-adv-x="531" 
d="M292 561l127 135h31l-128 -135h-30zM214 -3q-77 0 -121.5 54.5t-44.5 137.5q0 126 70 212.5t182 86.5q45 0 88 -16.5t67 -44.5l2 1l7 56h22l-59 -484h-22l19 154h-2q-34 -71 -87 -114t-121 -43zM215 19q87 0 149 81t76 187l14 109q-26 38 -71 54t-85 16
q-101 0 -164.5 -81t-63.5 -197q0 -75 38 -122t107 -47z" />
    <glyph glyph-name="acircumflex" unicode="&#xe2;" horiz-adv-x="531" 
d="M218 560l126 136h23l96 -136h-28l-79 118h-1l-109 -118h-28zM214 -3q-77 0 -121.5 54.5t-44.5 137.5q0 126 70 212.5t182 86.5q45 0 88 -16.5t67 -44.5l2 1l7 56h22l-59 -484h-22l19 154h-2q-34 -71 -87 -114t-121 -43zM215 19q87 0 149 81t76 187l14 109q-26 38 -71 54
t-85 16q-101 0 -164.5 -81t-63.5 -197q0 -75 38 -122t107 -47z" />
    <glyph glyph-name="atilde" unicode="&#xe3;" horiz-adv-x="531" 
d="M413 581q-31 0 -75 42q-32 27 -52 27q-40 0 -66 -62l-19 8q32 76 84 76q29 0 65 -32q2 -2 8.5 -7.5t9 -7.5t8 -6.5t9 -6.5t8.5 -4.5t9.5 -3.5t9.5 -1q38 0 63 63l18 -9q-15 -38 -36.5 -57t-43.5 -19zM214 -3q-77 0 -121.5 54.5t-44.5 137.5q0 126 70 212.5t182 86.5
q45 0 88 -16.5t67 -44.5l2 1l7 56h22l-59 -484h-22l19 154h-2q-34 -71 -87 -114t-121 -43zM215 19q87 0 149 81t76 187l14 109q-26 38 -71 54t-85 16q-101 0 -164.5 -81t-63.5 -197q0 -75 38 -122t107 -47z" />
    <glyph glyph-name="adieresis" unicode="&#xe4;" horiz-adv-x="531" 
d="M280 606q-11 0 -18 7.5t-7 19.5q0 11 7.5 19t18.5 8q12 0 19.5 -7.5t7.5 -18.5q0 -12 -8 -20t-20 -8zM413 606q-11 0 -18.5 7.5t-7.5 19.5q0 11 8 19t19 8t18.5 -7.5t7.5 -18.5q0 -12 -8 -20t-19 -8zM214 -3q-77 0 -121.5 54.5t-44.5 137.5q0 126 70 212.5t182 86.5
q45 0 88 -16.5t67 -44.5l2 1l7 56h22l-59 -484h-22l19 154h-2q-34 -71 -87 -114t-121 -43zM215 19q87 0 149 81t76 187l14 109q-26 38 -71 54t-85 16q-101 0 -164.5 -81t-63.5 -197q0 -75 38 -122t107 -47z" />
    <glyph glyph-name="aring" unicode="&#xe5;" horiz-adv-x="531" 
d="M344 559q-31 0 -51 20.5t-20 51.5q0 32 21 52.5t53 20.5q31 0 51.5 -20t20.5 -51q0 -32 -21.5 -53t-53.5 -21zM344 582q23 0 38 14.5t15 36.5t-14 35.5t-36 13.5q-23 0 -37.5 -14.5t-14.5 -36.5t14 -35.5t35 -13.5zM214 -3q-77 0 -121.5 54.5t-44.5 137.5q0 126 70 212.5
t182 86.5q45 0 88 -16.5t67 -44.5l2 1l7 56h22l-59 -484h-22l19 154h-2q-34 -71 -87 -114t-121 -43zM215 19q87 0 149 81t76 187l14 109q-26 38 -71 54t-85 16q-101 0 -164.5 -81t-63.5 -197q0 -75 38 -122t107 -47z" />
    <glyph glyph-name="ae" unicode="&#xe6;" horiz-adv-x="686" 
d="M486 19q37 0 76 20.5t66 56.5l18 -13q-30 -39 -73.5 -62.5t-86.5 -23.5q-74 0 -119 40.5t-56 111.5q-24 -70 -67 -111.5t-92 -41.5q-55 0 -90 48t-35 129q0 78 30 148t92.5 117t143.5 47t126 -38q58 41 136 41q57 0 89.5 -28t32.5 -75q0 -55 -52.5 -96.5t-129 -63
t-165.5 -27.5v-3q0 -83 40.5 -129.5t115.5 -46.5zM655 386q0 44 -30.5 61.5t-69.5 17.5q-101 0 -159.5 -69.5t-64.5 -175.5q132 8 228 52t96 114zM153 18q53 0 96 58.5t59 136.5q6 143 93 220q-40 30 -109 30q-77 0 -134 -46.5t-82.5 -111t-25.5 -134.5t29.5 -111.5
t73.5 -41.5z" />
    <glyph glyph-name="ccedilla" unicode="&#xe7;" horiz-adv-x="475" 
d="M301 488q102 0 155 -77l-19 -15q-46 70 -136 70q-105 0 -168 -79.5t-63 -193.5q0 -76 44.5 -125t112.5 -49q109 0 171 77l17 -13q-64 -82 -176 -86l-19 -34l1 -1q67 -7 67 -59q0 -39 -26.5 -61.5t-67.5 -22.5q-21 0 -38 4l3 22q16 -4 35 -4q33 0 52.5 16t19.5 46
q0 38 -70 41l4 21l17 32q-70 2 -120 54.5t-50 141.5q0 123 70 209t184 86z" />
    <glyph glyph-name="egrave" unicode="&#xe8;" horiz-adv-x="459" 
d="M342 561h-28l-96 135h29zM233 19q88 0 154 77l17 -13q-69 -86 -171 -86q-83 0 -134.5 54t-51.5 146q0 121 71 206t178 85q20 0 41 -5t44 -16.5t38 -36t15 -58.5q0 -147 -365 -173v-2q0 -82 45 -130t119 -48zM296 466q-92 0 -155 -71t-71 -174q341 24 341 149
q0 53 -36.5 74.5t-78.5 21.5z" />
    <glyph glyph-name="eacute" unicode="&#xe9;" horiz-adv-x="459" 
d="M449 696l-128 -135h-30l127 135h31zM434 372q0 -147 -365 -173v-2q0 -82 45 -130t119 -48q88 0 154 77l17 -13q-69 -86 -171 -86q-83 0 -134.5 54t-51.5 146q0 121 71 206t178 85q20 0 41 -5t44 -16.5t38 -36t15 -58.5zM296 466q-92 0 -155 -71t-71 -174q341 24 341 149
q0 53 -36.5 74.5t-78.5 21.5z" />
    <glyph glyph-name="ecircumflex" unicode="&#xea;" horiz-adv-x="459" 
d="M310 678l-109 -118h-28l126 136h23l96 -136h-28l-79 118h-1zM233 19q88 0 154 77l17 -13q-69 -86 -171 -86q-83 0 -134.5 54t-51.5 146q0 121 71 206t178 85q20 0 41 -5t44 -16.5t38 -36t15 -58.5q0 -147 -365 -173v-2q0 -82 45 -130t119 -48zM296 466q-92 0 -155 -71
t-71 -174q341 24 341 149q0 53 -36.5 74.5t-78.5 21.5z" />
    <glyph glyph-name="edieresis" unicode="&#xeb;" horiz-adv-x="459" 
d="M235 606q-11 0 -18 7.5t-7 19.5q0 11 7.5 19t18.5 8q12 0 19.5 -7.5t7.5 -18.5q0 -12 -8 -20t-20 -8zM368 606q-11 0 -18.5 7.5t-7.5 19.5q0 11 8 19t19 8t18.5 -7.5t7.5 -18.5q0 -12 -8 -20t-19 -8zM233 19q88 0 154 77l17 -13q-69 -86 -171 -86q-83 0 -134.5 54
t-51.5 146q0 121 71 206t178 85q20 0 41 -5t44 -16.5t38 -36t15 -58.5q0 -147 -365 -173v-2q0 -82 45 -130t119 -48zM296 466q-92 0 -155 -71t-71 -174q341 24 341 149q0 53 -36.5 74.5t-78.5 21.5z" />
    <glyph glyph-name="igrave" unicode="&#xec;" horiz-adv-x="205" 
d="M122 562l-66 135h27l65 -135h-26zM62 0l59 484h22l-60 -484h-21z" />
    <glyph glyph-name="iacute" unicode="&#xed;" horiz-adv-x="205" 
d="M137 561l127 135h31l-128 -135h-30zM62 0l59 484h22l-60 -484h-21z" />
    <glyph glyph-name="icircumflex" unicode="&#xee;" horiz-adv-x="205" 
d="M19 560l126 136h23l96 -136h-28l-79 118h-1l-109 -118h-28zM62 0l59 484h22l-60 -484h-21z" />
    <glyph glyph-name="idieresis" unicode="&#xef;" horiz-adv-x="205" 
d="M81 606q-11 0 -18 7.5t-7 19.5q0 11 7.5 19t18.5 8q12 0 19.5 -7.5t7.5 -18.5q0 -12 -8 -20t-20 -8zM214 606q-11 0 -18.5 7.5t-7.5 19.5q0 11 8 19t19 8t18.5 -7.5t7.5 -18.5q0 -12 -8 -20t-19 -8zM62 0l59 484h22l-60 -484h-21z" />
    <glyph glyph-name="eth" unicode="&#xf0;" horiz-adv-x="538" 
d="M440 543q55 -102 55 -226q0 -136 -70 -228t-185 -92q-89 0 -141.5 54t-52.5 147q0 121 72 205.5t184 84.5q45 0 88.5 -18.5t71.5 -50.5q-12 64 -40 113q-29 54 -73 98l-78 -83l-14 13l78 83q-54 51 -119 76l8 20q70 -27 126 -80l80 85l14 -14l-80 -84q43 -43 76 -103z
M240 19q107 0 169.5 86t62.5 211q0 36 -4 64q-31 45 -78 65t-88 20q-103 0 -168 -77.5t-65 -189.5q0 -84 46 -131.5t125 -47.5z" />
    <glyph glyph-name="ntilde" unicode="&#xf1;" horiz-adv-x="532" 
d="M399 581q-31 0 -75 42q-32 27 -52 27q-40 0 -66 -62l-19 8q32 76 84 76q29 0 65 -32q2 -2 8.5 -7.5t9 -7.5t8 -6.5t9 -6.5t8.5 -4.5t9.5 -3.5t9.5 -1q38 0 63 63l18 -9q-15 -38 -36.5 -57t-43.5 -19zM56 0l60 484h22l-20 -158h2q36 72 97.5 117t125.5 45q145 0 120 -197
l-38 -291h-22l38 291q13 97 -14.5 135.5t-84.5 38.5q-80 0 -153 -74.5t-85 -179.5l-26 -211h-22z" />
    <glyph glyph-name="ograve" unicode="&#xf2;" horiz-adv-x="535" 
d="M324 561l-96 135h29l95 -135h-28zM240 -3q-88 0 -141 53.5t-53 147.5q0 120 69.5 205t182.5 85q87 0 139 -51.5t52 -145.5q0 -126 -68 -210t-181 -84zM240 19q100 0 163 75t63 197q0 84 -44.5 129.5t-123.5 45.5q-99 0 -164 -76.5t-65 -191.5q0 -84 46 -131.5t125 -47.5z
" />
    <glyph glyph-name="oacute" unicode="&#xf3;" horiz-adv-x="535" 
d="M305 561l127 135h31l-128 -135h-30zM240 -3q-88 0 -141 53.5t-53 147.5q0 120 69.5 205t182.5 85q87 0 139 -51.5t52 -145.5q0 -126 -68 -210t-181 -84zM240 19q100 0 163 75t63 197q0 84 -44.5 129.5t-123.5 45.5q-99 0 -164 -76.5t-65 -191.5q0 -84 46 -131.5
t125 -47.5z" />
    <glyph glyph-name="ocircumflex" unicode="&#xf4;" horiz-adv-x="535" 
d="M193 560l126 136h23l96 -136h-28l-79 118h-1l-109 -118h-28zM240 -3q-88 0 -141 53.5t-53 147.5q0 120 69.5 205t182.5 85q87 0 139 -51.5t52 -145.5q0 -126 -68 -210t-181 -84zM240 19q100 0 163 75t63 197q0 84 -44.5 129.5t-123.5 45.5q-99 0 -164 -76.5t-65 -191.5
q0 -84 46 -131.5t125 -47.5z" />
    <glyph glyph-name="otilde" unicode="&#xf5;" horiz-adv-x="535" 
d="M388 581q-31 0 -75 42q-32 27 -52 27q-40 0 -66 -62l-19 8q32 76 84 76q29 0 65 -32q2 -2 8.5 -7.5t9 -7.5t8 -6.5t9 -6.5t8.5 -4.5t9.5 -3.5t9.5 -1q38 0 63 63l18 -9q-15 -38 -36.5 -57t-43.5 -19zM240 -3q-88 0 -141 53.5t-53 147.5q0 120 69.5 205t182.5 85
q87 0 139 -51.5t52 -145.5q0 -126 -68 -210t-181 -84zM240 19q100 0 163 75t63 197q0 84 -44.5 129.5t-123.5 45.5q-99 0 -164 -76.5t-65 -191.5q0 -84 46 -131.5t125 -47.5z" />
    <glyph glyph-name="odieresis" unicode="&#xf6;" horiz-adv-x="535" 
d="M255 606q-11 0 -18 7.5t-7 19.5q0 11 7.5 19t18.5 8q12 0 19.5 -7.5t7.5 -18.5q0 -12 -8 -20t-20 -8zM388 606q-11 0 -18.5 7.5t-7.5 19.5q0 11 8 19t19 8t18.5 -7.5t7.5 -18.5q0 -12 -8 -20t-19 -8zM240 -3q-88 0 -141 53.5t-53 147.5q0 120 69.5 205t182.5 85
q87 0 139 -51.5t52 -145.5q0 -126 -68 -210t-181 -84zM240 19q100 0 163 75t63 197q0 84 -44.5 129.5t-123.5 45.5q-99 0 -164 -76.5t-65 -191.5q0 -84 46 -131.5t125 -47.5z" />
    <glyph glyph-name="divide" unicode="&#xf7;" horiz-adv-x="551" 
d="M310 441q-11 0 -18 7.5t-7 19.5q0 11 7.5 19t18.5 8t18.5 -7.5t7.5 -18.5q0 -12 -7.5 -20t-19.5 -8zM81 265l3 22h414l-3 -22h-414zM270 57q-11 0 -18 7.5t-7 19.5q0 11 7.5 19t18.5 8t18.5 -7.5t7.5 -18.5q0 -12 -7.5 -20t-19.5 -8z" />
    <glyph glyph-name="oslash" unicode="&#xf8;" horiz-adv-x="536" 
d="M513 477l-59 -60q36 -50 36 -126q0 -126 -68 -210t-181 -84q-91 0 -143 55l-61 -62l-17 12l65 66q-38 52 -38 130q0 120 69.5 205t182.5 85q90 0 142 -55l56 58zM70 198q0 -68 31 -113l324 332q-44 49 -126 49q-99 0 -164 -76.5t-65 -191.5zM467 291q0 66 -29 110
l-324 -332q45 -50 127 -50q100 0 163 75t63 197z" />
    <glyph glyph-name="ugrave" unicode="&#xf9;" horiz-adv-x="513" 
d="M294 561l-96 135h29l95 -135h-28zM196 -3q-156 0 -129 196l39 291h22l-39 -290q-13 -98 16.5 -136.5t91.5 -38.5q72 0 138 72.5t80 170.5l27 222h22l-59 -484h-22l19 153h-2q-34 -70 -89.5 -113t-114.5 -43z" />
    <glyph glyph-name="uacute" unicode="&#xfa;" horiz-adv-x="513" 
d="M270 561l127 135h31l-128 -135h-30zM196 -3q-156 0 -129 196l39 291h22l-39 -290q-13 -98 16.5 -136.5t91.5 -38.5q72 0 138 72.5t80 170.5l27 222h22l-59 -484h-22l19 153h-2q-34 -70 -89.5 -113t-114.5 -43z" />
    <glyph glyph-name="ucircumflex" unicode="&#xfb;" horiz-adv-x="513" 
d="M167 560l126 136h23l96 -136h-28l-79 118h-1l-109 -118h-28zM196 -3q-156 0 -129 196l39 291h22l-39 -290q-13 -98 16.5 -136.5t91.5 -38.5q72 0 138 72.5t80 170.5l27 222h22l-59 -484h-22l19 153h-2q-34 -70 -89.5 -113t-114.5 -43z" />
    <glyph glyph-name="udieresis" unicode="&#xfc;" horiz-adv-x="513" 
d="M229 606q-11 0 -18 7.5t-7 19.5q0 11 7.5 19t18.5 8q12 0 19.5 -7.5t7.5 -18.5q0 -12 -8 -20t-20 -8zM362 606q-11 0 -18.5 7.5t-7.5 19.5q0 11 8 19t19 8t18.5 -7.5t7.5 -18.5q0 -12 -8 -20t-19 -8zM196 -3q-156 0 -129 196l39 291h22l-39 -290q-13 -98 16.5 -136.5
t91.5 -38.5q72 0 138 72.5t80 170.5l27 222h22l-59 -484h-22l19 153h-2q-34 -70 -89.5 -113t-114.5 -43z" />
    <glyph glyph-name="yacute" unicode="&#xfd;" horiz-adv-x="509" 
d="M436 696l-128 -135h-30l127 135h31zM439 484h22l-51 -418q-10 -79 -32.5 -133.5t-55.5 -82.5t-69 -39.5t-81 -11.5q-73 0 -147 37l7 23q69 -38 142 -38q40 0 71.5 10.5t62 36t51.5 76t30 124.5l10 86h-2q-34 -71 -89.5 -114t-114.5 -43q-156 0 -129 196l39 291h22
l-39 -290q-13 -98 16.5 -136.5t91.5 -38.5q74 0 140.5 75.5t78.5 175.5z" />
    <glyph glyph-name="thorn" unicode="&#xfe;" horiz-adv-x="544" 
d="M31 -198l115 934h22l-50 -406h2q34 71 87 114.5t122 43.5q79 0 124 -54.5t45 -138.5q0 -126 -70.5 -212t-184.5 -86q-46 0 -89.5 16.5t-66.5 44.5l-2 -1l-32 -255h-22zM245 19q102 0 166 80.5t64 196.5q0 75 -38 122t-109 47q-88 0 -150 -80t-76 -186l-14 -110
q25 -39 70.5 -54.5t86.5 -15.5z" />
    <glyph glyph-name="ydieresis" unicode="&#xff;" horiz-adv-x="509" 
d="M227 606q-11 0 -18 7.5t-7 19.5q0 11 7.5 19t18.5 8q12 0 19.5 -7.5t7.5 -18.5q0 -12 -8 -20t-20 -8zM360 606q-11 0 -18.5 7.5t-7.5 19.5q0 11 8 19t19 8t18.5 -7.5t7.5 -18.5q0 -12 -8 -20t-19 -8zM439 484h22l-51 -418q-10 -79 -32.5 -133.5t-55.5 -82.5t-69 -39.5
t-81 -11.5q-73 0 -147 37l7 23q69 -38 142 -38q40 0 71.5 10.5t62 36t51.5 76t30 124.5l10 86h-2q-34 -71 -89.5 -114t-114.5 -43q-156 0 -129 196l39 291h22l-39 -290q-13 -98 16.5 -136.5t91.5 -38.5q74 0 140.5 75.5t78.5 175.5z" />
    <glyph glyph-name="Amacron" unicode="&#x100;" horiz-adv-x="585" 
d="M248 835l3 23h239l-3 -23h-239zM0 0l334 710h27l164 -710h-24l-48 211h-329l-99 -211h-25zM135 234h313l-102 446h-2z" />
    <glyph glyph-name="amacron" unicode="&#x101;" horiz-adv-x="531" 
d="M227 619l3 23h239l-3 -23h-239zM214 -3q-77 0 -121.5 54.5t-44.5 137.5q0 126 70 212.5t182 86.5q45 0 88 -16.5t67 -44.5l2 1l7 56h22l-59 -484h-22l19 154h-2q-34 -71 -87 -114t-121 -43zM215 19q87 0 149 81t76 187l14 109q-26 38 -71 54t-85 16q-101 0 -164.5 -81
t-63.5 -197q0 -75 38 -122t107 -47z" />
    <glyph glyph-name="Abreve" unicode="&#x102;" horiz-adv-x="585" 
d="M357 791q-47 0 -71 31t-20 84l21 -1q-3 -40 14 -66t57 -26q43 0 71.5 27t35.5 66l21 -1q-10 -52 -46.5 -83t-82.5 -31zM0 0l334 710h27l164 -710h-24l-48 211h-329l-99 -211h-25zM135 234h313l-102 446h-2z" />
    <glyph glyph-name="abreve" unicode="&#x103;" horiz-adv-x="531" 
d="M335 561q-47 0 -71 33t-20 94l21 -1q-7 -104 71 -104q44 0 72 29t35 76l21 -1q-10 -59 -46 -92.5t-83 -33.5zM214 -3q-77 0 -121.5 54.5t-44.5 137.5q0 126 70 212.5t182 86.5q45 0 88 -16.5t67 -44.5l2 1l7 56h22l-59 -484h-22l19 154h-2q-34 -71 -87 -114t-121 -43z
M215 19q87 0 149 81t76 187l14 109q-26 38 -71 54t-85 16q-101 0 -164.5 -81t-63.5 -197q0 -75 38 -122t107 -47z" />
    <glyph glyph-name="Aogonek" unicode="&#x104;" horiz-adv-x="585" 
d="M542 -145l2 -23q-24 -13 -57 -13q-34 0 -52.5 18t-15.5 51q4 58 81 117l-47 206h-329l-99 -211h-25l334 710h27l164 -710h-1q-80 -63 -84 -113q-1 -20 11 -32.5t37 -12.5q29 0 54 13zM135 234h313l-102 446h-2z" />
    <glyph glyph-name="aogonek" unicode="&#x105;" horiz-adv-x="531" 
d="M390 -158q29 0 54 13l2 -23q-24 -13 -57 -13q-34 0 -52.5 18t-15.5 51q4 57 85 120l18 146h-2q-34 -71 -87 -114t-121 -43q-77 0 -121.5 54.5t-44.5 137.5q0 126 70 212.5t182 86.5q45 0 88 -16.5t67 -44.5l2 1l7 56h22l-59 -484h-1q-80 -63 -84 -113q-1 -20 11 -32.5
t37 -12.5zM215 19q87 0 149 81t76 187l14 109q-26 38 -71 54t-85 16q-101 0 -164.5 -81t-63.5 -197q0 -75 38 -122t107 -47z" />
    <glyph glyph-name="Cacute" unicode="&#x106;" horiz-adv-x="669" 
d="M438 795l127 124h29l-128 -124h-28zM342 -3q-122 0 -194.5 81t-72.5 219q0 167 101.5 292t252.5 125q148 0 242 -153l-20 -13q-46 76 -98.5 109.5t-122.5 33.5q-95 0 -172 -56.5t-118 -146t-41 -190.5q0 -129 65.5 -203.5t178.5 -74.5q60 0 122.5 27.5t110.5 80.5l18 -14
q-48 -54 -115 -85.5t-137 -31.5z" />
    <glyph glyph-name="cacute" unicode="&#x107;" horiz-adv-x="475" 
d="M302 561l127 135h31l-128 -135h-30zM224 -3q-73 0 -125 52.5t-52 143.5q0 123 70 209t184 86q102 0 155 -77l-19 -15q-46 70 -136 70q-105 0 -168 -79.5t-63 -193.5q0 -76 44.5 -125t112.5 -49q109 0 171 77l17 -13q-67 -86 -191 -86z" />
    <glyph glyph-name="Ccircumflex" unicode="&#x108;" horiz-adv-x="669" 
d="M337 795l129 109h23l94 -109h-28l-78 90h-2l-108 -90h-30zM342 -3q-122 0 -194.5 81t-72.5 219q0 167 101.5 292t252.5 125q148 0 242 -153l-20 -13q-46 76 -98.5 109.5t-122.5 33.5q-95 0 -172 -56.5t-118 -146t-41 -190.5q0 -129 65.5 -203.5t178.5 -74.5
q60 0 122.5 27.5t110.5 80.5l18 -14q-48 -54 -115 -85.5t-137 -31.5z" />
    <glyph glyph-name="ccircumflex" unicode="&#x109;" horiz-adv-x="475" 
d="M192 560l126 136h23l96 -136h-28l-79 118h-1l-109 -118h-28zM224 -3q-73 0 -125 52.5t-52 143.5q0 123 70 209t184 86q102 0 155 -77l-19 -15q-46 70 -136 70q-105 0 -168 -79.5t-63 -193.5q0 -76 44.5 -125t112.5 -49q109 0 171 77l17 -13q-67 -86 -191 -86z" />
    <glyph glyph-name="Cdotaccent" unicode="&#x10a;" horiz-adv-x="669" 
d="M471 828q-11 0 -18 7.5t-7 19.5q0 11 7.5 19t18.5 8t18.5 -7.5t7.5 -18.5q0 -12 -7.5 -20t-19.5 -8zM342 -3q-122 0 -194.5 81t-72.5 219q0 167 101.5 292t252.5 125q148 0 242 -153l-20 -13q-46 76 -98.5 109.5t-122.5 33.5q-95 0 -172 -56.5t-118 -146t-41 -190.5
q0 -129 65.5 -203.5t178.5 -74.5q60 0 122.5 27.5t110.5 80.5l18 -14q-48 -54 -115 -85.5t-137 -31.5z" />
    <glyph glyph-name="cdotaccent" unicode="&#x10b;" horiz-adv-x="475" 
d="M323 606q-11 0 -18 7.5t-7 19.5q0 11 7.5 19t18.5 8t18.5 -7.5t7.5 -18.5q0 -12 -7.5 -20t-19.5 -8zM224 -3q-73 0 -125 52.5t-52 143.5q0 123 70 209t184 86q102 0 155 -77l-19 -15q-46 70 -136 70q-105 0 -168 -79.5t-63 -193.5q0 -76 44.5 -125t112.5 -49
q109 0 171 77l17 -13q-67 -86 -191 -86z" />
    <glyph glyph-name="Ccaron" unicode="&#x10c;" horiz-adv-x="669" 
d="M451 795l-94 109h28l78 -90h2l108 90h30l-129 -109h-23zM342 -3q-122 0 -194.5 81t-72.5 219q0 167 101.5 292t252.5 125q148 0 242 -153l-20 -13q-46 76 -98.5 109.5t-122.5 33.5q-95 0 -172 -56.5t-118 -146t-41 -190.5q0 -129 65.5 -203.5t178.5 -74.5
q60 0 122.5 27.5t110.5 80.5l18 -14q-48 -54 -115 -85.5t-137 -31.5z" />
    <glyph glyph-name="ccaron" unicode="&#x10d;" horiz-adv-x="475" 
d="M300 562l-93 128h26l79 -109h2l110 109h28l-129 -128h-23zM224 -3q-73 0 -125 52.5t-52 143.5q0 123 70 209t184 86q102 0 155 -77l-19 -15q-46 70 -136 70q-105 0 -168 -79.5t-63 -193.5q0 -76 44.5 -125t112.5 -49q109 0 171 77l17 -13q-67 -86 -191 -86z" />
    <glyph glyph-name="Dcaron" unicode="&#x10e;" horiz-adv-x="659" 
d="M385 795l-94 109h28l78 -90h2l108 90h30l-129 -109h-23zM65 0l87 710h177q135 0 209 -76.5t74 -211.5q0 -185 -105.5 -303.5t-274.5 -118.5h-167zM91 23h140q158 0 257.5 112t99.5 285q0 126 -67 196.5t-193 70.5h-155z" />
    <glyph glyph-name="dcaron" unicode="&#x10f;" horiz-adv-x="574" 
d="M575 597l41 158h26l-48 -158h-19zM215 -3q-77 0 -122 54t-45 138q0 126 70 212.5t182 86.5q47 0 90 -16.5t68 -46.5l1 1l38 310h22l-90 -736h-22l19 155l-2 1q-33 -72 -86.5 -115.5t-122.5 -43.5zM215 19q88 0 151 81.5t76 187.5l13 106q-24 40 -69.5 56t-86.5 16
q-101 0 -164.5 -81t-63.5 -197q0 -75 37.5 -122t106.5 -47z" />
    <glyph glyph-name="Dcroat" unicode="&#x110;" horiz-adv-x="659" 
d="M329 710q135 0 209 -76.5t74 -211.5q0 -185 -105.5 -303.5t-274.5 -118.5h-167l42 346h-85l4 23h84l42 341h177zM231 23q158 0 257.5 112t99.5 285q0 126 -67 196.5t-193 70.5h-155l-39 -318h190l-2 -23h-191l-40 -323h140z" />
    <glyph glyph-name="dcroat" unicode="&#x111;" horiz-adv-x="537" 
d="M562 610l-3 -22h-58l-72 -588h-22l19 155l-2 1q-33 -72 -86.5 -115.5t-122.5 -43.5q-77 0 -122 54t-45 138q0 126 70 212.5t182 86.5q47 0 90 -16.5t68 -46.5l1 1l20 162h-217l3 22h217l15 126h22l-15 -126h58zM442 288l13 106q-24 40 -69.5 56t-86.5 16
q-101 0 -164.5 -81t-63.5 -197q0 -75 37.5 -122t106.5 -47q88 0 151 81.5t76 187.5z" />
    <glyph glyph-name="Emacron" unicode="&#x112;" horiz-adv-x="530" 
d="M247 838l3 23h239l-3 -23h-239zM65 0l87 710h371l-2 -23h-349l-39 -320h292l-2 -23h-293l-39 -321h367l-2 -23h-391z" />
    <glyph glyph-name="emacron" unicode="&#x113;" horiz-adv-x="459" 
d="M424 642l-3 -23h-239l3 23h239zM233 19q88 0 154 77l17 -13q-69 -86 -171 -86q-83 0 -134.5 54t-51.5 146q0 121 71 206t178 85q20 0 41 -5t44 -16.5t38 -36t15 -58.5q0 -147 -365 -173v-2q0 -82 45 -130t119 -48zM296 466q-92 0 -155 -71t-71 -174q341 24 341 149
q0 53 -36.5 74.5t-78.5 21.5z" />
    <glyph glyph-name="Ebreve" unicode="&#x114;" horiz-adv-x="530" 
d="M356 794q-47 0 -71 31t-20 84l21 -1q-3 -40 14 -66t57 -26q43 0 71.5 27t35.5 66l21 -1q-10 -52 -46.5 -83t-82.5 -31zM65 0l87 710h371l-2 -23h-349l-39 -320h292l-2 -23h-293l-39 -321h367l-2 -23h-391z" />
    <glyph glyph-name="ebreve" unicode="&#x115;" horiz-adv-x="459" 
d="M290 561q-47 0 -71 33t-20 94l21 -1q-7 -104 71 -104q44 0 72 29t35 76l21 -1q-10 -59 -46 -92.5t-83 -33.5zM233 19q88 0 154 77l17 -13q-69 -86 -171 -86q-83 0 -134.5 54t-51.5 146q0 121 71 206t178 85q20 0 41 -5t44 -16.5t38 -36t15 -58.5q0 -147 -365 -173v-2
q0 -82 45 -130t119 -48zM296 466q-92 0 -155 -71t-71 -174q341 24 341 149q0 53 -36.5 74.5t-78.5 21.5z" />
    <glyph glyph-name="Edotaccent" unicode="&#x116;" horiz-adv-x="530" 
d="M367 831q-11 0 -18 7.5t-7 19.5q0 11 7.5 19t18.5 8t18.5 -7.5t7.5 -18.5q0 -12 -7.5 -20t-19.5 -8zM65 0l87 710h371l-2 -23h-349l-39 -320h292l-2 -23h-293l-39 -321h367l-2 -23h-391z" />
    <glyph glyph-name="edotaccent" unicode="&#x117;" horiz-adv-x="459" 
d="M304 606q-11 0 -18 7.5t-7 19.5q0 11 7.5 19t18.5 8t18.5 -7.5t7.5 -18.5q0 -12 -7.5 -20t-19.5 -8zM233 19q88 0 154 77l17 -13q-69 -86 -171 -86q-83 0 -134.5 54t-51.5 146q0 121 71 206t178 85q20 0 41 -5t44 -16.5t38 -36t15 -58.5q0 -147 -365 -173v-2
q0 -82 45 -130t119 -48zM296 466q-92 0 -155 -71t-71 -174q341 24 341 149q0 53 -36.5 74.5t-78.5 21.5z" />
    <glyph glyph-name="Eogonek" unicode="&#x118;" horiz-adv-x="530" 
d="M521 687h-349l-39 -320h292l-2 -23h-293l-39 -321h367l-2 -23h-1q-80 -63 -84 -113q-1 -20 11 -32.5t37 -12.5q29 0 54 13l2 -23q-24 -13 -57 -13q-34 0 -52.5 18t-15.5 51q4 55 75 112h-360l87 710h371z" />
    <glyph glyph-name="eogonek" unicode="&#x119;" horiz-adv-x="459" 
d="M233 19q88 0 154 77l17 -13q-45 -57 -109 -77q-44 -19 -76.5 -54t-32.5 -68q0 -42 47 -42q31 0 54 13l3 -23q-26 -13 -58 -13q-68 0 -68 62q0 32 21 62.5t53 51.5l-1 2h-4q-83 0 -134.5 54t-51.5 146q0 121 71 206t178 85q20 0 41 -5t44 -16.5t38 -36t15 -58.5
q0 -147 -365 -173v-2q0 -82 45 -130t119 -48zM296 466q-92 0 -155 -71t-71 -174q341 24 341 149q0 53 -36.5 74.5t-78.5 21.5z" />
    <glyph glyph-name="Ecaron" unicode="&#x11a;" horiz-adv-x="530" 
d="M347 798l-94 109h28l78 -90h2l108 90h30l-129 -109h-23zM65 0l87 710h371l-2 -23h-349l-39 -320h292l-2 -23h-293l-39 -321h367l-2 -23h-391z" />
    <glyph glyph-name="ecaron" unicode="&#x11b;" horiz-adv-x="459" 
d="M304 562h-23l-93 128h26l79 -109h2l110 109h28zM233 19q88 0 154 77l17 -13q-69 -86 -171 -86q-83 0 -134.5 54t-51.5 146q0 121 71 206t178 85q20 0 41 -5t44 -16.5t38 -36t15 -58.5q0 -147 -365 -173v-2q0 -82 45 -130t119 -48zM296 466q-92 0 -155 -71t-71 -174
q341 24 341 149q0 53 -36.5 74.5t-78.5 21.5z" />
    <glyph glyph-name="Gcircumflex" unicode="&#x11c;" horiz-adv-x="705" 
d="M319 795l129 109h23l94 -109h-28l-78 90h-2l-108 -90h-30zM350 -3q-129 0 -202 80t-73 218q0 110 44.5 205.5t127 154.5t185.5 59q133 0 225 -109l-17 -17q-86 103 -209 103q-95 0 -172.5 -56t-118.5 -146.5t-41 -193.5q0 -128 66 -201.5t186 -73.5q137 0 232 81l26 217
h-239l3 23h262l-31 -251q-50 -46 -117.5 -69.5t-136.5 -23.5z" />
    <glyph glyph-name="gcircumflex" unicode="&#x11d;" horiz-adv-x="532" 
d="M200 560l126 136h23l96 -136h-28l-79 118h-1l-109 -118h-28zM176 -201q-83 0 -156 37l7 24q70 -39 151 -39q47 0 82.5 10.5t68 36.5t53.5 76t30 125l13 99h-2q-35 -69 -88.5 -113t-121.5 -44q-77 0 -121.5 54.5t-44.5 138.5q0 115 70.5 199.5t181.5 84.5q45 0 89 -16.5
t67 -44.5l1 1l7 56h22l-51 -417q-19 -153 -84 -210.5t-174 -57.5zM214 34q84 0 148.5 77t75.5 171l14 115q-25 38 -70 53t-85 15q-100 0 -164 -78.5t-64 -183.5q0 -75 38 -122t107 -47z" />
    <glyph glyph-name="Gbreve" unicode="&#x11e;" horiz-adv-x="705" 
d="M442 791q-47 0 -71 31t-20 84l21 -1q-3 -40 14 -66t57 -26q43 0 71.5 27t35.5 66l21 -1q-10 -52 -46.5 -83t-82.5 -31zM350 -3q-129 0 -202 80t-73 218q0 110 44.5 205.5t127 154.5t185.5 59q133 0 225 -109l-17 -17q-86 103 -209 103q-95 0 -172.5 -56t-118.5 -146.5
t-41 -193.5q0 -128 66 -201.5t186 -73.5q137 0 232 81l26 217h-239l3 23h262l-31 -251q-50 -46 -117.5 -69.5t-136.5 -23.5z" />
    <glyph glyph-name="gbreve" unicode="&#x11f;" horiz-adv-x="532" 
d="M317 561q-47 0 -71 33t-20 94l21 -1q-7 -104 71 -104q44 0 72 29t35 76l21 -1q-10 -59 -46 -92.5t-83 -33.5zM176 -201q-83 0 -156 37l7 24q70 -39 151 -39q47 0 82.5 10.5t68 36.5t53.5 76t30 125l13 99h-2q-35 -69 -88.5 -113t-121.5 -44q-77 0 -121.5 54.5
t-44.5 138.5q0 115 70.5 199.5t181.5 84.5q45 0 89 -16.5t67 -44.5l1 1l7 56h22l-51 -417q-19 -153 -84 -210.5t-174 -57.5zM214 34q84 0 148.5 77t75.5 171l14 115q-25 38 -70 53t-85 15q-100 0 -164 -78.5t-64 -183.5q0 -75 38 -122t107 -47z" />
    <glyph glyph-name="Gdotaccent" unicode="&#x120;" horiz-adv-x="705" 
d="M453 828q-11 0 -18 7.5t-7 19.5q0 11 7.5 19t18.5 8t18.5 -7.5t7.5 -18.5q0 -12 -7.5 -20t-19.5 -8zM350 -3q-129 0 -202 80t-73 218q0 110 44.5 205.5t127 154.5t185.5 59q133 0 225 -109l-17 -17q-86 103 -209 103q-95 0 -172.5 -56t-118.5 -146.5t-41 -193.5
q0 -128 66 -201.5t186 -73.5q137 0 232 81l26 217h-239l3 23h262l-31 -251q-50 -46 -117.5 -69.5t-136.5 -23.5z" />
    <glyph glyph-name="gdotaccent" unicode="&#x121;" horiz-adv-x="532" 
d="M331 606q-11 0 -18 7.5t-7 19.5q0 11 7.5 19t18.5 8t18.5 -7.5t7.5 -18.5q0 -12 -7.5 -20t-19.5 -8zM176 -201q-83 0 -156 37l7 24q70 -39 151 -39q47 0 82.5 10.5t68 36.5t53.5 76t30 125l13 99h-2q-35 -69 -88.5 -113t-121.5 -44q-77 0 -121.5 54.5t-44.5 138.5
q0 115 70.5 199.5t181.5 84.5q45 0 89 -16.5t67 -44.5l1 1l7 56h22l-51 -417q-19 -153 -84 -210.5t-174 -57.5zM214 34q84 0 148.5 77t75.5 171l14 115q-25 38 -70 53t-85 15q-100 0 -164 -78.5t-64 -183.5q0 -75 38 -122t107 -47z" />
    <glyph glyph-name="Gcommaaccent" unicode="&#x122;" horiz-adv-x="705" 
d="M350 -3q-129 0 -202 80t-73 218q0 110 44.5 205.5t127 154.5t185.5 59q133 0 225 -109l-17 -17q-86 103 -209 103q-95 0 -172.5 -56t-118.5 -146.5t-41 -193.5q0 -128 66 -201.5t186 -73.5q137 0 232 81l26 217h-239l3 23h262l-31 -251q-50 -46 -117.5 -69.5
t-136.5 -23.5zM256 -199l-5 18q38 2 55.5 27.5t17.5 80.5v18h20q0 -1 0.5 -7t0.5 -14q0 -118 -89 -123z" />
    <glyph glyph-name="gcommaaccent" unicode="&#x123;" horiz-adv-x="532" 
d="M408 696l5 -18q-38 -2 -55.5 -27.5t-17.5 -80.5v-18h-20q0 1 -0.5 7t-0.5 14q0 118 89 123zM176 -201q-83 0 -156 37l7 24q70 -39 151 -39q47 0 82.5 10.5t68 36.5t53.5 76t30 125l13 99h-2q-35 -69 -88.5 -113t-121.5 -44q-77 0 -121.5 54.5t-44.5 138.5
q0 115 70.5 199.5t181.5 84.5q45 0 89 -16.5t67 -44.5l1 1l7 56h22l-51 -417q-19 -153 -84 -210.5t-174 -57.5zM214 34q84 0 148.5 77t75.5 171l14 115q-25 38 -70 53t-85 15q-100 0 -164 -78.5t-64 -183.5q0 -75 38 -122t107 -47z" />
    <glyph glyph-name="Hcircumflex" unicode="&#x124;" horiz-adv-x="652" 
d="M272 795l129 109h23l94 -109h-28l-78 90h-2l-108 -90h-30zM65 0l87 710h23l-45 -364h417l44 364h23l-86 -710h-23l39 323h-416l-40 -323h-23z" />
    <glyph glyph-name="hcircumflex" unicode="&#x125;" horiz-adv-x="532" 
d="M150 808l129 109h23l94 -109h-28l-78 90h-2l-108 -90h-30zM56 0l90 736h22l-51 -415h2q35 75 97 121t127 46q145 0 120 -197l-38 -291h-22l38 291q13 97 -14.5 136t-84.5 39q-80 0 -153 -76t-85 -178l-26 -212h-22z" />
    <glyph glyph-name="Hbar" unicode="&#x126;" horiz-adv-x="645" 
d="M657 565l-3 -22h-60l-66 -543h-23l39 323h-416l-40 -323h-23l67 543h-68l3 22h67l18 145h23l-18 -145h416l18 145h23l-18 -145h61zM547 346l24 197h-417l-24 -197h417z" />
    <glyph glyph-name="hbar" unicode="&#x127;" horiz-adv-x="532" 
d="M343 488q145 0 120 -197l-38 -291h-22l38 291q13 97 -14.5 136t-84.5 39q-80 0 -153 -76t-85 -178l-26 -212h-22l72 588h-85l3 22h85l15 126h22l-15 -126h203l-3 -22h-203l-33 -267h2q35 75 97 121t127 46z" />
    <glyph glyph-name="Itilde" unicode="&#x128;" horiz-adv-x="226" 
d="M257 795q-6 0 -12 1t-12.5 4t-10.5 5t-11 7.5t-9 7t-10 8.5t-9 8q-34 28 -53 28q-40 0 -66 -62l-19 8q32 76 84 76q29 0 65 -32q41 -37 62 -37q38 0 63 63l18 -9q-15 -38 -36.5 -57t-43.5 -19zM72 0l87 710h23l-87 -710h-23z" />
    <glyph glyph-name="itilde" unicode="&#x129;" horiz-adv-x="205" 
d="M213 581q-28 0 -73 41q-30 28 -54 28q-39 0 -65 -62l-19 8q32 76 84 76q27 0 65 -32q1 -1 11 -10t13.5 -11t11 -7.5t13.5 -7t13 -1.5q38 0 63 63l18 -9q-32 -76 -81 -76zM62 0l59 484h22l-60 -484h-21z" />
    <glyph glyph-name="Imacron" unicode="&#x12a;" horiz-adv-x="226" 
d="M70 835l3 23h239l-3 -23h-239zM72 0l87 710h23l-87 -710h-23z" />
    <glyph glyph-name="imacron" unicode="&#x12b;" horiz-adv-x="205" 
d="M28 619l3 23h239l-3 -23h-239zM62 0l59 484h22l-60 -484h-21z" />
    <glyph glyph-name="Ibreve" unicode="&#x12c;" horiz-adv-x="226" 
d="M179 791q-47 0 -71 31t-20 84l21 -1q-3 -40 14 -66t57 -26q43 0 71.5 27t35.5 66l21 -1q-10 -52 -46.5 -83t-82.5 -31zM72 0l87 710h23l-87 -710h-23z" />
    <glyph glyph-name="ibreve" unicode="&#x12d;" horiz-adv-x="205" 
d="M142 561q-43 0 -67.5 33.5t-20.5 93.5l21 -1q-4 -47 12.5 -75.5t54.5 -28.5q40 0 64 29t30 76l22 -1q-9 -60 -41 -93t-75 -33zM62 0l59 484h22l-60 -484h-21z" />
    <glyph glyph-name="Iogonek" unicode="&#x12e;" horiz-adv-x="226" 
d="M58 -158q29 0 54 13l2 -23q-24 -13 -57 -13q-34 0 -52.5 18t-15.5 51q4 57 84 119l86 703h23l-87 -710h-1q-80 -63 -84 -113q-1 -20 11 -32.5t37 -12.5z" />
    <glyph glyph-name="iogonek" unicode="&#x12f;" horiz-adv-x="205" 
d="M151 660q11 0 18.5 -7.5t7.5 -18.5q0 -12 -7.5 -20t-19.5 -8q-11 0 -18 7.5t-7 19.5q0 11 7.5 19t18.5 8zM82 0q-80 -63 -84 -113q-1 -20 11 -32.5t37 -12.5q29 0 54 13l2 -23q-24 -13 -57 -13q-34 0 -52.5 18t-15.5 51q4 59 86 121l58 475h22l-60 -484h-1z" />
    <glyph glyph-name="Idotaccent" unicode="&#x130;" horiz-adv-x="226" 
d="M190 828q-11 0 -18 7.5t-7 19.5q0 11 7.5 19t18.5 8t18.5 -7.5t7.5 -18.5q0 -12 -7.5 -20t-19.5 -8zM72 0l87 710h23l-87 -710h-23z" />
    <glyph glyph-name="dotlessi" unicode="&#x131;" horiz-adv-x="205" 
d="M62 0l59 484h22l-60 -484h-21z" />
    <glyph glyph-name="IJ" unicode="&#x132;" horiz-adv-x="661" 
d="M72 0l87 710h23l-87 -710h-23zM385 -3q-40 0 -81.5 24.5t-68.5 69.5l15 19q26 -42 63 -66t73 -24q144 0 166 189l61 501h23l-61 -502q-13 -109 -60.5 -160t-129.5 -51z" />
    <glyph glyph-name="ij" unicode="&#x133;" horiz-adv-x="366" 
d="M150 606q-11 0 -18 7.5t-7 19.5q0 11 7.5 19t18.5 8t18.5 -7.5t7.5 -18.5q0 -12 -7.5 -20t-19.5 -8zM329 606q-11 0 -18 7.5t-7 19.5q0 11 7.5 19t18.5 8t18.5 -7.5t7.5 -18.5q0 -12 -7.5 -20t-19.5 -8zM62 0l59 484h22l-60 -484h-21zM143 -201q-29 0 -54 15l5 23
q22 -16 51 -16q34 0 56.5 23.5t30.5 90.5l67 549h22l-68 -550q-8 -69 -33 -102t-77 -33z" />
    <glyph glyph-name="Jcircumflex" unicode="&#x134;" horiz-adv-x="435" 
d="M283 795l129 109h23l94 -109h-28l-78 90h-2l-108 -90h-30zM159 -3q-40 0 -81.5 24.5t-68.5 69.5l15 19q26 -42 63 -66t73 -24q144 0 166 189l61 501h23l-61 -502q-13 -109 -60.5 -160t-129.5 -51z" />
    <glyph glyph-name="jcircumflex" unicode="&#x135;" horiz-adv-x="161" 
d="M-7 560l126 136h23l96 -136h-28l-79 118h-1l-109 -118h-28zM-62 -201q-29 0 -54 15l5 23q22 -16 51 -16q34 0 56.5 23.5t30.5 90.5l67 549h22l-68 -550q-8 -69 -33 -102t-77 -33z" />
    <glyph glyph-name="Kcommaaccent" unicode="&#x136;" horiz-adv-x="569" 
d="M579 710l-297 -328l215 -382h-28l-203 364l-154 -171l-24 -193h-23l87 710h23l-59 -477l2 -1l431 478h30zM238 -55h20q0 -1 0.5 -7t0.5 -14q0 -118 -89 -123l-5 18q38 2 55.5 27.5t17.5 80.5v18z" />
    <glyph glyph-name="kcommaaccent" unicode="&#x137;" horiz-adv-x="461" 
d="M395 -3q-11 -2 -22 4q-13 7 -26 25.5t-19.5 32.5t-22.5 51l-49 111q-79 -70 -166 -113l-12 -108h-22l90 736h22l-74 -599l2 -1q111 60 201.5 157.5t121.5 190.5h23q-38 -126 -168 -247l52 -117q27 -61 41 -80t34 -22zM114 -199l-5 18q38 2 55.5 27.5t17.5 80.5v18h20
q0 -1 0.5 -7t0.5 -14q0 -118 -89 -123z" />
    <glyph glyph-name="kgreenlandic" unicode="&#x138;" horiz-adv-x="461" 
d="M395 -3q-14 0 -22 4q-13 7 -26 25.5t-19.5 32.5t-22.5 51l-49 111q-79 -70 -166 -113l-12 -108h-22l59 484h22l-43 -346l3 -2q110 60 200.5 157.5t121.5 190.5h23q-38 -126 -168 -247l52 -117q27 -61 41 -80t34 -22z" />
    <glyph glyph-name="Lacute" unicode="&#x139;" horiz-adv-x="489" 
d="M234 795l127 124h29l-128 -124h-28zM65 0l87 710h23l-84 -687h352l-2 -23h-376z" />
    <glyph glyph-name="lacute" unicode="&#x13a;" horiz-adv-x="197" 
d="M160 808l127 124h29l-128 -124h-28zM61 0l90 736h22l-90 -736h-22z" />
    <glyph glyph-name="Lcommaaccent" unicode="&#x13b;" horiz-adv-x="489" 
d="M65 0l87 710h23l-84 -687h352l-2 -23h-376zM162 -199l-5 18q38 2 55.5 27.5t17.5 80.5v18h20q0 -1 0.5 -7t0.5 -14q0 -118 -89 -123z" />
    <glyph glyph-name="lcommaaccent" unicode="&#x13c;" horiz-adv-x="197" 
d="M61 0l90 736h22l-90 -736h-22zM-12 -199l-5 18q38 2 55.5 27.5t17.5 80.5v18h20q0 -1 0.5 -7t0.5 -14q0 -118 -89 -123z" />
    <glyph glyph-name="Lcaron" unicode="&#x13d;" horiz-adv-x="489" 
d="M257 597l41 158h25l-47 -158h-19zM65 0l87 710h23l-84 -687h352l-2 -23h-376z" />
    <glyph glyph-name="lcaron" unicode="&#x13e;" horiz-adv-x="229" 
d="M229 597l42 158h25l-47 -158h-20zM61 0l90 736h22l-90 -736h-22z" />
    <glyph glyph-name="Ldot" unicode="&#x13f;" horiz-adv-x="489" 
d="M65 0l87 710h23l-84 -687h352l-2 -23h-376zM340 311q-26 0 -26 27q0 11 7.5 19t19.5 8q11 0 18.5 -7.5t7.5 -18.5q0 -12 -8 -20t-19 -8z" />
    <glyph glyph-name="ldot" unicode="&#x140;" horiz-adv-x="214" 
d="M61 0l90 736h22l-90 -736h-22zM209 248q-26 0 -26 27q0 11 7.5 19t19.5 8q11 0 18.5 -7.5t7.5 -18.5q0 -12 -8 -20t-19 -8z" />
    <glyph glyph-name="Lslash" unicode="&#x141;" horiz-adv-x="504" 
d="M106 23h352l-2 -23h-376l38 307l-99 -44l5 26l97 43l46 378h23l-45 -368l108 48l-4 -25l-107 -47z" />
    <glyph glyph-name="lslash" unicode="&#x142;" horiz-adv-x="209" 
d="M215 377l-3 -25l-83 -33l-39 -319h-22l38 309l-83 -33l3 25l83 33l49 402h22l-48 -392z" />
    <glyph glyph-name="Nacute" unicode="&#x143;" horiz-adv-x="684" 
d="M345 795l127 124h29l-128 -124h-28zM65 0l87 710h20l368 -667h2l81 667h23l-87 -710h-22l-366 665h-2l-81 -665h-23z" />
    <glyph glyph-name="nacute" unicode="&#x144;" horiz-adv-x="532" 
d="M296 561l127 135h31l-128 -135h-30zM56 0l60 484h22l-20 -158h2q36 72 97.5 117t125.5 45q145 0 120 -197l-38 -291h-22l38 291q13 97 -14.5 135.5t-84.5 38.5q-80 0 -153 -74.5t-85 -179.5l-26 -211h-22z" />
    <glyph glyph-name="Ncommaaccent" unicode="&#x145;" horiz-adv-x="684" 
d="M65 0l87 710h20l368 -667h2l81 667h23l-87 -710h-22l-366 665h-2l-81 -665h-23zM220 -199l-5 18q38 2 55.5 27.5t17.5 80.5v18h20q0 -1 0.5 -7t0.5 -14q0 -118 -89 -123z" />
    <glyph glyph-name="ncommaaccent" unicode="&#x146;" horiz-adv-x="532" 
d="M56 0l60 484h22l-20 -158h2q36 72 97.5 117t125.5 45q145 0 120 -197l-38 -291h-22l38 291q13 97 -14.5 135.5t-84.5 38.5q-80 0 -153 -74.5t-85 -179.5l-26 -211h-22zM148 -199l-5 18q38 2 55.5 27.5t17.5 80.5v18h20q0 -1 0.5 -7t0.5 -14q0 -118 -89 -123z" />
    <glyph glyph-name="Ncaron" unicode="&#x147;" horiz-adv-x="684" 
d="M399 795l-94 109h28l78 -90h2l108 90h30l-129 -109h-23zM65 0l87 710h20l368 -667h2l81 667h23l-87 -710h-22l-366 665h-2l-81 -665h-23z" />
    <glyph glyph-name="ncaron" unicode="&#x148;" horiz-adv-x="532" 
d="M312 562l-93 128h26l79 -109h2l110 109h28l-129 -128h-23zM56 0l60 484h22l-20 -158h2q36 72 97.5 117t125.5 45q145 0 120 -197l-38 -291h-22l38 291q13 97 -14.5 135.5t-84.5 38.5q-80 0 -153 -74.5t-85 -179.5l-26 -211h-22z" />
    <glyph glyph-name="napostrophe" unicode="&#x149;" horiz-adv-x="626" 
d="M66 542l41 168h25l-47 -168h-19zM150 0l60 484h22l-20 -158h2q36 72 97.5 117t125.5 45q145 0 120 -197l-38 -291h-22l38 291q13 97 -14.5 135.5t-84.5 38.5q-80 0 -153 -74.5t-85 -179.5l-26 -211h-22z" />
    <glyph glyph-name="Eng" unicode="&#x14a;" horiz-adv-x="684" 
d="M623 710h23l-90 -735q-11 -91 -48.5 -133.5t-110.5 -42.5q-30 0 -64 10l3 23q27 -10 62 -10q57 0 90.5 31.5t44.5 121.5l3 27l-365 663h-2l-81 -665h-23l87 710h20l368 -667h2z" />
    <glyph glyph-name="eng" unicode="&#x14b;" horiz-adv-x="529" 
d="M262 -201q-24 0 -47 8l4 22q19 -8 46 -8q57 0 89 36t46 143l38 291q13 97 -14.5 135.5t-84.5 38.5q-79 0 -150.5 -74t-83.5 -178l-26 -213h-22l59 484h22l-19 -157h2q36 72 96 116.5t123 44.5q145 0 120 -197l-38 -291q-14 -110 -51 -155.5t-109 -45.5z" />
    <glyph glyph-name="Omacron" unicode="&#x14c;" horiz-adv-x="750" 
d="M348 835l3 23h239l-3 -23h-239zM347 -3q-125 0 -200 78.5t-75 216.5q0 111 44 207t127 155.5t188 59.5q126 0 200.5 -77t74.5 -218q0 -176 -99.5 -299t-259.5 -123zM347 20q150 0 242.5 116t92.5 282q0 131 -67 202t-185 71q-98 0 -175.5 -56.5t-118 -147t-40.5 -195.5
q0 -128 67.5 -200t183.5 -72z" />
    <glyph glyph-name="omacron" unicode="&#x14d;" horiz-adv-x="535" 
d="M202 619l3 23h239l-3 -23h-239zM240 -3q-88 0 -141 53.5t-53 147.5q0 120 69.5 205t182.5 85q87 0 139 -51.5t52 -145.5q0 -126 -68 -210t-181 -84zM240 19q100 0 163 75t63 197q0 84 -44.5 129.5t-123.5 45.5q-99 0 -164 -76.5t-65 -191.5q0 -84 46 -131.5t125 -47.5z
" />
    <glyph glyph-name="Obreve" unicode="&#x14e;" horiz-adv-x="750" 
d="M457 791q-47 0 -71 31t-20 84l21 -1q-3 -40 14 -66t57 -26q43 0 71.5 27t35.5 66l21 -1q-10 -52 -46.5 -83t-82.5 -31zM347 -3q-125 0 -200 78.5t-75 216.5q0 111 44 207t127 155.5t188 59.5q126 0 200.5 -77t74.5 -218q0 -176 -99.5 -299t-259.5 -123zM347 20
q150 0 242.5 116t92.5 282q0 131 -67 202t-185 71q-98 0 -175.5 -56.5t-118 -147t-40.5 -195.5q0 -128 67.5 -200t183.5 -72z" />
    <glyph glyph-name="obreve" unicode="&#x14f;" horiz-adv-x="535" 
d="M310 561q-47 0 -71 33t-20 94l21 -1q-7 -104 71 -104q44 0 72 29t35 76l21 -1q-10 -59 -46 -92.5t-83 -33.5zM240 -3q-88 0 -141 53.5t-53 147.5q0 120 69.5 205t182.5 85q87 0 139 -51.5t52 -145.5q0 -126 -68 -210t-181 -84zM240 19q100 0 163 75t63 197
q0 84 -44.5 129.5t-123.5 45.5q-99 0 -164 -76.5t-65 -191.5q0 -84 46 -131.5t125 -47.5z" />
    <glyph glyph-name="Ohungarumlaut" unicode="&#x150;" horiz-adv-x="750" 
d="M390 788l127 135h29l-129 -135h-27zM503 788l126 135h29l-129 -135h-26zM347 -3q-125 0 -200 78.5t-75 216.5q0 111 44 207t127 155.5t188 59.5q126 0 200.5 -77t74.5 -218q0 -176 -99.5 -299t-259.5 -123zM347 20q150 0 242.5 116t92.5 282q0 131 -67 202t-185 71
q-98 0 -175.5 -56.5t-118 -147t-40.5 -195.5q0 -128 67.5 -200t183.5 -72z" />
    <glyph glyph-name="ohungarumlaut" unicode="&#x151;" horiz-adv-x="535" 
d="M245 561l127 135h29l-129 -135h-27zM358 561l126 135h29l-129 -135h-26zM240 -3q-88 0 -141 53.5t-53 147.5q0 120 69.5 205t182.5 85q87 0 139 -51.5t52 -145.5q0 -126 -68 -210t-181 -84zM240 19q100 0 163 75t63 197q0 84 -44.5 129.5t-123.5 45.5q-99 0 -164 -76.5
t-65 -191.5q0 -84 46 -131.5t125 -47.5z" />
    <glyph glyph-name="OE" unicode="&#x152;" horiz-adv-x="852" 
d="M843 687h-348l-40 -320h292l-2 -23h-292l-40 -321h367l-2 -23h-435q-125 0 -197.5 80t-72.5 218q0 110 43.5 203.5t124.5 151t183 57.5h421zM391 23l80 664h-48q-142 0 -234 -114.5t-92 -274.5q0 -128 65 -201.5t181 -73.5h48z" />
    <glyph glyph-name="oe" unicode="&#x153;" horiz-adv-x="738" 
d="M543 19q33 0 71.5 21t65.5 56l18 -13q-29 -38 -72 -62t-83 -24q-66 0 -108.5 41t-53.5 112h-1q-26 -69 -75.5 -111t-112.5 -42q-69 0 -112.5 52t-43.5 143q0 126 64.5 211t156.5 85q59 0 97.5 -40.5t47.5 -111.5h2q29 72 83.5 112t125.5 40q52 0 84 -28t32 -75
q0 -141 -329 -196q1 -79 39.5 -124.5t103.5 -45.5zM383 264q7 93 -26.5 147t-99.5 54q-83 0 -140.5 -79t-57.5 -194q0 -82 36.5 -127.5t96.5 -45.5q74 0 129 69.5t62 175.5zM613 465q-91 0 -147.5 -68t-64.5 -177v-8q306 53 306 174q0 43 -29.5 61t-64.5 18z" />
    <glyph glyph-name="Racute" unicode="&#x154;" horiz-adv-x="576" 
d="M281 795l127 124h29l-128 -124h-28zM65 0l87 710h210q85 0 129.5 -44t44.5 -121q0 -101 -56 -166t-154 -73l154 -306h-26l-154 305h-175l-37 -305h-23zM128 328h174q98 0 154 60t56 157q0 73 -41.5 107.5t-110.5 34.5h-188z" />
    <glyph glyph-name="racute" unicode="&#x155;" horiz-adv-x="273" 
d="M163 561l127 135h31l-128 -135h-30zM56 0l59 484h22l-18 -146h2q56 120 172 150l-2 -30q-74 -16 -125 -83.5t-62 -162.5l-26 -212h-22z" />
    <glyph glyph-name="Rcommaaccent" unicode="&#x156;" horiz-adv-x="576" 
d="M65 0l87 710h210q85 0 129.5 -44t44.5 -121q0 -101 -56 -166t-154 -73l154 -306h-26l-154 305h-175l-37 -305h-23zM128 328h174q98 0 154 60t56 157q0 73 -41.5 107.5t-110.5 34.5h-188zM156 -199l-5 18q38 2 55.5 27.5t17.5 80.5v18h20q0 -1 0.5 -7t0.5 -14
q0 -118 -89 -123z" />
    <glyph glyph-name="rcommaaccent" unicode="&#x157;" horiz-adv-x="272" 
d="M56 0l59 484h22l-18 -146h2q56 120 172 150l-2 -30q-74 -16 -125 -83.5t-62 -162.5l-26 -212h-22zM-18 -199l-5 18q38 2 55.5 27.5t17.5 80.5v18h20q0 -1 0.5 -7t0.5 -14q0 -118 -89 -123z" />
    <glyph glyph-name="Rcaron" unicode="&#x158;" horiz-adv-x="576" 
d="M335 795l-94 109h28l78 -90h2l108 90h30l-129 -109h-23zM65 0l87 710h210q85 0 129.5 -44t44.5 -121q0 -101 -56 -166t-154 -73l154 -306h-26l-154 305h-175l-37 -305h-23zM128 328h174q98 0 154 60t56 157q0 73 -41.5 107.5t-110.5 34.5h-188z" />
    <glyph glyph-name="rcaron" unicode="&#x159;" horiz-adv-x="272" 
d="M205 562l-93 128h26l79 -109h2l110 109h28l-129 -128h-23zM56 0l59 484h22l-18 -146h2q56 120 172 150l-2 -30q-74 -16 -125 -83.5t-62 -162.5l-26 -212h-22z" />
    <glyph glyph-name="Sacute" unicode="&#x15a;" horiz-adv-x="525" 
d="M328 795l127 124h29l-128 -124h-28zM248 -3q-61 0 -121 28.5t-98 84.5l19 15q74 -105 201 -105q84 0 136 45t52 121q0 23 -10.5 44t-22 34.5t-40 33t-42 27t-51.5 28.5q-40 22 -62.5 36t-51 37.5t-42 51.5t-13.5 62q0 77 56 125.5t146 48.5q110 0 184 -79l-17 -17
q-67 73 -169 73q-76 0 -126 -41t-50 -108q0 -30 11.5 -54.5t38.5 -46.5t46 -33.5t59 -33.5q46 -25 69 -39t53.5 -38.5t44 -51t13.5 -58.5q0 -86 -58.5 -138t-154.5 -52z" />
    <glyph glyph-name="sacute" unicode="&#x15b;" horiz-adv-x="391" 
d="M225 561l127 135h31l-128 -135h-30zM172 -3q-95 0 -158 67l15 18q59 -63 143 -63q61 0 99.5 29t38.5 78q0 42 -29.5 65t-86.5 47q-9 3 -13 5q-26 11 -43 20t-35.5 23.5t-27.5 34t-9 44.5q0 56 43 89.5t103 33.5q80 0 132 -58l-15 -16q-48 52 -121 52q-50 0 -84.5 -28.5
t-34.5 -75.5q0 -35 26 -56.5t75 -42.5q3 -1 22 -9t23.5 -10.5t20.5 -10t21.5 -12t17.5 -13t16.5 -16t11 -18t8.5 -22t2 -24.5q0 -62 -47 -96.5t-114 -34.5z" />
    <glyph glyph-name="Scircumflex" unicode="&#x15c;" horiz-adv-x="525" 
d="M193 795l129 109h23l94 -109h-28l-78 90h-2l-108 -90h-30zM248 -3q-61 0 -121 28.5t-98 84.5l19 15q74 -105 201 -105q84 0 136 45t52 121q0 23 -10.5 44t-22 34.5t-40 33t-42 27t-51.5 28.5q-40 22 -62.5 36t-51 37.5t-42 51.5t-13.5 62q0 77 56 125.5t146 48.5
q110 0 184 -79l-17 -17q-67 73 -169 73q-76 0 -126 -41t-50 -108q0 -30 11.5 -54.5t38.5 -46.5t46 -33.5t59 -33.5q46 -25 69 -39t53.5 -38.5t44 -51t13.5 -58.5q0 -86 -58.5 -138t-154.5 -52z" />
    <glyph glyph-name="scircumflex" unicode="&#x15d;" horiz-adv-x="391" 
d="M112 560l126 136h23l96 -136h-28l-79 118h-1l-109 -118h-28zM172 -3q-95 0 -158 67l15 18q59 -63 143 -63q61 0 99.5 29t38.5 78q0 42 -29.5 65t-86.5 47q-9 3 -13 5q-26 11 -43 20t-35.5 23.5t-27.5 34t-9 44.5q0 56 43 89.5t103 33.5q80 0 132 -58l-15 -16
q-48 52 -121 52q-50 0 -84.5 -28.5t-34.5 -75.5q0 -35 26 -56.5t75 -42.5q3 -1 22 -9t23.5 -10.5t20.5 -10t21.5 -12t17.5 -13t16.5 -16t11 -18t8.5 -22t2 -24.5q0 -62 -47 -96.5t-114 -34.5z" />
    <glyph glyph-name="Scedilla" unicode="&#x15e;" horiz-adv-x="525" 
d="M304 714q110 0 184 -79l-17 -17q-67 73 -169 73q-76 0 -126 -41t-50 -108q0 -30 11.5 -54.5t38.5 -46.5t46 -33.5t59 -33.5q46 -25 69 -39t53.5 -38.5t44 -51t13.5 -58.5q0 -86 -58.5 -138t-154.5 -52l-19 -34l1 -1q67 -7 67 -59q0 -39 -26.5 -61.5t-67.5 -22.5
q-21 0 -38 4l3 22q16 -4 35 -4q33 0 52.5 16t19.5 46q0 38 -70 41l4 21l18 33q-129 11 -198 112l19 15q74 -105 201 -105q84 0 136 45t52 121q0 23 -10.5 44t-22 34.5t-40 33t-42 27t-51.5 28.5q-40 22 -62.5 36t-51 37.5t-42 51.5t-13.5 62q0 77 56 125.5t146 48.5z" />
    <glyph glyph-name="scedilla" unicode="&#x15f;" horiz-adv-x="391" 
d="M190 263q3 -1 22 -9t23.5 -10.5t20.5 -10t21.5 -12t17.5 -13t16.5 -16t11 -18t8.5 -22t2 -24.5q0 -62 -47 -96.5t-114 -34.5h-2l-19 -34l1 -1q67 -7 67 -59q0 -39 -26.5 -61.5t-67.5 -22.5q-21 0 -38 4l3 22q16 -4 35 -4q33 0 52.5 16t19.5 46q0 38 -70 41l4 21l18 33
q-78 6 -135 66l15 18q59 -63 143 -63q61 0 99.5 29t38.5 78q0 42 -29.5 65t-86.5 47q-9 3 -13 5q-26 11 -43 20t-35.5 23.5t-27.5 34t-9 44.5q0 56 43 89.5t103 33.5q80 0 132 -58l-15 -16q-48 52 -121 52q-50 0 -84.5 -28.5t-34.5 -75.5q0 -35 26 -56.5t75 -42.5z" />
    <glyph glyph-name="Scaron" unicode="&#x160;" horiz-adv-x="525" 
d="M307 795l-94 109h28l78 -90h2l108 90h30l-129 -109h-23zM248 -3q-61 0 -121 28.5t-98 84.5l19 15q74 -105 201 -105q84 0 136 45t52 121q0 23 -10.5 44t-22 34.5t-40 33t-42 27t-51.5 28.5q-40 22 -62.5 36t-51 37.5t-42 51.5t-13.5 62q0 77 56 125.5t146 48.5
q110 0 184 -79l-17 -17q-67 73 -169 73q-76 0 -126 -41t-50 -108q0 -30 11.5 -54.5t38.5 -46.5t46 -33.5t59 -33.5q46 -25 69 -39t53.5 -38.5t44 -51t13.5 -58.5q0 -86 -58.5 -138t-154.5 -52z" />
    <glyph glyph-name="scaron" unicode="&#x161;" horiz-adv-x="391" 
d="M220 562l-93 128h26l79 -109h2l110 109h28l-129 -128h-23zM172 -3q-95 0 -158 67l15 18q59 -63 143 -63q61 0 99.5 29t38.5 78q0 42 -29.5 65t-86.5 47q-9 3 -13 5q-26 11 -43 20t-35.5 23.5t-27.5 34t-9 44.5q0 56 43 89.5t103 33.5q80 0 132 -58l-15 -16
q-48 52 -121 52q-50 0 -84.5 -28.5t-34.5 -75.5q0 -35 26 -56.5t75 -42.5q3 -1 22 -9t23.5 -10.5t20.5 -10t21.5 -12t17.5 -13t16.5 -16t11 -18t8.5 -22t2 -24.5q0 -62 -47 -96.5t-114 -34.5z" />
    <glyph glyph-name="uni0162" unicode="&#x162;" horiz-adv-x="496" 
d="M85 710h442l-3 -23h-211l-83 -681h5l-24 -43l1 -1q67 -7 67 -59q0 -39 -26.5 -61.5t-67.5 -22.5q-21 0 -38 4l3 22q16 -4 35 -4q33 0 52.5 16t19.5 46q0 38 -70 41l4 21l19 35h-4l84 687h-208z" />
    <glyph glyph-name="uni0163" unicode="&#x163;" horiz-adv-x="329" 
d="M140 462l-41 -334q-7 -53 4 -81t52 -28q52 0 98 37l3 -25q-46 -34 -103 -34h-4l-19 -34l1 -1q67 -7 67 -59q0 -39 -26.5 -61.5t-67.5 -22.5q-21 0 -38 4l3 22q16 -4 35 -4q33 0 52.5 16t19.5 46q0 38 -70 41l4 21l19 35q-67 15 -52 128l41 334h-60l2 22h60l22 175l22 3
l-22 -178h173l-2 -22h-173z" />
    <glyph glyph-name="Tcaron" unicode="&#x164;" horiz-adv-x="496" 
d="M303 795l-94 109h28l78 -90h2l108 90h30l-129 -109h-23zM206 0l84 687h-208l3 23h442l-3 -23h-211l-84 -687h-23z" />
    <glyph glyph-name="tcaron" unicode="&#x165;" horiz-adv-x="329" 
d="M250 597l41 158h25l-47 -158h-19zM153 -3q-93 0 -76 131l41 334h-60l2 22h60l22 175l22 3l-22 -178h173l-2 -22h-173l-41 -334q-7 -53 4 -81t52 -28q52 0 98 37l3 -25q-46 -34 -103 -34z" />
    <glyph glyph-name="Tbar" unicode="&#x166;" horiz-adv-x="496" 
d="M524 687h-211l-36 -298h108l-1 -22h-110l-45 -367h-23l45 367h-106l1 22h108l36 298h-208l3 23h442z" />
    <glyph glyph-name="tbar" unicode="&#x167;" horiz-adv-x="329" 
d="M313 462h-173l-20 -164h150l-3 -22h-150l-18 -148q-7 -53 4 -81t52 -28q52 0 98 37l3 -25q-46 -34 -103 -34q-93 0 -76 131l18 148h-52l3 22h52l20 164h-60l2 22h60l22 175l22 3l-22 -178h173z" />
    <glyph glyph-name="Utilde" unicode="&#x168;" horiz-adv-x="639" 
d="M463 795q-6 0 -12 1t-12.5 4t-10.5 5t-11 7.5t-9 7t-10 8.5t-9 8q-34 28 -53 28q-40 0 -66 -62l-19 8q32 76 84 76q29 0 65 -32q41 -37 62 -37q38 0 63 63l18 -9q-15 -38 -36.5 -57t-43.5 -19zM286 -3q-116 0 -164 76.5t-32 210.5l53 426h23l-53 -427q-15 -124 28 -193.5
t146 -69.5q105 0 169.5 65t80.5 194l52 431h23l-53 -432q-17 -140 -87 -210.5t-186 -70.5z" />
    <glyph glyph-name="utilde" unicode="&#x169;" horiz-adv-x="513" 
d="M362 581q-31 0 -75 42q-32 27 -52 27q-40 0 -66 -62l-19 8q32 76 84 76q29 0 65 -32q2 -2 8.5 -7.5t9 -7.5t8 -6.5t9 -6.5t8.5 -4.5t9.5 -3.5t9.5 -1q38 0 63 63l18 -9q-15 -38 -36.5 -57t-43.5 -19zM196 -3q-156 0 -129 196l39 291h22l-39 -290q-13 -98 16.5 -136.5
t91.5 -38.5q72 0 138 72.5t80 170.5l27 222h22l-59 -484h-22l19 153h-2q-34 -70 -89.5 -113t-114.5 -43z" />
    <glyph glyph-name="Umacron" unicode="&#x16a;" horiz-adv-x="639" 
d="M276 835l3 23h239l-3 -23h-239zM286 -3q-116 0 -164 76.5t-32 210.5l53 426h23l-53 -427q-15 -124 28 -193.5t146 -69.5q105 0 169.5 65t80.5 194l52 431h23l-53 -432q-17 -140 -87 -210.5t-186 -70.5z" />
    <glyph glyph-name="umacron" unicode="&#x16b;" horiz-adv-x="513" 
d="M176 619l3 23h239l-3 -23h-239zM196 -3q-156 0 -129 196l39 291h22l-39 -290q-13 -98 16.5 -136.5t91.5 -38.5q72 0 138 72.5t80 170.5l27 222h22l-59 -484h-22l19 153h-2q-34 -70 -89.5 -113t-114.5 -43z" />
    <glyph glyph-name="Ubreve" unicode="&#x16c;" horiz-adv-x="639" 
d="M385 791q-47 0 -71 31t-20 84l21 -1q-3 -40 14 -66t57 -26q43 0 71.5 27t35.5 66l21 -1q-10 -52 -46.5 -83t-82.5 -31zM286 -3q-116 0 -164 76.5t-32 210.5l53 426h23l-53 -427q-15 -124 28 -193.5t146 -69.5q105 0 169.5 65t80.5 194l52 431h23l-53 -432
q-17 -140 -87 -210.5t-186 -70.5z" />
    <glyph glyph-name="ubreve" unicode="&#x16d;" horiz-adv-x="513" 
d="M284 561q-47 0 -71 33t-20 94l21 -1q-7 -104 71 -104q44 0 72 29t35 76l21 -1q-10 -59 -46 -92.5t-83 -33.5zM196 -3q-156 0 -129 196l39 291h22l-39 -290q-13 -98 16.5 -136.5t91.5 -38.5q72 0 138 72.5t80 170.5l27 222h22l-59 -484h-22l19 153h-2q-34 -70 -89.5 -113
t-114.5 -43z" />
    <glyph glyph-name="Uring" unicode="&#x16e;" horiz-adv-x="639" 
d="M391 787q-31 0 -51 20.5t-20 51.5q0 32 21 52.5t53 20.5q31 0 51.5 -20t20.5 -51q0 -32 -21.5 -53t-53.5 -21zM391 810q23 0 38 14.5t15 36.5t-14 35.5t-36 13.5q-23 0 -37.5 -14.5t-14.5 -36.5t14 -35.5t35 -13.5zM286 -3q-116 0 -164 76.5t-32 210.5l53 426h23
l-53 -427q-15 -124 28 -193.5t146 -69.5q105 0 169.5 65t80.5 194l52 431h23l-53 -432q-17 -140 -87 -210.5t-186 -70.5z" />
    <glyph glyph-name="uring" unicode="&#x16f;" horiz-adv-x="513" 
d="M293 559q-31 0 -51 20.5t-20 51.5q0 32 21 52.5t53 20.5q31 0 51.5 -20t20.5 -51q0 -32 -21.5 -53t-53.5 -21zM293 582q23 0 38 14.5t15 36.5t-14 35.5t-36 13.5q-23 0 -37.5 -14.5t-14.5 -36.5t14 -35.5t35 -13.5zM196 -3q-156 0 -129 196l39 291h22l-39 -290
q-13 -98 16.5 -136.5t91.5 -38.5q72 0 138 72.5t80 170.5l27 222h22l-59 -484h-22l19 153h-2q-34 -70 -89.5 -113t-114.5 -43z" />
    <glyph glyph-name="Uhungarumlaut" unicode="&#x170;" horiz-adv-x="639" 
d="M318 788l127 135h29l-129 -135h-27zM431 788l126 135h29l-129 -135h-26zM286 -3q-116 0 -164 76.5t-32 210.5l53 426h23l-53 -427q-15 -124 28 -193.5t146 -69.5q105 0 169.5 65t80.5 194l52 431h23l-53 -432q-17 -140 -87 -210.5t-186 -70.5z" />
    <glyph glyph-name="uhungarumlaut" unicode="&#x171;" horiz-adv-x="513" 
d="M219 561l127 135h29l-129 -135h-27zM332 561l126 135h29l-129 -135h-26zM196 -3q-156 0 -129 196l39 291h22l-39 -290q-13 -98 16.5 -136.5t91.5 -38.5q72 0 138 72.5t80 170.5l27 222h22l-59 -484h-22l19 153h-2q-34 -70 -89.5 -113t-114.5 -43z" />
    <glyph glyph-name="Uogonek" unicode="&#x172;" horiz-adv-x="639" 
d="M589 710h23l-53 -432q-30 -241 -212 -275q-46 -24 -77.5 -56t-33.5 -60q-2 -19 11 -32t37 -13q29 0 54 13l2 -23q-24 -13 -57 -13q-37 0 -54 20.5t-14 48.5q3 54 81 107l-1 2h-9q-116 0 -164 76.5t-32 210.5l53 426h23l-53 -427q-15 -124 28 -193.5t146 -69.5
q105 0 169.5 65t80.5 194z" />
    <glyph glyph-name="uogonek" unicode="&#x173;" horiz-adv-x="513" 
d="M368 -158q29 0 54 13l2 -23q-24 -13 -57 -13q-34 0 -52.5 18t-15.5 51q4 57 85 120l18 145h-2q-34 -70 -89.5 -113t-114.5 -43q-156 0 -129 196l39 291h22l-39 -290q-13 -98 16.5 -136.5t91.5 -38.5q72 0 138 72.5t80 170.5l27 222h22l-59 -484h-1q-80 -63 -84 -113
q-1 -20 11 -32.5t37 -12.5z" />
    <glyph glyph-name="Wcircumflex" unicode="&#x174;" horiz-adv-x="903" 
d="M393 795l129 109h23l94 -109h-28l-78 90h-2l-108 -90h-30zM214 0l-121 710h24l113 -670h2l262 670h28l100 -670h2l276 670h25l-294 -710h-27l-99 671h-2l-262 -671h-27z" />
    <glyph glyph-name="wcircumflex" unicode="&#x175;" horiz-adv-x="765" 
d="M307 560l126 136h23l96 -136h-28l-79 118h-1l-109 -118h-28zM189 -3q-149 0 -122 196l37 291h22l-37 -290q-24 -175 99 -175q57 0 119 75t74 175l26 215h22l-34 -280q-13 -104 12 -144.5t77 -40.5q62 0 124.5 65t87.5 166q28 114 6 234h24q19 -132 -10 -243
q-31 -118 -100 -181t-132 -63q-118 0 -114 156h-2q-34 -69 -84 -112.5t-95 -43.5z" />
    <glyph glyph-name="Ycircumflex" unicode="&#x176;" horiz-adv-x="506" 
d="M193 795l129 109h23l94 -109h-28l-78 90h-2l-108 -90h-30zM212 0l39 323l-174 387h25l162 -359h2l252 359h27l-271 -387l-39 -323h-23z" />
    <glyph glyph-name="ycircumflex" unicode="&#x177;" horiz-adv-x="509" 
d="M302 678l-109 -118h-28l126 136h23l96 -136h-28l-79 118h-1zM439 484h22l-51 -418q-10 -79 -32.5 -133.5t-55.5 -82.5t-69 -39.5t-81 -11.5q-73 0 -147 37l7 23q69 -38 142 -38q40 0 71.5 10.5t62 36t51.5 76t30 124.5l10 86h-2q-34 -71 -89.5 -114t-114.5 -43
q-156 0 -129 196l39 291h22l-39 -290q-13 -98 16.5 -136.5t91.5 -38.5q74 0 140.5 75.5t78.5 175.5z" />
    <glyph glyph-name="Ydieresis" unicode="&#x178;" horiz-adv-x="506" 
d="M258 828q-11 0 -18 7.5t-7 19.5q0 11 7.5 19t18.5 8q12 0 19.5 -7.5t7.5 -18.5q0 -12 -8 -20t-20 -8zM391 828q-11 0 -18.5 7.5t-7.5 19.5q0 11 8 19t19 8t18.5 -7.5t7.5 -18.5q0 -12 -8 -20t-19 -8zM212 0l39 323l-174 387h25l162 -359h2l252 359h27l-271 -387l-39 -323
h-23z" />
    <glyph glyph-name="Zacute" unicode="&#x179;" horiz-adv-x="548" 
d="M277 795l127 124h29l-128 -124h-28zM29 0l3 21l469 664v2h-363l3 23h393l-3 -23l-469 -661l1 -3h391l-3 -23h-422z" />
    <glyph glyph-name="zacute" unicode="&#x17a;" horiz-adv-x="407" 
d="M210 561l127 135h31l-128 -135h-30zM341 -21q-48 15 -112 18t-227 3l2 22l361 439v1h-296l3 22h324l-2 -20l-360 -440v-2q97 0 141 -1t93.5 -5.5t79.5 -14.5z" />
    <glyph glyph-name="Zdotaccent" unicode="&#x17b;" horiz-adv-x="548" 
d="M351 828q-11 0 -18 7.5t-7 19.5q0 11 7.5 19t18.5 8t18.5 -7.5t7.5 -18.5q0 -12 -7.5 -20t-19.5 -8zM29 0l3 21l469 664v2h-363l3 23h393l-3 -23l-469 -661l1 -3h391l-3 -23h-422z" />
    <glyph glyph-name="zdotaccent" unicode="&#x17c;" horiz-adv-x="407" 
d="M250 606q-11 0 -18 7.5t-7 19.5q0 11 7.5 19t18.5 8t18.5 -7.5t7.5 -18.5q0 -12 -7.5 -20t-19.5 -8zM341 -21q-48 15 -112 18t-227 3l2 22l361 439v1h-296l3 22h324l-2 -20l-360 -440v-2q97 0 141 -1t93.5 -5.5t79.5 -14.5z" />
    <glyph glyph-name="Zcaron" unicode="&#x17d;" horiz-adv-x="548" 
d="M331 795l-94 109h28l78 -90h2l108 90h30l-129 -109h-23zM29 0l3 21l469 664v2h-363l3 23h393l-3 -23l-469 -661l1 -3h391l-3 -23h-422z" />
    <glyph glyph-name="zcaron" unicode="&#x17e;" horiz-adv-x="407" 
d="M227 562l-93 128h26l79 -109h2l110 109h28l-129 -128h-23zM341 -21q-48 15 -112 18t-227 3l2 22l361 439v1h-296l3 22h324l-2 -20l-360 -440v-2q97 0 141 -1t93.5 -5.5t79.5 -14.5z" />
    <glyph glyph-name="longs" unicode="&#x17f;" horiz-adv-x="252" 
d="M67 0l56 462h-61l2 22h62l14 113q17 143 122 143q48 0 85 -24l-7 -23q-30 24 -80 24q-85 0 -99 -126l-72 -591h-22z" />
    <glyph glyph-name="uni018F" unicode="&#x18f;" horiz-adv-x="715" 
d="M391 714q126 0 201 -77.5t75 -217.5q0 -176 -97.5 -299t-253.5 -123q-118 0 -191 78.5t-73 216.5q0 25 3 46h583q6 39 6 80q0 130 -68 201.5t-186 71.5q-59 0 -118.5 -21t-99.5 -57l-15 17q40 36 102 60t132 24zM316 20q122 0 207 82.5t111 212.5h-558q-1 -8 -1 -23
q0 -127 66 -199.5t175 -72.5z" />
    <glyph glyph-name="florin" unicode="&#x192;" horiz-adv-x="451" 
d="M27 -91q-60 0 -97 39l15 17q30 -33 83 -33q84 0 114 122l94 389h-70l5 23h71l33 132q34 142 136 142q59 0 96 -39l-15 -17q-30 33 -83 33q-83 0 -113 -122l-30 -129h150l-6 -23h-150l-96 -391q-34 -143 -137 -143z" />
    <glyph glyph-name="uni019D" unicode="&#x19d;" horiz-adv-x="678" 
d="M-27 -201q-34 0 -56 9l4 23q17 -9 53 -9q33 0 54 25t29 88l95 775h20l362 -667h2l81 667h23l-87 -710h-22l-360 665h-2l-89 -730q-8 -66 -32.5 -101t-74.5 -35z" />
    <glyph glyph-name="Ohorn" unicode="&#x1a0;" horiz-adv-x="805" 
d="M788 774h23l-13 -103q-16 -126 -95 -126q-3 0 -9 0.5t-8 0.5q20 -55 20 -127q0 -176 -99.5 -299t-259.5 -123q-125 0 -200 78.5t-75 216.5q0 111 44 207t127 155.5t188 59.5q86 0 149.5 -37t96.5 -108q14 -3 26 -3q29 0 47 23t25 83zM347 20q150 0 242.5 116t92.5 282
q0 131 -67 202t-185 71q-98 0 -175.5 -56.5t-118 -147t-40.5 -195.5q0 -128 67.5 -200t183.5 -72z" />
    <glyph glyph-name="ohorn" unicode="&#x1a1;" horiz-adv-x="603" 
d="M588 565h23l-13 -103q-16 -126 -95 -126q-3 0 -9 0.5t-9 0.5q4 -19 4 -46q0 -126 -68 -210t-181 -84q-88 0 -141 53.5t-53 147.5q0 120 69.5 205t182.5 85q70 0 117.5 -33.5t64.5 -95.5q18 -2 23 -2q29 0 47 23t25 83zM240 19q100 0 163 75t63 197q0 84 -44.5 129.5
t-123.5 45.5q-99 0 -164 -76.5t-65 -191.5q0 -84 46 -131.5t125 -47.5z" />
    <glyph glyph-name="Uhorn" unicode="&#x1af;" horiz-adv-x="689" 
d="M703 774h23l-13 -103q-16 -126 -95 -126q-16 0 -26 3l-33 -270q-17 -140 -87 -210.5t-186 -70.5t-164 76.5t-32 210.5l53 426h23l-53 -427q-15 -124 28 -193.5t146 -69.5q105 0 169.5 65t80.5 194l52 431h23l-17 -142q16 -2 23 -2q29 0 47 23t25 83z" />
    <glyph glyph-name="uhorn" unicode="&#x1b0;" horiz-adv-x="563" 
d="M558 565h23l-13 -103q-16 -126 -95 -126q-3 0 -27 3l-41 -339h-22l19 153h-2q-34 -70 -89.5 -113t-114.5 -43q-156 0 -129 196l39 291h22l-39 -290q-13 -98 16.5 -136.5t91.5 -38.5q72 0 138 72.5t80 170.5l27 222h22l-15 -125q18 -2 24 -2q29 0 47 23t25 83z" />
    <glyph glyph-name="uni01CD" unicode="&#x1cd;" horiz-adv-x="585" 
d="M348 795l-94 109h28l78 -90h2l108 90h30l-129 -109h-23zM0 0l334 710h27l164 -710h-24l-48 211h-329l-99 -211h-25zM135 234h313l-102 446h-2z" />
    <glyph glyph-name="uni01CE" unicode="&#x1ce;" horiz-adv-x="531" 
d="M326 562l-93 128h26l79 -109h2l110 109h28l-129 -128h-23zM214 -3q-77 0 -121.5 54.5t-44.5 137.5q0 126 70 212.5t182 86.5q45 0 88 -16.5t67 -44.5l2 1l7 56h22l-59 -484h-22l19 154h-2q-34 -71 -87 -114t-121 -43zM215 19q87 0 149 81t76 187l14 109q-26 38 -71 54
t-85 16q-101 0 -164.5 -81t-63.5 -197q0 -75 38 -122t107 -47z" />
    <glyph glyph-name="uni01CF" unicode="&#x1cf;" horiz-adv-x="226" 
d="M170 795l-94 109h28l78 -90h2l108 90h30l-129 -109h-23zM72 0l87 710h23l-87 -710h-23z" />
    <glyph glyph-name="uni01D0" unicode="&#x1d0;" horiz-adv-x="205" 
d="M127 562l-93 128h26l79 -109h2l110 109h28l-129 -128h-23zM62 0l59 484h22l-60 -484h-21z" />
    <glyph glyph-name="uni01D1" unicode="&#x1d1;" horiz-adv-x="750" 
d="M448 795l-94 109h28l78 -90h2l108 90h30l-129 -109h-23zM347 -3q-125 0 -200 78.5t-75 216.5q0 111 44 207t127 155.5t188 59.5q126 0 200.5 -77t74.5 -218q0 -176 -99.5 -299t-259.5 -123zM347 20q150 0 242.5 116t92.5 282q0 131 -67 202t-185 71q-98 0 -175.5 -56.5
t-118 -147t-40.5 -195.5q0 -128 67.5 -200t183.5 -72z" />
    <glyph glyph-name="uni01D2" unicode="&#x1d2;" horiz-adv-x="535" 
d="M301 562l-93 128h26l79 -109h2l110 109h28l-129 -128h-23zM240 -3q-88 0 -141 53.5t-53 147.5q0 120 69.5 205t182.5 85q87 0 139 -51.5t52 -145.5q0 -126 -68 -210t-181 -84zM240 19q100 0 163 75t63 197q0 84 -44.5 129.5t-123.5 45.5q-99 0 -164 -76.5t-65 -191.5
q0 -84 46 -131.5t125 -47.5z" />
    <glyph glyph-name="uni01D3" unicode="&#x1d3;" horiz-adv-x="639" 
d="M376 795l-94 109h28l78 -90h2l108 90h30l-129 -109h-23zM286 -3q-116 0 -164 76.5t-32 210.5l53 426h23l-53 -427q-15 -124 28 -193.5t146 -69.5q105 0 169.5 65t80.5 194l52 431h23l-53 -432q-17 -140 -87 -210.5t-186 -70.5z" />
    <glyph glyph-name="uni01D4" unicode="&#x1d4;" horiz-adv-x="513" 
d="M275 562l-93 128h26l79 -109h2l110 109h28l-129 -128h-23zM196 -3q-156 0 -129 196l39 291h22l-39 -290q-13 -98 16.5 -136.5t91.5 -38.5q72 0 138 72.5t80 170.5l27 222h22l-59 -484h-22l19 153h-2q-34 -70 -89.5 -113t-114.5 -43z" />
    <glyph glyph-name="uni01D5" unicode="&#x1d5;" horiz-adv-x="639" 
d="M282 953l3 23h239l-3 -23h-239zM312 816q-11 0 -18 7.5t-7 19.5q0 11 7.5 19t18.5 8t18.5 -7.5t7.5 -18.5q0 -12 -7.5 -20t-19.5 -8zM459 816q-11 0 -18 7.5t-7 19.5q0 11 7.5 19t18.5 8t18.5 -7.5t7.5 -18.5q0 -12 -7.5 -20t-19.5 -8zM286 -3q-116 0 -164 76.5
t-32 210.5l53 426h23l-53 -427q-15 -124 28 -193.5t146 -69.5q105 0 169.5 65t80.5 194l52 431h23l-53 -432q-17 -140 -87 -210.5t-186 -70.5z" />
    <glyph glyph-name="uni01D6" unicode="&#x1d6;" horiz-adv-x="513" 
d="M200 758l3 23h239l-3 -23h-239zM233 606q-11 0 -18 7.5t-7 19.5q0 11 7.5 19t18.5 8q12 0 19.5 -7.5t7.5 -18.5q0 -12 -8 -20t-20 -8zM366 606q-11 0 -18.5 7.5t-7.5 19.5q0 11 8 19t19 8t18.5 -7.5t7.5 -18.5q0 -12 -8 -20t-19 -8zM196 -3q-156 0 -129 196l39 291h22
l-39 -290q-13 -98 16.5 -136.5t91.5 -38.5q72 0 138 72.5t80 170.5l27 222h22l-59 -484h-22l19 153h-2q-34 -70 -89.5 -113t-114.5 -43z" />
    <glyph glyph-name="uni01D7" unicode="&#x1d7;" horiz-adv-x="639" 
d="M380 893l128 126h29l-130 -126h-27zM312 816q-11 0 -18 7.5t-7 19.5q0 11 7.5 19t18.5 8t18.5 -7.5t7.5 -18.5q0 -12 -7.5 -20t-19.5 -8zM459 816q-11 0 -18 7.5t-7 19.5q0 11 7.5 19t18.5 8t18.5 -7.5t7.5 -18.5q0 -12 -7.5 -20t-19.5 -8zM286 -3q-116 0 -164 76.5
t-32 210.5l53 426h23l-53 -427q-15 -124 28 -193.5t146 -69.5q105 0 169.5 65t80.5 194l52 431h23l-53 -432q-17 -140 -87 -210.5t-186 -70.5z" />
    <glyph glyph-name="uni01D8" unicode="&#x1d8;" horiz-adv-x="513" 
d="M294 693l123 135h30l-125 -135h-28zM233 606q-11 0 -18 7.5t-7 19.5q0 11 7.5 19t18.5 8q12 0 19.5 -7.5t7.5 -18.5q0 -12 -8 -20t-20 -8zM366 606q-11 0 -18.5 7.5t-7.5 19.5q0 11 8 19t19 8t18.5 -7.5t7.5 -18.5q0 -12 -8 -20t-19 -8zM196 -3q-156 0 -129 196l39 291
h22l-39 -290q-13 -98 16.5 -136.5t91.5 -38.5q72 0 138 72.5t80 170.5l27 222h22l-59 -484h-22l19 153h-2q-34 -70 -89.5 -113t-114.5 -43z" />
    <glyph glyph-name="uni01D9" unicode="&#x1d9;" horiz-adv-x="639" 
d="M384 916l-94 98h28l78 -81h2l108 81h30l-129 -98h-23zM312 816q-11 0 -18 7.5t-7 19.5q0 11 7.5 19t18.5 8t18.5 -7.5t7.5 -18.5q0 -12 -7.5 -20t-19.5 -8zM459 816q-11 0 -18 7.5t-7 19.5q0 11 7.5 19t18.5 8t18.5 -7.5t7.5 -18.5q0 -12 -7.5 -20t-19.5 -8zM286 -3
q-116 0 -164 76.5t-32 210.5l53 426h23l-53 -427q-15 -124 28 -193.5t146 -69.5q105 0 169.5 65t80.5 194l52 431h23l-53 -432q-17 -140 -87 -210.5t-186 -70.5z" />
    <glyph glyph-name="uni01DA" unicode="&#x1da;" horiz-adv-x="513" 
d="M299 707l-93 128h26l79 -109h2l110 109h28l-129 -128h-23zM233 606q-11 0 -18 7.5t-7 19.5q0 11 7.5 19t18.5 8q12 0 19.5 -7.5t7.5 -18.5q0 -12 -8 -20t-20 -8zM366 606q-11 0 -18.5 7.5t-7.5 19.5q0 11 8 19t19 8t18.5 -7.5t7.5 -18.5q0 -12 -8 -20t-19 -8zM196 -3
q-156 0 -129 196l39 291h22l-39 -290q-13 -98 16.5 -136.5t91.5 -38.5q72 0 138 72.5t80 170.5l27 222h22l-59 -484h-22l19 153h-2q-34 -70 -89.5 -113t-114.5 -43z" />
    <glyph glyph-name="uni01DB" unicode="&#x1db;" horiz-adv-x="639" 
d="M389 893l-101 126h28l100 -126h-27zM312 816q-11 0 -18 7.5t-7 19.5q0 11 7.5 19t18.5 8t18.5 -7.5t7.5 -18.5q0 -12 -7.5 -20t-19.5 -8zM459 816q-11 0 -18 7.5t-7 19.5q0 11 7.5 19t18.5 8t18.5 -7.5t7.5 -18.5q0 -12 -7.5 -20t-19.5 -8zM286 -3q-116 0 -164 76.5
t-32 210.5l53 426h23l-53 -427q-15 -124 28 -193.5t146 -69.5q105 0 169.5 65t80.5 194l52 431h23l-53 -432q-17 -140 -87 -210.5t-186 -70.5z" />
    <glyph glyph-name="uni01DC" unicode="&#x1dc;" horiz-adv-x="513" 
d="M293 693l-108 135h29l107 -135h-28zM233 606q-11 0 -18 7.5t-7 19.5q0 11 7.5 19t18.5 8q12 0 19.5 -7.5t7.5 -18.5q0 -12 -8 -20t-20 -8zM366 606q-11 0 -18.5 7.5t-7.5 19.5q0 11 8 19t19 8t18.5 -7.5t7.5 -18.5q0 -12 -8 -20t-19 -8zM196 -3q-156 0 -129 196l39 291
h22l-39 -290q-13 -98 16.5 -136.5t91.5 -38.5q72 0 138 72.5t80 170.5l27 222h22l-59 -484h-22l19 153h-2q-34 -70 -89.5 -113t-114.5 -43z" />
    <glyph glyph-name="Gcaron" unicode="&#x1e6;" horiz-adv-x="705" 
d="M433 795l-94 109h28l78 -90h2l108 90h30l-129 -109h-23zM350 -3q-129 0 -202 80t-73 218q0 110 44.5 205.5t127 154.5t185.5 59q133 0 225 -109l-17 -17q-86 103 -209 103q-95 0 -172.5 -56t-118.5 -146.5t-41 -193.5q0 -128 66 -201.5t186 -73.5q137 0 232 81l26 217
h-239l3 23h262l-31 -251q-50 -46 -117.5 -69.5t-136.5 -23.5z" />
    <glyph glyph-name="gcaron" unicode="&#x1e7;" horiz-adv-x="532" 
d="M308 562l-93 128h26l79 -109h2l110 109h28l-129 -128h-23zM176 -201q-83 0 -156 37l7 24q70 -39 151 -39q47 0 82.5 10.5t68 36.5t53.5 76t30 125l13 99h-2q-35 -69 -88.5 -113t-121.5 -44q-77 0 -121.5 54.5t-44.5 138.5q0 115 70.5 199.5t181.5 84.5q45 0 89 -16.5
t67 -44.5l1 1l7 56h22l-51 -417q-19 -153 -84 -210.5t-174 -57.5zM214 34q84 0 148.5 77t75.5 171l14 115q-25 38 -70 53t-85 15q-100 0 -164 -78.5t-64 -183.5q0 -75 38 -122t107 -47z" />
    <glyph glyph-name="uni01EA" unicode="&#x1ea;" horiz-adv-x="750" 
d="M369 -2q-77 -61 -81 -111q-1 -20 11 -32.5t37 -12.5q29 0 54 13l2 -23q-24 -13 -57 -13q-34 0 -52.5 18t-15.5 51q4 54 71 109q-122 3 -194 81t-72 214q0 111 44 207t127 155.5t188 59.5q126 0 200.5 -77t74.5 -218q0 -169 -93 -290.5t-244 -130.5zM96 292
q0 -128 67.5 -200t183.5 -72q150 0 242.5 116t92.5 282q0 131 -67 202t-185 71q-98 0 -175.5 -56.5t-118 -147t-40.5 -195.5z" />
    <glyph glyph-name="uni01EB" unicode="&#x1eb;" horiz-adv-x="535" 
d="M253 -3q-77 -61 -81 -110q-1 -20 11 -32.5t37 -12.5q29 0 54 13l2 -23q-24 -13 -57 -13q-34 0 -52.5 18t-15.5 51q4 52 70 108v2q-80 5 -127.5 58t-47.5 142q0 120 69.5 205t182.5 85q87 0 139 -51.5t52 -145.5q0 -122 -64.5 -205.5t-171.5 -88.5zM69 198
q0 -84 46 -131.5t125 -47.5q100 0 163 75t63 197q0 84 -44.5 129.5t-123.5 45.5q-99 0 -164 -76.5t-65 -191.5z" />
    <glyph glyph-name="Aringacute" unicode="&#x1fa;" horiz-adv-x="585" 
d="M363 787q-31 0 -51 20.5t-20 51.5q0 32 21 52.5t53 20.5q38 0 59 -29l87 57h38l-116 -76q4 -9 4 -23q0 -32 -21.5 -53t-53.5 -21zM366 910q-23 0 -37.5 -14.5t-14.5 -36.5t14 -35.5t35 -13.5q23 0 38 14.5t15 36.5t-14 35.5t-36 13.5zM334 710h27l164 -710h-24l-48 211
h-329l-99 -211h-25zM135 234h313l-102 446h-2z" />
    <glyph glyph-name="aringacute" unicode="&#x1fb;" horiz-adv-x="531" 
d="M344 559q-31 0 -51 20.5t-20 51.5q0 32 21 52.5t53 20.5q39 0 60 -30l84 54h36l-111 -72q3 -10 3 -23q0 -32 -21.5 -53t-53.5 -21zM347 682q-23 0 -37.5 -14.5t-14.5 -36.5t14 -35.5t35 -13.5q23 0 38 14.5t15 36.5t-14 35.5t-36 13.5zM457 428l7 56h22l-59 -484h-22
l19 154h-2q-34 -71 -87 -114t-121 -43q-77 0 -121.5 54.5t-44.5 137.5q0 126 70 212.5t182 86.5q45 0 88 -16.5t67 -44.5zM440 287l14 109q-26 38 -71 54t-85 16q-101 0 -164.5 -81t-63.5 -197q0 -75 38 -122t107 -47q87 0 149 81t76 187z" />
    <glyph glyph-name="AEacute" unicode="&#x1fc;" horiz-adv-x="824" 
d="M477 795l127 124h29l-128 -124h-28zM-24 0l458 710h384l-3 -23h-349l-38 -321h295l-2 -23h-296l-39 -320h366l-2 -23h-390l26 211h-247l-136 -211h-27zM153 233h236l54 449h-1z" />
    <glyph glyph-name="aeacute" unicode="&#x1fd;" horiz-adv-x="686" 
d="M564 696l-128 -135h-30l127 135h31zM486 19q37 0 76 20.5t66 56.5l18 -13q-30 -39 -73.5 -62.5t-86.5 -23.5q-74 0 -119 40.5t-56 111.5q-24 -70 -67 -111.5t-92 -41.5q-55 0 -90 48t-35 129q0 78 30 148t92.5 117t143.5 47t126 -38q58 41 136 41q57 0 89.5 -28t32.5 -75
q0 -55 -52.5 -96.5t-129 -63t-165.5 -27.5v-3q0 -83 40.5 -129.5t115.5 -46.5zM655 386q0 44 -30.5 61.5t-69.5 17.5q-101 0 -159.5 -69.5t-64.5 -175.5q132 8 228 52t96 114zM153 18q53 0 96 58.5t59 136.5q6 143 93 220q-40 30 -109 30q-77 0 -134 -46.5t-82.5 -111
t-25.5 -134.5t29.5 -111.5t73.5 -41.5z" />
    <glyph glyph-name="Oslashacute" unicode="&#x1fe;" horiz-adv-x="757" 
d="M588 919l-128 -124h-28l127 124h29zM723 697l-73 -82q56 -76 56 -196q0 -176 -99.5 -299t-259.5 -123q-116 0 -188 66l-64 -72l-16 15l65 73q-72 78 -72 213q0 111 44 207t127 155.5t188 59.5q133 0 205 -83l71 80zM96 292q0 -122 63 -196l461 518q-66 77 -190 77
q-98 0 -175.5 -56.5t-118 -147t-40.5 -195.5zM682 418q0 109 -48 179l-459 -516q66 -61 172 -61q150 0 242.5 116t92.5 282z" />
    <glyph glyph-name="oslashacute" unicode="&#x1ff;" horiz-adv-x="536" 
d="M463 696l-128 -135h-30l127 135h31zM513 477l-59 -60q36 -50 36 -126q0 -126 -68 -210t-181 -84q-91 0 -143 55l-61 -62l-17 12l65 66q-38 52 -38 130q0 120 69.5 205t182.5 85q90 0 142 -55l56 58zM70 198q0 -68 31 -113l324 332q-44 49 -126 49q-99 0 -164 -76.5
t-65 -191.5zM467 291q0 66 -29 110l-324 -332q45 -50 127 -50q100 0 163 75t63 197z" />
    <glyph glyph-name="Scommaaccent" unicode="&#x218;" horiz-adv-x="525" 
d="M248 -3q-61 0 -121 28.5t-98 84.5l19 15q74 -105 201 -105q84 0 136 45t52 121q0 23 -10.5 44t-22 34.5t-40 33t-42 27t-51.5 28.5q-40 22 -62.5 36t-51 37.5t-42 51.5t-13.5 62q0 77 56 125.5t146 48.5q110 0 184 -79l-17 -17q-67 73 -169 73q-76 0 -126 -41t-50 -108
q0 -30 11.5 -54.5t38.5 -46.5t46 -33.5t59 -33.5q46 -25 69 -39t53.5 -38.5t44 -51t13.5 -58.5q0 -86 -58.5 -138t-154.5 -52zM152 -199l-5 18q38 2 55.5 27.5t17.5 80.5v18h20q0 -1 0.5 -7t0.5 -14q0 -118 -89 -123z" />
    <glyph glyph-name="scommaaccent" unicode="&#x219;" horiz-adv-x="391" 
d="M172 -3q-95 0 -158 67l15 18q59 -63 143 -63q61 0 99.5 29t38.5 78q0 42 -29.5 65t-86.5 47q-9 3 -13 5q-26 11 -43 20t-35.5 23.5t-27.5 34t-9 44.5q0 56 43 89.5t103 33.5q80 0 132 -58l-15 -16q-48 52 -121 52q-50 0 -84.5 -28.5t-34.5 -75.5q0 -35 26 -56.5t75 -42.5
q3 -1 22 -9t23.5 -10.5t20.5 -10t21.5 -12t17.5 -13t16.5 -16t11 -18t8.5 -22t2 -24.5q0 -62 -47 -96.5t-114 -34.5zM74 -199l-5 18q38 2 55.5 27.5t17.5 80.5v18h20q0 -1 0.5 -7t0.5 -14q0 -118 -89 -123z" />
    <glyph glyph-name="uni021A" unicode="&#x21a;" horiz-adv-x="496" 
d="M206 0l84 687h-208l3 23h442l-3 -23h-211l-84 -687h-23zM134 -199l-5 18q38 2 55.5 27.5t17.5 80.5v18h20q0 -1 0.5 -7t0.5 -14q0 -118 -89 -123z" />
    <glyph glyph-name="uni021B" unicode="&#x21b;" horiz-adv-x="329" 
d="M153 -3q-93 0 -76 131l41 334h-60l2 22h60l22 175l22 3l-22 -178h173l-2 -22h-173l-41 -334q-7 -53 4 -81t52 -28q52 0 98 37l3 -25q-46 -34 -103 -34zM53 -199l-5 18q38 2 55.5 27.5t17.5 80.5v18h20q0 -1 0.5 -7t0.5 -14q0 -118 -89 -123z" />
    <glyph glyph-name="uni0232" unicode="&#x232;" horiz-adv-x="506" 
d="M207 835l3 23h239l-3 -23h-239zM212 0l39 323l-174 387h25l162 -359h2l252 359h27l-271 -387l-39 -323h-23z" />
    <glyph glyph-name="uni0233" unicode="&#x233;" horiz-adv-x="509" 
d="M416 642l-3 -23h-239l3 23h239zM439 484h22l-51 -418q-10 -79 -32.5 -133.5t-55.5 -82.5t-69 -39.5t-81 -11.5q-73 0 -147 37l7 23q69 -38 142 -38q40 0 71.5 10.5t62 36t51.5 76t30 124.5l10 86h-2q-34 -71 -89.5 -114t-114.5 -43q-156 0 -129 196l39 291h22l-39 -290
q-13 -98 16.5 -136.5t91.5 -38.5q74 0 140.5 75.5t78.5 175.5z" />
    <glyph glyph-name="uni0237" unicode="&#x237;" horiz-adv-x="161" 
d="M-62 -201q-29 0 -54 15l5 23q22 -16 51 -16q34 0 56.5 23.5t30.5 90.5l67 549h22l-68 -550q-8 -69 -33 -102t-77 -33z" />
    <glyph glyph-name="uni0251" unicode="&#x251;" horiz-adv-x="531" 
d="M214 -3q-77 0 -121.5 54.5t-44.5 137.5q0 126 70 212.5t182 86.5q45 0 88 -16.5t67 -44.5l2 1l7 56h22l-59 -484h-22l19 154h-2q-34 -71 -87 -114t-121 -43zM215 19q87 0 149 81t76 187l14 109q-26 38 -71 54t-85 16q-101 0 -164.5 -81t-63.5 -197q0 -75 38 -122t107 -47
z" />
    <glyph glyph-name="uni0259" unicode="&#x259;" horiz-adv-x="451" 
d="M228 488q80 0 130.5 -55t50.5 -148q0 -125 -71 -206.5t-188 -81.5q-57 0 -93 32t-36 79q0 50 35.5 88.5t94 60t116.5 32.5t118 14q-4 76 -47 119.5t-110 43.5q-43 0 -80 -16t-59 -37l-15 17q64 58 154 58zM151 19q106 0 169.5 74t65.5 188q-69 -5 -127 -16.5t-108.5 -31
t-79 -51.5t-28.5 -73q0 -38 30 -64t78 -26z" />
    <glyph glyph-name="uni0261" unicode="&#x261;" horiz-adv-x="532" 
d="M176 -201q-83 0 -156 37l7 24q70 -39 151 -39q47 0 82.5 10.5t68 36.5t53.5 76t30 125l13 99h-2q-35 -69 -88.5 -113t-121.5 -44q-77 0 -121.5 54.5t-44.5 138.5q0 115 70.5 199.5t181.5 84.5q45 0 89 -16.5t67 -44.5l1 1l7 56h22l-51 -417q-19 -153 -84 -210.5
t-174 -57.5zM214 34q84 0 148.5 77t75.5 171l14 115q-25 38 -70 53t-85 15q-100 0 -164 -78.5t-64 -183.5q0 -75 38 -122t107 -47z" />
    <glyph glyph-name="uni0272" unicode="&#x272;" horiz-adv-x="532" 
d="M343 488q145 0 120 -197l-38 -291h-22l38 291q13 97 -14.5 135.5t-84.5 38.5q-77 0 -149 -70.5t-87 -171.5l-28 -223q-13 -108 -37.5 -154.5t-91.5 -46.5q-24 0 -47 8l4 22q19 -8 46 -8q49 0 70.5 38t33.5 141l60 484h22l-20 -158h2q36 72 97.5 117t125.5 45z" />
    <glyph glyph-name="uni02BB" unicode="&#x2bb;" horiz-adv-x="139" 
d="M85 443l31 217h19l-24 -217h-26z" />
    <glyph glyph-name="uni02BC" unicode="&#x2bc;" horiz-adv-x="112" 
d="M67 542l41 168h25l-47 -168h-19z" />
    <glyph glyph-name="uni02BE" unicode="&#x2be;" horiz-adv-x="200" 
d="M103 726q53 -4 82 -34t29 -74q0 -53 -37.5 -92.5t-100.5 -43.5l-1 21q50 2 84.5 32.5t34.5 80.5q0 40 -26.5 63.5t-69.5 26.5z" />
    <glyph glyph-name="uni02BF" unicode="&#x2bf;" horiz-adv-x="199" 
d="M185 482q-53 4 -82 34t-29 74q0 53 37.5 92.5t100.5 43.5l1 -21q-50 -2 -84.5 -32.5t-34.5 -80.5q0 -40 26.5 -63.5t69.5 -26.5z" />
    <glyph glyph-name="circumflex" unicode="&#x2c6;" horiz-adv-x="486" 
d="M158 547l126 136h23l96 -136h-28l-79 118h-1l-109 -118h-28z" />
    <glyph glyph-name="caron" unicode="&#x2c7;" horiz-adv-x="486" 
d="M267 549l-93 128h26l79 -109h2l110 109h28l-129 -128h-23z" />
    <glyph glyph-name="uni02C8" unicode="&#x2c8;" horiz-adv-x="155" 
d="M82 394l27 239h23l-27 -238z" />
    <glyph glyph-name="uni02C9" unicode="&#x2c9;" horiz-adv-x="361" 
d="M107 619l3 23h239l-3 -23h-239z" />
    <glyph glyph-name="uni02CA" unicode="&#x2ca;" horiz-adv-x="259" 
d="M119 561l127 135h31l-128 -135h-30z" />
    <glyph glyph-name="uni02CB" unicode="&#x2cb;" horiz-adv-x="264" 
d="M200 561l-96 135h29l95 -135h-28z" />
    <glyph glyph-name="uni02CC" unicode="&#x2cc;" horiz-adv-x="155" 
d="M21 -152l27 239h23l-27 -238z" />
    <glyph glyph-name="breve" unicode="&#x2d8;" horiz-adv-x="438" 
d="M253 548q-47 0 -71 33t-20 94l21 -1q-7 -104 71 -104q44 0 72 29t35 76l21 -1q-10 -59 -46 -92.5t-83 -33.5z" />
    <glyph glyph-name="dotaccent" unicode="&#x2d9;" horiz-adv-x="454" 
d="M273 593q-11 0 -18 7.5t-7 19.5q0 11 7.5 19t18.5 8t18.5 -7.5t7.5 -18.5q0 -12 -7.5 -20t-19.5 -8z" />
    <glyph glyph-name="ring" unicode="&#x2da;" horiz-adv-x="417" 
d="M252 543q-31 0 -51 20.5t-20 51.5q0 32 21 52.5t53 20.5q31 0 51.5 -20t20.5 -51q0 -32 -21.5 -53t-53.5 -21zM252 566q23 0 38 14.5t15 36.5t-14 35.5t-36 13.5q-23 0 -37.5 -14.5t-14.5 -36.5t14 -35.5t35 -13.5z" />
    <glyph glyph-name="ogonek" unicode="&#x2db;" horiz-adv-x="434" 
d="M200 -181q-34 0 -52.5 18t-15.5 51q4 61 93 126l12 -14q-80 -63 -84 -113q-1 -20 11 -32.5t37 -12.5q29 0 54 13l2 -23q-24 -13 -57 -13z" />
    <glyph glyph-name="tilde" unicode="&#x2dc;" horiz-adv-x="482" 
d="M353 568q-31 0 -75 42q-32 27 -52 27q-40 0 -66 -62l-19 8q32 76 84 76q29 0 65 -32q2 -2 8.5 -7.5t9 -7.5t8 -6.5t9 -6.5t8.5 -4.5t9.5 -3.5t9.5 -1q38 0 63 63l18 -9q-15 -38 -36.5 -57t-43.5 -19z" />
    <glyph glyph-name="hungarumlaut" unicode="&#x2dd;" horiz-adv-x="474" 
d="M148 548l127 135h29l-129 -135h-27zM261 548l126 135h29l-129 -135h-26z" />
    <glyph glyph-name="gravecomb" unicode="&#x300;" 
d="M-428 548l-96 135h29l95 -135h-28z" />
    <glyph glyph-name="acutecomb" unicode="&#x301;" 
d="M-531 548l127 135h31l-128 -135h-30z" />
    <glyph glyph-name="uni0302" unicode="&#x302;" 
d="M-585 547l126 136h23l96 -136h-28l-79 118h-1l-109 -118h-28z" />
    <glyph glyph-name="tildecomb" unicode="&#x303;" 
d="M-390 568q-31 0 -75 42q-32 27 -52 27q-40 0 -66 -62l-19 8q32 76 84 76q29 0 65 -32q2 -2 8.5 -7.5t9 -7.5t8 -6.5t9 -6.5t8.5 -4.5t9.5 -3.5t9.5 -1q38 0 63 63l18 -9q-15 -38 -36.5 -57t-43.5 -19z" />
    <glyph glyph-name="uni0304" unicode="&#x304;" 
d="M-575 606l3 23h239l-3 -23h-239z" />
    <glyph glyph-name="uni0306" unicode="&#x306;" 
d="M-468 548q-47 0 -71 33t-20 94l21 -1q-7 -104 71 -104q44 0 72 29t35 76l21 -1q-10 -59 -46 -92.5t-83 -33.5z" />
    <glyph glyph-name="uni0307" unicode="&#x307;" 
d="M-455 593q-11 0 -18 7.5t-7 19.5q0 11 7.5 19t18.5 8t18.5 -7.5t7.5 -18.5q0 -12 -7.5 -20t-19.5 -8z" />
    <glyph glyph-name="uni0308" unicode="&#x308;" 
d="M-523 593q-11 0 -18 7.5t-7 19.5q0 11 7.5 19t18.5 8q12 0 19.5 -7.5t7.5 -18.5q0 -12 -8 -20t-20 -8zM-390 593q-11 0 -18.5 7.5t-7.5 19.5q0 11 8 19t19 8t18.5 -7.5t7.5 -18.5q0 -12 -8 -20t-19 -8z" />
    <glyph glyph-name="hookabovecomb" unicode="&#x309;" 
d="M-457 541l-28 1q75 58 94 87q10 16 10 29q0 36 -48 36q-23 0 -47.5 -9t-37.5 -23l-3 23q44 30 91 30q67 0 67 -56q0 -21 -20.5 -47t-33.5 -36.5t-44 -34.5z" />
    <glyph glyph-name="uni030A" unicode="&#x30a;" 
d="M-458 546q-31 0 -51 20.5t-20 51.5q0 32 21 52.5t53 20.5q31 0 51.5 -20t20.5 -51q0 -32 -21.5 -53t-53.5 -21zM-458 569q23 0 38 14.5t15 36.5t-14 35.5t-36 13.5q-23 0 -37.5 -14.5t-14.5 -36.5t14 -35.5t35 -13.5z" />
    <glyph glyph-name="uni030B" unicode="&#x30b;" 
d="M-533 548l127 135h29l-129 -135h-27zM-420 548l126 135h29l-129 -135h-26z" />
    <glyph glyph-name="uni030C" unicode="&#x30c;" 
d="M-476 549l-93 128h26l79 -109h2l110 109h28l-129 -128h-23z" />
    <glyph glyph-name="uni0312" unicode="&#x312;" 
d="M-458 539v22q0 117 88 122l5 -17q-38 -2 -55.5 -28t-17.5 -80q0 -13 1 -19h-21z" />
    <glyph glyph-name="uni0313" unicode="&#x313;" 
d="M-519 683v-22q0 -117 -88 -122l-5 17q38 2 55.5 28t17.5 80q0 13 -1 19h21z" />
    <glyph glyph-name="uni031B" unicode="&#x31b;" 
d="M-437 481q-10 0 -34 4l7 20q15 -3 27 -3q29 0 47 23t25 83l13 102h23l-13 -103q-16 -126 -95 -126z" />
    <glyph glyph-name="dotbelowcomb" unicode="&#x323;" 
d="M-548 -124q11 0 18 -7.5t7 -19.5q0 -11 -7.5 -19t-18.5 -8t-18.5 7.5t-7.5 18.5q0 12 7.5 20t19.5 8z" />
    <glyph glyph-name="uni0324" unicode="&#x324;" 
d="M-613 -124q11 0 18.5 -7.5t7.5 -19.5q0 -11 -8 -19t-19 -8t-18.5 7.5t-7.5 18.5q0 12 8 20t19 8zM-480 -124q11 0 18 -7.5t7 -19.5q0 -11 -7.5 -19t-18.5 -8q-12 0 -19.5 7.5t-7.5 18.5q0 12 8 20t20 8z" />
    <glyph glyph-name="uni0326" unicode="&#x326;" 
d="M-625 -199l-5 18q38 2 55.5 27.5t17.5 80.5v18h20q0 -1 0.5 -7t0.5 -14q0 -118 -89 -123z" />
    <glyph glyph-name="uni0327" unicode="&#x327;" 
d="M-572 -181q-21 0 -38 4l3 22q16 -4 35 -4q33 0 52.5 16t19.5 46q0 38 -70 41l4 21l22 41h22l-24 -43l1 -1q67 -7 67 -59q0 -39 -26.5 -61.5t-67.5 -22.5z" />
    <glyph glyph-name="uni0328" unicode="&#x328;" 
d="M-569 -181q-34 0 -52.5 18t-15.5 51q4 61 93 126l12 -14q-80 -63 -84 -113q-1 -20 11 -32.5t37 -12.5q29 0 54 13l2 -23q-24 -13 -57 -13z" />
    <glyph glyph-name="uni032E" unicode="&#x32e;" 
d="M-556 -207q-47 0 -71 33t-20 94l21 -1q-7 -104 71 -104q44 0 72 29t35 76l21 -1q-10 -59 -46 -92.5t-83 -33.5z" />
    <glyph glyph-name="uni0331" unicode="&#x331;" 
d="M-669 -170l3 23h239l-3 -23h-239z" />
    <glyph glyph-name="uni0335" unicode="&#x335;" 
d="M-604 276l3 22h223l-3 -22h-223z" />
    <glyph glyph-name="uni0374" unicode="&#x374;" horiz-adv-x="213" 
d="M79 490l71 230h24l-72 -230h-23z" />
    <glyph glyph-name="uni0375" unicode="&#x375;" horiz-adv-x="213" 
d="M51 -136l71 230h24l-72 -230h-23z" />
    <glyph glyph-name="uni037E" unicode="&#x37e;" horiz-adv-x="175" 
d="M121 434q-26 0 -26 27q0 11 7.5 19t19.5 8q11 0 18.5 -7.5t7.5 -18.5q0 -12 -8 -20t-19 -8zM2 -128l58 218h28l-67 -218h-19z" />
    <glyph glyph-name="tonos" unicode="&#x384;" horiz-adv-x="428" 
d="M219 548l79 153h26l-80 -153h-25z" />
    <glyph glyph-name="dieresistonos" unicode="&#x385;" horiz-adv-x="550" 
d="M292 548l78 153h26l-80 -153h-24zM207 593q-11 0 -18 7.5t-7 19.5q0 11 7.5 19t18.5 8t18.5 -7.5t7.5 -18.5q0 -12 -7.5 -20t-19.5 -8zM433 593q-11 0 -18 7.5t-7 19.5q0 11 7.5 19t18.5 8t18.5 -7.5t7.5 -18.5q0 -12 -7.5 -20t-19.5 -8z" />
    <glyph glyph-name="Alphatonos" unicode="&#x386;" horiz-adv-x="585" 
d="M0 0l334 710h27l164 -710h-24l-48 211h-329l-99 -211h-25zM63 557l89 153h25l-90 -153h-24zM135 234h313l-102 446h-2z" />
    <glyph glyph-name="anoteleia" unicode="&#x387;" horiz-adv-x="178" 
d="M121 434q-26 0 -26 27q0 11 7.5 19t19.5 8q11 0 18.5 -7.5t7.5 -18.5q0 -12 -8 -20t-19 -8z" />
    <glyph glyph-name="Epsilontonos" unicode="&#x388;" horiz-adv-x="530" 
d="M-45 557l89 153h25l-90 -153h-24zM65 0l87 710h371l-2 -23h-349l-39 -320h292l-2 -23h-293l-39 -321h367l-2 -23h-391z" />
    <glyph glyph-name="Etatonos" unicode="&#x389;" horiz-adv-x="652" 
d="M-45 557l89 153h25l-90 -153h-24zM65 0l87 710h23l-45 -364h417l44 364h23l-86 -710h-23l39 323h-416l-40 -323h-23z" />
    <glyph glyph-name="Iotatonos" unicode="&#x38a;" horiz-adv-x="226" 
d="M-39 557l89 153h25l-90 -153h-24zM72 0l87 710h23l-87 -710h-23z" />
    <glyph glyph-name="Omicrontonos" unicode="&#x38c;" horiz-adv-x="750" 
d="M347 -3q-125 0 -200 78.5t-75 216.5q0 111 44 207t127 155.5t188 59.5q126 0 200.5 -77t74.5 -218q0 -176 -99.5 -299t-259.5 -123zM-6 557l89 153h25l-90 -153h-24zM347 20q150 0 242.5 116t92.5 282q0 131 -67 202t-185 71q-98 0 -175.5 -56.5t-118 -147t-40.5 -195.5
q0 -128 67.5 -200t183.5 -72z" />
    <glyph glyph-name="Upsilontonos" unicode="&#x38e;" horiz-adv-x="506" 
d="M-103 557l89 153h25l-90 -153h-24zM212 0l39 323l-174 387h25l162 -359h2l252 359h27l-271 -387l-39 -323h-23z" />
    <glyph glyph-name="Omegatonos" unicode="&#x38f;" horiz-adv-x="722" 
d="M45 0l3 23h183v1q-71 45 -111.5 125.5t-40.5 174.5q0 104 40 192t117.5 142.5t177.5 54.5q119 0 191.5 -80.5t72.5 -209.5q0 -132 -64 -236t-176 -163v-1h183l-3 -23h-228l3 23q122 57 192 160t70 239q0 120 -66.5 194t-175.5 74q-140 0 -225 -108t-85 -257
q0 -98 46 -180.5t126 -121.5l-3 -23h-227zM-2 557l89 153h25l-90 -153h-24z" />
    <glyph glyph-name="iotadieresistonos" unicode="&#x390;" horiz-adv-x="239" 
d="M129 561l78 153h26l-80 -153h-24zM44 606q-11 0 -18 7.5t-7 19.5q0 11 7.5 19t18.5 8t18.5 -7.5t7.5 -18.5q0 -12 -7.5 -20t-19.5 -8zM270 606q-11 0 -18 7.5t-7 19.5q0 11 7.5 19t18.5 8t18.5 -7.5t7.5 -18.5q0 -12 -7.5 -20t-19.5 -8zM145 -3q-52 0 -66.5 32t-7.5 95
l45 360h22l-43 -351q-10 -53 -0.5 -83.5t51.5 -30.5q27 0 52 15l5 -23q-28 -14 -58 -14z" />
    <glyph glyph-name="Alpha" unicode="&#x391;" horiz-adv-x="585" 
d="M0 0l334 710h27l164 -710h-24l-48 211h-329l-99 -211h-25zM135 234h313l-102 446h-2z" />
    <glyph glyph-name="Beta" unicode="&#x392;" horiz-adv-x="574" 
d="M65 0l87 710h202q71 0 116.5 -33t45.5 -104q0 -64 -35.5 -119.5t-99.5 -76.5v-1q127 -25 127 -149q0 -109 -70.5 -168t-192.5 -59h-180zM135 385h177q79 0 129.5 54.5t50.5 133.5q0 114 -144 114h-176zM91 23h157q108 0 172 51.5t64 148.5q0 139 -174 139h-178z" />
    <glyph glyph-name="Gamma" unicode="&#x393;" horiz-adv-x="494" 
d="M64 0l88 710h380l-3 -23h-357l-85 -687h-23z" />
    <glyph glyph-name="uni0394" unicode="&#x394;" horiz-adv-x="570" 
d="M0 0l3 21l325 689h27l158 -689l-3 -21h-510zM28 23h461l-150 659h-1z" />
    <glyph glyph-name="Epsilon" unicode="&#x395;" horiz-adv-x="530" 
d="M65 0l87 710h371l-2 -23h-349l-39 -320h292l-2 -23h-293l-39 -321h367l-2 -23h-391z" />
    <glyph glyph-name="Zeta" unicode="&#x396;" horiz-adv-x="548" 
d="M29 0l3 21l469 664v2h-363l3 23h393l-3 -23l-469 -661l1 -3h391l-3 -23h-422z" />
    <glyph glyph-name="Eta" unicode="&#x397;" horiz-adv-x="652" 
d="M65 0l87 710h23l-45 -364h417l44 364h23l-86 -710h-23l39 323h-416l-40 -323h-23z" />
    <glyph glyph-name="Theta" unicode="&#x398;" horiz-adv-x="756" 
d="M350 -3q-125 0 -200 78.5t-75 216.5q0 111 44 207t127 155.5t188 59.5q126 0 200.5 -77t74.5 -218q0 -176 -99.5 -299t-259.5 -123zM350 20q150 0 242.5 116t92.5 282q0 131 -67 202t-185 71q-98 0 -175.5 -56.5t-118 -147t-40.5 -195.5q0 -128 67.5 -200t183.5 -72z
M193 341l3 23h387l-2 -23h-388z" />
    <glyph glyph-name="Iota" unicode="&#x399;" horiz-adv-x="226" 
d="M72 0l87 710h23l-87 -710h-23z" />
    <glyph glyph-name="Kappa" unicode="&#x39a;" horiz-adv-x="569" 
d="M579 710l-297 -328l215 -382h-28l-203 364l-154 -171l-24 -193h-23l87 710h23l-59 -477l2 -1l431 478h30z" />
    <glyph glyph-name="Lambda" unicode="&#x39b;" horiz-adv-x="589" 
d="M2 0l334 710h27l164 -710h-24l-155 679h-2l-319 -679h-25z" />
    <glyph glyph-name="Mu" unicode="&#x39c;" horiz-adv-x="796" 
d="M65 0l87 710h22l217 -523h2l343 523h22l-86 -710h-23l80 657h-3l-329 -502h-19l-208 504h-2l-80 -659h-23z" />
    <glyph glyph-name="Nu" unicode="&#x39d;" horiz-adv-x="684" 
d="M65 0l87 710h20l368 -667h2l81 667h23l-87 -710h-22l-366 665h-2l-81 -665h-23z" />
    <glyph glyph-name="Xi" unicode="&#x39e;" horiz-adv-x="554" 
d="M127 687l3 23h409l-3 -23h-409zM117 341l3 23h344l-3 -23h-344zM37 0l3 24h421l-3 -24h-421z" />
    <glyph glyph-name="Omicron" unicode="&#x39f;" horiz-adv-x="750" 
d="M347 -3q-125 0 -200 78.5t-75 216.5q0 111 44 207t127 155.5t188 59.5q126 0 200.5 -77t74.5 -218q0 -176 -99.5 -299t-259.5 -123zM347 20q150 0 242.5 116t92.5 282q0 131 -67 202t-185 71q-98 0 -175.5 -56.5t-118 -147t-40.5 -195.5q0 -128 67.5 -200t183.5 -72z" />
    <glyph glyph-name="Pi" unicode="&#x3a0;" horiz-adv-x="632" 
d="M64 0l88 710h444l-88 -710h-23l85 687h-398l-85 -687h-23z" />
    <glyph glyph-name="Rho" unicode="&#x3a1;" horiz-adv-x="545" 
d="M65 0l87 710h210q85 0 129.5 -44t44.5 -121q0 -107 -63 -173.5t-172 -66.5h-176l-37 -305h-23zM128 328h174q98 0 154 60t56 157q0 73 -41.5 107.5t-110.5 34.5h-188z" />
    <glyph glyph-name="Sigma" unicode="&#x3a3;" horiz-adv-x="515" 
d="M29 0l3 21l236 336l-154 332l3 21h406l-2 -23h-377l-1 -3l153 -327l-233 -332l-1 -2h377l-3 -23h-407z" />
    <glyph glyph-name="Tau" unicode="&#x3a4;" horiz-adv-x="496" 
d="M206 0l84 687h-208l3 23h442l-3 -23h-211l-84 -687h-23z" />
    <glyph glyph-name="Upsilon" unicode="&#x3a5;" horiz-adv-x="506" 
d="M212 0l39 323l-174 387h25l162 -359h2l252 359h27l-271 -387l-39 -323h-23z" />
    <glyph glyph-name="Phi" unicode="&#x3a6;" horiz-adv-x="770" 
d="M726 405q0 -138 -95 -236t-258 -101l-8 -68h-23l8 68q-125 2 -201 71t-76 185q0 141 96.5 240t255.5 101l6 53h23l-7 -53q129 -3 204 -70.5t75 -189.5zM97 324q0 -105 68.5 -168.5t187.5 -64.5l69 551q-143 -3 -234 -92.5t-91 -225.5zM376 91q147 4 236.5 92.5
t89.5 220.5q0 112 -66.5 174t-190.5 64z" />
    <glyph glyph-name="Chi" unicode="&#x3a7;" horiz-adv-x="556" 
d="M7 0l271 353l-186 357h26l175 -334h2l255 334h29l-274 -357l185 -353h-27l-172 330h-2l-254 -330h-28z" />
    <glyph glyph-name="Psi" unicode="&#x3a8;" horiz-adv-x="718" 
d="M670 710h23l-31 -252q-17 -138 -87 -207t-211 -69h-2l-22 -182h-23l22 182q-135 0 -191 68t-39 209l32 251h23l-32 -252q-16 -125 32 -189t178 -64l62 505h23l-62 -505h1q126 0 191 61t82 193z" />
    <glyph glyph-name="uni03A9" unicode="&#x3a9;" horiz-adv-x="722" 
d="M45 0l3 23h183v1q-71 45 -111.5 125.5t-40.5 174.5q0 104 40 192t117.5 142.5t177.5 54.5q119 0 191.5 -80.5t72.5 -209.5q0 -132 -64 -236t-176 -163v-1h183l-3 -23h-228l3 23q122 57 192 160t70 239q0 120 -66.5 194t-175.5 74q-140 0 -225 -108t-85 -257
q0 -98 46 -180.5t126 -121.5l-3 -23h-227z" />
    <glyph glyph-name="Iotadieresis" unicode="&#x3aa;" horiz-adv-x="226" 
d="M88 828q-11 0 -18 7.5t-7 19.5q0 11 7.5 19t18.5 8q12 0 19.5 -7.5t7.5 -18.5q0 -12 -8 -20t-20 -8zM291 828q-26 0 -26 27q0 11 7.5 19t19.5 8q11 0 18.5 -7.5t7.5 -18.5q0 -12 -8 -20t-19 -8zM72 0l87 710h23l-87 -710h-23z" />
    <glyph glyph-name="Upsilondieresis" unicode="&#x3ab;" horiz-adv-x="506" 
d="M225 828q-11 0 -18 7.5t-7 19.5q0 11 7.5 19t18.5 8q12 0 19.5 -7.5t7.5 -18.5q0 -12 -8 -20t-20 -8zM428 828q-26 0 -26 27q0 11 7.5 19t19.5 8q11 0 18.5 -7.5t7.5 -18.5q0 -12 -8 -20t-19 -8zM212 0l39 323l-174 387h25l162 -359h2l252 359h27l-271 -387l-39 -323h-23
z" />
    <glyph glyph-name="alphatonos" unicode="&#x3ac;" horiz-adv-x="563" 
d="M413 715l-80 -153h-25l79 153h26zM476 19q21 0 45 11l5 -23q-25 -10 -51 -10q-75 0 -73 132l1 47h-2q-85 -179 -215 -179q-61 0 -102 50t-41 138q0 72 25.5 140t79.5 115.5t123 47.5q70 0 107.5 -55.5t43.5 -148.5h1l82 205l21 -7l-102 -253v-91q0 -61 11 -90t41 -29z
M186 19q127 0 217 213q1 66 -12 117t-43.5 83.5t-76.5 32.5q-63 0 -111 -44t-71 -106.5t-23 -128.5q0 -74 33 -120.5t87 -46.5z" />
    <glyph glyph-name="epsilontonos" unicode="&#x3ad;" horiz-adv-x="430" 
d="M248 562l79 153h26l-80 -153h-25zM178 -3q-68 0 -106 30t-38 83q0 50 30 87t79 54v1q-72 30 -72 98q0 60 51.5 99t126.5 39q90 0 159 -56l-9 -19q-68 53 -150 53q-65 0 -110.5 -32t-45.5 -84q0 -36 31 -63.5t89 -27.5h77l-2 -22h-94q-58 0 -98.5 -36.5t-40.5 -87.5
q0 -44 33 -69t93 -25q107 0 188 65l7 -21q-89 -66 -198 -66z" />
    <glyph glyph-name="etatonos" unicode="&#x3ae;" horiz-adv-x="532" 
d="M394 715l-80 -153h-25l79 153h26zM344 488q147 0 120 -197l-64 -489h-22l64 489q13 97 -14 135.5t-84 38.5q-71 0 -143 -75.5t-84 -176.5l-26 -213h-22l43 354q6 45 3 70t-10 33.5t-20 8.5q-7 0 -18 -3l-1 22q10 3 19 3q34 0 45.5 -29.5t3.5 -106.5l-3 -27h2
q34 72 93.5 117.5t117.5 45.5z" />
    <glyph glyph-name="iotatonos" unicode="&#x3af;" horiz-adv-x="239" 
d="M128 561l79 153h26l-80 -153h-25zM145 -3q-52 0 -66.5 32t-7.5 95l45 360h22l-43 -351q-10 -53 -0.5 -83.5t51.5 -30.5q27 0 52 15l5 -23q-28 -14 -58 -14z" />
    <glyph glyph-name="upsilondieresistonos" unicode="&#x3b0;" horiz-adv-x="504" 
d="M279 562l78 153h26l-80 -153h-24zM194 607q-11 0 -18 7.5t-7 19.5q0 11 7.5 19t18.5 8t18.5 -7.5t7.5 -18.5q0 -12 -7.5 -20t-19.5 -8zM420 607q-11 0 -18 7.5t-7 19.5q0 11 7.5 19t18.5 8t18.5 -7.5t7.5 -18.5q0 -12 -7.5 -20t-19.5 -8zM201 -3q-63 0 -101.5 43.5
t-32.5 123.5q5 60 22 143t17 120q0 25 -9 31.5t-24 6.5q-12 0 -21 -3v22q12 4 25 4t20.5 -1.5t15.5 -7t12 -18.5t4 -33q0 -38 -17.5 -123.5t-22.5 -138.5q-5 -66 26.5 -106.5t86.5 -40.5q100 0 165.5 99t65.5 249q0 62 -9 116l22 6q10 -56 10 -121q0 -95 -28 -178
t-87.5 -138t-139.5 -55z" />
    <glyph glyph-name="alpha" unicode="&#x3b1;" horiz-adv-x="563" 
d="M476 19q21 0 45 11l5 -23q-25 -10 -51 -10q-75 0 -73 132l1 47h-2q-85 -179 -215 -179q-61 0 -102 50t-41 138q0 72 25.5 140t79.5 115.5t123 47.5q70 0 107.5 -55.5t43.5 -148.5h1l82 205l21 -7l-102 -253v-91q0 -61 11 -90t41 -29zM186 19q127 0 217 213q1 66 -12 117
t-43.5 83.5t-76.5 32.5q-63 0 -111 -44t-71 -106.5t-23 -128.5q0 -74 33 -120.5t87 -46.5z" />
    <glyph glyph-name="beta" unicode="&#x3b2;" horiz-adv-x="526" 
d="M362 396q50 -23 81 -72t31 -108q0 -93 -58.5 -156t-150.5 -63t-148.5 64t-56.5 183q0 133 39 247t108 181.5t151 67.5q73 0 111 -40t38 -102q0 -116 -144 -200zM359 718q-73 0 -132.5 -58.5t-93.5 -145.5t-46 -189q177 29 287 107t110 166q0 55 -32.5 87.5t-92.5 32.5z
M265 19q84 0 135.5 57.5t51.5 136.5q0 59 -33 105.5t-84 63.5q-104 -54 -249 -80q-3 -30 -3 -60q0 -104 48.5 -163.5t133.5 -59.5z" />
    <glyph glyph-name="gamma" unicode="&#x3b3;" horiz-adv-x="466" 
d="M150 -198q24 175 -1 354q-36 309 -103 309q-6 0 -16 -2v22q8 3 16 3q47 0 76.5 -79t49.5 -250q12 -105 14 -145h2q86 112 148.5 224.5t89.5 245.5h24q-16 -78 -45 -152t-70 -142.5t-71 -111t-76 -102.5q-1 -76 -14 -174h-24z" />
    <glyph glyph-name="delta" unicode="&#x3b4;" horiz-adv-x="526" 
d="M330 718q-69 0 -112 -32t-43 -82q0 -71 84 -101q14 -5 36 -12t34 -11q152 -54 152 -202q0 -121 -67 -201t-172 -80q-94 0 -146 56t-52 143q0 97 54.5 173.5t148.5 116.5q-95 35 -95 118q0 60 49.5 98t128.5 38q93 0 162 -59l-10 -21q-74 60 -152 58zM458 278
q0 135 -144 185q-9 3 -35 11q-99 -35 -155.5 -108.5t-56.5 -169.5q0 -80 46.5 -128.5t128.5 -48.5q94 0 155 73t61 186z" />
    <glyph glyph-name="epsilon" unicode="&#x3b5;" horiz-adv-x="430" 
d="M178 -3q-68 0 -106 30t-38 83q0 50 30 87t79 54v1q-72 30 -72 98q0 60 51.5 99t126.5 39q90 0 159 -56l-9 -19q-68 53 -150 53q-65 0 -110.5 -32t-45.5 -84q0 -36 31 -63.5t89 -27.5h77l-2 -22h-94q-58 0 -98.5 -36.5t-40.5 -87.5q0 -44 33 -69t93 -25q107 0 188 65
l7 -21q-89 -66 -198 -66z" />
    <glyph glyph-name="zeta" unicode="&#x3b6;" horiz-adv-x="393" 
d="M273 -198l-20 11q24 30 35.5 46.5t21 38.5t9.5 42q0 24 -17 36.5t-60 29.5q-9 3 -14 5q-43 17 -60 24.5t-47 25t-42.5 33t-23 41.5t-10.5 59q0 65 34 138t93 142t118.5 126t129.5 113v1h-296l2 22h335l-2 -20q-180 -135 -286 -275t-106 -247q0 -24 4.5 -42.5t17.5 -33.5
t23 -25t35.5 -22.5t39 -18.5t48.5 -20q63 -26 84.5 -42.5t21.5 -48.5q0 -55 -68 -139z" />
    <glyph glyph-name="eta" unicode="&#x3b7;" horiz-adv-x="532" 
d="M344 488q147 0 120 -197l-64 -489h-22l64 489q13 97 -14 135.5t-84 38.5q-71 0 -143 -75.5t-84 -176.5l-26 -213h-22l43 354q6 45 3 70t-10 33.5t-20 8.5q-7 0 -18 -3l-1 22q10 3 19 3q34 0 45.5 -29.5t3.5 -106.5l-3 -27h2q34 72 93.5 117.5t117.5 45.5z" />
    <glyph glyph-name="theta" unicode="&#x3b8;" horiz-adv-x="528" 
d="M323 740q173 0 173 -264q0 -90 -15.5 -173t-46.5 -152.5t-82.5 -111.5t-117.5 -42q-76 0 -124 63t-48 198q0 86 16.5 169t47.5 154t82 115t115 44zM323 717q-82 0 -145 -89.5t-85 -236.5h378q3 40 3 85q0 123 -37 182t-114 59zM234 19q91 0 154 95.5t80 254.5h-378
q-6 -53 -6 -111q0 -116 39.5 -177.5t110.5 -61.5z" />
    <glyph glyph-name="iota" unicode="&#x3b9;" horiz-adv-x="239" 
d="M145 -3q-52 0 -66.5 32t-7.5 95l45 360h22l-43 -351q-10 -53 -0.5 -83.5t51.5 -30.5q27 0 52 15l5 -23q-28 -14 -58 -14z" />
    <glyph glyph-name="kappa" unicode="&#x3ba;" horiz-adv-x="506" 
d="M417 19q22 0 42 10l5 -22q-20 -10 -47 -10q-74 0 -104 128q-15 65 -22 184q-124 -126 -208 -241l-9 -68h-22l60 484h22l-44 -355q-1 -9 -3 -16l1 -1q129 170 366 380l19 -15q-77 -64 -161 -147q5 -121 23 -199q29 -112 82 -112z" />
    <glyph glyph-name="lambda" unicode="&#x3bb;" horiz-adv-x="456" 
d="M4 0l282 491l-28 116q-12 51 -35.5 80.5t-54.5 29.5q-17 0 -43 -7l-2 22q18 8 46 8q45 0 70.5 -33.5t42.5 -98.5q64 -247 115 -608h-24q-35 249 -80 458h-1l-262 -458h-26z" />
    <glyph glyph-name="uni03BC" unicode="&#x3bc;" horiz-adv-x="533" 
d="M489 25l6 -22q-19 -6 -41 -6q-48 0 -60 29t-6 83l2 18h-1q-31 -64 -82 -97t-108 -33q-91 0 -116 88h-2q-6 -72 -10 -103l-22 -180h-22l84 682h22l-37 -297q-11 -87 21 -127.5t83 -40.5q73 0 132.5 62.5t73.5 172.5l29 230h22l-46 -366q-9 -42 0 -70.5t47 -28.5q13 0 31 6
z" />
    <glyph glyph-name="nu" unicode="&#x3bd;" horiz-adv-x="462" 
d="M159 0l-100 484h24l93 -460h1q182 185 245 460h23q-33 -149 -102.5 -274.5t-157.5 -209.5h-26z" />
    <glyph glyph-name="xi" unicode="&#x3be;" horiz-adv-x="408" 
d="M274 -198l-19 12q68 82 68 123q0 23 -20 36.5t-90 43.5q-4 2 -6.5 3t-6 2.5l-7 3t-6.5 2.5q-77 33 -110.5 74t-33.5 100q0 78 45.5 128.5t118.5 66.5v2q-78 32 -78 118q0 78 58.5 126t149.5 70v1h-202l2 22h319l-3 -22q-301 -40 -301 -197q0 -51 35 -81t104 -30h77v-22
h-80q-96 0 -159 -46t-63 -136q0 -52 30.5 -88t99.5 -66q101 -43 119 -56q31 -21 31 -55q0 -48 -72 -135z" />
    <glyph glyph-name="omicron" unicode="&#x3bf;" horiz-adv-x="526" 
d="M233 -3q-80 0 -134 54t-54 147q0 120 69 205t180 85q83 0 135 -53t52 -144q0 -127 -67 -210.5t-181 -83.5zM233 19q101 0 163.5 75t62.5 197q0 80 -45 127t-120 47q-97 0 -162 -76.5t-65 -190.5q0 -82 47.5 -130.5t118.5 -48.5z" />
    <glyph glyph-name="pi" unicode="&#x3c0;" horiz-adv-x="541" 
d="M439 462l-43 -344q-2 -29 -2.5 -51t11.5 -35t38 -13q13 0 32 6l5 -22q-20 -6 -41 -6q-47 0 -59.5 29.5t-5.5 82.5l43 353h-262l-57 -462h-22l57 462h-89l2 19q30 3 88 3h415l-3 -22h-107z" />
    <glyph glyph-name="rho" unicode="&#x3c1;" horiz-adv-x="523" 
d="M12 -198l55 446q14 120 78.5 180t151.5 60q79 0 130.5 -51t51.5 -141q0 -125 -72 -212t-178 -87q-52 0 -97 27.5t-61 69.5h-2l-35 -292h-22zM230 19q96 0 161.5 81t65.5 194q0 78 -43 124.5t-118 46.5q-81 0 -138.5 -56.5t-69.5 -161.5l-13 -108q14 -47 44 -75.5
t56.5 -36.5t54.5 -8z" />
    <glyph glyph-name="uni03C2" unicode="&#x3c2;" horiz-adv-x="441" 
d="M268 -198l-19 11q65 82 65 122q0 26 -21 41t-74 36q-33 14 -46.5 20t-39.5 19.5t-37.5 26t-26 31t-20 42t-5.5 53.5q0 117 67 200.5t170 83.5q40 0 82.5 -19.5t67.5 -57.5l-19 -15q-22 34 -59 51.5t-73 17.5q-93 0 -153.5 -76.5t-59.5 -184.5q0 -26 4.5 -46.5t17 -37
t23 -27t34.5 -23t38 -19t47 -19.5q61 -24 83.5 -44t22.5 -53q0 -42 -69 -133z" />
    <glyph glyph-name="sigma" unicode="&#x3c3;" horiz-adv-x="519" 
d="M223 -3q-80 0 -129 53t-49 147q0 118 68 202.5t174 84.5h237l-3 -22h-145v-1q39 -23 64 -67.5t25 -106.5q0 -120 -67 -205t-175 -85zM223 19q95 0 157.5 76t62.5 192q0 70 -33 115t-89 60h-35q-93 0 -156 -75.5t-63 -189.5q0 -83 42 -130.5t114 -47.5z" />
    <glyph glyph-name="tau" unicode="&#x3c4;" horiz-adv-x="408" 
d="M214 -3q-93 0 -76 131l41 334h-147l3 22h368l-2 -22h-200l-41 -334q-6 -54 4.5 -81.5t51.5 -27.5q52 0 98 37l3 -25q-46 -34 -103 -34z" />
    <glyph glyph-name="upsilon" unicode="&#x3c5;" horiz-adv-x="504" 
d="M201 -3q-63 0 -101.5 43.5t-32.5 123.5q5 60 22 143t17 120q0 25 -9 31.5t-24 6.5q-12 0 -21 -3v22q12 4 25 4t20.5 -1.5t15.5 -7t12 -18.5t4 -33q0 -38 -17.5 -123.5t-22.5 -138.5q-5 -66 26.5 -106.5t86.5 -40.5q100 0 165.5 99t65.5 249q0 62 -9 116l22 6
q10 -56 10 -121q0 -95 -28 -178t-87.5 -138t-139.5 -55z" />
    <glyph glyph-name="phi" unicode="&#x3c6;" horiz-adv-x="608" 
d="M564 302q0 -143 -81.5 -223t-201.5 -82l-24 -195h-22l24 195q-93 2 -152.5 55.5t-59.5 156.5q0 161 128 283l16 -12q-122 -123 -122 -271q0 -91 53 -140t140 -50l37 299q6 49 20.5 84t34 52.5t38 25t38.5 7.5q54 0 94 -48t40 -137zM284 19q110 3 184 78.5t74 205.5
q0 72 -31 117t-84 45q-34 0 -65.5 -33.5t-40.5 -113.5z" />
    <glyph glyph-name="chi" unicode="&#x3c7;" horiz-adv-x="469" 
d="M386 -201q-22 0 -36 5.5t-31.5 32t-32.5 77.5l-65 216h-2l-214 -328h-26l233 356l-64 214q-13 43 -28 65t-24.5 25t-25.5 3q-4 0 -16 -2l-1 22q2 0 6 1t6.5 1.5t4.5 0.5q34 0 56.5 -21t43.5 -94l56 -190h2l199 301h25l-216 -328l72 -241q13 -43 28 -65t25 -25.5t25 -3.5
q7 0 16 3l1 -22q-9 -3 -17 -3z" />
    <glyph glyph-name="psi" unicode="&#x3c8;" horiz-adv-x="607" 
d="M549 489q10 -68 9 -121q0 -72 -15 -135.5t-45.5 -117.5t-84.5 -85.5t-126 -32.5l-24 -195h-22l24 195h-9q-85 0 -137 50t-46 148q3 50 18 122.5t15 109.5q0 25 -9 31.5t-24 6.5q-12 0 -21 -3v22q12 4 25 4t20.5 -1.5t15.5 -7t12 -18.5t4 -33q0 -38 -16 -114.5t-18 -120.5
q-4 -86 40.5 -130t121.5 -44h11l75 613l22 2l-75 -615q118 1 181 96t65 250q0 55 -9 118z" />
    <glyph glyph-name="omega" unicode="&#x3c9;" horiz-adv-x="676" 
d="M172 -3q-62 0 -96 47t-34 131t36.5 171.5t99.5 146.5l17 -13q-60 -56 -95 -140.5t-35 -164.5q0 -76 29 -116t78 -40q60 0 99 59t54 165l15 120h22l-15 -118q-29 -226 92 -226q77 0 122 77t45 184q0 109 -63 200l18 11q68 -95 68 -211q0 -118 -52 -200.5t-139 -82.5
q-105 0 -116 133h-2q-46 -133 -148 -133z" />
    <glyph glyph-name="iotadieresis" unicode="&#x3ca;" horiz-adv-x="239" 
d="M44 606q-11 0 -18 7.5t-7 19.5q0 11 7.5 19t18.5 8q12 0 19.5 -7.5t7.5 -18.5q0 -12 -8 -20t-20 -8zM247 606q-26 0 -26 27q0 11 7.5 19t19.5 8q11 0 18.5 -7.5t7.5 -18.5q0 -12 -8 -20t-19 -8zM145 -3q-52 0 -66.5 32t-7.5 95l45 360h22l-43 -351q-10 -53 -0.5 -83.5
t51.5 -30.5q27 0 52 15l5 -23q-28 -14 -58 -14z" />
    <glyph glyph-name="upsilondieresis" unicode="&#x3cb;" horiz-adv-x="504" 
d="M194 607q-11 0 -18 7.5t-7 19.5q0 11 7.5 19t18.5 8q12 0 19.5 -7.5t7.5 -18.5q0 -12 -8 -20t-20 -8zM397 607q-26 0 -26 27q0 11 7.5 19t19.5 8q11 0 18.5 -7.5t7.5 -18.5q0 -12 -8 -20t-19 -8zM201 -3q-63 0 -101.5 43.5t-32.5 123.5q5 60 22 143t17 120q0 25 -9 31.5
t-24 6.5q-12 0 -21 -3v22q12 4 25 4t20.5 -1.5t15.5 -7t12 -18.5t4 -33q0 -38 -17.5 -123.5t-22.5 -138.5q-5 -66 26.5 -106.5t86.5 -40.5q100 0 165.5 99t65.5 249q0 62 -9 116l22 6q10 -56 10 -121q0 -95 -28 -178t-87.5 -138t-139.5 -55z" />
    <glyph glyph-name="omicrontonos" unicode="&#x3cc;" horiz-adv-x="526" 
d="M290 561l79 153h26l-80 -153h-25zM233 -3q-80 0 -134 54t-54 147q0 120 69 205t180 85q83 0 135 -53t52 -144q0 -127 -67 -210.5t-181 -83.5zM233 19q101 0 163.5 75t62.5 197q0 80 -45 127t-120 47q-97 0 -162 -76.5t-65 -190.5q0 -82 47.5 -130.5t118.5 -48.5z" />
    <glyph glyph-name="upsilontonos" unicode="&#x3cd;" horiz-adv-x="504" 
d="M278 562l79 153h26l-80 -153h-25zM201 -3q-63 0 -101.5 43.5t-32.5 123.5q5 60 22 143t17 120q0 25 -9 31.5t-24 6.5q-12 0 -21 -3v22q12 4 25 4t20.5 -1.5t15.5 -7t12 -18.5t4 -33q0 -38 -17.5 -123.5t-22.5 -138.5q-5 -66 26.5 -106.5t86.5 -40.5q100 0 165.5 99
t65.5 249q0 62 -9 116l22 6q10 -56 10 -121q0 -95 -28 -178t-87.5 -138t-139.5 -55z" />
    <glyph glyph-name="omegatonos" unicode="&#x3ce;" horiz-adv-x="676" 
d="M364 562l79 153h26l-80 -153h-25zM172 -3q-62 0 -96 47t-34 131t36.5 171.5t99.5 146.5l17 -13q-60 -56 -95 -140.5t-35 -164.5q0 -76 29 -116t78 -40q60 0 99 59t54 165l15 120h22l-15 -118q-29 -226 92 -226q77 0 122 77t45 184q0 109 -63 200l18 11q68 -95 68 -211
q0 -118 -52 -200.5t-139 -82.5q-105 0 -116 133h-2q-46 -133 -148 -133z" />
    <glyph glyph-name="uni03D7" unicode="&#x3d7;" horiz-adv-x="544" 
d="M328 120q18 -69 50 -87q21 -13 80 -18l-2 -12q-87 -114 -170.5 -166.5t-180.5 -52.5q-108 0 -176 62l14 19q67 -58 160 -58q88 0 164 44.5t153 143.5v2q-46 4 -73 30.5t-40 82.5l-39 166q-83 -89 -182 -209l-8 -67h-22l59 484h22l-43 -355l-3 -19l1 -1q166 198 354 382
l18 -14q-86 -83 -179 -183z" />
    <glyph glyph-name="uni1E0C" unicode="&#x1e0c;" horiz-adv-x="659" 
d="M65 0l87 710h177q135 0 209 -76.5t74 -211.5q0 -185 -105.5 -303.5t-274.5 -118.5h-167zM91 23h140q158 0 257.5 112t99.5 285q0 126 -67 196.5t-193 70.5h-155zM253 -124q11 0 18 -7.5t7 -19.5q0 -11 -7.5 -19t-18.5 -8t-18.5 7.5t-7.5 18.5q0 12 7.5 20t19.5 8z" />
    <glyph glyph-name="uni1E0D" unicode="&#x1e0d;" horiz-adv-x="543" 
d="M215 -3q-77 0 -122 54t-45 138q0 126 70 212.5t182 86.5q47 0 90 -16.5t68 -46.5l1 1l38 310h22l-90 -736h-22l19 155l-2 1q-33 -72 -86.5 -115.5t-122.5 -43.5zM215 19q88 0 151 81.5t76 187.5l13 106q-24 40 -69.5 56t-86.5 16q-101 0 -164.5 -81t-63.5 -197
q0 -75 37.5 -122t106.5 -47zM229 -124q11 0 18 -7.5t7 -19.5q0 -11 -7.5 -19t-18.5 -8t-18.5 7.5t-7.5 18.5q0 12 7.5 20t19.5 8z" />
    <glyph glyph-name="uni1E0E" unicode="&#x1e0e;" horiz-adv-x="659" 
d="M65 0l87 710h177q135 0 209 -76.5t74 -211.5q0 -185 -105.5 -303.5t-274.5 -118.5h-167zM91 23h140q158 0 257.5 112t99.5 285q0 126 -67 196.5t-193 70.5h-155zM131 -170l3 23h239l-3 -23h-239z" />
    <glyph glyph-name="uni1E0F" unicode="&#x1e0f;" horiz-adv-x="543" 
d="M215 -3q-77 0 -122 54t-45 138q0 126 70 212.5t182 86.5q47 0 90 -16.5t68 -46.5l1 1l38 310h22l-90 -736h-22l19 155l-2 1q-33 -72 -86.5 -115.5t-122.5 -43.5zM215 19q88 0 151 81.5t76 187.5l13 106q-24 40 -69.5 56t-86.5 16q-101 0 -164.5 -81t-63.5 -197
q0 -75 37.5 -122t106.5 -47zM107 -170l3 23h239l-3 -23h-239z" />
    <glyph glyph-name="uni1E20" unicode="&#x1e20;" horiz-adv-x="705" 
d="M333 835l3 23h239l-3 -23h-239zM350 -3q-129 0 -202 80t-73 218q0 110 44.5 205.5t127 154.5t185.5 59q133 0 225 -109l-17 -17q-86 103 -209 103q-95 0 -172.5 -56t-118.5 -146.5t-41 -193.5q0 -128 66 -201.5t186 -73.5q137 0 232 81l26 217h-239l3 23h262l-31 -251
q-50 -46 -117.5 -69.5t-136.5 -23.5z" />
    <glyph glyph-name="uni1E21" unicode="&#x1e21;" horiz-adv-x="532" 
d="M209 619l3 23h239l-3 -23h-239zM176 -201q-83 0 -156 37l7 24q70 -39 151 -39q47 0 82.5 10.5t68 36.5t53.5 76t30 125l13 99h-2q-35 -69 -88.5 -113t-121.5 -44q-77 0 -121.5 54.5t-44.5 138.5q0 115 70.5 199.5t181.5 84.5q45 0 89 -16.5t67 -44.5l1 1l7 56h22
l-51 -417q-19 -153 -84 -210.5t-174 -57.5zM214 34q84 0 148.5 77t75.5 171l14 115q-25 38 -70 53t-85 15q-100 0 -164 -78.5t-64 -183.5q0 -75 38 -122t107 -47z" />
    <glyph glyph-name="uni1E24" unicode="&#x1e24;" horiz-adv-x="652" 
d="M65 0l87 710h23l-45 -364h417l44 364h23l-86 -710h-23l39 323h-416l-40 -323h-23zM279 -124q11 0 18 -7.5t7 -19.5q0 -11 -7.5 -19t-18.5 -8t-18.5 7.5t-7.5 18.5q0 12 7.5 20t19.5 8z" />
    <glyph glyph-name="uni1E25" unicode="&#x1e25;" horiz-adv-x="532" 
d="M56 0l90 736h22l-51 -415h2q35 75 97 121t127 46q145 0 120 -197l-38 -291h-22l38 291q13 97 -14.5 136t-84.5 39q-80 0 -153 -76t-85 -178l-26 -212h-22zM226 -124q11 0 18 -7.5t7 -19.5q0 -11 -7.5 -19t-18.5 -8t-18.5 7.5t-7.5 18.5q0 12 7.5 20t19.5 8z" />
    <glyph glyph-name="uni1E2A" unicode="&#x1e2a;" horiz-adv-x="652" 
d="M65 0l87 710h23l-45 -364h417l44 364h23l-86 -710h-23l39 323h-416l-40 -323h-23zM270 -207q-47 0 -71 33t-20 94l21 -1q-7 -104 71 -104q44 0 72 29t35 76l21 -1q-10 -59 -46 -92.5t-83 -33.5z" />
    <glyph glyph-name="uni1E2B" unicode="&#x1e2b;" horiz-adv-x="532" 
d="M56 0l90 736h22l-51 -415h2q35 75 97 121t127 46q145 0 120 -197l-38 -291h-22l38 291q13 97 -14.5 136t-84.5 39q-80 0 -153 -76t-85 -178l-26 -212h-22zM217 -207q-47 0 -71 33t-20 94l21 -1q-7 -104 71 -104q44 0 72 29t35 76l21 -1q-10 -59 -46 -92.5t-83 -33.5z" />
    <glyph glyph-name="uni1E30" unicode="&#x1e30;" horiz-adv-x="569" 
d="M446 919l-128 -124h-28l127 124h29zM579 710l-297 -328l215 -382h-28l-203 364l-154 -171l-24 -193h-23l87 710h23l-59 -477l2 -1l431 478h30z" />
    <glyph glyph-name="uni1E31" unicode="&#x1e31;" horiz-adv-x="461" 
d="M395 -3q-11 -2 -22 4q-13 7 -26 25.5t-19.5 32.5t-22.5 51l-49 111q-79 -70 -166 -113l-12 -108h-22l90 736h22l-74 -599l2 -1q111 60 201.5 157.5t121.5 190.5h23q-38 -126 -168 -247l52 -117q27 -61 41 -80t34 -22zM229 561l127 135h31l-128 -135h-30z" />
    <glyph glyph-name="uni1E36" unicode="&#x1e36;" horiz-adv-x="489" 
d="M65 0l87 710h23l-84 -687h352l-2 -23h-376zM239 -124q11 0 18 -7.5t7 -19.5q0 -11 -7.5 -19t-18.5 -8t-18.5 7.5t-7.5 18.5q0 12 7.5 20t19.5 8z" />
    <glyph glyph-name="uni1E37" unicode="&#x1e37;" horiz-adv-x="197" 
d="M61 0l90 736h22l-90 -736h-22zM58 -124q11 0 18 -7.5t7 -19.5q0 -11 -7.5 -19t-18.5 -8t-18.5 7.5t-7.5 18.5q0 12 7.5 20t19.5 8z" />
    <glyph glyph-name="uni1E38" unicode="&#x1e38;" horiz-adv-x="489" 
d="M188 835l3 23h239l-3 -23h-239zM65 0l87 710h23l-84 -687h352l-2 -23h-376zM239 -124q11 0 18 -7.5t7 -19.5q0 -11 -7.5 -19t-18.5 -8t-18.5 7.5t-7.5 18.5q0 12 7.5 20t19.5 8z" />
    <glyph glyph-name="uni1E39" unicode="&#x1e39;" horiz-adv-x="197" 
d="M56 848l3 23h239l-3 -23h-239zM61 0l90 736h22l-90 -736h-22zM54 -124q11 0 18 -7.5t7 -19.5q0 -11 -7.5 -19t-18.5 -8t-18.5 7.5t-7.5 18.5q0 12 7.5 20t19.5 8z" />
    <glyph glyph-name="uni1E3A" unicode="&#x1e3a;" horiz-adv-x="489" 
d="M65 0l87 710h23l-84 -687h352l-2 -23h-376zM117 -170l3 23h239l-3 -23h-239z" />
    <glyph glyph-name="uni1E3B" unicode="&#x1e3b;" horiz-adv-x="197" 
d="M61 0l90 736h22l-90 -736h-22zM-62 -170l3 23h239l-3 -23h-239z" />
    <glyph glyph-name="uni1E42" unicode="&#x1e42;" horiz-adv-x="796" 
d="M65 0l87 710h22l217 -523h2l343 523h22l-86 -710h-23l80 657h-3l-329 -502h-19l-208 504h-2l-80 -659h-23zM353 -124q11 0 18 -7.5t7 -19.5q0 -11 -7.5 -19t-18.5 -8t-18.5 7.5t-7.5 18.5q0 12 7.5 20t19.5 8z" />
    <glyph glyph-name="uni1E43" unicode="&#x1e43;" horiz-adv-x="813" 
d="M56 0l59 484h22l-19 -151l2 -1q34 71 88 113.5t109 42.5q124 0 121 -153h1q32 69 85.5 111t108.5 42q142 0 117 -197l-39 -291h-22l39 291q22 175 -96 175q-69 0 -132.5 -73.5t-77.5 -185.5l-27 -207h-22l38 291q23 175 -94 175q-70 0 -135.5 -76t-77.5 -178l-26 -212
h-22zM367 -124q11 0 18 -7.5t7 -19.5q0 -11 -7.5 -19t-18.5 -8t-18.5 7.5t-7.5 18.5q0 12 7.5 20t19.5 8z" />
    <glyph glyph-name="uni1E44" unicode="&#x1e44;" horiz-adv-x="684" 
d="M422 846q-11 0 -18 7.5t-7 19.5q0 11 7.5 19t18.5 8t18.5 -7.5t7.5 -18.5q0 -12 -7.5 -20t-19.5 -8zM65 0l87 710h20l368 -667h2l81 667h23l-87 -710h-22l-366 665h-2l-81 -665h-23z" />
    <glyph glyph-name="uni1E45" unicode="&#x1e45;" horiz-adv-x="532" 
d="M335 606q-11 0 -18 7.5t-7 19.5q0 11 7.5 19t18.5 8t18.5 -7.5t7.5 -18.5q0 -12 -7.5 -20t-19.5 -8zM56 0l60 484h22l-20 -158h2q36 72 97.5 117t125.5 45q145 0 120 -197l-38 -291h-22l38 291q13 97 -14.5 135.5t-84.5 38.5q-80 0 -153 -74.5t-85 -179.5l-26 -211h-22z
" />
    <glyph glyph-name="uni1E46" unicode="&#x1e46;" horiz-adv-x="684" 
d="M65 0l87 710h20l368 -667h2l81 667h23l-87 -710h-22l-366 665h-2l-81 -665h-23zM297 -124q11 0 18 -7.5t7 -19.5q0 -11 -7.5 -19t-18.5 -8t-18.5 7.5t-7.5 18.5q0 12 7.5 20t19.5 8z" />
    <glyph glyph-name="uni1E47" unicode="&#x1e47;" horiz-adv-x="532" 
d="M56 0l60 484h22l-20 -158h2q36 72 97.5 117t125.5 45q145 0 120 -197l-38 -291h-22l38 291q13 97 -14.5 135.5t-84.5 38.5q-80 0 -153 -74.5t-85 -179.5l-26 -211h-22zM225 -124q11 0 18 -7.5t7 -19.5q0 -11 -7.5 -19t-18.5 -8t-18.5 7.5t-7.5 18.5q0 12 7.5 20t19.5 8z
" />
    <glyph glyph-name="uni1E48" unicode="&#x1e48;" horiz-adv-x="684" 
d="M65 0l87 710h20l368 -667h2l81 667h23l-87 -710h-22l-366 665h-2l-81 -665h-23zM175 -170l3 23h239l-3 -23h-239z" />
    <glyph glyph-name="uni1E49" unicode="&#x1e49;" horiz-adv-x="532" 
d="M56 0l60 484h22l-20 -158h2q36 72 97.5 117t125.5 45q145 0 120 -197l-38 -291h-22l38 291q13 97 -14.5 135.5t-84.5 38.5q-80 0 -153 -74.5t-85 -179.5l-26 -211h-22zM103 -170l3 23h239l-3 -23h-239z" />
    <glyph glyph-name="uni1E5A" unicode="&#x1e5a;" horiz-adv-x="576" 
d="M65 0l87 710h210q85 0 129.5 -44t44.5 -121q0 -101 -56 -166t-154 -73l154 -306h-26l-154 305h-175l-37 -305h-23zM128 328h174q98 0 154 60t56 157q0 73 -41.5 107.5t-110.5 34.5h-188zM233 -124q11 0 18 -7.5t7 -19.5q0 -11 -7.5 -19t-18.5 -8t-18.5 7.5t-7.5 18.5
q0 12 7.5 20t19.5 8z" />
    <glyph glyph-name="uni1E5B" unicode="&#x1e5b;" horiz-adv-x="272" 
d="M56 0l59 484h22l-18 -146h2q56 120 172 150l-2 -30q-74 -16 -125 -83.5t-62 -162.5l-26 -212h-22zM59 -124q11 0 18 -7.5t7 -19.5q0 -11 -7.5 -19t-18.5 -8t-18.5 7.5t-7.5 18.5q0 12 7.5 20t19.5 8z" />
    <glyph glyph-name="uni1E5C" unicode="&#x1e5c;" horiz-adv-x="576" 
d="M235 835l3 23h239l-3 -23h-239zM65 0l87 710h210q85 0 129.5 -44t44.5 -121q0 -101 -56 -166t-154 -73l154 -306h-26l-154 305h-175l-37 -305h-23zM128 328h174q98 0 154 60t56 157q0 73 -41.5 107.5t-110.5 34.5h-188zM233 -124q11 0 18 -7.5t7 -19.5q0 -11 -7.5 -19
t-18.5 -8t-18.5 7.5t-7.5 18.5q0 12 7.5 20t19.5 8z" />
    <glyph glyph-name="uni1E5D" unicode="&#x1e5d;" horiz-adv-x="272" 
d="M106 619l3 23h239l-3 -23h-239zM56 0l59 484h22l-18 -146h2q56 120 172 150l-2 -30q-74 -16 -125 -83.5t-62 -162.5l-26 -212h-22zM59 -124q11 0 18 -7.5t7 -19.5q0 -11 -7.5 -19t-18.5 -8t-18.5 7.5t-7.5 18.5q0 12 7.5 20t19.5 8z" />
    <glyph glyph-name="uni1E5E" unicode="&#x1e5e;" horiz-adv-x="576" 
d="M65 0l87 710h210q85 0 129.5 -44t44.5 -121q0 -101 -56 -166t-154 -73l154 -306h-26l-154 305h-175l-37 -305h-23zM128 328h174q98 0 154 60t56 157q0 73 -41.5 107.5t-110.5 34.5h-188zM111 -170l3 23h239l-3 -23h-239z" />
    <glyph glyph-name="uni1E5F" unicode="&#x1e5f;" horiz-adv-x="272" 
d="M56 0l59 484h22l-18 -146h2q56 120 172 150l-2 -30q-74 -16 -125 -83.5t-62 -162.5l-26 -212h-22zM-63 -170l3 23h239l-3 -23h-239z" />
    <glyph glyph-name="uni1E60" unicode="&#x1e60;" horiz-adv-x="525" 
d="M330 846q-11 0 -18 7.5t-7 19.5q0 11 7.5 19t18.5 8t18.5 -7.5t7.5 -18.5q0 -12 -7.5 -20t-19.5 -8zM248 -3q-61 0 -121 28.5t-98 84.5l19 15q74 -105 201 -105q84 0 136 45t52 121q0 23 -10.5 44t-22 34.5t-40 33t-42 27t-51.5 28.5q-40 22 -62.5 36t-51 37.5t-42 51.5
t-13.5 62q0 77 56 125.5t146 48.5q110 0 184 -79l-17 -17q-67 73 -169 73q-76 0 -126 -41t-50 -108q0 -30 11.5 -54.5t38.5 -46.5t46 -33.5t59 -33.5q46 -25 69 -39t53.5 -38.5t44 -51t13.5 -58.5q0 -86 -58.5 -138t-154.5 -52z" />
    <glyph glyph-name="uni1E61" unicode="&#x1e61;" horiz-adv-x="391" 
d="M243 606q-11 0 -18 7.5t-7 19.5q0 11 7.5 19t18.5 8t18.5 -7.5t7.5 -18.5q0 -12 -7.5 -20t-19.5 -8zM172 -3q-95 0 -158 67l15 18q59 -63 143 -63q61 0 99.5 29t38.5 78q0 42 -29.5 65t-86.5 47q-9 3 -13 5q-26 11 -43 20t-35.5 23.5t-27.5 34t-9 44.5q0 56 43 89.5
t103 33.5q80 0 132 -58l-15 -16q-48 52 -121 52q-50 0 -84.5 -28.5t-34.5 -75.5q0 -35 26 -56.5t75 -42.5q3 -1 22 -9t23.5 -10.5t20.5 -10t21.5 -12t17.5 -13t16.5 -16t11 -18t8.5 -22t2 -24.5q0 -62 -47 -96.5t-114 -34.5z" />
    <glyph glyph-name="uni1E62" unicode="&#x1e62;" horiz-adv-x="525" 
d="M248 -3q-61 0 -121 28.5t-98 84.5l19 15q74 -105 201 -105q84 0 136 45t52 121q0 23 -10.5 44t-22 34.5t-40 33t-42 27t-51.5 28.5q-40 22 -62.5 36t-51 37.5t-42 51.5t-13.5 62q0 77 56 125.5t146 48.5q110 0 184 -79l-17 -17q-67 73 -169 73q-76 0 -126 -41t-50 -108
q0 -30 11.5 -54.5t38.5 -46.5t46 -33.5t59 -33.5q46 -25 69 -39t53.5 -38.5t44 -51t13.5 -58.5q0 -86 -58.5 -138t-154.5 -52zM229 -124q11 0 18 -7.5t7 -19.5q0 -11 -7.5 -19t-18.5 -8t-18.5 7.5t-7.5 18.5q0 12 7.5 20t19.5 8z" />
    <glyph glyph-name="uni1E63" unicode="&#x1e63;" horiz-adv-x="391" 
d="M172 -3q-95 0 -158 67l15 18q59 -63 143 -63q61 0 99.5 29t38.5 78q0 42 -29.5 65t-86.5 47q-9 3 -13 5q-26 11 -43 20t-35.5 23.5t-27.5 34t-9 44.5q0 56 43 89.5t103 33.5q80 0 132 -58l-15 -16q-48 52 -121 52q-50 0 -84.5 -28.5t-34.5 -75.5q0 -35 26 -56.5t75 -42.5
q3 -1 22 -9t23.5 -10.5t20.5 -10t21.5 -12t17.5 -13t16.5 -16t11 -18t8.5 -22t2 -24.5q0 -62 -47 -96.5t-114 -34.5zM151 -124q11 0 18 -7.5t7 -19.5q0 -11 -7.5 -19t-18.5 -8t-18.5 7.5t-7.5 18.5q0 12 7.5 20t19.5 8z" />
    <glyph glyph-name="uni1E6C" unicode="&#x1e6c;" horiz-adv-x="496" 
d="M206 0l84 687h-208l3 23h442l-3 -23h-211l-84 -687h-23zM200 -124q11 0 18 -7.5t7 -19.5q0 -11 -7.5 -19t-18.5 -8t-18.5 7.5t-7.5 18.5q0 12 7.5 20t19.5 8z" />
    <glyph glyph-name="uni1E6D" unicode="&#x1e6d;" horiz-adv-x="329" 
d="M153 -3q-93 0 -76 131l41 334h-60l2 22h60l22 175l22 3l-22 -178h173l-2 -22h-173l-41 -334q-7 -53 4 -81t52 -28q52 0 98 37l3 -25q-46 -34 -103 -34zM130 -124q11 0 18 -7.5t7 -19.5q0 -11 -7.5 -19t-18.5 -8t-18.5 7.5t-7.5 18.5q0 12 7.5 20t19.5 8z" />
    <glyph glyph-name="uni1E6E" unicode="&#x1e6e;" horiz-adv-x="496" 
d="M206 0l84 687h-208l3 23h442l-3 -23h-211l-84 -687h-23zM76 -170l3 23h239l-3 -23h-239z" />
    <glyph glyph-name="uni1E6F" unicode="&#x1e6f;" horiz-adv-x="329" 
d="M153 -3q-93 0 -76 131l41 334h-60l2 22h60l22 175l22 3l-22 -178h173l-2 -22h-173l-41 -334q-7 -53 4 -81t52 -28q52 0 98 37l3 -25q-46 -34 -103 -34zM8 -170l3 23h239l-3 -23h-239z" />
    <glyph glyph-name="Wgrave" unicode="&#x1e80;" horiz-adv-x="903" 
d="M497 791l-98 124h29l97 -124h-28zM214 0l-121 710h24l113 -670h2l262 670h28l100 -670h2l276 670h25l-294 -710h-27l-99 671h-2l-262 -671h-27z" />
    <glyph glyph-name="wgrave" unicode="&#x1e81;" horiz-adv-x="765" 
d="M412 561l-96 135h29l95 -135h-28zM189 -3q-149 0 -122 196l37 291h22l-37 -290q-24 -175 99 -175q57 0 119 75t74 175l26 215h22l-34 -280q-13 -104 12 -144.5t77 -40.5q62 0 124.5 65t87.5 166q28 114 6 234h24q19 -132 -10 -243q-31 -118 -100 -181t-132 -63
q-118 0 -114 156h-2q-34 -69 -84 -112.5t-95 -43.5z" />
    <glyph glyph-name="Wacute" unicode="&#x1e82;" horiz-adv-x="903" 
d="M510 795l127 124h29l-128 -124h-28zM214 0l-121 710h24l113 -670h2l262 670h28l100 -670h2l276 670h25l-294 -710h-27l-99 671h-2l-262 -671h-27z" />
    <glyph glyph-name="wacute" unicode="&#x1e83;" horiz-adv-x="765" 
d="M412 561l127 135h31l-128 -135h-30zM189 -3q-149 0 -122 196l37 291h22l-37 -290q-24 -175 99 -175q57 0 119 75t74 175l26 215h22l-34 -280q-13 -104 12 -144.5t77 -40.5q62 0 124.5 65t87.5 166q28 114 6 234h24q19 -132 -10 -243q-31 -118 -100 -181t-132 -63
q-118 0 -114 156h-2q-34 -69 -84 -112.5t-95 -43.5z" />
    <glyph glyph-name="Wdieresis" unicode="&#x1e84;" horiz-adv-x="903" 
d="M458 828q-11 0 -18 7.5t-7 19.5q0 11 7.5 19t18.5 8q12 0 19.5 -7.5t7.5 -18.5q0 -12 -8 -20t-20 -8zM591 828q-11 0 -18.5 7.5t-7.5 19.5q0 11 8 19t19 8t18.5 -7.5t7.5 -18.5q0 -12 -8 -20t-19 -8zM214 0l-121 710h24l113 -670h2l262 670h28l100 -670h2l276 670h25
l-294 -710h-27l-99 671h-2l-262 -671h-27z" />
    <glyph glyph-name="wdieresis" unicode="&#x1e85;" horiz-adv-x="765" 
d="M369 606q-11 0 -18 7.5t-7 19.5q0 11 7.5 19t18.5 8q12 0 19.5 -7.5t7.5 -18.5q0 -12 -8 -20t-20 -8zM502 606q-11 0 -18.5 7.5t-7.5 19.5q0 11 8 19t19 8t18.5 -7.5t7.5 -18.5q0 -12 -8 -20t-19 -8zM189 -3q-149 0 -122 196l37 291h22l-37 -290q-24 -175 99 -175
q57 0 119 75t74 175l26 215h22l-34 -280q-13 -104 12 -144.5t77 -40.5q62 0 124.5 65t87.5 166q28 114 6 234h24q19 -132 -10 -243q-31 -118 -100 -181t-132 -63q-118 0 -114 156h-2q-34 -69 -84 -112.5t-95 -43.5z" />
    <glyph glyph-name="uni1E8E" unicode="&#x1e8e;" horiz-adv-x="506" 
d="M330 846q-11 0 -18 7.5t-7 19.5q0 11 7.5 19t18.5 8t18.5 -7.5t7.5 -18.5q0 -12 -7.5 -20t-19.5 -8zM212 0l39 323l-174 387h25l162 -359h2l252 359h27l-271 -387l-39 -323h-23z" />
    <glyph glyph-name="uni1E8F" unicode="&#x1e8f;" horiz-adv-x="509" 
d="M296 606q-11 0 -18 7.5t-7 19.5q0 11 7.5 19t18.5 8t18.5 -7.5t7.5 -18.5q0 -12 -7.5 -20t-19.5 -8zM439 484h22l-51 -418q-10 -79 -32.5 -133.5t-55.5 -82.5t-69 -39.5t-81 -11.5q-73 0 -147 37l7 23q69 -38 142 -38q40 0 71.5 10.5t62 36t51.5 76t30 124.5l10 86h-2
q-34 -71 -89.5 -114t-114.5 -43q-156 0 -129 196l39 291h22l-39 -290q-13 -98 16.5 -136.5t91.5 -38.5q74 0 140.5 75.5t78.5 175.5z" />
    <glyph glyph-name="uni1E92" unicode="&#x1e92;" horiz-adv-x="548" 
d="M29 0l3 21l469 664v2h-363l3 23h393l-3 -23l-469 -661l1 -3h391l-3 -23h-422zM248 -124q11 0 18 -7.5t7 -19.5q0 -11 -7.5 -19t-18.5 -8t-18.5 7.5t-7.5 18.5q0 12 7.5 20t19.5 8z" />
    <glyph glyph-name="uni1E93" unicode="&#x1e93;" horiz-adv-x="407" 
d="M341 -21q-48 15 -112 18t-227 3l2 22l361 439v1h-296l3 22h324l-2 -20l-360 -440v-2q97 0 141 -1t93.5 -5.5t79.5 -14.5zM160 -124q11 0 18 -7.5t7 -19.5q0 -11 -7.5 -19t-18.5 -8t-18.5 7.5t-7.5 18.5q0 12 7.5 20t19.5 8z" />
    <glyph glyph-name="uni1E97" unicode="&#x1e97;" horiz-adv-x="329" 
d="M129 749q-11 0 -18 7.5t-7 19.5q0 11 7.5 19t18.5 8q12 0 19.5 -7.5t7.5 -18.5q0 -12 -8 -20t-20 -8zM262 749q-11 0 -18.5 7.5t-7.5 19.5q0 11 8 19t19 8t18.5 -7.5t7.5 -18.5q0 -12 -8 -20t-19 -8zM153 -3q-93 0 -76 131l41 334h-60l2 22h60l22 175l22 3l-22 -178h173
l-2 -22h-173l-41 -334q-7 -53 4 -81t52 -28q52 0 98 37l3 -25q-46 -34 -103 -34z" />
    <glyph glyph-name="uni1E9E" unicode="&#x1e9e;" horiz-adv-x="685" 
d="M487 374q45 -25 67 -39t52.5 -38.5t44 -51t13.5 -58.5q0 -86 -58.5 -138t-150.5 -52q-52 0 -106 23t-92 68l15 22q70 -90 184 -90q80 0 132 45t52 121q0 28 -12 51.5t-40 45.5t-49 35t-62 35t-76 48l176 264l-1 3q-99 23 -207 23q-105 0 -159 -43t-65 -134l-62 -514h-23
l62 517q12 100 72.5 148.5t174.5 48.5q119 0 247 -32l-184 -275q11 -8 55 -33z" />
    <glyph glyph-name="uni1EA0" unicode="&#x1ea0;" horiz-adv-x="585" 
d="M0 0l334 710h27l164 -710h-24l-48 211h-329l-99 -211h-25zM135 234h313l-102 446h-2zM252 -124q11 0 18 -7.5t7 -19.5q0 -11 -7.5 -19t-18.5 -8t-18.5 7.5t-7.5 18.5q0 12 7.5 20t19.5 8z" />
    <glyph glyph-name="uni1EA1" unicode="&#x1ea1;" horiz-adv-x="531" 
d="M214 -3q-77 0 -121.5 54.5t-44.5 137.5q0 126 70 212.5t182 86.5q45 0 88 -16.5t67 -44.5l2 1l7 56h22l-59 -484h-22l19 154h-2q-34 -71 -87 -114t-121 -43zM215 19q87 0 149 81t76 187l14 109q-26 38 -71 54t-85 16q-101 0 -164.5 -81t-63.5 -197q0 -75 38 -122t107 -47
zM229 -124q11 0 18 -7.5t7 -19.5q0 -11 -7.5 -19t-18.5 -8t-18.5 7.5t-7.5 18.5q0 12 7.5 20t19.5 8z" />
    <glyph glyph-name="uni1EA2" unicode="&#x1ea2;" horiz-adv-x="585" 
d="M368 794l-28 1q75 58 94 87q10 16 10 29q0 36 -48 36q-23 0 -47.5 -9t-37.5 -23l-3 23q44 30 91 30q67 0 67 -56q0 -21 -20.5 -47t-33.5 -36.5t-44 -34.5zM0 0l334 710h27l164 -710h-24l-48 211h-329l-99 -211h-25zM135 234h313l-102 446h-2z" />
    <glyph glyph-name="uni1EA3" unicode="&#x1ea3;" horiz-adv-x="531" 
d="M346 554l-28 1q75 58 94 87q10 16 10 29q0 36 -48 36q-23 0 -47.5 -9t-37.5 -23l-3 23q44 30 91 30q67 0 67 -56q0 -21 -20.5 -47t-33.5 -36.5t-44 -34.5zM214 -3q-77 0 -121.5 54.5t-44.5 137.5q0 126 70 212.5t182 86.5q45 0 88 -16.5t67 -44.5l2 1l7 56h22l-59 -484
h-22l19 154h-2q-34 -71 -87 -114t-121 -43zM215 19q87 0 149 81t76 187l14 109q-26 38 -71 54t-85 16q-101 0 -164.5 -81t-63.5 -197q0 -75 38 -122t107 -47z" />
    <glyph glyph-name="uni1EA4" unicode="&#x1ea4;" horiz-adv-x="585" 
d="M470 856l128 135h29l-130 -135h-27zM234 795l129 109h23l94 -109h-28l-78 90h-2l-108 -90h-30zM0 0l334 710h27l164 -710h-24l-48 211h-329l-99 -211h-25zM135 234h313l-102 446h-2z" />
    <glyph glyph-name="uni1EA5" unicode="&#x1ea5;" horiz-adv-x="531" 
d="M435 640l122 135h30l-125 -135h-27zM219 560l126 136h23l96 -136h-28l-79 118h-1l-109 -118h-28zM214 -3q-77 0 -121.5 54.5t-44.5 137.5q0 126 70 212.5t182 86.5q45 0 88 -16.5t67 -44.5l2 1l7 56h22l-59 -484h-22l19 154h-2q-34 -71 -87 -114t-121 -43zM215 19
q87 0 149 81t76 187l14 109q-26 38 -71 54t-85 16q-101 0 -164.5 -81t-63.5 -197q0 -75 38 -122t107 -47z" />
    <glyph glyph-name="uni1EA6" unicode="&#x1ea6;" horiz-adv-x="585" 
d="M511 855l-97 134h28l96 -134h-27zM234 795l129 109h23l94 -109h-28l-78 90h-2l-108 -90h-30zM0 0l334 710h27l164 -710h-24l-48 211h-329l-99 -211h-25zM135 234h313l-102 446h-2z" />
    <glyph glyph-name="uni1EA7" unicode="&#x1ea7;" horiz-adv-x="531" 
d="M484 641l-97 135h28l96 -135h-27zM217 560l126 136h23l96 -136h-28l-79 118h-1l-109 -118h-28zM214 -3q-77 0 -121.5 54.5t-44.5 137.5q0 126 70 212.5t182 86.5q45 0 88 -16.5t67 -44.5l2 1l7 56h22l-59 -484h-22l19 154h-2q-34 -71 -87 -114t-121 -43zM215 19
q87 0 149 81t76 187l14 109q-26 38 -71 54t-85 16q-101 0 -164.5 -81t-63.5 -197q0 -75 38 -122t107 -47z" />
    <glyph glyph-name="uni1EA8" unicode="&#x1ea8;" horiz-adv-x="585" 
d="M500 856l-26 1q4 3 16 11t18.5 12.5t17 12.5t16.5 14t12.5 14t9.5 15.5t3 15.5q0 33 -47 33q-49 0 -82 -27l-3 21q49 26 88 26q65 0 65 -52q0 -45 -88 -97zM234 795l129 109h23l94 -109h-28l-78 90h-2l-108 -90h-30zM0 0l334 710h27l164 -710h-24l-48 211h-329l-99 -211
h-25zM135 234h313l-102 446h-2z" />
    <glyph glyph-name="uni1EA9" unicode="&#x1ea9;" horiz-adv-x="531" 
d="M481 633l-27 1q23 17 33 25t29.5 26t28.5 33t9 28q0 34 -46 34q-22 0 -45.5 -8.5t-35.5 -21.5l-3 22q42 28 87 28q64 0 64 -53q0 -21 -19.5 -46t-32.5 -35.5t-42 -32.5zM218 560l126 136h23l96 -136h-28l-79 118h-1l-109 -118h-28zM214 -3q-77 0 -121.5 54.5t-44.5 137.5
q0 126 70 212.5t182 86.5q45 0 88 -16.5t67 -44.5l2 1l7 56h22l-59 -484h-22l19 154h-2q-34 -71 -87 -114t-121 -43zM215 19q87 0 149 81t76 187l14 109q-26 38 -71 54t-85 16q-101 0 -164.5 -81t-63.5 -197q0 -75 38 -122t107 -47z" />
    <glyph glyph-name="uni1EAA" unicode="&#x1eaa;" horiz-adv-x="585" 
d="M455 923q-6 0 -12 1t-12.5 4t-10.5 5t-11 7.5t-9 7t-10 8.5t-9 8q-34 28 -53 28q-40 0 -66 -62l-19 8q32 76 84 76q29 0 65 -32q41 -37 62 -37q38 0 63 63l18 -9q-15 -38 -36.5 -57t-43.5 -19zM234 795l129 109h23l94 -109h-28l-78 90h-2l-108 -90h-30zM0 0l334 710h27
l164 -710h-24l-48 211h-329l-99 -211h-25zM135 234h313l-102 446h-2z" />
    <glyph glyph-name="uni1EAB" unicode="&#x1eab;" horiz-adv-x="531" 
d="M434 741q-28 0 -73 41q-30 28 -54 28q-39 0 -65 -62l-19 8q32 76 84 76q27 0 65 -32q1 -1 11 -10t13.5 -11t11 -7.5t13.5 -7t13 -1.5q38 0 63 63l18 -9q-32 -76 -81 -76zM220 560l126 136h23l96 -136h-28l-79 118h-1l-109 -118h-28zM214 -3q-77 0 -121.5 54.5
t-44.5 137.5q0 126 70 212.5t182 86.5q45 0 88 -16.5t67 -44.5l2 1l7 56h22l-59 -484h-22l19 154h-2q-34 -71 -87 -114t-121 -43zM215 19q87 0 149 81t76 187l14 109q-26 38 -71 54t-85 16q-101 0 -164.5 -81t-63.5 -197q0 -75 38 -122t107 -47z" />
    <glyph glyph-name="uni1EAC" unicode="&#x1eac;" horiz-adv-x="585" 
d="M234 795l129 109h23l94 -109h-28l-78 90h-2l-108 -90h-30zM0 0l334 710h27l164 -710h-24l-48 211h-329l-99 -211h-25zM135 234h313l-102 446h-2zM252 -124q11 0 18 -7.5t7 -19.5q0 -11 -7.5 -19t-18.5 -8t-18.5 7.5t-7.5 18.5q0 12 7.5 20t19.5 8z" />
    <glyph glyph-name="uni1EAD" unicode="&#x1ead;" horiz-adv-x="531" 
d="M218 560l126 136h23l96 -136h-28l-79 118h-1l-109 -118h-28zM214 -3q-77 0 -121.5 54.5t-44.5 137.5q0 126 70 212.5t182 86.5q45 0 88 -16.5t67 -44.5l2 1l7 56h22l-59 -484h-22l19 154h-2q-34 -71 -87 -114t-121 -43zM215 19q87 0 149 81t76 187l14 109q-26 38 -71 54
t-85 16q-101 0 -164.5 -81t-63.5 -197q0 -75 38 -122t107 -47zM229 -124q11 0 18 -7.5t7 -19.5q0 -11 -7.5 -19t-18.5 -8t-18.5 7.5t-7.5 18.5q0 12 7.5 20t19.5 8z" />
    <glyph glyph-name="uni1EAE" unicode="&#x1eae;" horiz-adv-x="585" 
d="M360 886l128 135h29l-130 -135h-27zM359 787q-50 0 -75.5 28t-21.5 76l23 -1q-4 -35 14.5 -59t60.5 -24q46 0 76 24.5t37 59.5l23 -1q-11 -46 -49.5 -74.5t-87.5 -28.5zM0 0l334 710h27l164 -710h-24l-48 211h-329l-99 -211h-25zM135 234h313l-102 446h-2z" />
    <glyph glyph-name="uni1EAF" unicode="&#x1eaf;" horiz-adv-x="531" 
d="M337 691l122 135h30l-125 -135h-27zM334 561q-47 0 -71 33t-20 94l21 -1q-7 -104 71 -104q44 0 72 29t35 76l21 -1q-10 -59 -46 -92.5t-83 -33.5zM214 -3q-77 0 -121.5 54.5t-44.5 137.5q0 126 70 212.5t182 86.5q45 0 88 -16.5t67 -44.5l2 1l7 56h22l-59 -484h-22
l19 154h-2q-34 -71 -87 -114t-121 -43zM215 19q87 0 149 81t76 187l14 109q-26 38 -71 54t-85 16q-101 0 -164.5 -81t-63.5 -197q0 -75 38 -122t107 -47z" />
    <glyph glyph-name="uni1EB0" unicode="&#x1eb0;" horiz-adv-x="585" 
d="M363 886l-97 134h28l96 -134h-27zM359 787q-50 0 -75.5 28t-21.5 76l23 -1q-4 -35 14.5 -59t60.5 -24q46 0 76 24.5t37 59.5l23 -1q-11 -46 -49.5 -74.5t-87.5 -28.5zM0 0l334 710h27l164 -710h-24l-48 211h-329l-99 -211h-25zM135 234h313l-102 446h-2z" />
    <glyph glyph-name="uni1EB1" unicode="&#x1eb1;" horiz-adv-x="531" 
d="M345 691l-97 135h28l96 -135h-27zM335 561q-47 0 -71 33t-20 94l21 -1q-7 -104 71 -104q44 0 72 29t35 76l21 -1q-10 -59 -46 -92.5t-83 -33.5zM214 -3q-77 0 -121.5 54.5t-44.5 137.5q0 126 70 212.5t182 86.5q45 0 88 -16.5t67 -44.5l2 1l7 56h22l-59 -484h-22l19 154
h-2q-34 -71 -87 -114t-121 -43zM215 19q87 0 149 81t76 187l14 109q-26 38 -71 54t-85 16q-101 0 -164.5 -81t-63.5 -197q0 -75 38 -122t107 -47z" />
    <glyph glyph-name="uni1EB2" unicode="&#x1eb2;" horiz-adv-x="585" 
d="M380 891l-25 1q62 42 77 64q10 14 10 27q0 31 -43 31q-46 0 -78 -26l-2 21q45 24 82 24q61 0 61 -49q0 -42 -82 -93zM359 787q-50 0 -75.5 28t-21.5 76l23 -1q-4 -35 14.5 -59t60.5 -24q46 0 76 24.5t37 59.5l23 -1q-11 -46 -49.5 -74.5t-87.5 -28.5zM0 0l334 710h27
l164 -710h-24l-48 211h-329l-99 -211h-25zM135 234h313l-102 446h-2z" />
    <glyph glyph-name="uni1EB3" unicode="&#x1eb3;" horiz-adv-x="531" 
d="M351 673l-27 1q23 17 33 25t29.5 26t28.5 33t9 28q0 34 -46 34q-22 0 -45.5 -8.5t-35.5 -21.5l-3 22q42 28 87 28q64 0 64 -53q0 -21 -19.5 -46t-32.5 -35.5t-42 -32.5zM335 561q-47 0 -71 33t-20 94l21 -1q-7 -104 71 -104q44 0 72 29t35 76l21 -1q-10 -59 -46 -92.5
t-83 -33.5zM214 -3q-77 0 -121.5 54.5t-44.5 137.5q0 126 70 212.5t182 86.5q45 0 88 -16.5t67 -44.5l2 1l7 56h22l-59 -484h-22l19 154h-2q-34 -71 -87 -114t-121 -43zM215 19q87 0 149 81t76 187l14 109q-26 38 -71 54t-85 16q-101 0 -164.5 -81t-63.5 -197q0 -75 38 -122
t107 -47z" />
    <glyph glyph-name="uni1EB4" unicode="&#x1eb4;" horiz-adv-x="585" 
d="M457 913q-6 0 -12 1t-12.5 4t-10.5 5t-11 7.5t-9 7t-10 8.5t-9 8q-34 28 -53 28q-40 0 -66 -62l-19 8q32 76 84 76q29 0 65 -32q41 -37 62 -37q38 0 63 63l18 -9q-15 -38 -36.5 -57t-43.5 -19zM360 787q-50 0 -75.5 28t-21.5 76l23 -1q-4 -35 14.5 -59t60.5 -24
q46 0 76 24.5t37 59.5l23 -1q-11 -46 -49.5 -74.5t-87.5 -28.5zM0 0l334 710h27l164 -710h-24l-48 211h-329l-99 -211h-25zM135 234h313l-102 446h-2z" />
    <glyph glyph-name="uni1EB5" unicode="&#x1eb5;" horiz-adv-x="531" 
d="M435 748q-28 0 -73 41q-30 28 -54 28q-39 0 -65 -62l-19 8q32 76 84 76q27 0 65 -32q1 -1 11 -10t13.5 -11t11 -7.5t13.5 -7t13 -1.5q38 0 63 63l18 -9q-32 -76 -81 -76zM335 561q-47 0 -71 33t-20 94l21 -1q-7 -104 71 -104q44 0 72 29t35 76l21 -1q-10 -59 -46 -92.5
t-83 -33.5zM214 -3q-77 0 -121.5 54.5t-44.5 137.5q0 126 70 212.5t182 86.5q45 0 88 -16.5t67 -44.5l2 1l7 56h22l-59 -484h-22l19 154h-2q-34 -71 -87 -114t-121 -43zM215 19q87 0 149 81t76 187l14 109q-26 38 -71 54t-85 16q-101 0 -164.5 -81t-63.5 -197q0 -75 38 -122
t107 -47z" />
    <glyph glyph-name="uni1EB6" unicode="&#x1eb6;" horiz-adv-x="585" 
d="M357 791q-47 0 -71 31t-20 84l21 -1q-3 -40 14 -66t57 -26q43 0 71.5 27t35.5 66l21 -1q-10 -52 -46.5 -83t-82.5 -31zM0 0l334 710h27l164 -710h-24l-48 211h-329l-99 -211h-25zM135 234h313l-102 446h-2zM252 -124q11 0 18 -7.5t7 -19.5q0 -11 -7.5 -19t-18.5 -8
t-18.5 7.5t-7.5 18.5q0 12 7.5 20t19.5 8z" />
    <glyph glyph-name="uni1EB7" unicode="&#x1eb7;" horiz-adv-x="531" 
d="M335 561q-47 0 -71 33t-20 94l21 -1q-7 -104 71 -104q44 0 72 29t35 76l21 -1q-10 -59 -46 -92.5t-83 -33.5zM214 -3q-77 0 -121.5 54.5t-44.5 137.5q0 126 70 212.5t182 86.5q45 0 88 -16.5t67 -44.5l2 1l7 56h22l-59 -484h-22l19 154h-2q-34 -71 -87 -114t-121 -43z
M215 19q87 0 149 81t76 187l14 109q-26 38 -71 54t-85 16q-101 0 -164.5 -81t-63.5 -197q0 -75 38 -122t107 -47zM229 -124q11 0 18 -7.5t7 -19.5q0 -11 -7.5 -19t-18.5 -8t-18.5 7.5t-7.5 18.5q0 12 7.5 20t19.5 8z" />
    <glyph glyph-name="uni1EB8" unicode="&#x1eb8;" horiz-adv-x="530" 
d="M65 0l87 710h371l-2 -23h-349l-39 -320h292l-2 -23h-293l-39 -321h367l-2 -23h-391zM251 -124q11 0 18 -7.5t7 -19.5q0 -11 -7.5 -19t-18.5 -8t-18.5 7.5t-7.5 18.5q0 12 7.5 20t19.5 8z" />
    <glyph glyph-name="uni1EB9" unicode="&#x1eb9;" horiz-adv-x="459" 
d="M233 19q88 0 154 77l17 -13q-69 -86 -171 -86q-83 0 -134.5 54t-51.5 146q0 121 71 206t178 85q20 0 41 -5t44 -16.5t38 -36t15 -58.5q0 -147 -365 -173v-2q0 -82 45 -130t119 -48zM296 466q-92 0 -155 -71t-71 -174q341 24 341 149q0 53 -36.5 74.5t-78.5 21.5z
M216 -124q11 0 18 -7.5t7 -19.5q0 -11 -7.5 -19t-18.5 -8t-18.5 7.5t-7.5 18.5q0 12 7.5 20t19.5 8z" />
    <glyph glyph-name="uni1EBA" unicode="&#x1eba;" horiz-adv-x="530" 
d="M366 787l-27 1q2 2 16.5 11.5t19.5 13.5t17 13t17.5 15.5t12.5 15t10 16.5t3 16q0 35 -48 35q-51 0 -86 -29l-3 23q49 27 92 27q67 0 67 -55q0 -48 -91 -103zM65 0l87 710h371l-2 -23h-349l-39 -320h292l-2 -23h-293l-39 -321h367l-2 -23h-391z" />
    <glyph glyph-name="uni1EBB" unicode="&#x1ebb;" horiz-adv-x="459" 
d="M329 707q-23 0 -47.5 -9t-37.5 -23l-3 23q44 30 91 30q67 0 67 -56q0 -21 -20.5 -47t-33.5 -36.5t-44 -34.5l-28 1q75 58 94 87q10 16 10 29q0 36 -48 36zM233 19q88 0 154 77l17 -13q-69 -86 -171 -86q-83 0 -134.5 54t-51.5 146q0 121 71 206t178 85q20 0 41 -5
t44 -16.5t38 -36t15 -58.5q0 -147 -365 -173v-2q0 -82 45 -130t119 -48zM296 466q-92 0 -155 -71t-71 -174q341 24 341 149q0 53 -36.5 74.5t-78.5 21.5z" />
    <glyph glyph-name="uni1EBC" unicode="&#x1ebc;" horiz-adv-x="530" 
d="M434 798q-6 0 -12 1t-12.5 4t-10.5 5t-11 7.5t-9 7t-10 8.5t-9 8q-34 28 -53 28q-40 0 -66 -62l-19 8q32 76 84 76q29 0 65 -32q41 -37 62 -37q38 0 63 63l18 -9q-15 -38 -36.5 -57t-43.5 -19zM65 0l87 710h371l-2 -23h-349l-39 -320h292l-2 -23h-293l-39 -321h367
l-2 -23h-391z" />
    <glyph glyph-name="uni1EBD" unicode="&#x1ebd;" horiz-adv-x="459" 
d="M241 650q-40 0 -66 -62l-19 8q32 76 84 76q29 0 65 -32q2 -2 8.5 -7.5t9 -7.5t8 -6.5t9 -6.5t8.5 -4.5t9.5 -3.5t9.5 -1q38 0 63 63l18 -9q-15 -38 -36.5 -57t-43.5 -19q-31 0 -75 42q-32 27 -52 27zM434 372q0 -147 -365 -173v-2q0 -82 45 -130t119 -48q88 0 154 77
l17 -13q-69 -86 -171 -86q-83 0 -134.5 54t-51.5 146q0 121 71 206t178 85q20 0 41 -5t44 -16.5t38 -36t15 -58.5zM296 466q-92 0 -155 -71t-71 -174q341 24 341 149q0 53 -36.5 74.5t-78.5 21.5z" />
    <glyph glyph-name="uni1EBE" unicode="&#x1ebe;" horiz-adv-x="530" 
d="M469 859l128 135h29l-130 -135h-27zM233 798l129 109h23l94 -109h-28l-78 90h-2l-108 -90h-30zM65 0l87 710h371l-2 -23h-349l-39 -320h292l-2 -23h-293l-39 -321h367l-2 -23h-391z" />
    <glyph glyph-name="uni1EBF" unicode="&#x1ebf;" horiz-adv-x="459" 
d="M542 775l-125 -135h-27l122 135h30zM311 678l-109 -118h-28l126 136h23l96 -136h-28l-79 118h-1zM434 372q0 -147 -365 -173v-2q0 -82 45 -130t119 -48q88 0 154 77l17 -13q-69 -86 -171 -86q-83 0 -134.5 54t-51.5 146q0 121 71 206t178 85q20 0 41 -5t44 -16.5t38 -36
t15 -58.5zM296 466q-92 0 -155 -71t-71 -174q341 24 341 149q0 53 -36.5 74.5t-78.5 21.5z" />
    <glyph glyph-name="uni1EC0" unicode="&#x1ec0;" horiz-adv-x="530" 
d="M510 858l-97 134h28l96 -134h-27zM233 798l129 109h23l94 -109h-28l-78 90h-2l-108 -90h-30zM65 0l87 710h371l-2 -23h-349l-39 -320h292l-2 -23h-293l-39 -321h367l-2 -23h-391z" />
    <glyph glyph-name="uni1EC1" unicode="&#x1ec1;" horiz-adv-x="459" 
d="M370 776l96 -135h-27l-97 135h28zM309 678l-109 -118h-28l126 136h23l96 -136h-28l-79 118h-1zM434 372q0 -147 -365 -173v-2q0 -82 45 -130t119 -48q88 0 154 77l17 -13q-69 -86 -171 -86q-83 0 -134.5 54t-51.5 146q0 121 71 206t178 85q20 0 41 -5t44 -16.5t38 -36
t15 -58.5zM296 466q-92 0 -155 -71t-71 -174q341 24 341 149q0 53 -36.5 74.5t-78.5 21.5z" />
    <glyph glyph-name="uni1EC2" unicode="&#x1ec2;" horiz-adv-x="530" 
d="M499 859l-26 1q4 3 16 11t18.5 12.5t17 12.5t16.5 14t12.5 14t9.5 15.5t3 15.5q0 33 -47 33q-49 0 -82 -27l-3 21q49 26 88 26q65 0 65 -52q0 -45 -88 -97zM233 798l129 109h23l94 -109h-28l-78 90h-2l-108 -90h-30zM65 0l87 710h371l-2 -23h-349l-39 -320h292l-2 -23
h-293l-39 -321h367l-2 -23h-391z" />
    <glyph glyph-name="uni1EC3" unicode="&#x1ec3;" horiz-adv-x="459" 
d="M466 800q64 0 64 -53q0 -21 -19.5 -46t-32.5 -35.5t-42 -32.5l-27 1q23 17 33 25t29.5 26t28.5 33t9 28q0 34 -46 34q-22 0 -45.5 -8.5t-35.5 -21.5l-3 22q42 28 87 28zM310 678l-109 -118h-28l126 136h23l96 -136h-28l-79 118h-1zM434 372q0 -147 -365 -173v-2
q0 -82 45 -130t119 -48q88 0 154 77l17 -13q-69 -86 -171 -86q-83 0 -134.5 54t-51.5 146q0 121 71 206t178 85q20 0 41 -5t44 -16.5t38 -36t15 -58.5zM296 466q-92 0 -155 -71t-71 -174q341 24 341 149q0 53 -36.5 74.5t-78.5 21.5z" />
    <glyph glyph-name="uni1EC4" unicode="&#x1ec4;" horiz-adv-x="530" 
d="M454 926q-6 0 -12 1t-12.5 4t-10.5 5t-11 7.5t-9 7t-10 8.5t-9 8q-34 28 -53 28q-40 0 -66 -62l-19 8q32 76 84 76q29 0 65 -32q41 -37 62 -37q38 0 63 63l18 -9q-15 -38 -36.5 -57t-43.5 -19zM233 798l129 109h23l94 -109h-28l-78 90h-2l-108 -90h-30zM65 0l87 710h371
l-2 -23h-349l-39 -320h292l-2 -23h-293l-39 -321h367l-2 -23h-391z" />
    <glyph glyph-name="uni1EC5" unicode="&#x1ec5;" horiz-adv-x="459" 
d="M452 826l18 -9q-32 -76 -81 -76q-28 0 -73 41q-30 28 -54 28q-39 0 -65 -62l-19 8q32 76 84 76q27 0 65 -32q1 -1 11 -10t13.5 -11t11 -7.5t13.5 -7t13 -1.5q38 0 63 63zM313 678h-1l-109 -118h-28l126 136h23l96 -136h-28zM434 372q0 -147 -365 -173v-2q0 -82 45 -130
t119 -48q88 0 154 77l17 -13q-69 -86 -171 -86q-83 0 -134.5 54t-51.5 146q0 121 71 206t178 85q20 0 41 -5t44 -16.5t38 -36t15 -58.5zM296 466q-92 0 -155 -71t-71 -174q341 24 341 149q0 53 -36.5 74.5t-78.5 21.5z" />
    <glyph glyph-name="uni1EC6" unicode="&#x1ec6;" horiz-adv-x="530" 
d="M233 798l129 109h23l94 -109h-28l-78 90h-2l-108 -90h-30zM65 0l87 710h371l-2 -23h-349l-39 -320h292l-2 -23h-293l-39 -321h367l-2 -23h-391zM251 -124q11 0 18 -7.5t7 -19.5q0 -11 -7.5 -19t-18.5 -8t-18.5 7.5t-7.5 18.5q0 12 7.5 20t19.5 8z" />
    <glyph glyph-name="uni1EC7" unicode="&#x1ec7;" horiz-adv-x="459" 
d="M310 678l-109 -118h-28l126 136h23l96 -136h-28l-79 118h-1zM233 19q88 0 154 77l17 -13q-69 -86 -171 -86q-83 0 -134.5 54t-51.5 146q0 121 71 206t178 85q20 0 41 -5t44 -16.5t38 -36t15 -58.5q0 -147 -365 -173v-2q0 -82 45 -130t119 -48zM296 466q-92 0 -155 -71
t-71 -174q341 24 341 149q0 53 -36.5 74.5t-78.5 21.5zM216 -124q11 0 18 -7.5t7 -19.5q0 -11 -7.5 -19t-18.5 -8t-18.5 7.5t-7.5 18.5q0 12 7.5 20t19.5 8z" />
    <glyph glyph-name="uni1EC8" unicode="&#x1ec8;" horiz-adv-x="226" 
d="M189 784l-27 1q2 2 16.5 11.5t19.5 13.5t17 13t17.5 15.5t12.5 15t10 16.5t3 16q0 35 -48 35q-51 0 -86 -29l-3 23q49 27 92 27q67 0 67 -55q0 -48 -91 -103zM72 0l87 710h23l-87 -710h-23z" />
    <glyph glyph-name="uni1EC9" unicode="&#x1ec9;" horiz-adv-x="205" 
d="M147 554l-28 1q75 58 94 87q10 16 10 29q0 36 -48 36q-23 0 -47.5 -9t-37.5 -23l-3 23q44 30 91 30q67 0 67 -56q0 -21 -20.5 -47t-33.5 -36.5t-44 -34.5zM62 0l59 484h22l-60 -484h-21z" />
    <glyph glyph-name="uni1ECA" unicode="&#x1eca;" horiz-adv-x="226" 
d="M72 0l87 710h23l-87 -710h-23zM67 -124q11 0 18 -7.5t7 -19.5q0 -11 -7.5 -19t-18.5 -8t-18.5 7.5t-7.5 18.5q0 12 7.5 20t19.5 8z" />
    <glyph glyph-name="uni1ECB" unicode="&#x1ecb;" horiz-adv-x="205" 
d="M150 606q-11 0 -18 7.5t-7 19.5q0 11 7.5 19t18.5 8t18.5 -7.5t7.5 -18.5q0 -12 -7.5 -20t-19.5 -8zM62 0l59 484h22l-60 -484h-21zM55 -124q11 0 18 -7.5t7 -19.5q0 -11 -7.5 -19t-18.5 -8t-18.5 7.5t-7.5 18.5q0 12 7.5 20t19.5 8z" />
    <glyph glyph-name="uni1ECC" unicode="&#x1ecc;" horiz-adv-x="750" 
d="M347 -3q-125 0 -200 78.5t-75 216.5q0 111 44 207t127 155.5t188 59.5q126 0 200.5 -77t74.5 -218q0 -176 -99.5 -299t-259.5 -123zM347 20q150 0 242.5 116t92.5 282q0 131 -67 202t-185 71q-98 0 -175.5 -56.5t-118 -147t-40.5 -195.5q0 -128 67.5 -200t183.5 -72z
M330 -124q11 0 18 -7.5t7 -19.5q0 -11 -7.5 -19t-18.5 -8t-18.5 7.5t-7.5 18.5q0 12 7.5 20t19.5 8z" />
    <glyph glyph-name="uni1ECD" unicode="&#x1ecd;" horiz-adv-x="535" 
d="M240 -3q-88 0 -141 53.5t-53 147.5q0 120 69.5 205t182.5 85q87 0 139 -51.5t52 -145.5q0 -126 -68 -210t-181 -84zM240 19q100 0 163 75t63 197q0 84 -44.5 129.5t-123.5 45.5q-99 0 -164 -76.5t-65 -191.5q0 -84 46 -131.5t125 -47.5zM223 -124q11 0 18 -7.5t7 -19.5
q0 -11 -7.5 -19t-18.5 -8t-18.5 7.5t-7.5 18.5q0 12 7.5 20t19.5 8z" />
    <glyph glyph-name="uni1ECE" unicode="&#x1ece;" horiz-adv-x="750" 
d="M467 784l-27 1q2 2 16.5 11.5t19.5 13.5t17 13t17.5 15.5t12.5 15t10 16.5t3 16q0 35 -48 35q-51 0 -86 -29l-3 23q49 27 92 27q67 0 67 -55q0 -48 -91 -103zM347 -3q-125 0 -200 78.5t-75 216.5q0 111 44 207t127 155.5t188 59.5q126 0 200.5 -77t74.5 -218
q0 -176 -99.5 -299t-259.5 -123zM347 20q150 0 242.5 116t92.5 282q0 131 -67 202t-185 71q-98 0 -175.5 -56.5t-118 -147t-40.5 -195.5q0 -128 67.5 -200t183.5 -72z" />
    <glyph glyph-name="uni1ECF" unicode="&#x1ecf;" horiz-adv-x="535" 
d="M321 554l-28 1q75 58 94 87q10 16 10 29q0 36 -48 36q-23 0 -47.5 -9t-37.5 -23l-3 23q44 30 91 30q67 0 67 -56q0 -21 -20.5 -47t-33.5 -36.5t-44 -34.5zM240 -3q-88 0 -141 53.5t-53 147.5q0 120 69.5 205t182.5 85q87 0 139 -51.5t52 -145.5q0 -126 -68 -210t-181 -84
zM240 19q100 0 163 75t63 197q0 84 -44.5 129.5t-123.5 45.5q-99 0 -164 -76.5t-65 -191.5q0 -84 46 -131.5t125 -47.5z" />
    <glyph glyph-name="uni1ED0" unicode="&#x1ed0;" horiz-adv-x="750" 
d="M570 856l128 135h29l-130 -135h-27zM334 795l129 109h23l94 -109h-28l-78 90h-2l-108 -90h-30zM347 -3q-125 0 -200 78.5t-75 216.5q0 111 44 207t127 155.5t188 59.5q126 0 200.5 -77t74.5 -218q0 -176 -99.5 -299t-259.5 -123zM347 20q150 0 242.5 116t92.5 282
q0 131 -67 202t-185 71q-98 0 -175.5 -56.5t-118 -147t-40.5 -195.5q0 -128 67.5 -200t183.5 -72z" />
    <glyph glyph-name="uni1ED1" unicode="&#x1ed1;" horiz-adv-x="535" 
d="M410 640l122 135h30l-125 -135h-27zM194 560l126 136h23l96 -136h-28l-79 118h-1l-109 -118h-28zM240 -3q-88 0 -141 53.5t-53 147.5q0 120 69.5 205t182.5 85q87 0 139 -51.5t52 -145.5q0 -126 -68 -210t-181 -84zM240 19q100 0 163 75t63 197q0 84 -44.5 129.5
t-123.5 45.5q-99 0 -164 -76.5t-65 -191.5q0 -84 46 -131.5t125 -47.5z" />
    <glyph glyph-name="uni1ED2" unicode="&#x1ed2;" horiz-adv-x="750" 
d="M611 855l-97 134h28l96 -134h-27zM334 795l129 109h23l94 -109h-28l-78 90h-2l-108 -90h-30zM347 -3q-125 0 -200 78.5t-75 216.5q0 111 44 207t127 155.5t188 59.5q126 0 200.5 -77t74.5 -218q0 -176 -99.5 -299t-259.5 -123zM347 20q150 0 242.5 116t92.5 282
q0 131 -67 202t-185 71q-98 0 -175.5 -56.5t-118 -147t-40.5 -195.5q0 -128 67.5 -200t183.5 -72z" />
    <glyph glyph-name="uni1ED3" unicode="&#x1ed3;" horiz-adv-x="535" 
d="M459 641l-97 135h28l96 -135h-27zM192 560l126 136h23l96 -136h-28l-79 118h-1l-109 -118h-28zM240 -3q-88 0 -141 53.5t-53 147.5q0 120 69.5 205t182.5 85q87 0 139 -51.5t52 -145.5q0 -126 -68 -210t-181 -84zM240 19q100 0 163 75t63 197q0 84 -44.5 129.5
t-123.5 45.5q-99 0 -164 -76.5t-65 -191.5q0 -84 46 -131.5t125 -47.5z" />
    <glyph glyph-name="uni1ED4" unicode="&#x1ed4;" horiz-adv-x="750" 
d="M600 856l-26 1q4 3 16 11t18.5 12.5t17 12.5t16.5 14t12.5 14t9.5 15.5t3 15.5q0 33 -47 33q-49 0 -82 -27l-3 21q49 26 88 26q65 0 65 -52q0 -45 -88 -97zM334 795l129 109h23l94 -109h-28l-78 90h-2l-108 -90h-30zM347 -3q-125 0 -200 78.5t-75 216.5q0 111 44 207
t127 155.5t188 59.5q126 0 200.5 -77t74.5 -218q0 -176 -99.5 -299t-259.5 -123zM347 20q150 0 242.5 116t92.5 282q0 131 -67 202t-185 71q-98 0 -175.5 -56.5t-118 -147t-40.5 -195.5q0 -128 67.5 -200t183.5 -72z" />
    <glyph glyph-name="uni1ED5" unicode="&#x1ed5;" horiz-adv-x="535" 
d="M456 633l-27 1q23 17 33 25t29.5 26t28.5 33t9 28q0 34 -46 34q-22 0 -45.5 -8.5t-35.5 -21.5l-3 22q42 28 87 28q64 0 64 -53q0 -21 -19.5 -46t-32.5 -35.5t-42 -32.5zM193 560l126 136h23l96 -136h-28l-79 118h-1l-109 -118h-28zM240 -3q-88 0 -141 53.5t-53 147.5
q0 120 69.5 205t182.5 85q87 0 139 -51.5t52 -145.5q0 -126 -68 -210t-181 -84zM240 19q100 0 163 75t63 197q0 84 -44.5 129.5t-123.5 45.5q-99 0 -164 -76.5t-65 -191.5q0 -84 46 -131.5t125 -47.5z" />
    <glyph glyph-name="uni1ED6" unicode="&#x1ed6;" horiz-adv-x="750" 
d="M555 923q-6 0 -12 1t-12.5 4t-10.5 5t-11 7.5t-9 7t-10 8.5t-9 8q-34 28 -53 28q-40 0 -66 -62l-19 8q32 76 84 76q29 0 65 -32q41 -37 62 -37q38 0 63 63l18 -9q-15 -38 -36.5 -57t-43.5 -19zM334 795l129 109h23l94 -109h-28l-78 90h-2l-108 -90h-30zM347 -3
q-125 0 -200 78.5t-75 216.5q0 111 44 207t127 155.5t188 59.5q126 0 200.5 -77t74.5 -218q0 -176 -99.5 -299t-259.5 -123zM347 20q150 0 242.5 116t92.5 282q0 131 -67 202t-185 71q-98 0 -175.5 -56.5t-118 -147t-40.5 -195.5q0 -128 67.5 -200t183.5 -72z" />
    <glyph glyph-name="uni1ED7" unicode="&#x1ed7;" horiz-adv-x="535" 
d="M409 741q-28 0 -73 41q-30 28 -54 28q-39 0 -65 -62l-19 8q32 76 84 76q27 0 65 -32q1 -1 11 -10t13.5 -11t11 -7.5t13.5 -7t13 -1.5q38 0 63 63l18 -9q-32 -76 -81 -76zM195 560l126 136h23l96 -136h-28l-79 118h-1l-109 -118h-28zM240 -3q-88 0 -141 53.5t-53 147.5
q0 120 69.5 205t182.5 85q87 0 139 -51.5t52 -145.5q0 -126 -68 -210t-181 -84zM240 19q100 0 163 75t63 197q0 84 -44.5 129.5t-123.5 45.5q-99 0 -164 -76.5t-65 -191.5q0 -84 46 -131.5t125 -47.5z" />
    <glyph glyph-name="uni1ED8" unicode="&#x1ed8;" horiz-adv-x="750" 
d="M334 795l129 109h23l94 -109h-28l-78 90h-2l-108 -90h-30zM347 -3q-125 0 -200 78.5t-75 216.5q0 111 44 207t127 155.5t188 59.5q126 0 200.5 -77t74.5 -218q0 -176 -99.5 -299t-259.5 -123zM347 20q150 0 242.5 116t92.5 282q0 131 -67 202t-185 71q-98 0 -175.5 -56.5
t-118 -147t-40.5 -195.5q0 -128 67.5 -200t183.5 -72zM330 -124q11 0 18 -7.5t7 -19.5q0 -11 -7.5 -19t-18.5 -8t-18.5 7.5t-7.5 18.5q0 12 7.5 20t19.5 8z" />
    <glyph glyph-name="uni1ED9" unicode="&#x1ed9;" horiz-adv-x="535" 
d="M193 560l126 136h23l96 -136h-28l-79 118h-1l-109 -118h-28zM240 -3q-88 0 -141 53.5t-53 147.5q0 120 69.5 205t182.5 85q87 0 139 -51.5t52 -145.5q0 -126 -68 -210t-181 -84zM240 19q100 0 163 75t63 197q0 84 -44.5 129.5t-123.5 45.5q-99 0 -164 -76.5t-65 -191.5
q0 -84 46 -131.5t125 -47.5zM223 -124q11 0 18 -7.5t7 -19.5q0 -11 -7.5 -19t-18.5 -8t-18.5 7.5t-7.5 18.5q0 12 7.5 20t19.5 8z" />
    <glyph glyph-name="uni1EDA" unicode="&#x1eda;" horiz-adv-x="805" 
d="M601 919l-128 -124h-28l127 124h29zM788 774h23l-13 -103q-16 -126 -95 -126q-3 0 -9 0.5t-8 0.5q20 -55 20 -127q0 -176 -99.5 -299t-259.5 -123q-125 0 -200 78.5t-75 216.5q0 111 44 207t127 155.5t188 59.5q86 0 149.5 -37t96.5 -108q14 -3 26 -3q29 0 47 23t25 83z
M347 20q150 0 242.5 116t92.5 282q0 131 -67 202t-185 71q-98 0 -175.5 -56.5t-118 -147t-40.5 -195.5q0 -128 67.5 -200t183.5 -72z" />
    <glyph glyph-name="uni1EDB" unicode="&#x1edb;" horiz-adv-x="603" 
d="M463 696l-128 -135h-30l127 135h31zM588 565h23l-13 -103q-16 -126 -95 -126q-3 0 -9 0.5t-9 0.5q4 -19 4 -46q0 -126 -68 -210t-181 -84q-88 0 -141 53.5t-53 147.5q0 120 69.5 205t182.5 85q70 0 117.5 -33.5t64.5 -95.5q18 -2 23 -2q29 0 47 23t25 83zM240 19
q100 0 163 75t63 197q0 84 -44.5 129.5t-123.5 45.5q-99 0 -164 -76.5t-65 -191.5q0 -84 46 -131.5t125 -47.5z" />
    <glyph glyph-name="uni1EDC" unicode="&#x1edc;" horiz-adv-x="805" 
d="M489 795h-28l-98 124h29zM788 774h23l-13 -103q-16 -126 -95 -126q-3 0 -9 0.5t-8 0.5q20 -55 20 -127q0 -176 -99.5 -299t-259.5 -123q-125 0 -200 78.5t-75 216.5q0 111 44 207t127 155.5t188 59.5q86 0 149.5 -37t96.5 -108q14 -3 26 -3q29 0 47 23t25 83zM347 20
q150 0 242.5 116t92.5 282q0 131 -67 202t-185 71q-98 0 -175.5 -56.5t-118 -147t-40.5 -195.5q0 -128 67.5 -200t183.5 -72z" />
    <glyph glyph-name="uni1EDD" unicode="&#x1edd;" horiz-adv-x="603" 
d="M352 561h-28l-96 135h29zM588 565h23l-13 -103q-16 -126 -95 -126q-3 0 -9 0.5t-9 0.5q4 -19 4 -46q0 -126 -68 -210t-181 -84q-88 0 -141 53.5t-53 147.5q0 120 69.5 205t182.5 85q70 0 117.5 -33.5t64.5 -95.5q18 -2 23 -2q29 0 47 23t25 83zM240 19q100 0 163 75
t63 197q0 84 -44.5 129.5t-123.5 45.5q-99 0 -164 -76.5t-65 -191.5q0 -84 46 -131.5t125 -47.5z" />
    <glyph glyph-name="uni1EDE" unicode="&#x1ede;" horiz-adv-x="805" 
d="M488 921q-51 0 -86 -29l-3 23q49 27 92 27q67 0 67 -55q0 -48 -91 -103l-27 1q2 2 16.5 11.5t19.5 13.5t17 13t17.5 15.5t12.5 15t10 16.5t3 16q0 35 -48 35zM788 774h23l-13 -103q-16 -126 -95 -126q-3 0 -9 0.5t-8 0.5q20 -55 20 -127q0 -176 -99.5 -299t-259.5 -123
q-125 0 -200 78.5t-75 216.5q0 111 44 207t127 155.5t188 59.5q86 0 149.5 -37t96.5 -108q14 -3 26 -3q29 0 47 23t25 83zM347 20q150 0 242.5 116t92.5 282q0 131 -67 202t-185 71q-98 0 -175.5 -56.5t-118 -147t-40.5 -195.5q0 -128 67.5 -200t183.5 -72z" />
    <glyph glyph-name="uni1EDF" unicode="&#x1edf;" horiz-adv-x="603" 
d="M349 707q-23 0 -47.5 -9t-37.5 -23l-3 23q44 30 91 30q67 0 67 -56q0 -21 -20.5 -47t-33.5 -36.5t-44 -34.5l-28 1q75 58 94 87q10 16 10 29q0 36 -48 36zM588 565h23l-13 -103q-16 -126 -95 -126q-3 0 -9 0.5t-9 0.5q4 -19 4 -46q0 -126 -68 -210t-181 -84
q-88 0 -141 53.5t-53 147.5q0 120 69.5 205t182.5 85q70 0 117.5 -33.5t64.5 -95.5q18 -2 23 -2q29 0 47 23t25 83zM240 19q100 0 163 75t63 197q0 84 -44.5 129.5t-123.5 45.5q-99 0 -164 -76.5t-65 -191.5q0 -84 46 -131.5t125 -47.5z" />
    <glyph glyph-name="uni1EE0" unicode="&#x1ee0;" horiz-adv-x="805" 
d="M408 864q-40 0 -66 -62l-19 8q32 76 84 76q29 0 65 -32q41 -37 62 -37q38 0 63 63l18 -9q-15 -38 -36.5 -57t-43.5 -19q-6 0 -12 1t-12.5 4t-10.5 5t-11 7.5t-9 7t-10 8.5t-9 8q-34 28 -53 28zM788 774h23l-13 -103q-16 -126 -95 -126q-3 0 -9 0.5t-8 0.5q20 -55 20 -127
q0 -176 -99.5 -299t-259.5 -123q-125 0 -200 78.5t-75 216.5q0 111 44 207t127 155.5t188 59.5q86 0 149.5 -37t96.5 -108q14 -3 26 -3q29 0 47 23t25 83zM347 20q150 0 242.5 116t92.5 282q0 131 -67 202t-185 71q-98 0 -175.5 -56.5t-118 -147t-40.5 -195.5
q0 -128 67.5 -200t183.5 -72z" />
    <glyph glyph-name="uni1EE1" unicode="&#x1ee1;" horiz-adv-x="603" 
d="M261 650q-40 0 -66 -62l-19 8q32 76 84 76q29 0 65 -32q2 -2 8.5 -7.5t9 -7.5t8 -6.5t9 -6.5t8.5 -4.5t9.5 -3.5t9.5 -1q38 0 63 63l18 -9q-15 -38 -36.5 -57t-43.5 -19q-31 0 -75 42q-32 27 -52 27zM588 565h23l-13 -103q-16 -126 -95 -126q-3 0 -9 0.5t-9 0.5
q4 -19 4 -46q0 -126 -68 -210t-181 -84q-88 0 -141 53.5t-53 147.5q0 120 69.5 205t182.5 85q70 0 117.5 -33.5t64.5 -95.5q18 -2 23 -2q29 0 47 23t25 83zM240 19q100 0 163 75t63 197q0 84 -44.5 129.5t-123.5 45.5q-99 0 -164 -76.5t-65 -191.5q0 -84 46 -131.5
t125 -47.5z" />
    <glyph glyph-name="uni1EE2" unicode="&#x1ee2;" horiz-adv-x="805" 
d="M788 774h23l-13 -103q-16 -126 -95 -126q-3 0 -9 0.5t-8 0.5q20 -55 20 -127q0 -176 -99.5 -299t-259.5 -123q-125 0 -200 78.5t-75 216.5q0 111 44 207t127 155.5t188 59.5q86 0 149.5 -37t96.5 -108q14 -3 26 -3q29 0 47 23t25 83zM347 20q150 0 242.5 116t92.5 282
q0 131 -67 202t-185 71q-98 0 -175.5 -56.5t-118 -147t-40.5 -195.5q0 -128 67.5 -200t183.5 -72zM330 -124q11 0 18 -7.5t7 -19.5q0 -11 -7.5 -19t-18.5 -8t-18.5 7.5t-7.5 18.5q0 12 7.5 20t19.5 8z" />
    <glyph glyph-name="uni1EE3" unicode="&#x1ee3;" horiz-adv-x="603" 
d="M588 565h23l-13 -103q-16 -126 -95 -126q-3 0 -9 0.5t-9 0.5q4 -19 4 -46q0 -126 -68 -210t-181 -84q-88 0 -141 53.5t-53 147.5q0 120 69.5 205t182.5 85q70 0 117.5 -33.5t64.5 -95.5q18 -2 23 -2q29 0 47 23t25 83zM240 19q100 0 163 75t63 197q0 84 -44.5 129.5
t-123.5 45.5q-99 0 -164 -76.5t-65 -191.5q0 -84 46 -131.5t125 -47.5zM223 -124q11 0 18 -7.5t7 -19.5q0 -11 -7.5 -19t-18.5 -8t-18.5 7.5t-7.5 18.5q0 12 7.5 20t19.5 8z" />
    <glyph glyph-name="uni1EE4" unicode="&#x1ee4;" horiz-adv-x="639" 
d="M286 -3q-116 0 -164 76.5t-32 210.5l53 426h23l-53 -427q-15 -124 28 -193.5t146 -69.5q105 0 169.5 65t80.5 194l52 431h23l-53 -432q-17 -140 -87 -210.5t-186 -70.5zM269 -124q11 0 18 -7.5t7 -19.5q0 -11 -7.5 -19t-18.5 -8t-18.5 7.5t-7.5 18.5q0 12 7.5 20t19.5 8z
" />
    <glyph glyph-name="uni1EE5" unicode="&#x1ee5;" horiz-adv-x="513" 
d="M196 -3q-156 0 -129 196l39 291h22l-39 -290q-13 -98 16.5 -136.5t91.5 -38.5q72 0 138 72.5t80 170.5l27 222h22l-59 -484h-22l19 153h-2q-34 -70 -89.5 -113t-114.5 -43zM220 -124q11 0 18 -7.5t7 -19.5q0 -11 -7.5 -19t-18.5 -8t-18.5 7.5t-7.5 18.5q0 12 7.5 20
t19.5 8z" />
    <glyph glyph-name="uni1EE6" unicode="&#x1ee6;" horiz-adv-x="639" 
d="M395 784l-27 1q2 2 16.5 11.5t19.5 13.5t17 13t17.5 15.5t12.5 15t10 16.5t3 16q0 35 -48 35q-51 0 -86 -29l-3 23q49 27 92 27q67 0 67 -55q0 -48 -91 -103zM286 -3q-116 0 -164 76.5t-32 210.5l53 426h23l-53 -427q-15 -124 28 -193.5t146 -69.5q105 0 169.5 65
t80.5 194l52 431h23l-53 -432q-17 -140 -87 -210.5t-186 -70.5z" />
    <glyph glyph-name="uni1EE7" unicode="&#x1ee7;" horiz-adv-x="513" 
d="M295 554l-28 1q75 58 94 87q10 16 10 29q0 36 -48 36q-23 0 -47.5 -9t-37.5 -23l-3 23q44 30 91 30q67 0 67 -56q0 -21 -20.5 -47t-33.5 -36.5t-44 -34.5zM196 -3q-156 0 -129 196l39 291h22l-39 -290q-13 -98 16.5 -136.5t91.5 -38.5q72 0 138 72.5t80 170.5l27 222h22
l-59 -484h-22l19 153h-2q-34 -70 -89.5 -113t-114.5 -43z" />
    <glyph glyph-name="uni1EE8" unicode="&#x1ee8;" horiz-adv-x="689" 
d="M513 919l-128 -124h-28l127 124h29zM703 774h23l-13 -103q-16 -126 -95 -126q-16 0 -26 3l-33 -270q-17 -140 -87 -210.5t-186 -70.5t-164 76.5t-32 210.5l53 426h23l-53 -427q-15 -124 28 -193.5t146 -69.5q105 0 169.5 65t80.5 194l52 431h23l-17 -142q16 -2 23 -2
q29 0 47 23t25 83z" />
    <glyph glyph-name="uni1EE9" unicode="&#x1ee9;" horiz-adv-x="563" 
d="M428 696l-128 -135h-30l127 135h31zM558 565h23l-13 -103q-16 -126 -95 -126q-3 0 -27 3l-41 -339h-22l19 153h-2q-34 -70 -89.5 -113t-114.5 -43q-156 0 -129 196l39 291h22l-39 -290q-13 -98 16.5 -136.5t91.5 -38.5q72 0 138 72.5t80 170.5l27 222h22l-15 -125
q18 -2 24 -2q29 0 47 23t25 83z" />
    <glyph glyph-name="uni1EEA" unicode="&#x1eea;" horiz-adv-x="689" 
d="M412 791h-28l-98 124h29zM703 774h23l-13 -103q-16 -126 -95 -126q-16 0 -26 3l-33 -270q-17 -140 -87 -210.5t-186 -70.5t-164 76.5t-32 210.5l53 426h23l-53 -427q-15 -124 28 -193.5t146 -69.5q105 0 169.5 65t80.5 194l52 431h23l-17 -142q16 -2 23 -2q29 0 47 23
t25 83z" />
    <glyph glyph-name="uni1EEB" unicode="&#x1eeb;" horiz-adv-x="563" 
d="M322 561h-28l-96 135h29zM558 565h23l-13 -103q-16 -126 -95 -126q-3 0 -27 3l-41 -339h-22l19 153h-2q-34 -70 -89.5 -113t-114.5 -43q-156 0 -129 196l39 291h22l-39 -290q-13 -98 16.5 -136.5t91.5 -38.5q72 0 138 72.5t80 170.5l27 222h22l-15 -125q18 -2 24 -2
q29 0 47 23t25 83z" />
    <glyph glyph-name="uni1EEC" unicode="&#x1eec;" horiz-adv-x="689" 
d="M416 921q-51 0 -86 -29l-3 23q49 27 92 27q67 0 67 -55q0 -48 -91 -103l-27 1q2 2 16.5 11.5t19.5 13.5t17 13t17.5 15.5t12.5 15t10 16.5t3 16q0 35 -48 35zM703 774h23l-13 -103q-16 -126 -95 -126q-16 0 -26 3l-33 -270q-17 -140 -87 -210.5t-186 -70.5t-164 76.5
t-32 210.5l53 426h23l-53 -427q-15 -124 28 -193.5t146 -69.5q105 0 169.5 65t80.5 194l52 431h23l-17 -142q16 -2 23 -2q29 0 47 23t25 83z" />
    <glyph glyph-name="uni1EED" unicode="&#x1eed;" horiz-adv-x="563" 
d="M323 707q-23 0 -47.5 -9t-37.5 -23l-3 23q44 30 91 30q67 0 67 -56q0 -21 -20.5 -47t-33.5 -36.5t-44 -34.5l-28 1q75 58 94 87q10 16 10 29q0 36 -48 36zM558 565h23l-13 -103q-16 -126 -95 -126q-3 0 -27 3l-41 -339h-22l19 153h-2q-34 -70 -89.5 -113t-114.5 -43
q-156 0 -129 196l39 291h22l-39 -290q-13 -98 16.5 -136.5t91.5 -38.5q72 0 138 72.5t80 170.5l27 222h22l-15 -125q18 -2 24 -2q29 0 47 23t25 83z" />
    <glyph glyph-name="uni1EEE" unicode="&#x1eee;" horiz-adv-x="689" 
d="M336 864q-40 0 -66 -62l-19 8q32 76 84 76q29 0 65 -32q41 -37 62 -37q38 0 63 63l18 -9q-15 -38 -36.5 -57t-43.5 -19q-6 0 -12 1t-12.5 4t-10.5 5t-11 7.5t-9 7t-10 8.5t-9 8q-34 28 -53 28zM703 774h23l-13 -103q-16 -126 -95 -126q-16 0 -26 3l-33 -270
q-17 -140 -87 -210.5t-186 -70.5t-164 76.5t-32 210.5l53 426h23l-53 -427q-15 -124 28 -193.5t146 -69.5q105 0 169.5 65t80.5 194l52 431h23l-17 -142q16 -2 23 -2q29 0 47 23t25 83z" />
    <glyph glyph-name="uni1EEF" unicode="&#x1eef;" horiz-adv-x="563" 
d="M235 650q-40 0 -66 -62l-19 8q32 76 84 76q29 0 65 -32q2 -2 8.5 -7.5t9 -7.5t8 -6.5t9 -6.5t8.5 -4.5t9.5 -3.5t9.5 -1q38 0 63 63l18 -9q-15 -38 -36.5 -57t-43.5 -19q-31 0 -75 42q-32 27 -52 27zM558 565h23l-13 -103q-16 -126 -95 -126q-3 0 -27 3l-41 -339h-22
l19 153h-2q-34 -70 -89.5 -113t-114.5 -43q-156 0 -129 196l39 291h22l-39 -290q-13 -98 16.5 -136.5t91.5 -38.5q72 0 138 72.5t80 170.5l27 222h22l-15 -125q18 -2 24 -2q29 0 47 23t25 83z" />
    <glyph glyph-name="uni1EF0" unicode="&#x1ef0;" horiz-adv-x="689" 
d="M703 774h23l-13 -103q-16 -126 -95 -126q-16 0 -26 3l-33 -270q-17 -140 -87 -210.5t-186 -70.5t-164 76.5t-32 210.5l53 426h23l-53 -427q-15 -124 28 -193.5t146 -69.5q105 0 169.5 65t80.5 194l52 431h23l-17 -142q16 -2 23 -2q29 0 47 23t25 83zM269 -124
q11 0 18 -7.5t7 -19.5q0 -11 -7.5 -19t-18.5 -8t-18.5 7.5t-7.5 18.5q0 12 7.5 20t19.5 8z" />
    <glyph glyph-name="uni1EF1" unicode="&#x1ef1;" horiz-adv-x="563" 
d="M558 565h23l-13 -103q-16 -126 -95 -126q-3 0 -27 3l-41 -339h-22l19 153h-2q-34 -70 -89.5 -113t-114.5 -43q-156 0 -129 196l39 291h22l-39 -290q-13 -98 16.5 -136.5t91.5 -38.5q72 0 138 72.5t80 170.5l27 222h22l-15 -125q18 -2 24 -2q29 0 47 23t25 83zM220 -124
q11 0 18 -7.5t7 -19.5q0 -11 -7.5 -19t-18.5 -8t-18.5 7.5t-7.5 18.5q0 12 7.5 20t19.5 8z" />
    <glyph glyph-name="Ygrave" unicode="&#x1ef2;" horiz-adv-x="506" 
d="M325 791l-98 124h29l97 -124h-28zM212 0l39 323l-174 387h25l162 -359h2l252 359h27l-271 -387l-39 -323h-23z" />
    <glyph glyph-name="ygrave" unicode="&#x1ef3;" horiz-adv-x="509" 
d="M316 561h-28l-96 135h29zM439 484h22l-51 -418q-10 -79 -32.5 -133.5t-55.5 -82.5t-69 -39.5t-81 -11.5q-73 0 -147 37l7 23q69 -38 142 -38q40 0 71.5 10.5t62 36t51.5 76t30 124.5l10 86h-2q-34 -71 -89.5 -114t-114.5 -43q-156 0 -129 196l39 291h22l-39 -290
q-13 -98 16.5 -136.5t91.5 -38.5q74 0 140.5 75.5t78.5 175.5z" />
    <glyph glyph-name="uni1EF4" unicode="&#x1ef4;" horiz-adv-x="506" 
d="M212 0l39 323l-174 387h25l162 -359h2l252 359h27l-271 -387l-39 -323h-23zM207 -124q11 0 18 -7.5t7 -19.5q0 -11 -7.5 -19t-18.5 -8t-18.5 7.5t-7.5 18.5q0 12 7.5 20t19.5 8z" />
    <glyph glyph-name="uni1EF5" unicode="&#x1ef5;" horiz-adv-x="509" 
d="M439 484h22l-51 -418q-10 -79 -32.5 -133.5t-55.5 -82.5t-69 -39.5t-81 -11.5q-73 0 -147 37l7 23q69 -38 142 -38q40 0 71.5 10.5t62 36t51.5 76t30 124.5l10 86h-2q-34 -71 -89.5 -114t-114.5 -43q-156 0 -129 196l39 291h22l-39 -290q-13 -98 16.5 -136.5t91.5 -38.5
q74 0 140.5 75.5t78.5 175.5zM187 -254q11 0 18 -7.5t7 -19.5q0 -11 -7.5 -19t-18.5 -8t-18.5 7.5t-7.5 18.5q0 12 7.5 20t19.5 8z" />
    <glyph glyph-name="uni1EF6" unicode="&#x1ef6;" horiz-adv-x="506" 
d="M326 784l-27 1q2 2 16.5 11.5t19.5 13.5t17 13t17.5 15.5t12.5 15t10 16.5t3 16q0 35 -48 35q-51 0 -86 -29l-3 23q49 27 92 27q67 0 67 -55q0 -48 -91 -103zM212 0l39 323l-174 387h25l162 -359h2l252 359h27l-271 -387l-39 -323h-23z" />
    <glyph glyph-name="uni1EF7" unicode="&#x1ef7;" horiz-adv-x="509" 
d="M321 707q-23 0 -47.5 -9t-37.5 -23l-3 23q44 30 91 30q67 0 67 -56q0 -21 -20.5 -47t-33.5 -36.5t-44 -34.5l-28 1q75 58 94 87q10 16 10 29q0 36 -48 36zM439 484h22l-51 -418q-10 -79 -32.5 -133.5t-55.5 -82.5t-69 -39.5t-81 -11.5q-73 0 -147 37l7 23q69 -38 142 -38
q40 0 71.5 10.5t62 36t51.5 76t30 124.5l10 86h-2q-34 -71 -89.5 -114t-114.5 -43q-156 0 -129 196l39 291h22l-39 -290q-13 -98 16.5 -136.5t91.5 -38.5q74 0 140.5 75.5t78.5 175.5z" />
    <glyph glyph-name="uni1EF8" unicode="&#x1ef8;" horiz-adv-x="506" 
d="M394 795q-6 0 -12 1t-12.5 4t-10.5 5t-11 7.5t-9 7t-10 8.5t-9 8q-34 28 -53 28q-40 0 -66 -62l-19 8q32 76 84 76q29 0 65 -32q41 -37 62 -37q38 0 63 63l18 -9q-15 -38 -36.5 -57t-43.5 -19zM212 0l39 323l-174 387h25l162 -359h2l252 359h27l-271 -387l-39 -323h-23z
" />
    <glyph glyph-name="uni1EF9" unicode="&#x1ef9;" horiz-adv-x="509" 
d="M233 650q-40 0 -66 -62l-19 8q32 76 84 76q29 0 65 -32q2 -2 8.5 -7.5t9 -7.5t8 -6.5t9 -6.5t8.5 -4.5t9.5 -3.5t9.5 -1q38 0 63 63l18 -9q-15 -38 -36.5 -57t-43.5 -19q-31 0 -75 42q-32 27 -52 27zM439 484h22l-51 -418q-10 -79 -32.5 -133.5t-55.5 -82.5t-69 -39.5
t-81 -11.5q-73 0 -147 37l7 23q69 -38 142 -38q40 0 71.5 10.5t62 36t51.5 76t30 124.5l10 86h-2q-34 -71 -89.5 -114t-114.5 -43q-156 0 -129 196l39 291h22l-39 -290q-13 -98 16.5 -136.5t91.5 -38.5q74 0 140.5 75.5t78.5 175.5z" />
    <glyph glyph-name="uni2002" unicode="&#x2002;" horiz-adv-x="467" 
 />
    <glyph glyph-name="uni2003" unicode="&#x2003;" horiz-adv-x="934" 
 />
    <glyph glyph-name="uni2007" unicode="&#x2007;" horiz-adv-x="586" 
 />
    <glyph glyph-name="uni2009" unicode="&#x2009;" horiz-adv-x="20" 
 />
    <glyph glyph-name="uni2010" unicode="&#x2010;" horiz-adv-x="380" 
d="M67 296l3 23h259l-2 -23h-260z" />
    <glyph glyph-name="figuredash" unicode="&#x2012;" horiz-adv-x="586" 
d="M66 286l2 21h465l-2 -21h-465z" />
    <glyph glyph-name="endash" unicode="&#x2013;" horiz-adv-x="588" 
d="M66 286l2 21h467l-2 -21h-467z" />
    <glyph glyph-name="emdash" unicode="&#x2014;" horiz-adv-x="1055" 
d="M66 286l2 21h934l-2 -21h-934z" />
    <glyph glyph-name="uni2015" unicode="&#x2015;" horiz-adv-x="1194" 
d="M66 286l2 21h1073l-2 -21h-1073z" />
    <glyph glyph-name="quoteleft" unicode="&#x2018;" horiz-adv-x="167" 
d="M179 710l-59 -217h-27l65 217h21z" />
    <glyph glyph-name="quoteright" unicode="&#x2019;" horiz-adv-x="164" 
d="M83 493l59 217h27l-65 -217h-21z" />
    <glyph glyph-name="quotesinglbase" unicode="&#x201a;" horiz-adv-x="160" 
d="M-7 -128l58 218h28l-67 -218h-19z" />
    <glyph glyph-name="quotedblleft" unicode="&#x201c;" horiz-adv-x="244" 
d="M178 710l-58 -217h-27l64 217h21zM256 710l-59 -217h-27l65 217h21z" />
    <glyph glyph-name="quotedblright" unicode="&#x201d;" horiz-adv-x="238" 
d="M83 493l59 217h27l-65 -217h-21zM161 493l58 217h27l-64 -217h-21z" />
    <glyph glyph-name="quotedblbase" unicode="&#x201e;" horiz-adv-x="233" 
d="M-1 -73l59 217h27l-65 -217h-21zM77 -73l58 217h27l-64 -217h-21z" />
    <glyph glyph-name="dagger" unicode="&#x2020;" horiz-adv-x="370" 
d="M191 275l-10 27l20 143l14 114h-19l-97 -3l3 27l96 -2h18l13 103h25l-16 -103h17l97 1l-3 -26l-97 3h-17l-14 -114l-14 -143z" />
    <glyph glyph-name="daggerdbl" unicode="&#x2021;" horiz-adv-x="370" 
d="M152 63l14 102h-19l-97 -1l4 26l95 -2h20l16 131l5 63l11 63l14 114h-19l-97 -3l3 27l96 -2h18l13 103h25l-16 -103h17l97 1l-3 -26l-97 3h-17l-14 -114l-4 -63l-12 -63l-16 -131h18l97 3l-4 -26h-112l-10 -102h-26z" />
    <glyph glyph-name="bullet" unicode="&#x2022;" horiz-adv-x="382" 
d="M198 231q-35 0 -59 24t-24 60t25 60.5t62 24.5q35 0 59 -23.5t24 -59.5q0 -37 -25 -61.5t-62 -24.5z" />
    <glyph glyph-name="ellipsis" unicode="&#x2026;" horiz-adv-x="1000" 
d="M137 -4q-26 0 -26 27q0 11 7.5 19t19.5 8q11 0 18.5 -7.5t7.5 -18.5q0 -12 -8 -20t-19 -8zM470 -4q-26 0 -26 27q0 11 7.5 19t19.5 8q11 0 18.5 -7.5t7.5 -18.5q0 -12 -8 -20t-19 -8zM804 -4q-26 0 -26 27q0 11 7.5 19t19.5 8q11 0 18.5 -7.5t7.5 -18.5q0 -12 -8 -20
t-19 -8z" />
    <glyph glyph-name="perthousand" unicode="&#x2030;" horiz-adv-x="1340" 
d="M295 -7l-20 8l362 717l20 -9zM250 329q-76 0 -126 50t-50 128q0 86 57.5 146t139.5 60q78 0 129 -49t51 -127q0 -89 -58.5 -148.5t-142.5 -59.5zM250 351q75 0 127 53.5t52 132.5q0 69 -44.5 111.5t-113.5 42.5q-73 0 -124 -54t-51 -130q0 -69 44 -112.5t110 -43.5z
M653 -3q-76 0 -126 50t-50 128q0 85 57.5 145t139.5 60q78 0 129 -48.5t51 -127.5q0 -89 -58.5 -148t-142.5 -59zM1084 -3q-76 0 -126 50t-50 128q0 85 57.5 145t139.5 60q78 0 129 -48.5t51 -127.5q0 -89 -58.5 -148t-142.5 -59zM653 19q75 0 127 53t52 132q0 69 -44 111.5
t-114 42.5q-73 0 -124 -54t-51 -129q0 -69 43.5 -112.5t110.5 -43.5zM1084 19q76 0 127.5 53t51.5 132q0 69 -44 111.5t-114 42.5q-73 0 -124 -54t-51 -129q0 -69 44 -112.5t110 -43.5z" />
    <glyph glyph-name="minute" unicode="&#x2032;" horiz-adv-x="199" 
d="M74 493l97 217h27l-103 -217h-21z" />
    <glyph glyph-name="second" unicode="&#x2033;" horiz-adv-x="292" 
d="M74 493l97 217h27l-103 -217h-21zM167 493l97 217h27l-103 -217h-21z" />
    <glyph glyph-name="guilsinglleft" unicode="&#x2039;" horiz-adv-x="235" 
d="M130 13l-91 231l147 229h22l-145 -229l89 -231h-22z" />
    <glyph glyph-name="guilsinglright" unicode="&#x203a;" horiz-adv-x="235" 
d="M28 13l145 231l-89 229h23l90 -229l-147 -231h-22z" />
    <glyph glyph-name="uni203D" unicode="&#x203d;" horiz-adv-x="386" 
d="M252 740q65 0 103 -42.5t38 -106.5q0 -63 -27 -110.5t-82 -102.5q-5 -5 -20 -20.5t-20 -21t-16.5 -18.5t-16.5 -20.5t-11.5 -18.5t-10 -21.5t-4.5 -21.5l-8 -60h-19l52 450h27l-43 -320q9 14 19.5 26t31.5 34t25 26q53 56 76.5 98t23.5 101q0 60 -33.5 92.5t-89.5 32.5
q-43 0 -84 -22t-68 -65l-14 17q68 94 171 94zM154 50q11 0 18.5 -7.5t7.5 -18.5q0 -12 -8 -20t-19 -8q-26 0 -26 27q0 11 7.5 19t19.5 8z" />
    <glyph glyph-name="uni2042" unicode="&#x2042;" horiz-adv-x="771" 
d="M381 406l20 139l-114 -74l-8 21l118 66l-103 66l13 20l98 -73l14 139h21l-21 -139l115 74l8 -21l-119 -66l104 -66l-13 -19l-98 72l-14 -139h-21zM160 71l20 139l-114 -74l-8 21l118 66l-103 66l13 20l98 -73l14 139h21l-21 -139l115 74l8 -21l-119 -66l104 -66l-13 -19
l-98 72l-14 -139h-21zM548 71l20 139l-114 -74l-8 21l118 66l-103 66l13 20l98 -73l14 139h21l-21 -139l115 74l8 -21l-119 -66l104 -66l-13 -19l-98 72l-14 -139h-21z" />
    <glyph glyph-name="fraction" unicode="&#x2044;" horiz-adv-x="196" 
d="M-59 -7l-20 8l363 717l20 -9z" />
    <glyph glyph-name="uni2051" unicode="&#x2051;" horiz-adv-x="383" 
d="M201 406l20 139l-114 -74l-8 21l118 66l-103 66l13 20l98 -73l14 139h21l-21 -139l115 74l8 -21l-119 -66l104 -66l-13 -19l-98 72l-14 -139h-21zM159 60l20 139l-115 -74l-8 21l118 66l-103 66l13 20l98 -72l14 139h21l-20 -139l115 73l8 -21l-119 -66l103 -66l-12 -19
l-99 72l-13 -139h-21z" />
    <glyph glyph-name="uni2070" unicode="&#x2070;" horiz-adv-x="350" 
d="M200 433q-57 0 -91 42.5t-34 119.5q0 103 47 179.5t127 76.5q57 0 91 -43t34 -121q0 -102 -47 -178t-127 -76zM201 455q71 0 111 70t40 163q0 69 -28 105t-75 36q-72 0 -112 -70t-40 -164q0 -68 28 -104t76 -36z" />
    <glyph glyph-name="colonmonetary" unicode="&#x20a1;" horiz-adv-x="562" 
d="M522 643q17 -14 34 -36l-16 -17q-12 17 -30 32l-315 -572q47 -30 105 -30q105 0 181 76l14 -17q-84 -82 -196 -82q-63 0 -115 32l-42 -76l-19 9l44 79q-28 22 -47 51l-77 -139l-18 9l83 150q-36 66 -36 161q0 179 87 297.5t222 118.5q21 0 42 -3l29 53l18 -10l-26 -47
q34 -10 60 -26l46 83l19 -10zM96 274q0 -79 26 -136l289 526q-20 2 -31 2q-125 0 -204.5 -111.5t-79.5 -280.5zM178 62l315 574q-27 17 -60 25l-300 -545q16 -29 45 -54z" />
    <glyph glyph-name="lira" unicode="&#x20a4;" horiz-adv-x="504" 
d="M351 666q-67 0 -112 -50t-57 -155l-6 -52h160l-3 -23h-160l-12 -94h161l-3 -23h-161l-30 -246h325l-3 -23h-432l3 23h84l30 246h-64l3 23h64l11 94h-64l3 23h64l7 56q15 119 67 171.5t125 52.5q102 0 144 -99l-19 -14q-35 90 -125 90z" />
    <glyph glyph-name="uni20A6" unicode="&#x20a6;" horiz-adv-x="577" 
d="M568 380h-49l-12 -94h50l-3 -23h-50l-32 -263h-22l-124 263h-227l-32 -263h-22l32 263h-49l3 23h49l12 94h-50l3 23h49l35 283h21l134 -283h215l35 283h22l-35 -283h50zM146 643l-29 -240h142l-112 240h-1zM102 286h213l-45 94h-156zM485 286l11 94h-201l44 -94h146z
M455 42l27 221h-132l104 -221h1z" />
    <glyph glyph-name="peseta" unicode="&#x20a7;" horiz-adv-x="577" 
d="M587 501l-3 -23h-77q-14 -83 -73 -133t-150 -50h-150l-36 -295h-23l59 478h-83l3 23h83l23 186h184q82 0 124.5 -42.5t42.5 -117.5q0 -18 -1 -26h77zM180 664l-20 -163h326q1 8 1 26q0 70 -39.5 103.5t-105.5 33.5h-162zM285 318q81 0 132.5 43t65.5 117h-326l-20 -160
h148z" />
    <glyph glyph-name="dong" unicode="&#x20ab;" horiz-adv-x="537" 
d="M562 610l-3 -22h-58l-72 -588h-22l19 155l-2 1q-33 -72 -86.5 -115.5t-122.5 -43.5q-77 0 -122 54t-45 138q0 126 70 212.5t182 86.5q47 0 90 -16.5t68 -46.5l1 1l20 162h-217l3 22h217l15 126h22l-15 -126h58zM442 288l13 106q-24 40 -69.5 56t-86.5 16
q-101 0 -164.5 -81t-63.5 -197q0 -75 37.5 -122t106.5 -47q88 0 151 81.5t76 187.5zM8 -121l3 22h414l-3 -22h-414z" />
    <glyph glyph-name="Euro" unicode="&#x20ac;" horiz-adv-x="531" 
d="M381 666q-98 0 -170 -70.5t-100 -186.5h304l-3 -23h-306q-8 -45 -9 -94h304l-3 -23h-301q4 -121 61 -185t143 -64q91 0 168 56l11 -20q-83 -59 -180 -59q-94 0 -158.5 70t-68.5 202h-56l3 23h53q1 49 9 94h-51l3 23h53q29 125 108 202.5t187 77.5q97 0 162 -58l-15 -18
q-59 53 -148 53z" />
    <glyph glyph-name="uni20AE" unicode="&#x20ae;" horiz-adv-x="469" 
d="M494 664h-200l-36 -296l143 60l9 -20l-155 -65l-10 -80l142 60l10 -20l-155 -65l-29 -238h-23l28 228l-145 -61l-8 20l156 66l10 80l-145 -61l-9 20l157 66l37 306h-192l3 23h415z" />
    <glyph glyph-name="uni20B1" unicode="&#x20b1;" horiz-adv-x="578" 
d="M590 525h-79q0 -37 -10 -75h79l-3 -23h-84q-24 -62 -78 -97t-131 -35h-150l-36 -295h-23l53 427h-84l3 23h84l9 75h-83l3 23h83l17 139h184q76 0 118 -36.5t48 -102.5h83zM342 664h-162l-14 -116h320q-6 59 -44.5 87.5t-99.5 28.5zM476 450q11 36 11 75h-324l-10 -75h323
zM285 318q66 0 113 29t69 80h-316l-14 -109h148z" />
    <glyph glyph-name="uni20B2" unicode="&#x20b2;" horiz-adv-x="558" 
d="M536 590q-56 74 -154 76l-40 -326h184l-35 -283q-77 -59 -190 -60l-16 -122h-21l15 123q-91 6 -151 77.5t-60 197.5q0 174 82.5 291.5t212.5 124.5l13 103h21l-13 -103q108 -3 168 -82zM92 274q0 -117 53.5 -182.5t136.5 -71.5l79 646q-120 -7 -194.5 -117.5
t-74.5 -274.5zM501 318h-162l-36 -298q98 1 167 50z" />
    <glyph glyph-name="uni20B4" unicode="&#x20b4;" horiz-adv-x="474" 
d="M463 556q0 -48 -29 -88t-66 -64h90l-3 -23h-121q-34 -22 -139 -85h249l-3 -23h-279q-96 -60 -96 -145q0 -46 36 -77.5t98 -31.5q55 0 108.5 23.5t93.5 66.5l17 -16q-47 -49 -105.5 -73t-113.5 -24q-73 0 -115.5 36t-42.5 96q0 81 82 145h-76l3 23h102q28 17 138 85h-229
l3 23h263q53 32 82 72t29 80q0 51 -33.5 80.5t-93.5 29.5q-90 0 -172 -71l-16 17q89 77 188 77q73 0 112 -37t39 -96z" />
    <glyph glyph-name="uni20B5" unicode="&#x20b5;" horiz-adv-x="558" 
d="M384 689q108 -3 168 -82l-16 -17q-56 74 -154 76l-79 -646q101 3 174 76l14 -17q-82 -81 -190 -82l-16 -122h-21l15 123q-91 6 -151 77.5t-60 197.5q0 174 82.5 291.5t212.5 124.5l13 103h21zM92 274q0 -117 53.5 -182.5t136.5 -71.5l79 646q-120 -7 -194.5 -117.5
t-74.5 -274.5z" />
    <glyph glyph-name="uni20B8" unicode="&#x20b8;" horiz-adv-x="469" 
d="M82 687h415l-3 -23h-415zM64 547l3 23h415l-3 -23h-199l-67 -547h-23l67 547h-193z" />
    </font>
</defs>
</svg>
