<?xml version="1.0" standalone="no"?>
<!DOCTYPE svg PUBLIC "-//W3C//DTD SVG 1.1//EN" "http://www.w3.org/Graphics/SVG/1.1/DTD/svg11.dtd" >
<svg xmlns="http://www.w3.org/2000/svg" xmlns:xlink="http://www.w3.org/1999/xlink" version="1.1">
<metadata>
Created by FontForge 20170731 at Sat Jul 15 13:21:46 2017
 By Aleksey,,,
Copyright (c) 2015 by Kostas Bartsokas. All rights reserved.
</metadata>
<defs>
<font id="AvertaStd-Light" horiz-adv-x="0" >
  <font-face 
    font-family="Averta Std Light"
    font-weight="300"
    font-stretch="normal"
    units-per-em="1000"
    panose-1="0 0 4 0 0 0 0 0 0 0"
    ascent="800"
    descent="-200"
    x-height="485"
    cap-height="710"
    bbox="-669 -256 1368 1036"
    underline-thickness="29"
    underline-position="-136"
    unicode-range="U+000D-2E18"
  />
<missing-glyph horiz-adv-x="442" 
 />
    <glyph glyph-name=".notdef" horiz-adv-x="442" 
 />
    <glyph glyph-name=".null" 
 />
    <glyph glyph-name="nonmarkingreturn" horiz-adv-x="333" 
 />
    <glyph glyph-name="CR" unicode="&#xd;" 
 />
    <glyph glyph-name="space" unicode=" " horiz-adv-x="276" 
 />
    <glyph glyph-name="exclam" unicode="!" horiz-adv-x="218" 
d="M88 195l-9 541h60l-9 -541h-42zM109 -5q-19 0 -32 12.5t-13 31.5t13 31.5t32 12.5t32 -12.5t13 -31.5t-13 -31.5t-32 -12.5z" />
    <glyph glyph-name="quotedbl" unicode="&#x22;" horiz-adv-x="294" 
d="M44 481l33 229h59l-48 -229h-44zM157 481l34 229h59l-48 -229h-45z" />
    <glyph glyph-name="numbersign" unicode="#" horiz-adv-x="622" 
d="M135 -31l33 214h-126v44h132l27 173h-138v43h144l33 213h41l-33 -213h178l32 213h41l-32 -213h129v-43h-136l-26 -173h141v-44h-148l-33 -214h-40l32 214h-177l-33 -214h-41zM215 227h178l26 173h-178z" />
    <glyph glyph-name="dollar" unicode="$" horiz-adv-x="553" 
d="M506 174q0 -76 -52.5 -124.5t-145.5 -52.5v-121h-46v122q-116 11 -206 96l37 42q89 -86 201 -86q67 0 110 32t43 89q0 32 -11.5 55t-38.5 39.5t-51.5 26.5t-69.5 24q-33 11 -46 15.5t-41 16t-40 19.5t-31 22.5t-27 29t-14.5 35.5t-6.5 45q0 73 50.5 119.5t141.5 47.5v126
h46v-129q100 -17 171 -70l-35 -42q-36 28 -86 44.5t-90 16.5q-62 0 -100.5 -29t-38.5 -81q0 -22 9.5 -40.5t21.5 -30.5t37.5 -24.5t43.5 -19t52 -18.5q33 -11 49 -16.5t43.5 -16.5t41 -20t31.5 -24t26.5 -31t15 -38.5t6.5 -48.5z" />
    <glyph glyph-name="percent" unicode="%" horiz-adv-x="967" 
d="M352 -12l-45 18l308 714l44 -19zM238 326q-84 0 -141 54.5t-57 140.5q0 82 55 138t143 56q83 0 140.5 -54t57.5 -140q0 -82 -55.5 -138.5t-142.5 -56.5zM238 369q67 0 109 44t42 108q0 67 -43.5 108.5t-107.5 41.5q-67 0 -108.5 -43t-41.5 -107q0 -67 43.5 -109.5
t106.5 -42.5zM723 -5q-83 0 -140 54.5t-57 140.5q0 82 55 138t142 56q84 0 141 -54t57 -140q0 -82 -55.5 -138.5t-142.5 -56.5zM723 39q67 0 109 43.5t42 107.5q0 67 -43.5 108.5t-107.5 41.5q-67 0 -109 -43t-42 -107q0 -67 43.5 -109t107.5 -42z" />
    <glyph glyph-name="ampersand" unicode="&#x26;" horiz-adv-x="637" 
d="M269 -5q-95 0 -158.5 56t-63.5 147q0 65 38 122t101 90v2l-92 104q4 89 59 144t144 55q72 0 122.5 -36t72.5 -92l-48 -19q-16 44 -52.5 70.5t-90.5 27.5q-70 0 -108.5 -38t-40.5 -102l320 -367h3q44 73 44 163l53 1q0 -116 -62 -207v-3l98 -113h-65l-68 78h-2
q-78 -83 -204 -83zM273 47q102 0 168 69v2l-222 253q-52 -25 -84.5 -71.5t-32.5 -98.5q0 -66 47.5 -110t123.5 -44z" />
    <glyph glyph-name="quotesingle" unicode="'" horiz-adv-x="180" 
d="M44 481l33 229h59l-48 -229h-44z" />
    <glyph glyph-name="parenleft" unicode="(" horiz-adv-x="257" 
d="M170 -142q-106 205 -106 439q0 251 111 440l41 -21q-102 -183 -102 -419q0 -219 99 -420z" />
    <glyph glyph-name="parenright" unicode=")" horiz-adv-x="257" 
d="M87 -142l-43 19q99 201 99 420q0 236 -102 419l41 21q111 -189 111 -440q0 -234 -106 -439z" />
    <glyph glyph-name="asterisk" unicode="*" horiz-adv-x="404" 
d="M182 399l4 128l-109 -68l-19 35l114 60l-115 61l20 35l109 -68l-4 128h40l-4 -128l109 68l20 -35l-114 -60l114 -61l-20 -33l-109 66l4 -128h-40z" />
    <glyph glyph-name="plus" unicode="+" horiz-adv-x="581" 
d="M265 45v207h-207v49h207v208h50v-208h207v-49h-207v-207h-50z" />
    <glyph glyph-name="comma" unicode="," horiz-adv-x="185" 
d="M33 -129l34 230h59l-52 -230h-41z" />
    <glyph glyph-name="hyphen" unicode="-" horiz-adv-x="404" 
d="M56 282v52h293v-52h-293z" />
    <glyph glyph-name="period" unicode="." horiz-adv-x="206" 
d="M103 -5q-19 0 -32 12.5t-13 31.5t13 31.5t32 12.5t32 -12.5t13 -31.5t-13 -31.5t-32 -12.5z" />
    <glyph glyph-name="slash" unicode="/" horiz-adv-x="393" 
d="M23 -114l-43 21l387 851l43 -21z" />
    <glyph glyph-name="zero" unicode="0" horiz-adv-x="616" 
d="M308 -5q-112 0 -182 91.5t-70 255.5q0 155 66.5 252t185.5 97q112 0 182 -91.5t70 -257.5q0 -153 -66.5 -250t-185.5 -97zM308 48q93 0 144.5 80t51.5 214q0 143 -54 220t-142 77q-93 0 -144.5 -81t-51.5 -216q0 -140 54.5 -217t141.5 -77z" />
    <glyph glyph-name="one" unicode="1" horiz-adv-x="347" 
d="M199 0v619l-149 -112l-28 41l185 139h47v-687h-55z" />
    <glyph glyph-name="two" unicode="2" horiz-adv-x="501" 
d="M35 0l-1 41l247 246q54 53 82.5 99t28.5 99q0 67 -42 110.5t-108 43.5q-113 0 -162 -106l-43 28q60 130 208 130q83 0 143 -55t60 -146q0 -59 -28.5 -113t-91.5 -117l-209 -206l1 -2h337v-52h-422z" />
    <glyph glyph-name="three" unicode="3" horiz-adv-x="517" 
d="M252 -5q-82 0 -142 35t-87 94l49 22q47 -98 178 -98q70 0 116.5 39.5t46.5 104.5q0 60 -44.5 100.5t-126.5 40.5h-61v49h71q70 0 107 38t37 88q0 60 -42.5 95.5t-108.5 35.5q-102 0 -153 -75l-46 26q62 101 200 101q89 0 147.5 -47.5t58.5 -128.5q0 -50 -28.5 -93
t-82.5 -62v-2q60 -19 94 -66t34 -109q0 -83 -61.5 -135.5t-155.5 -52.5z" />
    <glyph glyph-name="four" unicode="4" horiz-adv-x="550" 
d="M363 0v126h-338v42l345 519h48v-511h103v-50h-103v-126h-55zM90 175h274v416z" />
    <glyph glyph-name="five" unicode="5" horiz-adv-x="541" 
d="M270 432q97 0 162 -58.5t65 -159.5q0 -97 -67 -158t-169 -61q-71 0 -130.5 32t-91.5 86l43 29q25 -44 71.5 -69.5t104.5 -25.5q80 0 131.5 47.5t51.5 120.5q0 78 -52 122.5t-130 44.5q-74 0 -129 -40l-36 9l19 337h354v-52h-303l-13 -231q60 27 119 27z" />
    <glyph glyph-name="six" unicode="6" horiz-adv-x="570" 
d="M310 429q96 0 155.5 -58.5t59.5 -157.5q0 -93 -65.5 -155.5t-167.5 -62.5q-103 0 -170.5 73t-67.5 189q0 93 30.5 175t80.5 138t109.5 91.5t121.5 46.5l16 -49q-104 -22 -188.5 -105t-107.5 -215q73 90 194 90zM295 48q77 0 125.5 48t48.5 118q0 74 -46 119t-123 45
q-67 0 -117 -36t-74 -88v-2q0 -90 53 -147t133 -57z" />
    <glyph glyph-name="seven" unicode="7" horiz-adv-x="485" 
d="M28 687h423v-42l-289 -655l-55 13l283 632h-362v52z" />
    <glyph glyph-name="eight" unicode="8" horiz-adv-x="567" 
d="M282 -4q-104 0 -170.5 55t-66.5 137q0 69 39.5 118t104.5 65v2q-45 12 -77 51.5t-32 95.5q0 78 57 124.5t145 46.5q92 0 148.5 -48t56.5 -123q0 -56 -33 -96t-78 -51v-2q65 -15 104.5 -64.5t39.5 -118.5q0 -85 -68 -138.5t-170 -53.5zM282 395q67 0 109 33.5t42 87.5
q0 56 -42.5 90.5t-108.5 34.5q-67 0 -108 -36t-41 -89q0 -54 41.5 -87.5t107.5 -33.5zM282 46q81 0 131 43t50 105q0 67 -49.5 108.5t-131.5 41.5q-81 0 -131 -41.5t-50 -108.5q0 -64 52 -106t129 -42z" />
    <glyph glyph-name="nine" unicode="9" horiz-adv-x="572" 
d="M282 691q103 0 170.5 -73t67.5 -194q-1 -94 -34.5 -175.5t-86.5 -136.5t-113.5 -90t-120.5 -46l-15 49q48 11 95.5 36t91.5 63.5t76.5 97t44.5 127.5q-34 -42 -86.5 -67t-116.5 -25q-91 0 -150 58t-59 153q0 94 67 158.5t169 64.5zM265 308q62 0 117 33t83 92
q-1 94 -52 150t-130 56q-81 0 -131 -49.5t-50 -121.5t45 -116t118 -44z" />
    <glyph glyph-name="colon" unicode=":" horiz-adv-x="200" 
d="M99 402q-19 0 -32 12.5t-13 31.5t13 31.5t32 12.5t32 -12.5t13 -31.5t-13 -31.5t-32 -12.5zM99 -5q-19 0 -32 12.5t-13 31.5t13 31.5t32 12.5t32 -12.5t13 -31.5t-13 -31.5t-32 -12.5z" />
    <glyph glyph-name="semicolon" unicode=";" horiz-adv-x="200" 
d="M99 402q-19 0 -32 12.5t-13 31.5t13 31.5t32 12.5t32 -12.5t13 -31.5t-13 -31.5t-32 -12.5zM37 -129l34 230h59l-52 -230h-41z" />
    <glyph glyph-name="less" unicode="&#x3c;" horiz-adv-x="562" 
d="M499 53l-440 207v40l440 208v-55l-365 -173l365 -172v-55z" />
    <glyph glyph-name="equal" unicode="=" horiz-adv-x="568" 
d="M56 365v49h464v-49h-464zM56 139v49h464v-49h-464z" />
    <glyph glyph-name="greater" unicode="&#x3e;" horiz-adv-x="560" 
d="M70 53v55l365 172l-365 173v55l440 -208v-40z" />
    <glyph glyph-name="question" unicode="?" horiz-adv-x="433" 
d="M167 193v56q0 11 2.5 22t5.5 20t10 20.5t11 18t15 19.5t15 17.5t17.5 18.5t16.5 18q38 39 58.5 75t20.5 80q0 60 -38.5 94.5t-94.5 34.5q-92 0 -142 -78l-39 39q66 93 184 93q82 0 135.5 -51t53.5 -130q0 -54 -24.5 -96t-67.5 -87q-5 -5 -21.5 -22t-22 -23t-17 -20
t-16 -22.5t-9 -20t-4.5 -22.5l-1 -54h-48zM194 -5q-19 0 -32 12.5t-13 31.5t13 31.5t32 12.5t32 -12.5t13 -31.5t-13 -31.5t-32 -12.5z" />
    <glyph glyph-name="at" unicode="@" horiz-adv-x="897" 
d="M412 -136q-156 0 -259 103.5t-103 264.5q0 54 13.5 109.5t46 112.5t80.5 100.5t123.5 71t168.5 27.5q162 0 264 -98.5t102 -257.5q0 -38 -10 -79t-31 -81.5t-60.5 -66.5t-90.5 -26q-72 0 -81 70q-6 15 -6 36l-2 1q-22 -46 -66 -71.5t-97 -25.5q-75 0 -125.5 53.5
t-50.5 138.5q0 36 12 73.5t35.5 71.5t65 55.5t94.5 21.5q50 0 89.5 -26.5t58.5 -72.5l1 1l10 94h53l-26 -278q-2 -24 -2 -31q0 -40 12 -53t36 -13q45 0 77.5 37t45.5 82.5t13 87.5q0 140 -89.5 227.5t-231.5 87.5q-79 0 -145 -23.5t-110 -61.5t-74.5 -88t-44 -102
t-13.5 -104q0 -137 89 -230.5t228 -93.5q120 0 215 52l22 -33q-100 -63 -237 -63zM417 104q76 0 118.5 54.5t42.5 117.5q0 62 -36 102.5t-94 40.5q-78 0 -122 -50.5t-44 -116.5q0 -65 38 -106.5t97 -41.5z" />
    <glyph glyph-name="A" unicode="A" horiz-adv-x="659" 
d="M27 0l271 710h60l274 -710h-60l-73 191h-340l-72 -191h-60zM177 242h304l-151 400h-2z" />
    <glyph glyph-name="B" unicode="B" horiz-adv-x="623" 
d="M88 0v710h219q105 0 166 -41.5t61 -130.5q0 -57 -31 -102t-90 -63v-1q68 -12 112 -58.5t44 -123.5q0 -87 -61 -138.5t-180 -51.5h-240zM145 394h171q67 0 113.5 32t46.5 102q0 130 -174 130h-157v-264zM145 52h180q85 0 135 36t50 105q0 71 -49.5 110.5t-141.5 39.5h-174
v-291z" />
    <glyph glyph-name="C" unicode="C" horiz-adv-x="719" 
d="M410 -4q-150 0 -250 94.5t-100 261.5q0 158 92.5 260.5t256.5 102.5q166 0 274 -134l-43 -37q-93 117 -231 117q-135 0 -212.5 -86.5t-77.5 -222.5q0 -140 82 -221t209 -81q138 0 231 115l43 -36q-107 -133 -274 -133z" />
    <glyph glyph-name="D" unicode="D" horiz-adv-x="716" 
d="M88 0v710h201q167 0 268 -98.5t101 -257.5t-99.5 -256.5t-266.5 -97.5h-204zM145 52h144q142 0 226 84t84 218q0 135 -85.5 219.5t-224.5 84.5h-144v-606z" />
    <glyph glyph-name="E" unicode="E" horiz-adv-x="579" 
d="M88 0v710h424v-52h-367v-278h305v-52h-305v-276h388v-52h-445z" />
    <glyph glyph-name="F" unicode="F" horiz-adv-x="564" 
d="M88 0v710h443v-52h-386v-284h331v-53h-331v-321h-57z" />
    <glyph glyph-name="G" unicode="G" horiz-adv-x="760" 
d="M410 -4q-154 0 -252 98.5t-98 259.5q0 160 96.5 260.5t252.5 100.5q161 0 265 -105l-40 -36q-90 87 -225 87q-128 0 -209 -84.5t-81 -222.5q0 -135 80.5 -220t210.5 -85q132 0 219 69v184h-237v52h293v-266q-104 -92 -275 -92z" />
    <glyph glyph-name="H" unicode="H" horiz-adv-x="707" 
d="M88 0v710h57v-348h417v348h57v-710h-57v310h-417v-310h-57z" />
    <glyph glyph-name="I" unicode="I" horiz-adv-x="246" 
d="M94 0v710h57v-710h-57z" />
    <glyph glyph-name="J" unicode="J" horiz-adv-x="481" 
d="M214 -4q-47 0 -97.5 24t-88.5 68l32 42q73 -80 153 -80q134 0 134 174v486h56v-490q0 -224 -189 -224z" />
    <glyph glyph-name="K" unicode="K" horiz-adv-x="630" 
d="M88 0v710h57v-434h2l368 434h73l-283 -329l289 -381h-71l-255 336l-123 -143v-193h-57z" />
    <glyph glyph-name="L" unicode="L" horiz-adv-x="544" 
d="M88 0v710h57v-658h372v-52h-429z" />
    <glyph glyph-name="M" unicode="M" horiz-adv-x="865" 
d="M89 0v710h57l286 -491h2l285 491h57v-710h-57v599h-1l-265 -450h-41l-266 450h-1v-599h-56z" />
    <glyph glyph-name="N" unicode="N" horiz-adv-x="740" 
d="M88 0v710h56l449 -615h2v615h56v-710h-57l-448 611h-1v-611h-57z" />
    <glyph glyph-name="O" unicode="O" horiz-adv-x="824" 
d="M413 -5q-152 0 -252.5 101t-100.5 260q0 158 100.5 258.5t252.5 100.5q150 0 250.5 -100t100.5 -259q0 -160 -101 -260.5t-250 -100.5zM413 49q123 0 207.5 86t84.5 221q0 134 -84.5 219.5t-207.5 85.5q-126 0 -210.5 -86t-84.5 -219q0 -134 84.5 -220.5t210.5 -86.5z
" />
    <glyph glyph-name="P" unicode="P" horiz-adv-x="598" 
d="M88 0v710h242q115 0 171 -57t56 -153q0 -107 -65.5 -160t-178.5 -53h-168v-287h-57zM145 340h163q98 0 144 43.5t46 116.5q0 77 -45.5 117.5t-124.5 40.5h-183v-318z" />
    <glyph glyph-name="Q" unicode="Q" horiz-adv-x="836" 
d="M778 32l-33 -41l-98 89q-98 -85 -234 -85q-156 0 -254.5 103t-98.5 258q0 153 98.5 256t254.5 103q150 0 250.5 -100t100.5 -259q0 -143 -82 -239zM118 356q0 -131 83 -219t212 -88q110 0 191 70l-92 83l32 40l95 -86q66 85 66 200q0 133 -84 219t-208 86
q-129 0 -212 -87.5t-83 -217.5z" />
    <glyph glyph-name="R" unicode="R" horiz-adv-x="628" 
d="M88 0v710h243q114 0 171 -57.5t57 -152.5q0 -93 -51 -144.5t-143 -63.5l208 -292h-69l-202 287h-157v-287h-57zM145 340h166q97 0 143 43.5t46 116.5q0 77 -46 117.5t-128 40.5h-181v-318z" />
    <glyph glyph-name="S" unicode="S" horiz-adv-x="569" 
d="M288 -5q-150 0 -245 109l38 44q37 -49 93 -74t116 -25q74 0 121.5 34.5t47.5 96.5q0 31 -11.5 54t-35.5 39.5t-49 28t-64 26.5q-12 4 -19 7q-39 15 -62 25t-54.5 28.5t-49 37.5t-30.5 48t-13 64q0 76 59.5 126.5t150.5 50.5q117 0 214 -78l-35 -45q-86 71 -178 71
q-62 0 -107 -33t-45 -90q0 -30 12 -52.5t41 -41.5t50 -28.5t67 -27.5q107 -43 138 -62q80 -50 80 -143q0 -86 -64.5 -138t-165.5 -52z" />
    <glyph glyph-name="T" unicode="T" horiz-adv-x="558" 
d="M249 0v658h-222v52h504v-52h-225v-658h-57z" />
    <glyph glyph-name="U" unicode="U" horiz-adv-x="695" 
d="M347 -5q-120 0 -193.5 78t-73.5 213v424h56v-421q0 -110 57.5 -174.5t153.5 -64.5q95 0 153.5 64t58.5 175v421h57v-424q0 -135 -73.5 -213t-195.5 -78z" />
    <glyph glyph-name="V" unicode="V" horiz-adv-x="651" 
d="M300 0l-270 710h61l235 -626h2l234 626h61l-270 -710h-53z" />
    <glyph glyph-name="W" unicode="W" horiz-adv-x="1006" 
d="M262 0l-229 710h61l196 -619h1l180 619h64l179 -619h1l197 619h61l-228 -710h-59l-182 628h-1l-183 -628h-58z" />
    <glyph glyph-name="X" unicode="X" horiz-adv-x="635" 
d="M33 0l248 355l-247 355h67l217 -310h1l216 310h66l-246 -355l248 -355h-68l-216 307h-2l-217 -307h-67z" />
    <glyph glyph-name="Y" unicode="Y" horiz-adv-x="580" 
d="M261 0v320l-244 390h66l205 -331h2l207 331h66l-245 -390v-320h-57z" />
    <glyph glyph-name="Z" unicode="Z" horiz-adv-x="601" 
d="M56 0v47l405 609l-1 2h-380v52h456v-47l-407 -609l2 -2h408v-52h-483z" />
    <glyph glyph-name="bracketleft" unicode="[" horiz-adv-x="285" 
d="M74 -142v869h170v-44h-122v-782h122v-43h-170z" />
    <glyph glyph-name="backslash" unicode="\" horiz-adv-x="395" 
d="M376 -114l-387 851l43 21l387 -851z" />
    <glyph glyph-name="bracketright" unicode="]" horiz-adv-x="285" 
d="M211 -142h-170v43h122v782h-122v44h170v-869z" />
    <glyph glyph-name="asciicircum" unicode="^" horiz-adv-x="459" 
d="M64 500l142 210h46l143 -210h-52l-114 170l-115 -170h-50z" />
    <glyph glyph-name="underscore" unicode="_" horiz-adv-x="517" 
d="M-5 -69v41h528v-41h-528z" />
    <glyph glyph-name="grave" unicode="`" horiz-adv-x="506" 
d="M269 546l-117 133h63l112 -133h-58z" />
    <glyph glyph-name="a" unicode="a" horiz-adv-x="598" 
d="M283 -5q-102 0 -170.5 68t-68.5 176q0 107 67.5 179t171.5 72q62 0 112 -30.5t77 -84.5h1v110h53v-485h-51v109l-2 1q-27 -53 -76.5 -84t-113.5 -31zM289 45q78 0 132 54t54 139q0 86 -52 144.5t-133 58.5t-136 -56.5t-55 -146.5q0 -82 53 -137.5t137 -55.5z" />
    <glyph glyph-name="b" unicode="b" horiz-adv-x="607" 
d="M322 -5q-65 0 -114.5 30.5t-76.5 83.5h-1v-109h-52v736h53v-360h1q28 54 78.5 84t111.5 30q105 0 172 -72t67 -179q0 -108 -68.5 -176t-170.5 -68zM316 45q84 0 137 55.5t53 137.5q0 90 -55 146.5t-136 56.5q-82 0 -133.5 -58.5t-51.5 -144.5q0 -85 53.5 -139t132.5 -54z
" />
    <glyph glyph-name="c" unicode="c" horiz-adv-x="510" 
d="M283 -5q-105 0 -171 69t-66 178q0 110 66.5 179t172.5 69q54 0 104.5 -21t84.5 -60l-38 -34q-54 66 -149 66q-84 0 -135.5 -55.5t-51.5 -142.5q0 -88 52 -143t135 -55q45 0 85.5 17.5t66.5 47.5l36 -34q-71 -81 -192 -81z" />
    <glyph glyph-name="d" unicode="d" horiz-adv-x="607" 
d="M285 -5q-102 0 -170.5 68t-68.5 176q0 107 67 179t172 72q62 0 112.5 -30.5t77.5 -85.5h2v362h52v-736h-51v111h-2q-25 -53 -75.5 -84.5t-115.5 -31.5zM291 45q79 0 133 54t54 139q0 86 -52.5 144.5t-134.5 58.5q-81 0 -136 -56.5t-55 -146.5q0 -82 53 -137.5t138 -55.5z
" />
    <glyph glyph-name="e" unicode="e" horiz-adv-x="542" 
d="M499 255q0 -21 -1 -24h-398q4 -83 55 -134.5t131 -51.5q100 0 156 73l38 -32q-68 -91 -195 -91q-105 0 -172 69.5t-67 178.5q0 107 67 177t168 70q97 0 157.5 -66.5t60.5 -168.5zM281 441q-70 0 -119.5 -45.5t-59.5 -120.5h344q-8 75 -51.5 120.5t-113.5 45.5z" />
    <glyph glyph-name="f" unicode="f" horiz-adv-x="322" 
d="M100 0v438h-63v47h63v108q0 74 34 111t94 37q55 0 104 -28l-11 -47q-48 25 -88 25q-80 0 -80 -102v-104h155v-47h-155v-438h-53z" />
    <glyph glyph-name="g" unicode="g" horiz-adv-x="593" 
d="M292 -202q-110 0 -199 54l14 49q90 -54 183 -54q88 0 134 46.5t46 121.5v104h-1q-27 -50 -75.5 -79t-112.5 -29q-101 0 -168.5 66.5t-67.5 174.5q0 101 65.5 169.5t168.5 68.5q61 0 110.5 -27.5t78.5 -77.5h1v100h53v-461q0 -104 -58 -165t-172 -61zM286 61
q84 0 134.5 54t50.5 138q0 83 -52.5 135.5t-132.5 52.5q-83 0 -134.5 -54t-51.5 -134q0 -86 53 -139t133 -53z" />
    <glyph glyph-name="h" unicode="h" horiz-adv-x="565" 
d="M78 0v736h53v-356h1q27 52 77.5 81t115.5 29q80 0 126 -50.5t46 -147.5v-292h-53v275q0 166 -131 166q-83 0 -132.5 -54t-49.5 -145v-242h-53z" />
    <glyph glyph-name="i" unicode="i" horiz-adv-x="222" 
d="M112 590q-19 0 -31.5 13t-12.5 31q0 19 12.5 31t31.5 12t31.5 -12t12.5 -31q0 -18 -12.5 -31t-31.5 -13zM84 0v485h53v-485h-53z" />
    <glyph glyph-name="j" unicode="j" horiz-adv-x="201" 
d="M106 590q-19 0 -31.5 13t-12.5 31q0 19 12.5 31t31.5 12t31.5 -12t12.5 -31q0 -18 -12.5 -31t-31.5 -13zM18 -203q-39 0 -74 16l9 49q25 -15 58 -15q68 0 68 86v552h53v-552q0 -62 -28.5 -99t-85.5 -37z" />
    <glyph glyph-name="k" unicode="k" horiz-adv-x="501" 
d="M78 0v736h53v-554l2 -1l276 304h66l-187 -205l186 -280h-61l-163 242l-119 -129v-113h-53z" />
    <glyph glyph-name="l" unicode="l" horiz-adv-x="221" 
d="M84 0v736h53v-736h-53z" />
    <glyph glyph-name="m" unicode="m" horiz-adv-x="874" 
d="M78 0v485h53v-106h1q27 52 73 81.5t100 29.5q60 0 99.5 -32.5t55.5 -91.5h2q25 58 73.5 91t107.5 33q81 0 123 -55t42 -156v-279h-53v262q0 179 -124 179q-67 0 -112.5 -55.5t-45.5 -145.5v-240h-53v262q0 88 -33 133.5t-94 45.5q-70 0 -116 -55.5t-46 -145.5v-240h-53z
" />
    <glyph glyph-name="n" unicode="n" horiz-adv-x="560" 
d="M78 0v485h53v-107h2q27 53 76.5 82.5t111.5 29.5q80 0 125.5 -51t45.5 -149v-290h-53v273q0 168 -131 168q-80 0 -128.5 -54.5t-48.5 -145.5v-241h-53z" />
    <glyph glyph-name="o" unicode="o" horiz-adv-x="586" 
d="M293 -5q-109 0 -178 71t-69 176t69 176.5t178 71.5q106 0 176.5 -69t70.5 -179q0 -108 -71 -177.5t-176 -69.5zM293 45q82 0 137.5 55t55.5 142q0 88 -55.5 143.5t-137.5 55.5q-85 0 -139 -57.5t-54 -141.5q0 -83 54 -140t139 -57z" />
    <glyph glyph-name="p" unicode="p" horiz-adv-x="607" 
d="M78 -198v683h53v-109h2q27 53 77.5 83.5t112.5 30.5q104 0 171 -72t67 -179q0 -108 -68 -176t-170 -68q-64 0 -113.5 30t-76.5 82l-2 -1v-304h-53zM317 45q83 0 136 55.5t53 137.5q0 90 -54.5 146.5t-135.5 56.5q-83 0 -134.5 -58.5t-51.5 -144.5t54 -139.5t133 -53.5z
" />
    <glyph glyph-name="q" unicode="q" horiz-adv-x="606" 
d="M477 -198v305h-1q-28 -52 -77 -82t-113 -30q-102 0 -170.5 68t-68.5 176q0 107 67 179t172 72q61 0 111.5 -30.5t78.5 -84.5h1v110h53v-683h-53zM292 45q79 0 133 54t54 139q0 86 -52 144.5t-134 58.5q-81 0 -136 -56.5t-55 -146.5q0 -82 53 -137.5t137 -55.5z" />
    <glyph glyph-name="r" unicode="r" horiz-adv-x="336" 
d="M78 0v485h53v-103h2q52 108 165 108h26v-59q-22 2 -31 2q-74 0 -118 -54t-44 -141v-238h-53z" />
    <glyph glyph-name="s" unicode="s" horiz-adv-x="427" 
d="M217 -5q-108 0 -184 69l28 40q68 -61 156 -61q53 0 84 24.5t31 60.5t-26.5 53.5t-88.5 38.5q-4 1 -6 2t-5.5 2t-6.5 2q-72 25 -108 55t-36 86q0 53 43 88t108 35q94 0 162 -59l-29 -40q-59 51 -135 51q-39 0 -67 -21.5t-28 -52.5q0 -24 16.5 -42.5t35 -27.5t54.5 -23
q96 -35 120 -50q52 -33 52 -98q-1 -56 -45.5 -94t-124.5 -38z" />
    <glyph glyph-name="t" unicode="t" horiz-adv-x="358" 
d="M209 -5q-64 0 -91 36t-27 106v301h-64v47h64v171l53 6v-177h177v-47h-177v-287q0 -55 14.5 -80t56.5 -25q48 0 91 28l14 -48q-51 -31 -111 -31z" />
    <glyph glyph-name="u" unicode="u" horiz-adv-x="548" 
d="M250 -5q-87 0 -135 54t-48 153v283h53v-265q0 -175 139 -175q69 0 116.5 56t47.5 147v237h53v-485h-53v104l-2 1q-26 -52 -71.5 -81t-99.5 -29z" />
    <glyph glyph-name="v" unicode="v" horiz-adv-x="508" 
d="M229 0l-203 485h58l170 -414h2l168 414h57l-201 -485h-51z" />
    <glyph glyph-name="w" unicode="w" horiz-adv-x="759" 
d="M200 0l-170 485h56l139 -403h2l127 403h49l129 -403h2l140 403h54l-170 -485h-51l-127 401h-1l-129 -401h-50z" />
    <glyph glyph-name="x" unicode="x" horiz-adv-x="487" 
d="M31 0l181 244l-182 241h64l148 -199h2l149 199h64l-181 -240l182 -245h-63l-151 199h-1l-150 -199h-62z" />
    <glyph glyph-name="y" unicode="y" horiz-adv-x="516" 
d="M151 -198l87 211l-214 472h59l181 -407h1l168 407h57l-282 -683h-57z" />
    <glyph glyph-name="z" unicode="z" horiz-adv-x="455" 
d="M33 0v42l310 395v1h-296v47h370v-39l-312 -397v-2h314v-47h-386z" />
    <glyph glyph-name="braceleft" unicode="{" horiz-adv-x="312" 
d="M220 -142q-44 0 -73 27t-29 73v232q0 17 -1.5 26.5t-8 22t-23.5 18.5t-44 8v44q27 2 44 8.5t23.5 18.5t8 21.5t1.5 26.5v241q0 43 27.5 72.5t74.5 29.5h40v-41h-26q-31 0 -50 -19.5t-19 -49.5v-234q0 -44 -12.5 -65.5t-47.5 -29.5v-2q36 -8 48 -28.5t12 -66.5v-211
q0 -44 16.5 -63t52.5 -19h26v-40h-40z" />
    <glyph glyph-name="bar" unicode="|" horiz-adv-x="267" 
d="M109 -115v852h48v-852h-48z" />
    <glyph glyph-name="braceright" unicode="}" horiz-adv-x="312" 
d="M92 -142h-40v40h26q36 0 52.5 19t16.5 63v211q0 46 12 66.5t48 28.5v2q-35 8 -47.5 29.5t-12.5 65.5v234q0 30 -19 49.5t-50 19.5h-26v41h40q47 0 74.5 -29.5t27.5 -72.5v-241q0 -17 1.5 -26.5t8 -21.5t23.5 -18.5t44 -8.5v-44q-27 -2 -44 -8t-23.5 -18.5t-8 -22
t-1.5 -26.5v-232q0 -46 -29 -73t-73 -27z" />
    <glyph glyph-name="asciitilde" unicode="~" horiz-adv-x="550" 
d="M375 221q-38 0 -112 37q-48 24 -80 24q-53 0 -81 -57l-38 16q36 92 114 92q40 0 102 -29q58 -32 91 -32q52 0 76 56l38 -14q-15 -44 -45 -68.5t-65 -24.5z" />
    <glyph glyph-name="uni00A0" unicode="&#xa0;" horiz-adv-x="276" 
 />
    <glyph glyph-name="exclamdown" unicode="&#xa1;" horiz-adv-x="218" 
d="M109 490q19 0 32 -12.5t13 -31.5t-13 -31.5t-32 -12.5t-32 12.5t-13 31.5t13 31.5t32 12.5zM88 290h42l9 -541h-60z" />
    <glyph glyph-name="cent" unicode="&#xa2;" horiz-adv-x="535" 
d="M500 129q-65 -70 -174 -79v-108h-42v107q-103 6 -166.5 74.5t-63.5 172.5t63.5 172.5t166.5 74.5v116h42v-116q108 -8 172 -80l-37 -33q-60 65 -156 65q-87 0 -141.5 -55.5t-54.5 -142.5t54 -142t141 -55q48 0 90.5 17.5t68.5 46.5z" />
    <glyph glyph-name="sterling" unicode="&#xa3;" horiz-adv-x="554" 
d="M45 0v52h86v298h-67v43h67v77q0 112 54 167t137 55q116 0 180 -99l-33 -37q-51 82 -141 82q-64 0 -102.5 -44t-38.5 -131v-70h173v-43h-172v-298h341v-52h-484z" />
    <glyph glyph-name="currency" unicode="&#xa4;" horiz-adv-x="495" 
d="M428 385q0 -66 -41 -115l78 -77l-28 -28l-78 78q-50 -40 -114 -40t-114 40l-78 -77l-28 28l77 77q-40 51 -40 114q0 64 40 114l-77 78l28 28l77 -77q52 41 115 41q64 0 115 -40l77 77l28 -28l-77 -78q40 -50 40 -115zM245 245q58 1 99.5 42t41.5 99q-1 58 -42 99.5
t-99 41.5t-99 -41.5t-41 -99.5q1 -58 41.5 -99t98.5 -42z" />
    <glyph glyph-name="yen" unicode="&#xa5;" horiz-adv-x="538" 
d="M525 687l-197 -341h146v-42h-170l-5 -8v-74h175v-42h-175v-180h-57v180h-180v42h180v74l-5 8h-175v42h151l-197 341h65l188 -332h2l189 332h65z" />
    <glyph glyph-name="brokenbar" unicode="&#xa6;" horiz-adv-x="267" 
d="M109 386v351h49v-351h-49zM109 -114v353h49v-353h-49z" />
    <glyph glyph-name="section" unicode="&#xa7;" horiz-adv-x="521" 
d="M377 123q74 -43 74 -119q0 -69 -51 -112.5t-138 -43.5q-125 0 -204 89l34 39q63 -76 168 -76q57 0 95 27t38 75q0 24 -9.5 42t-33 32.5t-42 22t-58.5 22.5q-33 12 -44.5 16.5t-38.5 16t-38 19t-29.5 20.5t-25.5 26t-13.5 30.5t-6.5 37.5q0 95 96 130q-70 44 -70 118
q0 65 47.5 107t125.5 42q47 0 97.5 -18t85.5 -47l-33 -40q-68 53 -146 53q-49 0 -84 -25.5t-35 -70.5q0 -19 8 -35t18 -26.5t31.5 -22t35.5 -17.5t43 -17q103 -38 131 -56q61 -39 61 -110q0 -90 -89 -129zM109 295q0 -45 36.5 -69.5t119.5 -54.5q56 -21 60 -23q40 11 63 36
t23 61q0 20 -7.5 35.5t-16 25.5t-30.5 21.5t-35.5 17t-46.5 17.5q-10 4 -16 6q-44 17 -55 22q-43 -8 -69 -33t-26 -62z" />
    <glyph glyph-name="dieresis" unicode="&#xa8;" horiz-adv-x="503" 
d="M169 576q-18 0 -31 13t-13 30q0 18 13 30.5t31 12.5q19 0 31.5 -12t12.5 -31q0 -18 -12.5 -30.5t-31.5 -12.5zM334 576q-18 0 -31 13t-13 30q0 19 12.5 31t31.5 12t31.5 -12t12.5 -31q0 -18 -12.5 -30.5t-31.5 -12.5z" />
    <glyph glyph-name="copyright" unicode="&#xa9;" horiz-adv-x="680" 
d="M340 20q-123 0 -209 88t-86 210t86.5 210t209.5 88t208.5 -87.5t85.5 -210.5q0 -122 -86 -210t-209 -88zM340 61q106 0 180 75.5t74 181.5t-73.5 181.5t-179.5 75.5t-180.5 -76t-74.5 -181q0 -106 73.5 -181.5t180.5 -75.5zM348 154q-69 0 -115 42.5t-46 118.5
q0 72 42.5 118.5t118.5 46.5t126 -61l-29 -24q-39 48 -97 48q-57 0 -89.5 -35t-32.5 -93t34 -91t88 -33q61 0 97 48l29 -25q-48 -60 -126 -60z" />
    <glyph glyph-name="ordfeminine" unicode="&#xaa;" horiz-adv-x="413" 
d="M193 392q-63 0 -104 41t-41 106t40 108t104 43q75 0 116 -62h1v59h43v-292h-43v55h-1q-39 -58 -115 -58zM202 432q45 0 76 30t31 77t-30 79t-76 32q-48 0 -80 -31t-32 -80q0 -46 31 -76.5t80 -30.5z" />
    <glyph glyph-name="guillemotleft" unicode="&#xab;" horiz-adv-x="444" 
d="M218 20h-53l-127 225l128 225h53l-127 -225zM383 20h-53l-127 225l127 225h53l-126 -225z" />
    <glyph glyph-name="logicalnot" unicode="&#xac;" horiz-adv-x="564" 
d="M453 175v156h-391v49h441v-205h-50z" />
    <glyph glyph-name="registered" unicode="&#xae;" horiz-adv-x="680" 
d="M341 616q123 0 208.5 -87.5t85.5 -210.5q0 -122 -86 -210t-209 -88t-209 88t-86 210t86.5 210t209.5 88zM340 61q106 0 180 75.5t74 181.5t-73.5 181.5t-179.5 75.5t-180.5 -76t-74.5 -181q0 -106 73.5 -181.5t180.5 -75.5zM456 385q0 -80 -77 -95l92 -132h-44l-91 129
h-58v-129h-37v324h111q53 0 78.5 -26.5t25.5 -70.5zM279 447v-126h64q75 0 75 64q0 29 -18 45.5t-50 16.5h-71z" />
    <glyph glyph-name="macron" unicode="&#xaf;" horiz-adv-x="469" 
d="M96 592v48h277v-48h-277z" />
    <glyph glyph-name="degree" unicode="&#xb0;" horiz-adv-x="387" 
d="M193 448q-55 0 -95 39.5t-40 94.5q0 54 40.5 93.5t94.5 39.5q55 0 96 -40t41 -95q0 -54 -40.5 -93t-96.5 -39zM193 488q40 0 68 27t28 65q0 39 -28.5 67t-67.5 28q-38 0 -66.5 -28t-28.5 -65q0 -39 28 -66.5t67 -27.5z" />
    <glyph glyph-name="plusminus" unicode="&#xb1;" horiz-adv-x="578" 
d="M264 151v207h-207v49h207v208h50v-208h207v-49h-207v-207h-50zM57 0v49h464v-49h-464z" />
    <glyph glyph-name="uni00B2" unicode="&#xb2;" horiz-adv-x="331" 
d="M24 436v34l154 142q68 63 68 111q0 36 -24.5 60.5t-63.5 24.5q-28 0 -55.5 -15.5t-42.5 -43.5l-36 25q18 35 55.5 56.5t81.5 21.5q54 0 93.5 -34.5t39.5 -89.5q0 -36 -17.5 -67.5t-59.5 -70.5l-121 -109l1 -2h202v-43h-275z" />
    <glyph glyph-name="uni00B3" unicode="&#xb3;" horiz-adv-x="335" 
d="M168 432q-54 0 -93 22t-56 59l42 18q27 -56 104 -56q44 0 69.5 20.5t25.5 57.5q0 33 -27 54.5t-74 21.5h-37v39h44q40 0 63.5 19.5t23.5 48.5q0 34 -24.5 53.5t-66.5 19.5q-63 0 -89 -45l-40 22q39 66 130 66q58 0 96 -29t38 -80q0 -69 -65 -92v-2q77 -26 77 -103
q0 -51 -39 -82.5t-102 -31.5z" />
    <glyph glyph-name="acute" unicode="&#xb4;" horiz-adv-x="506" 
d="M178 545l120 138h63l-124 -138h-59z" />
    <glyph glyph-name="uni00B5" unicode="&#xb5;" horiz-adv-x="560" 
d="M76 -198v683h53v-261q0 -89 37.5 -134t104.5 -45q69 0 114.5 55t45.5 145v240h53v-485h-48l-4 103h-2q-26 -51 -70.5 -79.5t-97.5 -28.5q-94 0 -134 76l-2 -1q3 -54 3 -110v-158h-53z" />
    <glyph glyph-name="paragraph" unicode="&#xb6;" horiz-adv-x="415" 
d="M285 -149v749h-60v-600h-40v382q-63 2 -101.5 36t-38.5 93q0 61 39 95.5t106 34.5h134v-790h-39z" />
    <glyph glyph-name="periodcentered" unicode="&#xb7;" horiz-adv-x="195" 
d="M99 197q-19 0 -32 12.5t-13 31.5t13 31.5t32 12.5t32 -12.5t13 -31.5t-13 -31.5t-32 -12.5z" />
    <glyph glyph-name="cedilla" unicode="&#xb8;" horiz-adv-x="390" 
d="M173 -186q-29 0 -52 6v34q23 -7 47 -7q25 0 43 11.5t18 32.5q0 20 -22 34.5t-61 14.5v25l19 41h38l-17 -39v-1q36 -2 60 -22.5t24 -55.5q0 -32 -25 -53t-72 -21z" />
    <glyph glyph-name="uni00B9" unicode="&#xb9;" horiz-adv-x="239" 
d="M130 436v351l-90 -61l-23 37l122 84h37v-411h-46z" />
    <glyph glyph-name="ordmasculine" unicode="&#xba;" horiz-adv-x="403" 
d="M200 391q-67 0 -109.5 43t-42.5 107t42.5 106.5t109.5 42.5q65 0 108.5 -42t43.5 -107q0 -66 -43.5 -108t-108.5 -42zM200 432q46 0 77.5 30.5t31.5 78.5t-31.5 78.5t-77.5 30.5q-48 0 -78 -31.5t-30 -77.5t30 -77.5t78 -31.5z" />
    <glyph glyph-name="guillemotright" unicode="&#xbb;" horiz-adv-x="444" 
d="M61 20l126 225l-126 225h53l127 -225l-127 -225h-53zM226 20l126 225l-127 225h53l128 -225l-127 -225h-53z" />
    <glyph glyph-name="onequarter" unicode="&#xbc;" horiz-adv-x="731" 
d="M213 -12l-44 18l307 714l45 -19zM130 299v351l-90 -61l-23 37l122 84h37v-411h-46zM597 0v73h-202v33l211 305h37v-297h65v-41h-65v-73h-46zM448 112h152v220z" />
    <glyph glyph-name="onehalf" unicode="&#xbd;" horiz-adv-x="760" 
d="M213 -12l-44 18l307 714l45 -19zM130 299v351l-90 -61l-23 37l122 84h37v-411h-46zM453 0v34l154 142q68 63 68 111q0 36 -24.5 60.5t-63.5 24.5q-28 0 -55.5 -15.5t-42.5 -43.5l-36 25q18 35 55.5 56.5t81.5 21.5q54 0 93.5 -34.5t39.5 -89.5q0 -36 -17.5 -67.5
t-59.5 -70.5l-121 -109l1 -2h202v-43h-275z" />
    <glyph glyph-name="threequarters" unicode="&#xbe;" horiz-adv-x="811" 
d="M293 -12l-44 18l307 714l45 -19zM168 295q-54 0 -93 22t-56 59l42 18q27 -56 104 -56q44 0 69.5 20.5t25.5 57.5q0 33 -27 54.5t-74 21.5h-37v39h44q40 0 63.5 19.5t23.5 48.5q0 34 -24.5 53.5t-66.5 19.5q-63 0 -89 -45l-40 22q39 66 130 66q58 0 96 -29t38 -80
q0 -69 -65 -92v-2q77 -26 77 -103q0 -51 -39 -82.5t-102 -31.5zM677 0v73h-202v33l211 305h37v-297h65v-41h-65v-73h-46zM528 112h152v220z" />
    <glyph glyph-name="questiondown" unicode="&#xbf;" horiz-adv-x="399" 
d="M239 490q19 0 32 -12.5t13 -31.5t-13 -31.5t-32 -12.5t-32 12.5t-13 31.5t13 31.5t32 12.5zM266 292v-56q0 -11 -2.5 -22t-5.5 -20t-10 -20.5t-11 -18t-15 -19.5t-15 -17.5t-17.5 -18.5t-16.5 -18q-38 -39 -58.5 -75t-20.5 -80q0 -60 38.5 -94.5t94.5 -34.5q92 0 142 78
l39 -39q-66 -93 -184 -93q-82 0 -135.5 51t-53.5 130q0 54 24.5 96t67.5 87q5 5 21.5 22t22 23t17 20t16 22.5t9 20t4.5 22.5l1 54h48z" />
    <glyph glyph-name="Agrave" unicode="&#xc0;" horiz-adv-x="659" 
d="M305 788l-118 128h63l113 -128h-58zM27 0l271 710h60l274 -710h-60l-73 191h-340l-72 -191h-60zM177 242h304l-151 400h-2z" />
    <glyph glyph-name="Aacute" unicode="&#xc1;" horiz-adv-x="659" 
d="M299 788l113 128h62l-118 -128h-57zM27 0l271 710h60l274 -710h-60l-73 191h-340l-72 -191h-60zM177 242h304l-151 400h-2z" />
    <glyph glyph-name="Acircumflex" unicode="&#xc2;" horiz-adv-x="659" 
d="M182 788l120 118h57l117 -118h-58l-87 85h-2l-90 -85h-57zM27 0l271 710h60l274 -710h-60l-73 191h-340l-72 -191h-60zM177 242h304l-151 400h-2z" />
    <glyph glyph-name="Atilde" unicode="&#xc3;" horiz-adv-x="659" 
d="M407 788q-29 0 -86 37q-40 27 -64 27q-40 0 -60 -58l-37 15q30 86 94 86q30 0 82 -31q3 -2 15.5 -10.5t18.5 -12t16 -7t18 -3.5q38 0 57 59l37 -13q-27 -89 -91 -89zM27 0l271 710h60l274 -710h-60l-73 191h-340l-72 -191h-60zM177 242h304l-151 400h-2z" />
    <glyph glyph-name="Adieresis" unicode="&#xc4;" horiz-adv-x="659" 
d="M247 810q-18 0 -31 13t-13 30q0 18 13 30.5t31 12.5q19 0 31.5 -12t12.5 -31q0 -18 -12.5 -30.5t-31.5 -12.5zM412 810q-18 0 -31 13t-13 30q0 19 12.5 31t31.5 12t31.5 -12t12.5 -31q0 -18 -12.5 -30.5t-31.5 -12.5zM27 0l271 710h60l274 -710h-60l-73 191h-340
l-72 -191h-60zM177 242h304l-151 400h-2z" />
    <glyph glyph-name="Aring" unicode="&#xc5;" horiz-adv-x="659" 
d="M329 773q-35 0 -60.5 24.5t-25.5 59.5t25 59.5t61 24.5q35 0 60.5 -24.5t25.5 -59.5t-25 -59.5t-61 -24.5zM329 811q19 0 33 13.5t14 32.5t-14 33t-33 14t-33 -14t-14 -33t14 -32.5t33 -13.5zM27 0l271 710h60l274 -710h-60l-73 191h-340l-72 -191h-60zM177 242h304
l-151 400h-2z" />
    <glyph glyph-name="AE" unicode="&#xc6;" horiz-adv-x="915" 
d="M7 0l392 710h458v-52h-367v-278h308v-52h-308v-276h387v-52h-444v191h-259l-106 -191h-61zM201 242h232v417h-1z" />
    <glyph glyph-name="Ccedilla" unicode="&#xc7;" horiz-adv-x="719" 
d="M408 -4l-13 -29v-1q36 -2 60 -22.5t24 -55.5q0 -32 -25 -53t-72 -21q-30 0 -52 6v34q23 -7 47 -7q25 0 43 11.5t18 32.5q0 20 -22 34.5t-61 14.5v25l15 33q-136 13 -223 106t-87 248q0 158 92.5 260.5t256.5 102.5q166 0 274 -134l-43 -37q-93 117 -231 117
q-135 0 -212.5 -86.5t-77.5 -222.5q0 -140 82 -221t209 -81q138 0 231 115l43 -36q-107 -133 -274 -133h-2z" />
    <glyph glyph-name="Egrave" unicode="&#xc8;" horiz-adv-x="579" 
d="M322 788l-118 128h63l113 -128h-58zM88 0v710h424v-52h-367v-278h305v-52h-305v-276h388v-52h-445z" />
    <glyph glyph-name="Eacute" unicode="&#xc9;" horiz-adv-x="579" 
d="M217 788l113 128h62l-118 -128h-57zM88 0v710h424v-52h-367v-278h305v-52h-305v-276h388v-52h-445z" />
    <glyph glyph-name="Ecircumflex" unicode="&#xca;" horiz-adv-x="579" 
d="M151 788l120 118h57l117 -118h-58l-87 85h-2l-90 -85h-57zM88 0v710h424v-52h-367v-278h305v-52h-305v-276h388v-52h-445z" />
    <glyph glyph-name="Edieresis" unicode="&#xcb;" horiz-adv-x="579" 
d="M216 810q-18 0 -31 13t-13 30q0 18 13 30.5t31 12.5q19 0 31.5 -12t12.5 -31q0 -18 -12.5 -30.5t-31.5 -12.5zM381 810q-19 0 -31.5 13t-12.5 30q0 19 12.5 31t31.5 12t31.5 -12t12.5 -31q0 -18 -12.5 -30.5t-31.5 -12.5zM88 0v710h424v-52h-367v-278h305v-52h-305v-276
h388v-52h-445z" />
    <glyph glyph-name="Igrave" unicode="&#xcc;" horiz-adv-x="246" 
d="M93 788l-118 128h63l113 -128h-58zM94 0v710h57v-710h-57z" />
    <glyph glyph-name="Iacute" unicode="&#xcd;" horiz-adv-x="246" 
d="M96 788l113 128h62l-118 -128h-57zM94 0v710h57v-710h-57z" />
    <glyph glyph-name="Icircumflex" unicode="&#xce;" horiz-adv-x="246" 
d="M-25 788l120 118h57l117 -118h-58l-87 85h-2l-90 -85h-57zM94 0v710h57v-710h-57z" />
    <glyph glyph-name="Idieresis" unicode="&#xcf;" horiz-adv-x="246" 
d="M40 810q-18 0 -31 13t-13 30q0 18 13 30.5t31 12.5q19 0 31.5 -12t12.5 -31q0 -18 -12.5 -30.5t-31.5 -12.5zM205 810q-19 0 -31.5 13t-12.5 30q0 19 12.5 31t31.5 12t31.5 -12t12.5 -31q0 -18 -12.5 -30.5t-31.5 -12.5zM94 0v710h57v-710h-57z" />
    <glyph glyph-name="Eth" unicode="&#xd0;" horiz-adv-x="716" 
d="M289 710q167 0 268 -98.5t101 -257.5t-99.5 -256.5t-266.5 -97.5h-204v330h-77v51h77v329h201zM289 52q142 0 226 84t84 218q0 135 -85.5 219.5t-224.5 84.5h-144v-277h210v-51h-210v-278h144z" />
    <glyph glyph-name="Ntilde" unicode="&#xd1;" horiz-adv-x="740" 
d="M448 788q-29 0 -86 37q-40 27 -64 27q-40 0 -60 -58l-37 15q30 86 94 86q30 0 82 -31q3 -2 15.5 -10.5t18.5 -12t16 -7t18 -3.5q38 0 57 59l37 -13q-27 -89 -91 -89zM88 0v710h56l449 -615h2v615h56v-710h-57l-448 611h-1v-611h-57z" />
    <glyph glyph-name="Ograve" unicode="&#xd2;" horiz-adv-x="824" 
d="M392 788l-118 128h63l113 -128h-58zM413 -5q-152 0 -252.5 101t-100.5 260q0 158 100.5 258.5t252.5 100.5q150 0 250.5 -100t100.5 -259q0 -160 -101 -260.5t-250 -100.5zM413 49q123 0 207.5 86t84.5 221q0 134 -84.5 219.5t-207.5 85.5q-126 0 -210.5 -86t-84.5 -219
q0 -134 84.5 -220.5t210.5 -86.5z" />
    <glyph glyph-name="Oacute" unicode="&#xd3;" horiz-adv-x="824" 
d="M369 788l113 128h62l-118 -128h-57zM413 -5q-152 0 -252.5 101t-100.5 260q0 158 100.5 258.5t252.5 100.5q150 0 250.5 -100t100.5 -259q0 -160 -101 -260.5t-250 -100.5zM413 49q123 0 207.5 86t84.5 221q0 134 -84.5 219.5t-207.5 85.5q-126 0 -210.5 -86t-84.5 -219
q0 -134 84.5 -220.5t210.5 -86.5z" />
    <glyph glyph-name="Ocircumflex" unicode="&#xd4;" horiz-adv-x="824" 
d="M266 788l120 118h57l117 -118h-58l-87 85h-2l-90 -85h-57zM413 -5q-152 0 -252.5 101t-100.5 260q0 158 100.5 258.5t252.5 100.5q150 0 250.5 -100t100.5 -259q0 -160 -101 -260.5t-250 -100.5zM413 49q123 0 207.5 86t84.5 221q0 134 -84.5 219.5t-207.5 85.5
q-126 0 -210.5 -86t-84.5 -219q0 -134 84.5 -220.5t210.5 -86.5z" />
    <glyph glyph-name="Otilde" unicode="&#xd5;" horiz-adv-x="824" 
d="M491 788q-29 0 -86 37q-40 27 -64 27q-40 0 -60 -58l-37 15q30 86 94 86q30 0 82 -31q3 -2 15.5 -10.5t18.5 -12t16 -7t18 -3.5q38 0 57 59l37 -13q-27 -89 -91 -89zM413 -5q-152 0 -252.5 101t-100.5 260q0 158 100.5 258.5t252.5 100.5q150 0 250.5 -100t100.5 -259
q0 -160 -101 -260.5t-250 -100.5zM413 49q123 0 207.5 86t84.5 221q0 134 -84.5 219.5t-207.5 85.5q-126 0 -210.5 -86t-84.5 -219q0 -134 84.5 -220.5t210.5 -86.5z" />
    <glyph glyph-name="Odieresis" unicode="&#xd6;" horiz-adv-x="824" 
d="M331 810q-18 0 -31 13t-13 30q0 18 13 30.5t31 12.5q19 0 31.5 -12t12.5 -31q0 -18 -12.5 -30.5t-31.5 -12.5zM496 810q-18 0 -31 13t-13 30q0 19 12.5 31t31.5 12t31.5 -12t12.5 -31q0 -18 -12.5 -30.5t-31.5 -12.5zM413 -5q-152 0 -252.5 101t-100.5 260
q0 158 100.5 258.5t252.5 100.5q150 0 250.5 -100t100.5 -259q0 -160 -101 -260.5t-250 -100.5zM413 49q123 0 207.5 86t84.5 221q0 134 -84.5 219.5t-207.5 85.5q-126 0 -210.5 -86t-84.5 -219q0 -134 84.5 -220.5t210.5 -86.5z" />
    <glyph glyph-name="multiply" unicode="&#xd7;" horiz-adv-x="495" 
d="M91 86l-35 35l156 155l-156 156l35 35l155 -156l157 156l35 -34l-157 -157l156 -156l-35 -34l-156 155z" />
    <glyph glyph-name="Oslash" unicode="&#xd8;" horiz-adv-x="824" 
d="M677 600q87 -98 87 -244q0 -160 -101 -260.5t-250 -100.5q-132 0 -226 77l-85 -91l-37 33l86 92q-91 101 -91 250q0 158 100.5 258.5t252.5 100.5q136 0 230 -82l82 88l34 -32zM118 356q0 -122 73 -208l413 443q-79 70 -191 70q-126 0 -210.5 -86t-84.5 -219zM413 49
q123 0 207.5 86t84.5 221q0 117 -68 201l-411 -443q79 -65 187 -65z" />
    <glyph glyph-name="Ugrave" unicode="&#xd9;" horiz-adv-x="695" 
d="M338 788l-118 128h63l113 -128h-58zM347 -5q-120 0 -193.5 78t-73.5 213v424h56v-421q0 -110 57.5 -174.5t153.5 -64.5q95 0 153.5 64t58.5 175v421h57v-424q0 -135 -73.5 -213t-195.5 -78z" />
    <glyph glyph-name="Uacute" unicode="&#xda;" horiz-adv-x="695" 
d="M289 788l113 128h62l-118 -128h-57zM347 -5q-120 0 -193.5 78t-73.5 213v424h56v-421q0 -110 57.5 -174.5t153.5 -64.5q95 0 153.5 64t58.5 175v421h57v-424q0 -135 -73.5 -213t-195.5 -78z" />
    <glyph glyph-name="Ucircumflex" unicode="&#xdb;" horiz-adv-x="695" 
d="M201 788l120 118h57l117 -118h-58l-87 85h-2l-90 -85h-57zM347 -5q-120 0 -193.5 78t-73.5 213v424h56v-421q0 -110 57.5 -174.5t153.5 -64.5q95 0 153.5 64t58.5 175v421h57v-424q0 -135 -73.5 -213t-195.5 -78z" />
    <glyph glyph-name="Udieresis" unicode="&#xdc;" horiz-adv-x="695" 
d="M266 810q-18 0 -31 13t-13 30q0 18 13 30.5t31 12.5q19 0 31.5 -12t12.5 -31q0 -18 -12.5 -30.5t-31.5 -12.5zM431 810q-19 0 -31.5 13t-12.5 30q0 19 12.5 31t31.5 12t31.5 -12t12.5 -31q0 -18 -12.5 -30.5t-31.5 -12.5zM347 -5q-120 0 -193.5 78t-73.5 213v424h56v-421
q0 -110 57.5 -174.5t153.5 -64.5q95 0 153.5 64t58.5 175v421h57v-424q0 -135 -73.5 -213t-195.5 -78z" />
    <glyph glyph-name="Yacute" unicode="&#xdd;" horiz-adv-x="580" 
d="M252 788l113 128h62l-118 -128h-57zM261 0v320l-244 390h66l205 -331h2l207 331h66l-245 -390v-320h-57z" />
    <glyph glyph-name="Thorn" unicode="&#xde;" horiz-adv-x="616" 
d="M88 0v710h57v-149h203q116 0 171.5 -57t55.5 -153q0 -106 -65.5 -159t-178.5 -53h-186v-139h-57zM145 192h185q95 0 140.5 43.5t45.5 116.5q0 78 -45.5 117.5t-125.5 39.5h-200v-317z" />
    <glyph glyph-name="germandbls" unicode="&#xdf;" horiz-adv-x="604" 
d="M230 -5v50h102q79 0 130 48t51 127q0 74 -52.5 128t-139.5 54h-61v48h58q45 0 77 12.5t46 32.5t20 37.5t6 35.5q0 57 -41.5 90.5t-117.5 33.5q-176 0 -176 -194v-498h-53v497q0 123 59.5 183.5t167.5 60.5q100 0 157 -45.5t57 -123.5q0 -41 -22.5 -80.5t-77.5 -58.5v-2
q68 -24 107 -82.5t39 -128.5q0 -102 -63.5 -163.5t-161.5 -61.5h-111z" />
    <glyph glyph-name="agrave" unicode="&#xe0;" horiz-adv-x="598" 
d="M287 561l-117 133h63l112 -133h-58zM283 -5q-102 0 -170.5 68t-68.5 176q0 107 67.5 179t171.5 72q62 0 112 -30.5t77 -84.5h1v110h53v-485h-51v109l-2 1q-27 -53 -76.5 -84t-113.5 -31zM289 45q78 0 132 54t54 139q0 86 -52 144.5t-133 58.5t-136 -56.5t-55 -146.5
q0 -82 53 -137.5t137 -55.5z" />
    <glyph glyph-name="aacute" unicode="&#xe1;" horiz-adv-x="598" 
d="M270 560l120 138h63l-124 -138h-59zM283 -5q-102 0 -170.5 68t-68.5 176q0 107 67.5 179t171.5 72q62 0 112 -30.5t77 -84.5h1v110h53v-485h-51v109l-2 1q-27 -53 -76.5 -84t-113.5 -31zM289 45q78 0 132 54t54 139q0 86 -52 144.5t-133 58.5t-136 -56.5t-55 -146.5
q0 -82 53 -137.5t137 -55.5z" />
    <glyph glyph-name="acircumflex" unicode="&#xe2;" horiz-adv-x="598" 
d="M147 560l119 133h57l116 -133h-57l-86 98h-2l-90 -98h-57zM283 -5q-102 0 -170.5 68t-68.5 176q0 107 67.5 179t171.5 72q62 0 112 -30.5t77 -84.5h1v110h53v-485h-51v109l-2 1q-27 -53 -76.5 -84t-113.5 -31zM289 45q78 0 132 54t54 139q0 86 -52 144.5t-133 58.5
t-136 -56.5t-55 -146.5q0 -82 53 -137.5t137 -55.5z" />
    <glyph glyph-name="atilde" unicode="&#xe3;" horiz-adv-x="598" 
d="M372 572q-7 0 -13.5 1t-14.5 4t-12.5 4.5t-13.5 7t-11 6.5t-13 8l-10 7q-36 25 -61 25q-40 0 -62 -57l-37 14q29 89 94 89q34 0 80 -30q3 -2 12.5 -9t14.5 -10t12.5 -7t14.5 -6t14 -2q41 0 59 59l38 -13q-13 -44 -37.5 -67.5t-53.5 -23.5zM283 -5q-102 0 -170.5 68
t-68.5 176q0 107 67.5 179t171.5 72q62 0 112 -30.5t77 -84.5h1v110h53v-485h-51v109l-2 1q-27 -53 -76.5 -84t-113.5 -31zM289 45q78 0 132 54t54 139q0 86 -52 144.5t-133 58.5t-136 -56.5t-55 -146.5q0 -82 53 -137.5t137 -55.5z" />
    <glyph glyph-name="adieresis" unicode="&#xe4;" horiz-adv-x="598" 
d="M209 591q-18 0 -31 13t-13 30q0 18 13 30.5t31 12.5q19 0 31.5 -12t12.5 -31q0 -18 -12.5 -30.5t-31.5 -12.5zM374 591q-18 0 -31 12.5t-13 30.5q0 19 12.5 31t31.5 12t31.5 -12t12.5 -31q0 -18 -12.5 -30.5t-31.5 -12.5zM283 -5q-102 0 -170.5 68t-68.5 176
q0 107 67.5 179t171.5 72q62 0 112 -30.5t77 -84.5h1v110h53v-485h-51v109l-2 1q-27 -53 -76.5 -84t-113.5 -31zM289 45q78 0 132 54t54 139q0 86 -52 144.5t-133 58.5t-136 -56.5t-55 -146.5q0 -82 53 -137.5t137 -55.5z" />
    <glyph glyph-name="aring" unicode="&#xe5;" horiz-adv-x="598" 
d="M293 550q-35 0 -60.5 24.5t-25.5 59.5t25 59.5t61 24.5q35 0 60.5 -24.5t25.5 -59.5t-25 -59.5t-61 -24.5zM293 588q19 0 33 13.5t14 32.5t-14 33t-33 14t-33 -14t-14 -33t14 -32.5t33 -13.5zM283 -5q-102 0 -170.5 68t-68.5 176q0 107 67.5 179t171.5 72q62 0 112 -30.5
t77 -84.5h1v110h53v-485h-51v109l-2 1q-27 -53 -76.5 -84t-113.5 -31zM289 45q78 0 132 54t54 139q0 86 -52 144.5t-133 58.5t-136 -56.5t-55 -146.5q0 -82 53 -137.5t137 -55.5z" />
    <glyph glyph-name="ae" unicode="&#xe6;" horiz-adv-x="791" 
d="M750 253q0 -13 -2 -23h-351q6 -87 50 -136t115 -49q49 0 78 17.5t56 55.5l38 -32q-33 -46 -72.5 -68.5t-101.5 -22.5q-128 0 -181 121h-1q-17 -55 -67 -88t-118 -33q-76 0 -117 41t-41 102q0 62 45 100t134 38l133 1v18q0 80 -24.5 113t-82.5 33q-79 0 -146 -39l-22 43
q78 45 170 45q61 0 95 -27.5t47 -86.5h2q24 54 68.5 84t101.5 30q84 0 139 -67t55 -170zM400 275h295q-5 75 -42 120.5t-99 45.5q-65 0 -106 -46t-48 -120zM197 42q63 0 106.5 38.5t43.5 107.5v44l-129 -1q-59 0 -94.5 -23.5t-35.5 -69.5q0 -41 28 -68.5t81 -27.5z" />
    <glyph glyph-name="ccedilla" unicode="&#xe7;" horiz-adv-x="510" 
d="M286 -5l-12 -28v-1q36 -2 60 -22.5t24 -55.5q0 -32 -25 -53t-72 -21q-29 0 -52 6v34q23 -7 47 -7q25 0 43 11.5t18 32.5q0 20 -22 34.5t-61 14.5v25l15 32q-92 11 -147.5 78t-55.5 167q0 110 66.5 179t172.5 69q54 0 104.5 -21t84.5 -60l-38 -34q-54 66 -149 66
q-84 0 -135.5 -55.5t-51.5 -142.5q0 -88 52 -143t135 -55q45 0 85.5 17.5t66.5 47.5l36 -34q-69 -80 -189 -81z" />
    <glyph glyph-name="egrave" unicode="&#xe8;" horiz-adv-x="542" 
d="M336 561h-58l-117 133h63zM499 255q0 -21 -1 -24h-398q4 -83 55 -134.5t131 -51.5q100 0 156 73l38 -32q-68 -91 -195 -91q-105 0 -172 69.5t-67 178.5q0 107 67 177t168 70q97 0 157.5 -66.5t60.5 -168.5zM281 441q-70 0 -119.5 -45.5t-59.5 -120.5h344
q-8 75 -51.5 120.5t-113.5 45.5z" />
    <glyph glyph-name="eacute" unicode="&#xe9;" horiz-adv-x="542" 
d="M426 698l-124 -138h-59l120 138h63zM499 255q0 -21 -1 -24h-398q4 -83 55 -134.5t131 -51.5q100 0 156 73l38 -32q-68 -91 -195 -91q-105 0 -172 69.5t-67 178.5q0 107 67 177t168 70q97 0 157.5 -66.5t60.5 -168.5zM281 441q-70 0 -119.5 -45.5t-59.5 -120.5h344
q-8 75 -51.5 120.5t-113.5 45.5z" />
    <glyph glyph-name="ecircumflex" unicode="&#xea;" horiz-adv-x="542" 
d="M283 658l-90 -98h-57l119 133h57l116 -133h-57l-86 98h-2zM499 255q0 -21 -1 -24h-398q4 -83 55 -134.5t131 -51.5q100 0 156 73l38 -32q-68 -91 -195 -91q-105 0 -172 69.5t-67 178.5q0 107 67 177t168 70q97 0 157.5 -66.5t60.5 -168.5zM281 441q-70 0 -119.5 -45.5
t-59.5 -120.5h344q-8 75 -51.5 120.5t-113.5 45.5z" />
    <glyph glyph-name="edieresis" unicode="&#xeb;" horiz-adv-x="542" 
d="M198 591q-18 0 -31 13t-13 30q0 18 13 30.5t31 12.5q19 0 31.5 -12t12.5 -31q0 -18 -12.5 -30.5t-31.5 -12.5zM363 591q-19 0 -31.5 12.5t-12.5 30.5q0 19 12.5 31t31.5 12t31.5 -12t12.5 -31q0 -18 -12.5 -30.5t-31.5 -12.5zM499 255q0 -21 -1 -24h-398q4 -83 55 -134.5
t131 -51.5q100 0 156 73l38 -32q-68 -91 -195 -91q-105 0 -172 69.5t-67 178.5q0 107 67 177t168 70q97 0 157.5 -66.5t60.5 -168.5zM281 441q-70 0 -119.5 -45.5t-59.5 -120.5h344q-8 75 -51.5 120.5t-113.5 45.5z" />
    <glyph glyph-name="igrave" unicode="&#xec;" horiz-adv-x="222" 
d="M81 560l-90 138h61l86 -138h-57zM84 0v485h53v-485h-53z" />
    <glyph glyph-name="iacute" unicode="&#xed;" horiz-adv-x="222" 
d="M87 560l120 138h63l-124 -138h-59zM84 0v485h53v-485h-53z" />
    <glyph glyph-name="icircumflex" unicode="&#xee;" horiz-adv-x="222" 
d="M-35 560l119 133h57l116 -133h-57l-86 98h-2l-90 -98h-57zM84 0v485h53v-485h-53z" />
    <glyph glyph-name="idieresis" unicode="&#xef;" horiz-adv-x="222" 
d="M27 591q-18 0 -31 13t-13 30q0 18 13 30.5t31 12.5q19 0 31.5 -12t12.5 -31q0 -18 -12.5 -30.5t-31.5 -12.5zM192 591q-18 0 -31 12.5t-13 30.5q0 19 12.5 31t31.5 12t31.5 -12t12.5 -31q0 -18 -12.5 -30.5t-31.5 -12.5zM84 0v485h53v-485h-53z" />
    <glyph glyph-name="eth" unicode="&#xf0;" horiz-adv-x="584" 
d="M435 554q103 -134 103 -297q0 -118 -68 -190t-179 -72q-104 0 -174.5 68.5t-70.5 174.5q0 105 67 175.5t167 70.5q56 0 104 -22.5t78 -62.5l2 2q-23 65 -69 125q-33 42 -74 77l-62 -71l-37 27l62 72q-63 42 -131 67l20 42q82 -29 143 -73l71 82l38 -26l-72 -83
q47 -41 82 -86zM291 45q85 0 138.5 57t53.5 145q0 81 -55 134.5t-136 53.5q-85 0 -138.5 -56.5t-53.5 -137.5q0 -86 55 -141t136 -55z" />
    <glyph glyph-name="ntilde" unicode="&#xf1;" horiz-adv-x="560" 
d="M366 572q-7 0 -13.5 1t-14.5 4t-12.5 4.5t-13.5 7t-11 6.5t-13 8l-10 7q-36 25 -61 25q-40 0 -62 -57l-37 14q29 89 94 89q34 0 80 -30q3 -2 12.5 -9t14.5 -10t12.5 -7t14.5 -6t14 -2q41 0 59 59l38 -13q-13 -44 -37.5 -67.5t-53.5 -23.5zM78 0v485h53v-107h2
q27 53 76.5 82.5t111.5 29.5q80 0 125.5 -51t45.5 -149v-290h-53v273q0 168 -131 168q-80 0 -128.5 -54.5t-48.5 -145.5v-241h-53z" />
    <glyph glyph-name="ograve" unicode="&#xf2;" horiz-adv-x="586" 
d="M283 561l-117 133h63l112 -133h-58zM293 -5q-109 0 -178 71t-69 176t69 176.5t178 71.5q106 0 176.5 -69t70.5 -179q0 -108 -71 -177.5t-176 -69.5zM293 45q82 0 137.5 55t55.5 142q0 88 -55.5 143.5t-137.5 55.5q-85 0 -139 -57.5t-54 -141.5q0 -83 54 -140t139 -57z
" />
    <glyph glyph-name="oacute" unicode="&#xf3;" horiz-adv-x="586" 
d="M263 560l120 138h63l-124 -138h-59zM293 -5q-109 0 -178 71t-69 176t69 176.5t178 71.5q106 0 176.5 -69t70.5 -179q0 -108 -71 -177.5t-176 -69.5zM293 45q82 0 137.5 55t55.5 142q0 88 -55.5 143.5t-137.5 55.5q-85 0 -139 -57.5t-54 -141.5q0 -83 54 -140t139 -57z
" />
    <glyph glyph-name="ocircumflex" unicode="&#xf4;" horiz-adv-x="586" 
d="M148 560l119 133h57l116 -133h-57l-86 98h-2l-90 -98h-57zM293 -5q-109 0 -178 71t-69 176t69 176.5t178 71.5q106 0 176.5 -69t70.5 -179q0 -108 -71 -177.5t-176 -69.5zM293 45q82 0 137.5 55t55.5 142q0 88 -55.5 143.5t-137.5 55.5q-85 0 -139 -57.5t-54 -141.5
q0 -83 54 -140t139 -57z" />
    <glyph glyph-name="otilde" unicode="&#xf5;" horiz-adv-x="586" 
d="M373 572q-7 0 -13.5 1t-14.5 4t-12.5 4.5t-13.5 7t-11 6.5t-12 8l-11 7q-36 25 -61 25q-40 0 -62 -57l-37 14q29 89 94 89q34 0 80 -30q3 -2 12.5 -9t14.5 -10t12.5 -7t14.5 -6t14 -2q41 0 59 59l38 -13q-13 -44 -37.5 -67.5t-53.5 -23.5zM293 -5q-109 0 -178 71t-69 176
t69 176.5t178 71.5q106 0 176.5 -69t70.5 -179q0 -108 -71 -177.5t-176 -69.5zM293 45q82 0 137.5 55t55.5 142q0 88 -55.5 143.5t-137.5 55.5q-85 0 -139 -57.5t-54 -141.5q0 -83 54 -140t139 -57z" />
    <glyph glyph-name="odieresis" unicode="&#xf6;" horiz-adv-x="586" 
d="M210 591q-18 0 -31 13t-13 30q0 18 13 30.5t31 12.5q19 0 31.5 -12t12.5 -31q0 -18 -12.5 -30.5t-31.5 -12.5zM375 591q-19 0 -31.5 12.5t-12.5 30.5q0 19 12.5 31t31.5 12t31.5 -12t12.5 -31q0 -18 -12.5 -30.5t-31.5 -12.5zM293 -5q-109 0 -178 71t-69 176t69 176.5
t178 71.5q106 0 176.5 -69t70.5 -179q0 -108 -71 -177.5t-176 -69.5zM293 45q82 0 137.5 55t55.5 142q0 88 -55.5 143.5t-137.5 55.5q-85 0 -139 -57.5t-54 -141.5q0 -83 54 -140t139 -57z" />
    <glyph glyph-name="divide" unicode="&#xf7;" horiz-adv-x="582" 
d="M288 425q-19 0 -31.5 13t-12.5 31q0 19 12.5 31t31.5 12t31.5 -12t12.5 -31q0 -18 -12.5 -31t-31.5 -13zM62 252v49h464v-49h-464zM288 36q-19 0 -31.5 13t-12.5 31q0 19 12.5 31t31.5 12t31.5 -12t12.5 -31q0 -18 -12.5 -31t-31.5 -13z" />
    <glyph glyph-name="oslash" unicode="&#xf8;" horiz-adv-x="586" 
d="M545 471l-62 -65q57 -68 57 -164q0 -108 -71 -177.5t-176 -69.5q-87 0 -151 48l-57 -60l-34 30l57 60q-62 70 -62 169q0 105 69 176.5t178 71.5q94 0 159 -54l61 64zM100 242q0 -76 45 -130l271 286q-51 43 -123 43q-85 0 -139 -57.5t-54 -141.5zM486 242q0 71 -39 125
l-269 -286q49 -36 115 -36q82 0 137.5 55t55.5 142z" />
    <glyph glyph-name="ugrave" unicode="&#xf9;" horiz-adv-x="548" 
d="M274 561l-117 133h63l112 -133h-58zM250 -5q-87 0 -135 54t-48 153v283h53v-265q0 -175 139 -175q69 0 116.5 56t47.5 147v237h53v-485h-53v104l-2 1q-26 -52 -71.5 -81t-99.5 -29z" />
    <glyph glyph-name="uacute" unicode="&#xfa;" horiz-adv-x="548" 
d="M235 560l120 138h63l-124 -138h-59zM250 -5q-87 0 -135 54t-48 153v283h53v-265q0 -175 139 -175q69 0 116.5 56t47.5 147v237h53v-485h-53v104l-2 1q-26 -52 -71.5 -81t-99.5 -29z" />
    <glyph glyph-name="ucircumflex" unicode="&#xfb;" horiz-adv-x="548" 
d="M125 560l119 133h57l116 -133h-57l-86 98h-2l-90 -98h-57zM250 -5q-87 0 -135 54t-48 153v283h53v-265q0 -175 139 -175q69 0 116.5 56t47.5 147v237h53v-485h-53v104l-2 1q-26 -52 -71.5 -81t-99.5 -29z" />
    <glyph glyph-name="udieresis" unicode="&#xfc;" horiz-adv-x="548" 
d="M187 591q-18 0 -31 13t-13 30q0 18 13 30.5t31 12.5q19 0 31.5 -12t12.5 -31q0 -18 -12.5 -30.5t-31.5 -12.5zM352 591q-18 0 -31 12.5t-13 30.5q0 19 12.5 31t31.5 12t31.5 -12t12.5 -31q0 -18 -12.5 -30.5t-31.5 -12.5zM250 -5q-87 0 -135 54t-48 153v283h53v-265
q0 -175 139 -175q69 0 116.5 56t47.5 147v237h53v-485h-53v104l-2 1q-26 -52 -71.5 -81t-99.5 -29z" />
    <glyph glyph-name="yacute" unicode="&#xfd;" horiz-adv-x="516" 
d="M215 560l120 138h63l-124 -138h-59zM151 -198l87 211l-214 472h59l181 -407h1l168 407h57l-282 -683h-57z" />
    <glyph glyph-name="thorn" unicode="&#xfe;" horiz-adv-x="607" 
d="M78 -198v934h53v-359h2q27 53 77.5 83t111.5 30q105 0 172 -72t67 -179q0 -108 -68.5 -176t-170.5 -68q-64 0 -113 30t-76 81h-2v-304h-53zM316 45q84 0 137 55.5t53 137.5q0 90 -55 146.5t-136 56.5q-82 0 -133.5 -58.5t-51.5 -144.5q0 -85 53.5 -139t132.5 -54z" />
    <glyph glyph-name="ydieresis" unicode="&#xff;" horiz-adv-x="516" 
d="M175 591q-18 0 -31 13t-13 30q0 18 13 30.5t31 12.5q19 0 31.5 -12t12.5 -31q0 -18 -12.5 -30.5t-31.5 -12.5zM340 591q-18 0 -31 12.5t-13 30.5q0 19 12.5 31t31.5 12t31.5 -12t12.5 -31q0 -18 -12.5 -30.5t-31.5 -12.5zM151 -198l87 211l-214 472h59l181 -407h1
l168 407h57l-282 -683h-57z" />
    <glyph glyph-name="Amacron" unicode="&#x100;" horiz-adv-x="659" 
d="M191 822v47h277v-47h-277zM27 0l271 710h60l274 -710h-60l-73 191h-340l-72 -191h-60zM177 242h304l-151 400h-2z" />
    <glyph glyph-name="amacron" unicode="&#x101;" horiz-adv-x="598" 
d="M155 607v48h277v-48h-277zM283 -5q-102 0 -170.5 68t-68.5 176q0 107 67.5 179t171.5 72q62 0 112 -30.5t77 -84.5h1v110h53v-485h-51v109l-2 1q-27 -53 -76.5 -84t-113.5 -31zM289 45q78 0 132 54t54 139q0 86 -52 144.5t-133 58.5t-136 -56.5t-55 -146.5
q0 -82 53 -137.5t137 -55.5z" />
    <glyph glyph-name="Abreve" unicode="&#x102;" horiz-adv-x="659" 
d="M329 783q-56 0 -93 34t-41 89h44q3 -32 27 -55t63 -23t63 23t26 55h45q-5 -56 -42 -89.5t-92 -33.5zM27 0l271 710h60l274 -710h-60l-73 191h-340l-72 -191h-60zM177 242h304l-151 400h-2z" />
    <glyph glyph-name="abreve" unicode="&#x103;" horiz-adv-x="598" 
d="M293 557q-57 0 -93.5 35.5t-40.5 98.5h44q3 -39 26.5 -64.5t63.5 -25.5q39 0 63 25.5t26 64.5h45q-5 -64 -41.5 -99t-92.5 -35zM283 -5q-102 0 -170.5 68t-68.5 176q0 107 67.5 179t171.5 72q62 0 112 -30.5t77 -84.5h1v110h53v-485h-51v109l-2 1q-27 -53 -76.5 -84
t-113.5 -31zM289 45q78 0 132 54t54 139q0 86 -52 144.5t-133 58.5t-136 -56.5t-55 -146.5q0 -82 53 -137.5t137 -55.5z" />
    <glyph glyph-name="Aogonek" unicode="&#x104;" horiz-adv-x="659" 
d="M653 -132l5 -39q-26 -12 -66 -12q-43 0 -68 21t-25 59q0 27 18.5 56t52.5 51l-71 187h-340l-72 -191h-60l271 710h60l274 -710h-6q-36 -14 -58.5 -40.5t-22.5 -53.5q0 -50 55 -50q29 0 53 12zM177 242h304l-151 400h-2z" />
    <glyph glyph-name="aogonek" unicode="&#x105;" horiz-adv-x="598" 
d="M551 -132l5 -39q-26 -12 -66 -12q-43 0 -68 21t-25 59q0 28 20.5 58t57.5 53v101l-2 1q-27 -53 -76.5 -84t-113.5 -31q-102 0 -170.5 68t-68.5 176q0 107 67.5 179t171.5 72q62 0 112 -30.5t77 -84.5h1v110h53v-485h-2q-36 -14 -58.5 -40.5t-22.5 -53.5q0 -50 55 -50
q29 0 53 12zM289 45q78 0 132 54t54 139q0 86 -52 144.5t-133 58.5t-136 -56.5t-55 -146.5q0 -82 53 -137.5t137 -55.5z" />
    <glyph glyph-name="Cacute" unicode="&#x106;" horiz-adv-x="719" 
d="M363 788l113 128h62l-118 -128h-57zM410 -4q-150 0 -250 94.5t-100 261.5q0 158 92.5 260.5t256.5 102.5q166 0 274 -134l-43 -37q-93 117 -231 117q-135 0 -212.5 -86.5t-77.5 -222.5q0 -140 82 -221t209 -81q138 0 231 115l43 -36q-107 -133 -274 -133z" />
    <glyph glyph-name="cacute" unicode="&#x107;" horiz-adv-x="510" 
d="M249 560l120 138h63l-124 -138h-59zM283 -5q-105 0 -171 69t-66 178q0 110 66.5 179t172.5 69q54 0 104.5 -21t84.5 -60l-38 -34q-54 66 -149 66q-84 0 -135.5 -55.5t-51.5 -142.5q0 -88 52 -143t135 -55q45 0 85.5 17.5t66.5 47.5l36 -34q-71 -81 -192 -81z" />
    <glyph glyph-name="Ccircumflex" unicode="&#x108;" horiz-adv-x="719" 
d="M262 788l120 118h57l117 -118h-58l-87 85h-2l-90 -85h-57zM410 -4q-150 0 -250 94.5t-100 261.5q0 158 92.5 260.5t256.5 102.5q166 0 274 -134l-43 -37q-93 117 -231 117q-135 0 -212.5 -86.5t-77.5 -222.5q0 -140 82 -221t209 -81q138 0 231 115l43 -36
q-107 -133 -274 -133z" />
    <glyph glyph-name="ccircumflex" unicode="&#x109;" horiz-adv-x="510" 
d="M136 560l119 133h57l116 -133h-57l-86 98h-2l-90 -98h-57zM283 -5q-105 0 -171 69t-66 178q0 110 66.5 179t172.5 69q54 0 104.5 -21t84.5 -60l-38 -34q-54 66 -149 66q-84 0 -135.5 -55.5t-51.5 -142.5q0 -88 52 -143t135 -55q45 0 85.5 17.5t66.5 47.5l36 -34
q-71 -81 -192 -81z" />
    <glyph glyph-name="Cdotaccent" unicode="&#x10a;" horiz-adv-x="719" 
d="M410 809q-19 0 -31.5 13t-12.5 31q0 19 12.5 31t31.5 12t31.5 -12t12.5 -31q0 -18 -12.5 -31t-31.5 -13zM410 -4q-150 0 -250 94.5t-100 261.5q0 158 92.5 260.5t256.5 102.5q166 0 274 -134l-43 -37q-93 117 -231 117q-135 0 -212.5 -86.5t-77.5 -222.5q0 -140 82 -221
t209 -81q138 0 231 115l43 -36q-107 -133 -274 -133z" />
    <glyph glyph-name="cdotaccent" unicode="&#x10b;" horiz-adv-x="510" 
d="M283 590q-19 0 -31.5 13t-12.5 31q0 19 12.5 31t31.5 12t31.5 -12t12.5 -31q0 -18 -12.5 -31t-31.5 -13zM283 -5q-105 0 -171 69t-66 178q0 110 66.5 179t172.5 69q54 0 104.5 -21t84.5 -60l-38 -34q-54 66 -149 66q-84 0 -135.5 -55.5t-51.5 -142.5q0 -88 52 -143
t135 -55q45 0 85.5 17.5t66.5 47.5l36 -34q-71 -81 -192 -81z" />
    <glyph glyph-name="Ccaron" unicode="&#x10c;" horiz-adv-x="719" 
d="M379 788l-117 118h57l88 -85h2l89 85h58l-120 -118h-57zM410 -4q-150 0 -250 94.5t-100 261.5q0 158 92.5 260.5t256.5 102.5q166 0 274 -134l-43 -37q-93 117 -231 117q-135 0 -212.5 -86.5t-77.5 -222.5q0 -140 82 -221t209 -81q138 0 231 115l43 -36
q-107 -133 -274 -133z" />
    <glyph glyph-name="ccaron" unicode="&#x10d;" horiz-adv-x="510" 
d="M252 559l-116 134h56l88 -99h2l89 99h57l-119 -134h-57zM283 -5q-105 0 -171 69t-66 178q0 110 66.5 179t172.5 69q54 0 104.5 -21t84.5 -60l-38 -34q-54 66 -149 66q-84 0 -135.5 -55.5t-51.5 -142.5q0 -88 52 -143t135 -55q45 0 85.5 17.5t66.5 47.5l36 -34
q-71 -81 -192 -81z" />
    <glyph glyph-name="Dcaron" unicode="&#x10e;" horiz-adv-x="716" 
d="M306 788l-117 118h57l88 -85h2l89 85h58l-120 -118h-57zM88 0v710h201q167 0 268 -98.5t101 -257.5t-99.5 -256.5t-266.5 -97.5h-204zM145 52h144q142 0 226 84t84 218q0 135 -85.5 219.5t-224.5 84.5h-144v-606z" />
    <glyph glyph-name="dcaron" unicode="&#x10f;" horiz-adv-x="670" 
d="M612 592l26 172h55l-41 -172h-40zM285 -5q-102 0 -170.5 68t-68.5 176q0 107 67 179t172 72q62 0 112.5 -30.5t77.5 -85.5h2v362h52v-736h-51v111h-2q-25 -53 -75.5 -84.5t-115.5 -31.5zM291 45q79 0 133 54t54 139q0 86 -52.5 144.5t-134.5 58.5q-81 0 -136 -56.5
t-55 -146.5q0 -82 53 -137.5t138 -55.5z" />
    <glyph glyph-name="Dcroat" unicode="&#x110;" horiz-adv-x="716" 
d="M289 710q167 0 268 -98.5t101 -257.5t-99.5 -256.5t-266.5 -97.5h-204v330h-77v51h77v329h201zM289 52q142 0 226 84t84 218q0 135 -85.5 219.5t-224.5 84.5h-144v-277h210v-51h-210v-278h144z" />
    <glyph glyph-name="dcroat" unicode="&#x111;" horiz-adv-x="602" 
d="M592 620v-41h-63v-579h-51v111h-2q-25 -53 -75.5 -84.5t-115.5 -31.5q-102 0 -170.5 68t-68.5 176q0 107 67 179t172 72q62 0 112.5 -30.5t77.5 -85.5h2v205h-225v41h225v116h52v-116h63zM291 45q79 0 133 54t54 139q0 86 -52.5 144.5t-134.5 58.5q-81 0 -136 -56.5
t-55 -146.5q0 -82 53 -137.5t138 -55.5z" />
    <glyph glyph-name="Emacron" unicode="&#x112;" horiz-adv-x="579" 
d="M160 822v47h277v-47h-277zM88 0v710h424v-52h-367v-278h305v-52h-305v-276h388v-52h-445z" />
    <glyph glyph-name="emacron" unicode="&#x113;" horiz-adv-x="542" 
d="M421 655v-48h-277v48h277zM499 255q0 -21 -1 -24h-398q4 -83 55 -134.5t131 -51.5q100 0 156 73l38 -32q-68 -91 -195 -91q-105 0 -172 69.5t-67 178.5q0 107 67 177t168 70q97 0 157.5 -66.5t60.5 -168.5zM281 441q-70 0 -119.5 -45.5t-59.5 -120.5h344
q-8 75 -51.5 120.5t-113.5 45.5z" />
    <glyph glyph-name="Ebreve" unicode="&#x114;" horiz-adv-x="579" 
d="M298 783q-56 0 -93 34t-41 89h44q3 -32 27 -55t63 -23t63 23t26 55h45q-5 -56 -42 -89.5t-92 -33.5zM88 0v710h424v-52h-367v-278h305v-52h-305v-276h388v-52h-445z" />
    <glyph glyph-name="ebreve" unicode="&#x115;" horiz-adv-x="542" 
d="M282 557q-57 0 -93.5 35.5t-40.5 98.5h44q3 -39 26.5 -64.5t63.5 -25.5q39 0 63 25.5t26 64.5h45q-5 -64 -41.5 -99t-92.5 -35zM499 255q0 -21 -1 -24h-398q4 -83 55 -134.5t131 -51.5q100 0 156 73l38 -32q-68 -91 -195 -91q-105 0 -172 69.5t-67 178.5q0 107 67 177
t168 70q97 0 157.5 -66.5t60.5 -168.5zM281 441q-70 0 -119.5 -45.5t-59.5 -120.5h344q-8 75 -51.5 120.5t-113.5 45.5z" />
    <glyph glyph-name="Edotaccent" unicode="&#x116;" horiz-adv-x="579" 
d="M299 809q-19 0 -31.5 13t-12.5 31q0 19 12.5 31t31.5 12t31.5 -12t12.5 -31q0 -18 -12.5 -31t-31.5 -13zM88 0v710h424v-52h-367v-278h305v-52h-305v-276h388v-52h-445z" />
    <glyph glyph-name="edotaccent" unicode="&#x117;" horiz-adv-x="542" 
d="M283 590q-19 0 -31.5 13t-12.5 31q0 19 12.5 31t31.5 12t31.5 -12t12.5 -31q0 -18 -12.5 -31t-31.5 -13zM499 255q0 -21 -1 -24h-398q4 -83 55 -134.5t131 -51.5q100 0 156 73l38 -32q-68 -91 -195 -91q-105 0 -172 69.5t-67 178.5q0 107 67 177t168 70q97 0 157.5 -66.5
t60.5 -168.5zM281 441q-70 0 -119.5 -45.5t-59.5 -120.5h344q-8 75 -51.5 120.5t-113.5 45.5z" />
    <glyph glyph-name="Eogonek" unicode="&#x118;" horiz-adv-x="579" 
d="M558 -132l5 -39q-25 -12 -66 -12q-43 0 -68 21t-25 59q0 57 66 103h-382v710h424v-52h-367v-278h305v-52h-305v-276h388v-52h-2q-36 -14 -58.5 -40.5t-22.5 -53.5q0 -50 55 -50q29 0 53 12z" />
    <glyph glyph-name="eogonek" unicode="&#x119;" horiz-adv-x="542" 
d="M499 255q0 -21 -1 -24h-398q4 -83 55 -134.5t131 -51.5q100 0 156 73l38 -32q-53 -70 -143 -87q-35 -17 -55.5 -41t-20.5 -50q0 -21 14 -34.5t41 -13.5q28 0 52 11l5 -39q-23 -13 -65 -13q-45 0 -70.5 21t-25.5 59q0 52 56 96v1q-98 6 -160 74.5t-62 172.5q0 107 67 177
t168 70q97 0 157.5 -66.5t60.5 -168.5zM281 441q-70 0 -119.5 -45.5t-59.5 -120.5h344q-8 75 -51.5 120.5t-113.5 45.5z" />
    <glyph glyph-name="Ecaron" unicode="&#x11a;" horiz-adv-x="579" 
d="M268 788l-117 118h57l88 -85h2l89 85h58l-120 -118h-57zM88 0v710h424v-52h-367v-278h305v-52h-305v-276h388v-52h-445z" />
    <glyph glyph-name="ecaron" unicode="&#x11b;" horiz-adv-x="542" 
d="M309 559h-57l-116 134h56l88 -99h2l89 99h57zM499 255q0 -21 -1 -24h-398q4 -83 55 -134.5t131 -51.5q100 0 156 73l38 -32q-68 -91 -195 -91q-105 0 -172 69.5t-67 178.5q0 107 67 177t168 70q97 0 157.5 -66.5t60.5 -168.5zM281 441q-70 0 -119.5 -45.5t-59.5 -120.5
h344q-8 75 -51.5 120.5t-113.5 45.5z" />
    <glyph glyph-name="Gcircumflex" unicode="&#x11c;" horiz-adv-x="760" 
d="M258 788l120 118h57l117 -118h-58l-87 85h-2l-90 -85h-57zM410 -4q-154 0 -252 98.5t-98 259.5q0 160 96.5 260.5t252.5 100.5q161 0 265 -105l-40 -36q-90 87 -225 87q-128 0 -209 -84.5t-81 -222.5q0 -135 80.5 -220t210.5 -85q132 0 219 69v184h-237v52h293v-266
q-104 -92 -275 -92z" />
    <glyph glyph-name="gcircumflex" unicode="&#x11d;" horiz-adv-x="593" 
d="M140 560l119 133h57l116 -133h-57l-86 98h-2l-90 -98h-57zM292 -202q-110 0 -199 54l14 49q90 -54 183 -54q88 0 134 46.5t46 121.5v104h-1q-27 -50 -75.5 -79t-112.5 -29q-101 0 -168.5 66.5t-67.5 174.5q0 101 65.5 169.5t168.5 68.5q61 0 110.5 -27.5t78.5 -77.5h1
v100h53v-461q0 -104 -58 -165t-172 -61zM286 61q84 0 134.5 54t50.5 138q0 83 -52.5 135.5t-132.5 52.5q-83 0 -134.5 -54t-51.5 -134q0 -86 53 -139t133 -53z" />
    <glyph glyph-name="Gbreve" unicode="&#x11e;" horiz-adv-x="760" 
d="M405 783q-56 0 -93 34t-41 89h44q3 -32 27 -55t63 -23t63 23t26 55h45q-5 -56 -42 -89.5t-92 -33.5zM410 -4q-154 0 -252 98.5t-98 259.5q0 160 96.5 260.5t252.5 100.5q161 0 265 -105l-40 -36q-90 87 -225 87q-128 0 -209 -84.5t-81 -222.5q0 -135 80.5 -220t210.5 -85
q132 0 219 69v184h-237v52h293v-266q-104 -92 -275 -92z" />
    <glyph glyph-name="gbreve" unicode="&#x11f;" horiz-adv-x="593" 
d="M286 557q-57 0 -93.5 35.5t-40.5 98.5h44q3 -39 26.5 -64.5t63.5 -25.5q39 0 63 25.5t26 64.5h45q-5 -64 -41.5 -99t-92.5 -35zM292 -202q-110 0 -199 54l14 49q90 -54 183 -54q88 0 134 46.5t46 121.5v104h-1q-27 -50 -75.5 -79t-112.5 -29q-101 0 -168.5 66.5
t-67.5 174.5q0 101 65.5 169.5t168.5 68.5q61 0 110.5 -27.5t78.5 -77.5h1v100h53v-461q0 -104 -58 -165t-172 -61zM286 61q84 0 134.5 54t50.5 138q0 83 -52.5 135.5t-132.5 52.5q-83 0 -134.5 -54t-51.5 -134q0 -86 53 -139t133 -53z" />
    <glyph glyph-name="Gdotaccent" unicode="&#x120;" horiz-adv-x="760" 
d="M406 809q-19 0 -31.5 13t-12.5 31q0 19 12.5 31t31.5 12t31.5 -12t12.5 -31q0 -18 -12.5 -31t-31.5 -13zM410 -4q-154 0 -252 98.5t-98 259.5q0 160 96.5 260.5t252.5 100.5q161 0 265 -105l-40 -36q-90 87 -225 87q-128 0 -209 -84.5t-81 -222.5q0 -135 80.5 -220
t210.5 -85q132 0 219 69v184h-237v52h293v-266q-104 -92 -275 -92z" />
    <glyph glyph-name="gdotaccent" unicode="&#x121;" horiz-adv-x="593" 
d="M287 590q-19 0 -31.5 13t-12.5 31q0 19 12.5 31t31.5 12t31.5 -12t12.5 -31q0 -18 -12.5 -31t-31.5 -13zM292 -202q-110 0 -199 54l14 49q90 -54 183 -54q88 0 134 46.5t46 121.5v104h-1q-27 -50 -75.5 -79t-112.5 -29q-101 0 -168.5 66.5t-67.5 174.5q0 101 65.5 169.5
t168.5 68.5q61 0 110.5 -27.5t78.5 -77.5h1v100h53v-461q0 -104 -58 -165t-172 -61zM286 61q84 0 134.5 54t50.5 138q0 83 -52.5 135.5t-132.5 52.5q-83 0 -134.5 -54t-51.5 -134q0 -86 53 -139t133 -53z" />
    <glyph glyph-name="Gcommaaccent" unicode="&#x122;" horiz-adv-x="760" 
d="M410 -4q-154 0 -252 98.5t-98 259.5q0 160 96.5 260.5t252.5 100.5q161 0 265 -105l-40 -36q-90 87 -225 87q-128 0 -209 -84.5t-81 -222.5q0 -135 80.5 -220t210.5 -85q132 0 219 69v184h-237v52h293v-266q-104 -92 -275 -92zM331 -206l-14 34q64 8 64 68q0 23 -6 50h50
q5 -28 5 -53q0 -42 -25.5 -68.5t-73.5 -30.5z" />
    <glyph glyph-name="gcommaaccent" unicode="&#x123;" horiz-adv-x="593" 
d="M364 706l14 -34q-64 -8 -64 -68q0 -23 6 -50h-50q-5 28 -5 53q0 42 25.5 68.5t73.5 30.5zM292 -202q-110 0 -199 54l14 49q90 -54 183 -54q88 0 134 46.5t46 121.5v104h-1q-27 -50 -75.5 -79t-112.5 -29q-101 0 -168.5 66.5t-67.5 174.5q0 101 65.5 169.5t168.5 68.5
q61 0 110.5 -27.5t78.5 -77.5h1v100h53v-461q0 -104 -58 -165t-172 -61zM286 61q84 0 134.5 54t50.5 138q0 83 -52.5 135.5t-132.5 52.5q-83 0 -134.5 -54t-51.5 -134q0 -86 53 -139t133 -53z" />
    <glyph glyph-name="Hcircumflex" unicode="&#x124;" horiz-adv-x="707" 
d="M207 788l120 118h57l117 -118h-58l-87 85h-2l-90 -85h-57zM88 0v710h57v-348h417v348h57v-710h-57v310h-417v-310h-57z" />
    <glyph glyph-name="hcircumflex" unicode="&#x125;" horiz-adv-x="565" 
d="M78 800l120 118h57l117 -118h-58l-87 85h-2l-90 -85h-57zM78 0v736h53v-356h1q27 52 77.5 81t115.5 29q80 0 126 -50.5t46 -147.5v-292h-53v275q0 166 -131 166q-83 0 -132.5 -54t-49.5 -145v-242h-53z" />
    <glyph glyph-name="Hbar" unicode="&#x126;" horiz-adv-x="708" 
d="M686 577v-42h-66v-535h-57v310h-417v-310h-57v535h-70v42h70v133h57v-133h417v133h57v-133h66zM563 362v173h-417v-173h417z" />
    <glyph glyph-name="hbar" unicode="&#x127;" horiz-adv-x="565" 
d="M325 490q80 0 126 -50.5t46 -147.5v-292h-53v275q0 166 -131 166q-83 0 -132.5 -54t-49.5 -145v-242h-53v579h-73v41h73v116h53v-116h204v-41h-204v-199h1q27 52 77.5 81t115.5 29z" />
    <glyph glyph-name="Itilde" unicode="&#x128;" horiz-adv-x="246" 
d="M200 788q-29 0 -86 37q-40 27 -64 27q-40 0 -60 -58l-37 15q30 86 94 86q30 0 82 -31q3 -2 15.5 -10.5t18.5 -12t16 -7t18 -3.5q38 0 57 59l37 -13q-27 -89 -91 -89zM94 0v710h57v-710h-57z" />
    <glyph glyph-name="itilde" unicode="&#x129;" horiz-adv-x="222" 
d="M190 572q-7 0 -13.5 1t-14.5 4t-12.5 4.5t-13.5 7t-11 6.5t-13 8l-10 7q-36 25 -61 25q-40 0 -62 -57l-37 14q29 89 94 89q34 0 80 -30q3 -2 12.5 -9t14.5 -10t12.5 -7t14.5 -6t14 -2q41 0 59 59l38 -13q-13 -44 -37.5 -67.5t-53.5 -23.5zM84 0v485h53v-485h-53z" />
    <glyph glyph-name="Imacron" unicode="&#x12a;" horiz-adv-x="246" 
d="M-16 822v47h277v-47h-277zM94 0v710h57v-710h-57z" />
    <glyph glyph-name="imacron" unicode="&#x12b;" horiz-adv-x="222" 
d="M-27 607v48h277v-48h-277zM84 0v485h53v-485h-53z" />
    <glyph glyph-name="Ibreve" unicode="&#x12c;" horiz-adv-x="246" 
d="M122 783q-56 0 -93 34t-41 89h44q3 -32 27 -55t63 -23t63 23t26 55h45q-5 -56 -42 -89.5t-92 -33.5zM94 0v710h57v-710h-57z" />
    <glyph glyph-name="ibreve" unicode="&#x12d;" horiz-adv-x="222" 
d="M111 558q-52 0 -85.5 34.5t-37.5 98.5h45q2 -41 21.5 -66.5t56.5 -25.5q36 0 56 25.5t21 66.5h45q-4 -62 -37 -97.5t-85 -35.5zM84 0v485h53v-485h-53z" />
    <glyph glyph-name="Iogonek" unicode="&#x12e;" horiz-adv-x="246" 
d="M174 -132l5 -39q-25 -12 -66 -12q-43 0 -68 21t-25 59q0 27 19 56.5t55 52.5v704h57v-710h-4q-36 -14 -58.5 -40.5t-22.5 -53.5q0 -50 55 -50q29 0 53 12z" />
    <glyph glyph-name="iogonek" unicode="&#x12f;" horiz-adv-x="222" 
d="M112 590q-19 0 -31.5 13t-12.5 31q0 19 12.5 31t31.5 12t31.5 -12t12.5 -31q0 -18 -12.5 -31t-31.5 -13zM162 -132l5 -39q-25 -12 -66 -12q-43 0 -68 21t-25 59q0 27 20 57t56 53v478h53v-485h-2q-36 -14 -58.5 -40.5t-22.5 -53.5q0 -50 55 -50q29 0 53 12z" />
    <glyph glyph-name="Idotaccent" unicode="&#x130;" horiz-adv-x="246" 
d="M123 809q-19 0 -31.5 13t-12.5 31q0 19 12.5 31t31.5 12t31.5 -12t12.5 -31q0 -18 -12.5 -31t-31.5 -13zM94 0v710h57v-710h-57z" />
    <glyph glyph-name="dotlessi" unicode="&#x131;" horiz-adv-x="222" 
d="M84 0v485h53v-485h-53z" />
    <glyph glyph-name="IJ" unicode="&#x132;" horiz-adv-x="727" 
d="M94 0v710h57v-710h-57zM460 -4q-47 0 -97.5 24t-88.5 68l32 42q73 -80 153 -80q134 0 134 174v486h56v-490q0 -224 -189 -224z" />
    <glyph glyph-name="ij" unicode="&#x133;" horiz-adv-x="423" 
d="M112 590q-19 0 -31.5 13t-12.5 31q0 19 12.5 31t31.5 12t31.5 -12t12.5 -31q0 -18 -12.5 -31t-31.5 -13zM328 590q-19 0 -31.5 13t-12.5 31q0 19 12.5 31t31.5 12t31.5 -12t12.5 -31q0 -18 -12.5 -31t-31.5 -13zM84 0v485h53v-485h-53zM240 -203q-39 0 -74 16l9 49
q25 -15 58 -15q68 0 68 86v552h53v-552q0 -62 -28.5 -99t-85.5 -37z" />
    <glyph glyph-name="Jcircumflex" unicode="&#x134;" horiz-adv-x="481" 
d="M229 788l120 118h57l117 -118h-58l-87 85h-2l-90 -85h-57zM214 -4q-47 0 -97.5 24t-88.5 68l32 42q73 -80 153 -80q134 0 134 174v486h56v-490q0 -224 -189 -224z" />
    <glyph glyph-name="jcircumflex" unicode="&#x135;" horiz-adv-x="201" 
d="M-41 560l119 133h57l116 -133h-57l-86 98h-2l-90 -98h-57zM18 -203q-39 0 -74 16l9 49q25 -15 58 -15q68 0 68 86v552h53v-552q0 -62 -28.5 -99t-85.5 -37z" />
    <glyph glyph-name="Kcommaaccent" unicode="&#x136;" horiz-adv-x="630" 
d="M88 0v710h57v-434h2l368 434h73l-283 -329l289 -381h-71l-255 336l-123 -143v-193h-57zM251 -206l-14 34q64 8 64 68q0 23 -6 50h50q5 -28 5 -53q0 -42 -25.5 -68.5t-73.5 -30.5z" />
    <glyph glyph-name="kcommaaccent" unicode="&#x137;" horiz-adv-x="501" 
d="M78 0v736h53v-554l2 -1l276 304h66l-187 -205l186 -280h-61l-163 242l-119 -129v-113h-53zM192 -206l-14 34q64 8 64 68q0 23 -6 50h50q5 -28 5 -53q0 -42 -25.5 -68.5t-73.5 -30.5z" />
    <glyph glyph-name="kgreenlandic" unicode="&#x138;" horiz-adv-x="526" 
d="M78 0v485h53v-304l2 -1l288 305h69l-202 -212l212 -273h-66l-183 236l-120 -125v-111h-53z" />
    <glyph glyph-name="Lacute" unicode="&#x139;" horiz-adv-x="544" 
d="M187 788l113 128h62l-118 -128h-57zM88 0v710h57v-658h372v-52h-429z" />
    <glyph glyph-name="lacute" unicode="&#x13a;" horiz-adv-x="221" 
d="M81 801l113 128h62l-118 -128h-57zM84 0v736h53v-736h-53z" />
    <glyph glyph-name="Lcommaaccent" unicode="&#x13b;" horiz-adv-x="544" 
d="M88 0v710h57v-658h372v-52h-429zM223 -206l-14 34q64 8 64 68q0 23 -6 50h50q5 -28 5 -53q0 -42 -25.5 -68.5t-73.5 -30.5z" />
    <glyph glyph-name="lcommaaccent" unicode="&#x13c;" horiz-adv-x="221" 
d="M84 0v736h53v-736h-53zM42 -206l-14 34q64 8 64 68q0 23 -6 50h50q5 -28 5 -53q0 -42 -25.5 -68.5t-73.5 -30.5z" />
    <glyph glyph-name="Lcaron" unicode="&#x13d;" horiz-adv-x="544" 
d="M290 591l26 172h55l-41 -172h-40zM88 0v710h57v-658h372v-52h-429z" />
    <glyph glyph-name="lcaron" unicode="&#x13e;" horiz-adv-x="277" 
d="M220 592l26 172h55l-41 -172h-40zM84 0v736h53v-736h-53z" />
    <glyph glyph-name="Ldot" unicode="&#x13f;" horiz-adv-x="544" 
d="M88 0v710h57v-658h372v-52h-429zM394 294q-19 0 -32 12.5t-13 31.5t13 31.5t32 12.5t32 -12.5t13 -31.5t-13 -31.5t-32 -12.5z" />
    <glyph glyph-name="ldot" unicode="&#x140;" horiz-adv-x="294" 
d="M84 0v736h53v-736h-53zM257 221q-19 0 -32 12.5t-13 31.5t13 31.5t32 12.5t32 -12.5t13 -31.5t-13 -31.5t-32 -12.5z" />
    <glyph glyph-name="Lslash" unicode="&#x141;" horiz-adv-x="565" 
d="M167 52h372v-52h-429v292l-88 -37v51l88 37v367h57v-342l118 50v-51l-118 -50v-265z" />
    <glyph glyph-name="lslash" unicode="&#x142;" horiz-adv-x="243" 
d="M230 390v-46l-79 -32v-312h-53v291l-85 -34v46l85 34v399h53v-378z" />
    <glyph glyph-name="Nacute" unicode="&#x143;" horiz-adv-x="740" 
d="M289 788l113 128h62l-118 -128h-57zM88 0v710h56l449 -615h2v615h56v-710h-57l-448 611h-1v-611h-57z" />
    <glyph glyph-name="nacute" unicode="&#x144;" horiz-adv-x="560" 
d="M236 560l120 138h63l-124 -138h-59zM78 0v485h53v-107h2q27 53 76.5 82.5t111.5 29.5q80 0 125.5 -51t45.5 -149v-290h-53v273q0 168 -131 168q-80 0 -128.5 -54.5t-48.5 -145.5v-241h-53z" />
    <glyph glyph-name="Ncommaaccent" unicode="&#x145;" horiz-adv-x="740" 
d="M88 0v710h56l449 -615h2v615h56v-710h-57l-448 611h-1v-611h-57zM300 -206l-14 34q64 8 64 68q0 23 -6 50h50q5 -28 5 -53q0 -42 -25.5 -68.5t-73.5 -30.5z" />
    <glyph glyph-name="ncommaaccent" unicode="&#x146;" horiz-adv-x="560" 
d="M78 0v485h53v-107h2q27 53 76.5 82.5t111.5 29.5q80 0 125.5 -51t45.5 -149v-290h-53v273q0 168 -131 168q-80 0 -128.5 -54.5t-48.5 -145.5v-241h-53zM218 -206l-14 34q64 8 64 68q0 23 -6 50h50q5 -28 5 -53q0 -42 -25.5 -68.5t-73.5 -30.5z" />
    <glyph glyph-name="Ncaron" unicode="&#x147;" horiz-adv-x="740" 
d="M340 788l-117 118h57l88 -85h2l89 85h58l-120 -118h-57zM88 0v710h56l449 -615h2v615h56v-710h-57l-448 611h-1v-611h-57z" />
    <glyph glyph-name="ncaron" unicode="&#x148;" horiz-adv-x="560" 
d="M257 559l-116 134h56l88 -99h2l89 99h57l-119 -134h-57zM78 0v485h53v-107h2q27 53 76.5 82.5t111.5 29.5q80 0 125.5 -51t45.5 -149v-290h-53v273q0 168 -131 168q-80 0 -128.5 -54.5t-48.5 -145.5v-241h-53z" />
    <glyph glyph-name="napostrophe" unicode="&#x149;" horiz-adv-x="621" 
d="M15 528l26 182h55l-41 -182h-40zM139 0v485h53v-107h2q27 53 76.5 82.5t111.5 29.5q80 0 125.5 -51t45.5 -149v-290h-53v273q0 168 -131 168q-80 0 -128.5 -54.5t-48.5 -145.5v-241h-53z" />
    <glyph glyph-name="Eng" unicode="&#x14a;" horiz-adv-x="740" 
d="M594 710h57v-727q0 -98 -42.5 -141.5t-124.5 -43.5q-44 0 -78 14l5 48q26 -13 66 -13q57 0 87 30.5t30 103.5v18l-448 612h-1v-611h-57v710h55l449 -615h2v615z" />
    <glyph glyph-name="eng" unicode="&#x14b;" horiz-adv-x="559" 
d="M341 -202q-37 0 -69 14l5 45q26 -13 59 -13q54 0 78 26t24 95v308q0 168 -132 168q-78 0 -126.5 -54.5t-48.5 -145.5v-241h-53v485h53v-107h2q27 53 75.5 82.5t111.5 29.5q80 0 125.5 -51t45.5 -149v-321q0 -88 -35 -129.5t-115 -41.5z" />
    <glyph glyph-name="Omacron" unicode="&#x14c;" horiz-adv-x="824" 
d="M275 822v47h277v-47h-277zM413 -5q-152 0 -252.5 101t-100.5 260q0 158 100.5 258.5t252.5 100.5q150 0 250.5 -100t100.5 -259q0 -160 -101 -260.5t-250 -100.5zM413 49q123 0 207.5 86t84.5 221q0 134 -84.5 219.5t-207.5 85.5q-126 0 -210.5 -86t-84.5 -219
q0 -134 84.5 -220.5t210.5 -86.5z" />
    <glyph glyph-name="omacron" unicode="&#x14d;" horiz-adv-x="586" 
d="M156 607v48h277v-48h-277zM293 -5q-109 0 -178 71t-69 176t69 176.5t178 71.5q106 0 176.5 -69t70.5 -179q0 -108 -71 -177.5t-176 -69.5zM293 45q82 0 137.5 55t55.5 142q0 88 -55.5 143.5t-137.5 55.5q-85 0 -139 -57.5t-54 -141.5q0 -83 54 -140t139 -57z" />
    <glyph glyph-name="Obreve" unicode="&#x14e;" horiz-adv-x="824" 
d="M413 783q-56 0 -93 34t-41 89h44q3 -32 27 -55t63 -23t63 23t26 55h45q-5 -56 -42 -89.5t-92 -33.5zM413 -5q-152 0 -252.5 101t-100.5 260q0 158 100.5 258.5t252.5 100.5q150 0 250.5 -100t100.5 -259q0 -160 -101 -260.5t-250 -100.5zM413 49q123 0 207.5 86t84.5 221
q0 134 -84.5 219.5t-207.5 85.5q-126 0 -210.5 -86t-84.5 -219q0 -134 84.5 -220.5t210.5 -86.5z" />
    <glyph glyph-name="obreve" unicode="&#x14f;" horiz-adv-x="586" 
d="M294 557q-57 0 -93.5 35.5t-40.5 98.5h44q3 -39 26.5 -64.5t63.5 -25.5q39 0 63 25.5t26 64.5h45q-5 -64 -41.5 -99t-92.5 -35zM293 -5q-109 0 -178 71t-69 176t69 176.5t178 71.5q106 0 176.5 -69t70.5 -179q0 -108 -71 -177.5t-176 -69.5zM293 45q82 0 137.5 55
t55.5 142q0 88 -55.5 143.5t-137.5 55.5q-85 0 -139 -57.5t-54 -141.5q0 -83 54 -140t139 -57z" />
    <glyph glyph-name="Ohungarumlaut" unicode="&#x150;" horiz-adv-x="824" 
d="M313 789l119 138h60l-124 -138h-55zM460 789l119 138h60l-125 -138h-54zM413 -5q-152 0 -252.5 101t-100.5 260q0 158 100.5 258.5t252.5 100.5q150 0 250.5 -100t100.5 -259q0 -160 -101 -260.5t-250 -100.5zM413 49q123 0 207.5 86t84.5 221q0 134 -84.5 219.5
t-207.5 85.5q-126 0 -210.5 -86t-84.5 -219q0 -134 84.5 -220.5t210.5 -86.5z" />
    <glyph glyph-name="ohungarumlaut" unicode="&#x151;" horiz-adv-x="586" 
d="M194 560l119 138h60l-124 -138h-55zM341 560l119 138h60l-125 -138h-54zM293 -5q-109 0 -178 71t-69 176t69 176.5t178 71.5q106 0 176.5 -69t70.5 -179q0 -108 -71 -177.5t-176 -69.5zM293 45q82 0 137.5 55t55.5 142q0 88 -55.5 143.5t-137.5 55.5q-85 0 -139 -57.5
t-54 -141.5q0 -83 54 -140t139 -57z" />
    <glyph glyph-name="OE" unicode="&#x152;" horiz-adv-x="944" 
d="M509 52h389v-52h-482q-157 0 -256.5 103t-99.5 254q0 150 99.5 252t256.5 101h462v-52h-369v-278h310v-52h-310v-276zM416 54h39v602h-39q-125 2 -211.5 -83t-86.5 -216q0 -132 86.5 -218t211.5 -85z" />
    <glyph glyph-name="oe" unicode="&#x153;" horiz-adv-x="819" 
d="M788 253q0 -5 -0.5 -13t-0.5 -9h-345q4 -87 46 -136.5t113 -49.5q47 0 77.5 18t55.5 55l38 -32q-63 -91 -171 -91q-137 0 -186 130h-2q-20 -59 -67.5 -94.5t-105.5 -35.5q-94 0 -149.5 69t-55.5 178q0 107 57 177.5t148 70.5q60 0 105.5 -35.5t66.5 -94.5h2
q22 61 68.5 95.5t112.5 34.5q85 0 139 -67t54 -170zM239 45q64 0 106.5 55t42.5 142q0 88 -42.5 143.5t-104.5 55.5q-68 0 -110 -56.5t-42 -142.5t41 -141.5t109 -55.5zM444 275h291q-6 76 -43.5 121t-97.5 45q-66 0 -105 -45t-45 -121z" />
    <glyph glyph-name="Racute" unicode="&#x154;" horiz-adv-x="628" 
d="M227 788l113 128h62l-118 -128h-57zM88 0v710h243q114 0 171 -57.5t57 -152.5q0 -93 -51 -144.5t-143 -63.5l208 -292h-69l-202 287h-157v-287h-57zM145 340h166q97 0 143 43.5t46 116.5q0 77 -46 117.5t-128 40.5h-181v-318z" />
    <glyph glyph-name="racute" unicode="&#x155;" horiz-adv-x="336" 
d="M123 560l120 138h63l-124 -138h-59zM78 0v485h53v-103h2q52 108 165 108h26v-59q-22 2 -31 2q-74 0 -118 -54t-44 -141v-238h-53z" />
    <glyph glyph-name="Rcommaaccent" unicode="&#x156;" horiz-adv-x="628" 
d="M88 0v710h243q114 0 171 -57.5t57 -152.5q0 -93 -51 -144.5t-143 -63.5l208 -292h-69l-202 287h-157v-287h-57zM145 340h166q97 0 143 43.5t46 116.5q0 77 -46 117.5t-128 40.5h-181v-318zM236 -206l-14 34q64 8 64 68q0 23 -6 50h50q5 -28 5 -53q0 -42 -25.5 -68.5
t-73.5 -30.5z" />
    <glyph glyph-name="rcommaaccent" unicode="&#x157;" horiz-adv-x="336" 
d="M78 0v485h53v-103h2q52 108 165 108h26v-59q-22 2 -31 2q-74 0 -118 -54t-44 -141v-238h-53zM38 -206l-14 34q64 8 64 68q0 23 -6 50h50q5 -28 5 -53q0 -42 -25.5 -68.5t-73.5 -30.5z" />
    <glyph glyph-name="Rcaron" unicode="&#x158;" horiz-adv-x="628" 
d="M278 788l-117 118h57l88 -85h2l89 85h58l-120 -118h-57zM88 0v710h243q114 0 171 -57.5t57 -152.5q0 -93 -51 -144.5t-143 -63.5l208 -292h-69l-202 287h-157v-287h-57zM145 340h166q97 0 143 43.5t46 116.5q0 77 -46 117.5t-128 40.5h-181v-318z" />
    <glyph glyph-name="rcaron" unicode="&#x159;" horiz-adv-x="336" 
d="M174 559l-116 134h56l88 -99h2l89 99h57l-119 -134h-57zM78 0v485h53v-103h2q52 108 165 108h26v-59q-22 2 -31 2q-74 0 -118 -54t-44 -141v-238h-53z" />
    <glyph glyph-name="Sacute" unicode="&#x15a;" horiz-adv-x="569" 
d="M233 788l113 128h62l-118 -128h-57zM288 -5q-150 0 -245 109l38 44q37 -49 93 -74t116 -25q74 0 121.5 34.5t47.5 96.5q0 31 -11.5 54t-35.5 39.5t-49 28t-64 26.5q-12 4 -19 7q-39 15 -62 25t-54.5 28.5t-49 37.5t-30.5 48t-13 64q0 76 59.5 126.5t150.5 50.5
q117 0 214 -78l-35 -45q-86 71 -178 71q-62 0 -107 -33t-45 -90q0 -30 12 -52.5t41 -41.5t50 -28.5t67 -27.5q107 -43 138 -62q80 -50 80 -143q0 -86 -64.5 -138t-165.5 -52z" />
    <glyph glyph-name="sacute" unicode="&#x15b;" horiz-adv-x="427" 
d="M183 560l120 138h63l-124 -138h-59zM217 -5q-108 0 -184 69l28 40q68 -61 156 -61q53 0 84 24.5t31 60.5t-26.5 53.5t-88.5 38.5q-4 1 -6 2t-5.5 2t-6.5 2q-72 25 -108 55t-36 86q0 53 43 88t108 35q94 0 162 -59l-29 -40q-59 51 -135 51q-39 0 -67 -21.5t-28 -52.5
q0 -24 16.5 -42.5t35 -27.5t54.5 -23q96 -35 120 -50q52 -33 52 -98q-1 -56 -45.5 -94t-124.5 -38z" />
    <glyph glyph-name="Scircumflex" unicode="&#x15c;" horiz-adv-x="569" 
d="M137 788l120 118h57l117 -118h-58l-87 85h-2l-90 -85h-57zM288 -5q-150 0 -245 109l38 44q37 -49 93 -74t116 -25q74 0 121.5 34.5t47.5 96.5q0 31 -11.5 54t-35.5 39.5t-49 28t-64 26.5q-12 4 -19 7q-39 15 -62 25t-54.5 28.5t-49 37.5t-30.5 48t-13 64q0 76 59.5 126.5
t150.5 50.5q117 0 214 -78l-35 -45q-86 71 -178 71q-62 0 -107 -33t-45 -90q0 -30 12 -52.5t41 -41.5t50 -28.5t67 -27.5q107 -43 138 -62q80 -50 80 -143q0 -86 -64.5 -138t-165.5 -52z" />
    <glyph glyph-name="scircumflex" unicode="&#x15d;" horiz-adv-x="427" 
d="M72 560l119 133h57l116 -133h-57l-86 98h-2l-90 -98h-57zM217 -5q-108 0 -184 69l28 40q68 -61 156 -61q53 0 84 24.5t31 60.5t-26.5 53.5t-88.5 38.5q-4 1 -6 2t-5.5 2t-6.5 2q-72 25 -108 55t-36 86q0 53 43 88t108 35q94 0 162 -59l-29 -40q-59 51 -135 51
q-39 0 -67 -21.5t-28 -52.5q0 -24 16.5 -42.5t35 -27.5t54.5 -23q96 -35 120 -50q52 -33 52 -98q-1 -56 -45.5 -94t-124.5 -38z" />
    <glyph glyph-name="Scedilla" unicode="&#x15e;" horiz-adv-x="569" 
d="M295 -5l-12 -28v-1q36 -2 60 -22.5t24 -55.5q0 -32 -25 -53t-72 -21q-30 0 -52 6v34q23 -7 47 -7q25 0 43 11.5t18 32.5q0 20 -22 34.5t-61 14.5v25l15 31q-132 12 -215 108l38 44q37 -49 93 -74t116 -25q74 0 121.5 34.5t47.5 96.5q0 31 -11.5 54t-35.5 39.5t-49 28
t-64 26.5q-12 4 -19 7q-39 15 -62 25t-54.5 28.5t-49 37.5t-30.5 48t-13 64q0 76 59.5 126.5t150.5 50.5q117 0 214 -78l-35 -45q-86 71 -178 71q-62 0 -107 -33t-45 -90q0 -30 12 -52.5t41 -41.5t50 -28.5t67 -27.5q107 -43 138 -62q80 -50 80 -143q0 -85 -62 -136.5
t-161 -53.5z" />
    <glyph glyph-name="scedilla" unicode="&#x15f;" horiz-adv-x="427" 
d="M211 -5l-12 -28v-1q36 -2 60 -22.5t24 -55.5q0 -32 -25 -53t-72 -21q-30 0 -52 6v34q23 -7 47 -7q25 0 43 11.5t18 32.5q0 20 -22 34.5t-61 14.5v25l15 33q-81 11 -141 66l28 40q68 -61 156 -61q53 0 84 24.5t31 60.5t-26.5 53.5t-88.5 38.5q-4 1 -6 2t-5.5 2t-6.5 2
q-72 25 -108 55t-36 86q0 53 43 88t108 35q94 0 162 -59l-29 -40q-59 51 -135 51q-39 0 -67 -21.5t-28 -52.5q0 -24 16.5 -42.5t35 -27.5t54.5 -23q96 -35 120 -50q52 -33 52 -98q-1 -56 -45.5 -94t-124.5 -38h-6z" />
    <glyph glyph-name="Scaron" unicode="&#x160;" horiz-adv-x="569" 
d="M254 788l-117 118h57l88 -85h2l89 85h58l-120 -118h-57zM288 -5q-150 0 -245 109l38 44q37 -49 93 -74t116 -25q74 0 121.5 34.5t47.5 96.5q0 31 -11.5 54t-35.5 39.5t-49 28t-64 26.5q-12 4 -19 7q-39 15 -62 25t-54.5 28.5t-49 37.5t-30.5 48t-13 64q0 76 59.5 126.5
t150.5 50.5q117 0 214 -78l-35 -45q-86 71 -178 71q-62 0 -107 -33t-45 -90q0 -30 12 -52.5t41 -41.5t50 -28.5t67 -27.5q107 -43 138 -62q80 -50 80 -143q0 -86 -64.5 -138t-165.5 -52z" />
    <glyph glyph-name="scaron" unicode="&#x161;" horiz-adv-x="427" 
d="M188 559l-116 134h56l88 -99h2l89 99h57l-119 -134h-57zM217 -5q-108 0 -184 69l28 40q68 -61 156 -61q53 0 84 24.5t31 60.5t-26.5 53.5t-88.5 38.5q-4 1 -6 2t-5.5 2t-6.5 2q-72 25 -108 55t-36 86q0 53 43 88t108 35q94 0 162 -59l-29 -40q-59 51 -135 51
q-39 0 -67 -21.5t-28 -52.5q0 -24 16.5 -42.5t35 -27.5t54.5 -23q96 -35 120 -50q52 -33 52 -98q-1 -56 -45.5 -94t-124.5 -38z" />
    <glyph glyph-name="uni0162" unicode="&#x162;" horiz-adv-x="558" 
d="M285 0l-14 -33v-1q36 -2 60 -22.5t24 -55.5q0 -32 -25 -53t-72 -21q-30 0 -52 6v34q23 -7 47 -7q25 0 43 11.5t18 32.5q0 20 -22 34.5t-61 14.5v25l18 39v654h-222v52h504v-52h-225v-658h-21z" />
    <glyph glyph-name="uni0163" unicode="&#x163;" horiz-adv-x="358" 
d="M321 438h-177v-287q0 -55 14.5 -80t56.5 -25q48 0 91 28l14 -48q-51 -31 -111 -31h-6l-12 -28v-1q36 -2 60 -22.5t24 -55.5q0 -32 -25 -53t-72 -21q-30 0 -52 6v34q23 -7 47 -7q25 0 43 11.5t18 32.5q0 20 -22 34.5t-61 14.5v25l16 35q-76 20 -76 137v301h-64v47h64v171
l53 6v-177h177v-47z" />
    <glyph glyph-name="Tcaron" unicode="&#x164;" horiz-adv-x="558" 
d="M248 788l-117 118h57l88 -85h2l89 85h58l-120 -118h-57zM249 0v658h-222v52h504v-52h-225v-658h-57z" />
    <glyph glyph-name="tcaron" unicode="&#x165;" horiz-adv-x="357" 
d="M225 592l26 172h55l-41 -172h-40zM209 -5q-64 0 -91 36t-27 106v301h-64v47h64v171l53 6v-177h177v-47h-177v-287q0 -55 14.5 -80t56.5 -25q48 0 91 28l14 -48q-51 -31 -111 -31z" />
    <glyph glyph-name="Tbar" unicode="&#x166;" horiz-adv-x="558" 
d="M531 658h-225v-270h122v-46h-122v-342h-57v342h-119v46h119v270h-222v52h504v-52z" />
    <glyph glyph-name="tbar" unicode="&#x167;" horiz-adv-x="358" 
d="M321 438h-177v-138h155v-41h-155v-108q0 -55 14.5 -80t56.5 -25q48 0 91 28l14 -48q-51 -31 -111 -31q-64 0 -91 36t-27 106v122h-52v41h52v138h-64v47h64v171l53 6v-177h177v-47z" />
    <glyph glyph-name="Utilde" unicode="&#x168;" horiz-adv-x="695" 
d="M426 788q-29 0 -86 37q-40 27 -64 27q-40 0 -60 -58l-37 15q30 86 94 86q30 0 82 -31q3 -2 15.5 -10.5t18.5 -12t16 -7t18 -3.5q38 0 57 59l37 -13q-27 -89 -91 -89zM347 -5q-120 0 -193.5 78t-73.5 213v424h56v-421q0 -110 57.5 -174.5t153.5 -64.5q95 0 153.5 64
t58.5 175v421h57v-424q0 -135 -73.5 -213t-195.5 -78z" />
    <glyph glyph-name="utilde" unicode="&#x169;" horiz-adv-x="548" 
d="M350 572q-7 0 -13.5 1t-14.5 4t-12.5 4.5t-13.5 7t-11 6.5t-13 8l-10 7q-36 25 -61 25q-40 0 -62 -57l-37 14q29 89 94 89q34 0 80 -30q3 -2 12.5 -9t14.5 -10t12.5 -7t14.5 -6t14 -2q41 0 59 59l38 -13q-13 -44 -37.5 -67.5t-53.5 -23.5zM250 -5q-87 0 -135 54t-48 153
v283h53v-265q0 -175 139 -175q69 0 116.5 56t47.5 147v237h53v-485h-53v104l-2 1q-26 -52 -71.5 -81t-99.5 -29z" />
    <glyph glyph-name="Umacron" unicode="&#x16a;" horiz-adv-x="695" 
d="M210 822v47h277v-47h-277zM347 -5q-120 0 -193.5 78t-73.5 213v424h56v-421q0 -110 57.5 -174.5t153.5 -64.5q95 0 153.5 64t58.5 175v421h57v-424q0 -135 -73.5 -213t-195.5 -78z" />
    <glyph glyph-name="umacron" unicode="&#x16b;" horiz-adv-x="548" 
d="M133 607v48h277v-48h-277zM250 -5q-87 0 -135 54t-48 153v283h53v-265q0 -175 139 -175q69 0 116.5 56t47.5 147v237h53v-485h-53v104l-2 1q-26 -52 -71.5 -81t-99.5 -29z" />
    <glyph glyph-name="Ubreve" unicode="&#x16c;" horiz-adv-x="695" 
d="M348 783q-56 0 -93 34t-41 89h44q3 -32 27 -55t63 -23t63 23t26 55h45q-5 -56 -42 -89.5t-92 -33.5zM347 -5q-120 0 -193.5 78t-73.5 213v424h56v-421q0 -110 57.5 -174.5t153.5 -64.5q95 0 153.5 64t58.5 175v421h57v-424q0 -135 -73.5 -213t-195.5 -78z" />
    <glyph glyph-name="ubreve" unicode="&#x16d;" horiz-adv-x="548" 
d="M271 557q-57 0 -93.5 35.5t-40.5 98.5h44q3 -39 26.5 -64.5t63.5 -25.5q39 0 63 25.5t26 64.5h45q-5 -64 -41.5 -99t-92.5 -35zM250 -5q-87 0 -135 54t-48 153v283h53v-265q0 -175 139 -175q69 0 116.5 56t47.5 147v237h53v-485h-53v104l-2 1q-26 -52 -71.5 -81
t-99.5 -29z" />
    <glyph glyph-name="Uring" unicode="&#x16e;" horiz-adv-x="695" 
d="M348 773q-35 0 -60.5 24.5t-25.5 59.5t25 59.5t61 24.5q35 0 60.5 -24.5t25.5 -59.5t-25 -59.5t-61 -24.5zM348 811q19 0 33 13.5t14 32.5t-14 33t-33 14t-33 -14t-14 -33t14 -32.5t33 -13.5zM347 -5q-120 0 -193.5 78t-73.5 213v424h56v-421q0 -110 57.5 -174.5
t153.5 -64.5q95 0 153.5 64t58.5 175v421h57v-424q0 -135 -73.5 -213t-195.5 -78z" />
    <glyph glyph-name="uring" unicode="&#x16f;" horiz-adv-x="548" 
d="M271 550q-35 0 -60.5 24.5t-25.5 59.5t25 59.5t61 24.5q35 0 60.5 -24.5t25.5 -59.5t-25 -59.5t-61 -24.5zM271 588q19 0 33 13.5t14 32.5t-14 33t-33 14t-33 -14t-14 -33t14 -32.5t33 -13.5zM250 -5q-87 0 -135 54t-48 153v283h53v-265q0 -175 139 -175q69 0 116.5 56
t47.5 147v237h53v-485h-53v104l-2 1q-26 -52 -71.5 -81t-99.5 -29z" />
    <glyph glyph-name="Uhungarumlaut" unicode="&#x170;" horiz-adv-x="695" 
d="M248 789l119 138h60l-124 -138h-55zM395 789l119 138h60l-125 -138h-54zM347 -5q-120 0 -193.5 78t-73.5 213v424h56v-421q0 -110 57.5 -174.5t153.5 -64.5q95 0 153.5 64t58.5 175v421h57v-424q0 -135 -73.5 -213t-195.5 -78z" />
    <glyph glyph-name="uhungarumlaut" unicode="&#x171;" horiz-adv-x="548" 
d="M171 560l119 138h60l-124 -138h-55zM318 560l119 138h60l-125 -138h-54zM250 -5q-87 0 -135 54t-48 153v283h53v-265q0 -175 139 -175q69 0 116.5 56t47.5 147v237h53v-485h-53v104l-2 1q-26 -52 -71.5 -81t-99.5 -29z" />
    <glyph glyph-name="Uogonek" unicode="&#x172;" horiz-adv-x="695" 
d="M559 710h57v-424q0 -117 -56.5 -192.5t-153.5 -93.5q-35 -16 -56 -41t-21 -51q0 -49 55 -49q31 0 53 11l5 -38q-25 -13 -66 -13q-43 0 -67.5 21t-24.5 59q0 51 54 95v1q-117 3 -187.5 80.5t-70.5 210.5v424h56v-421q0 -110 57.5 -174.5t153.5 -64.5q95 0 153.5 64
t58.5 175v421z" />
    <glyph glyph-name="uogonek" unicode="&#x173;" horiz-adv-x="548" 
d="M501 -132l5 -39q-26 -12 -66 -12q-43 0 -68 21t-25 59q0 27 20 57t56 53v97l-2 1q-26 -52 -71.5 -81t-99.5 -29q-87 0 -135 54t-48 153v283h53v-265q0 -175 139 -175q69 0 116.5 56t47.5 147v237h53v-485h-2q-36 -14 -58.5 -40.5t-22.5 -53.5q0 -50 55 -50q29 0 53 12z
" />
    <glyph glyph-name="Wcircumflex" unicode="&#x174;" horiz-adv-x="1006" 
d="M356 788l120 118h57l117 -118h-58l-87 85h-2l-90 -85h-57zM262 0l-229 710h61l196 -619h1l180 619h64l179 -619h1l197 619h61l-228 -710h-59l-182 628h-1l-183 -628h-58z" />
    <glyph glyph-name="wcircumflex" unicode="&#x175;" horiz-adv-x="759" 
d="M233 560l119 133h57l116 -133h-57l-86 98h-2l-90 -98h-57zM200 0l-170 485h56l139 -403h2l127 403h49l129 -403h2l140 403h54l-170 -485h-51l-127 401h-1l-129 -401h-50z" />
    <glyph glyph-name="Ycircumflex" unicode="&#x176;" horiz-adv-x="580" 
d="M143 788l120 118h57l117 -118h-58l-87 85h-2l-90 -85h-57zM261 0v320l-244 390h66l205 -331h2l207 331h66l-245 -390v-320h-57z" />
    <glyph glyph-name="ycircumflex" unicode="&#x177;" horiz-adv-x="516" 
d="M113 560l119 133h57l116 -133h-57l-86 98h-2l-90 -98h-57zM151 -198l87 211l-214 472h59l181 -407h1l168 407h57l-282 -683h-57z" />
    <glyph glyph-name="Ydieresis" unicode="&#x178;" horiz-adv-x="580" 
d="M208 810q-18 0 -31 13t-13 30q0 18 13 30.5t31 12.5q19 0 31.5 -12t12.5 -31q0 -18 -12.5 -30.5t-31.5 -12.5zM373 810q-19 0 -31.5 13t-12.5 30q0 19 12.5 31t31.5 12t31.5 -12t12.5 -31q0 -18 -12.5 -30.5t-31.5 -12.5zM261 0v320l-244 390h66l205 -331h2l207 331h66
l-245 -390v-320h-57z" />
    <glyph glyph-name="Zacute" unicode="&#x179;" horiz-adv-x="601" 
d="M216 788l113 128h62l-118 -128h-57zM56 0v47l405 609l-1 2h-380v52h456v-47l-407 -609l2 -2h408v-52h-483z" />
    <glyph glyph-name="zacute" unicode="&#x17a;" horiz-adv-x="455" 
d="M194 560l120 138h63l-124 -138h-59zM33 0v42l310 395v1h-296v47h370v-39l-312 -397v-2h314v-47h-386z" />
    <glyph glyph-name="Zdotaccent" unicode="&#x17b;" horiz-adv-x="601" 
d="M298 809q-19 0 -31.5 13t-12.5 31q0 19 12.5 31t31.5 12t31.5 -12t12.5 -31q0 -18 -12.5 -31t-31.5 -13zM56 0v47l405 609l-1 2h-380v52h456v-47l-407 -609l2 -2h408v-52h-483z" />
    <glyph glyph-name="zdotaccent" unicode="&#x17c;" horiz-adv-x="455" 
d="M227 590q-19 0 -31.5 13t-12.5 31q0 19 12.5 31t31.5 12t31.5 -12t12.5 -31q0 -18 -12.5 -31t-31.5 -13zM33 0v42l310 395v1h-296v47h370v-39l-312 -397v-2h314v-47h-386z" />
    <glyph glyph-name="Zcaron" unicode="&#x17d;" horiz-adv-x="601" 
d="M267 788l-117 118h57l88 -85h2l89 85h58l-120 -118h-57zM56 0v47l405 609l-1 2h-380v52h456v-47l-407 -609l2 -2h408v-52h-483z" />
    <glyph glyph-name="zcaron" unicode="&#x17e;" horiz-adv-x="455" 
d="M196 559l-116 134h56l88 -99h2l89 99h57l-119 -134h-57zM33 0v42l310 395v1h-296v47h370v-39l-312 -397v-2h314v-47h-386z" />
    <glyph glyph-name="longs" unicode="&#x17f;" horiz-adv-x="303" 
d="M100 0v438h-63v47h63v108q0 74 34 111t94 37q55 0 104 -28l-11 -47q-48 25 -88 25q-80 0 -80 -102v-589h-53z" />
    <glyph glyph-name="uni018F" unicode="&#x18f;" horiz-adv-x="770" 
d="M362 715q163 0 256.5 -102t93.5 -257q0 -159 -95 -260t-242 -101q-143 0 -236.5 87t-93.5 243q0 12 2 30h605v1q0 136 -78.5 220.5t-215.5 84.5q-127 0 -232 -81l-34 44q118 92 270 91zM374 49q110 0 185.5 69t89.5 185h-546q2 -115 77.5 -184.5t193.5 -69.5z" />
    <glyph glyph-name="florin" unicode="&#x192;" horiz-adv-x="520" 
d="M90 -109q-78 0 -121 40l23 39q38 -29 91 -29q86 0 99 111l50 367h-78l7 48h77l17 124q20 150 148 150q75 0 120 -40l-23 -38q-40 28 -92 28q-86 0 -100 -111l-14 -113h158l-7 -48h-158l-51 -377q-18 -151 -146 -151z" />
    <glyph glyph-name="uni019D" unicode="&#x19d;" horiz-adv-x="740" 
d="M595 710h56v-710h-57l-448 611h-1v-670q0 -143 -118 -143q-38 0 -70 14l5 48q27 -13 57 -13q69 0 69 85v778h57v-1l448 -614h2v615z" />
    <glyph glyph-name="Ohorn" unicode="&#x1a0;" horiz-adv-x="864" 
d="M769 774h53v-75q0 -141 -102 -161q44 -82 44 -182q0 -160 -101 -260.5t-250 -100.5q-152 0 -252.5 101t-100.5 260q0 158 100.5 258.5t252.5 100.5q87 0 161.5 -36.5t122.5 -102.5q39 5 55.5 34t16.5 91v73zM413 49q123 0 207.5 86t84.5 221q0 134 -84.5 219.5
t-207.5 85.5q-126 0 -210.5 -86t-84.5 -219q0 -134 84.5 -220.5t210.5 -86.5z" />
    <glyph glyph-name="ohorn" unicode="&#x1a1;" horiz-adv-x="658" 
d="M580 565h53v-75q0 -145 -107 -162q14 -40 14 -86q0 -108 -71 -177.5t-176 -69.5q-109 0 -178 71t-69 176t69 176.5t178 71.5q71 0 128 -33t89 -90q39 6 54.5 34.5t15.5 90.5v73zM293 45q82 0 137.5 55t55.5 142q0 88 -55.5 143.5t-137.5 55.5q-85 0 -139 -57.5
t-54 -141.5q0 -83 54 -140t139 -57z" />
    <glyph glyph-name="Uhorn" unicode="&#x1af;" horiz-adv-x="766" 
d="M696 774h53v-75q0 -161 -133 -164v-249q0 -135 -73.5 -213t-195.5 -78q-120 0 -193.5 78t-73.5 213v424h56v-421q0 -110 57.5 -174.5t153.5 -64.5q95 0 153.5 64t58.5 175v421h57v-135q45 4 62.5 32.5t17.5 93.5v73z" />
    <glyph glyph-name="uhorn" unicode="&#x1b0;" horiz-adv-x="629" 
d="M552 565h53v-75q0 -158 -129 -164v-326h-53v104l-2 1q-26 -52 -71.5 -81t-99.5 -29q-87 0 -135 54t-48 153v283h53v-265q0 -175 139 -175q69 0 116.5 56t47.5 147v237h53v-119q42 5 59 33.5t17 92.5v73z" />
    <glyph glyph-name="uni01CD" unicode="&#x1cd;" horiz-adv-x="659" 
d="M299 788l-117 118h57l88 -85h2l89 85h58l-120 -118h-57zM27 0l271 710h60l274 -710h-60l-73 191h-340l-72 -191h-60zM177 242h304l-151 400h-2z" />
    <glyph glyph-name="uni01CE" unicode="&#x1ce;" horiz-adv-x="598" 
d="M263 559l-116 134h56l88 -99h2l89 99h57l-119 -134h-57zM283 -5q-102 0 -170.5 68t-68.5 176q0 107 67.5 179t171.5 72q62 0 112 -30.5t77 -84.5h1v110h53v-485h-51v109l-2 1q-27 -53 -76.5 -84t-113.5 -31zM289 45q78 0 132 54t54 139q0 86 -52 144.5t-133 58.5
t-136 -56.5t-55 -146.5q0 -82 53 -137.5t137 -55.5z" />
    <glyph glyph-name="uni01CF" unicode="&#x1cf;" horiz-adv-x="246" 
d="M92 788l-117 118h57l88 -85h2l89 85h58l-120 -118h-57zM94 0v710h57v-710h-57z" />
    <glyph glyph-name="uni01D0" unicode="&#x1d0;" horiz-adv-x="222" 
d="M81 559l-116 134h56l88 -99h2l89 99h57l-119 -134h-57zM84 0v485h53v-485h-53z" />
    <glyph glyph-name="uni01D1" unicode="&#x1d1;" horiz-adv-x="824" 
d="M383 788l-117 118h57l88 -85h2l89 85h58l-120 -118h-57zM413 -5q-152 0 -252.5 101t-100.5 260q0 158 100.5 258.5t252.5 100.5q150 0 250.5 -100t100.5 -259q0 -160 -101 -260.5t-250 -100.5zM413 49q123 0 207.5 86t84.5 221q0 134 -84.5 219.5t-207.5 85.5
q-126 0 -210.5 -86t-84.5 -219q0 -134 84.5 -220.5t210.5 -86.5z" />
    <glyph glyph-name="uni01D2" unicode="&#x1d2;" horiz-adv-x="586" 
d="M264 559l-116 134h56l88 -99h2l89 99h57l-119 -134h-57zM293 -5q-109 0 -178 71t-69 176t69 176.5t178 71.5q106 0 176.5 -69t70.5 -179q0 -108 -71 -177.5t-176 -69.5zM293 45q82 0 137.5 55t55.5 142q0 88 -55.5 143.5t-137.5 55.5q-85 0 -139 -57.5t-54 -141.5
q0 -83 54 -140t139 -57z" />
    <glyph glyph-name="uni01D3" unicode="&#x1d3;" horiz-adv-x="695" 
d="M318 788l-117 118h57l88 -85h2l89 85h58l-120 -118h-57zM347 -5q-120 0 -193.5 78t-73.5 213v424h56v-421q0 -110 57.5 -174.5t153.5 -64.5q95 0 153.5 64t58.5 175v421h57v-424q0 -135 -73.5 -213t-195.5 -78z" />
    <glyph glyph-name="uni01D4" unicode="&#x1d4;" horiz-adv-x="548" 
d="M241 559l-116 134h56l88 -99h2l89 99h57l-119 -134h-57zM250 -5q-87 0 -135 54t-48 153v283h53v-265q0 -175 139 -175q69 0 116.5 56t47.5 147v237h53v-485h-53v104l-2 1q-26 -52 -71.5 -81t-99.5 -29z" />
    <glyph glyph-name="uni01D5" unicode="&#x1d5;" horiz-adv-x="695" 
d="M210 946v42h277v-42h-277zM268 796q-18 0 -30.5 12.5t-12.5 29.5q0 18 12.5 29.5t30.5 11.5t30 -11.5t12 -29.5q0 -17 -12 -29.5t-30 -12.5zM426 796q-18 0 -30.5 12.5t-12.5 29.5q0 18 12.5 29.5t30.5 11.5t30 -11.5t12 -29.5q0 -17 -12 -29.5t-30 -12.5zM347 -5
q-120 0 -193.5 78t-73.5 213v424h56v-421q0 -110 57.5 -174.5t153.5 -64.5q95 0 153.5 64t58.5 175v421h57v-424q0 -135 -73.5 -213t-195.5 -78z" />
    <glyph glyph-name="uni01D6" unicode="&#x1d6;" horiz-adv-x="548" 
d="M133 757v46h277v-46h-277zM188 592q-18 0 -31 12t-13 30t13 30t31 12q19 0 31.5 -12t12.5 -30t-12.5 -30t-31.5 -12zM353 592q-19 0 -31.5 12t-12.5 30t12.5 30t31.5 12t31.5 -12t12.5 -30t-12.5 -30t-31.5 -12zM250 -5q-87 0 -135 54t-48 153v283h53v-265
q0 -175 139 -175q69 0 116.5 56t47.5 147v237h53v-485h-53v104l-2 1q-26 -52 -71.5 -81t-99.5 -29z" />
    <glyph glyph-name="uni01D7" unicode="&#x1d7;" horiz-adv-x="695" 
d="M327 897l110 131h62l-124 -131h-48zM268 796q-18 0 -30.5 12.5t-12.5 29.5q0 18 12.5 29.5t30.5 11.5t30 -11.5t12 -29.5q0 -17 -12 -29.5t-30 -12.5zM426 796q-18 0 -30.5 12.5t-12.5 29.5q0 18 12.5 29.5t30.5 11.5t30 -11.5t12 -29.5q0 -17 -12 -29.5t-30 -12.5z
M347 -5q-120 0 -193.5 78t-73.5 213v424h56v-421q0 -110 57.5 -174.5t153.5 -64.5q95 0 153.5 64t58.5 175v421h57v-424q0 -135 -73.5 -213t-195.5 -78z" />
    <glyph glyph-name="uni01D8" unicode="&#x1d8;" horiz-adv-x="548" 
d="M244 705l120 139h63l-134 -139h-49zM188 592q-18 0 -31 12t-13 30t13 30t31 12q19 0 31.5 -12t12.5 -30t-12.5 -30t-31.5 -12zM353 592q-19 0 -31.5 12t-12.5 30t12.5 30t31.5 12t31.5 -12t12.5 -30t-12.5 -30t-31.5 -12zM250 -5q-87 0 -135 54t-48 153v283h53v-265
q0 -175 139 -175q69 0 116.5 56t47.5 147v237h53v-485h-53v104l-2 1q-26 -52 -71.5 -81t-99.5 -29z" />
    <glyph glyph-name="uni01D9" unicode="&#x1d9;" horiz-adv-x="695" 
d="M323 911l-117 118h57l88 -85h2l89 85h58l-120 -118h-57zM268 796q-18 0 -30.5 12.5t-12.5 29.5q0 18 12.5 29.5t30.5 11.5t30 -11.5t12 -29.5q0 -17 -12 -29.5t-30 -12.5zM426 796q-18 0 -30.5 12.5t-12.5 29.5q0 18 12.5 29.5t30.5 11.5t30 -11.5t12 -29.5
q0 -17 -12 -29.5t-30 -12.5zM347 -5q-120 0 -193.5 78t-73.5 213v424h56v-421q0 -110 57.5 -174.5t153.5 -64.5q95 0 153.5 64t58.5 175v421h57v-424q0 -135 -73.5 -213t-195.5 -78z" />
    <glyph glyph-name="uni01DA" unicode="&#x1da;" horiz-adv-x="548" 
d="M242 715l-116 134h56l88 -99h2l89 99h57l-119 -134h-57zM188 592q-18 0 -31 12t-13 30t13 30t31 12q19 0 31.5 -12t12.5 -30t-12.5 -30t-31.5 -12zM353 592q-19 0 -31.5 12t-12.5 30t12.5 30t31.5 12t31.5 -12t12.5 -30t-12.5 -30t-31.5 -12zM250 -5q-87 0 -135 54
t-48 153v283h53v-265q0 -175 139 -175q69 0 116.5 56t47.5 147v237h53v-485h-53v104l-2 1q-26 -52 -71.5 -81t-99.5 -29z" />
    <glyph glyph-name="uni01DB" unicode="&#x1db;" horiz-adv-x="695" 
d="M325 897l-125 131h63l109 -131h-47zM268 796q-18 0 -30.5 12.5t-12.5 29.5q0 18 12.5 29.5t30.5 11.5t30 -11.5t12 -29.5q0 -17 -12 -29.5t-30 -12.5zM426 796q-18 0 -30.5 12.5t-12.5 29.5q0 18 12.5 29.5t30.5 11.5t30 -11.5t12 -29.5q0 -17 -12 -29.5t-30 -12.5z
M347 -5q-120 0 -193.5 78t-73.5 213v424h56v-421q0 -110 57.5 -174.5t153.5 -64.5q95 0 153.5 64t58.5 175v421h57v-424q0 -135 -73.5 -213t-195.5 -78z" />
    <glyph glyph-name="uni01DC" unicode="&#x1dc;" horiz-adv-x="548" 
d="M304 705h-49l-134 139h62zM188 592q-18 0 -31 12t-13 30t13 30t31 12q19 0 31.5 -12t12.5 -30t-12.5 -30t-31.5 -12zM353 592q-19 0 -31.5 12t-12.5 30t12.5 30t31.5 12t31.5 -12t12.5 -30t-12.5 -30t-31.5 -12zM250 -5q-87 0 -135 54t-48 153v283h53v-265
q0 -175 139 -175q69 0 116.5 56t47.5 147v237h53v-485h-53v104l-2 1q-26 -52 -71.5 -81t-99.5 -29z" />
    <glyph glyph-name="Gcaron" unicode="&#x1e6;" horiz-adv-x="760" 
d="M375 788l-117 118h57l88 -85h2l89 85h58l-120 -118h-57zM410 -4q-154 0 -252 98.5t-98 259.5q0 160 96.5 260.5t252.5 100.5q161 0 265 -105l-40 -36q-90 87 -225 87q-128 0 -209 -84.5t-81 -222.5q0 -135 80.5 -220t210.5 -85q132 0 219 69v184h-237v52h293v-266
q-104 -92 -275 -92z" />
    <glyph glyph-name="gcaron" unicode="&#x1e7;" horiz-adv-x="593" 
d="M256 559l-116 134h56l88 -99h2l89 99h57l-119 -134h-57zM292 -202q-110 0 -199 54l14 49q90 -54 183 -54q88 0 134 46.5t46 121.5v104h-1q-27 -50 -75.5 -79t-112.5 -29q-101 0 -168.5 66.5t-67.5 174.5q0 101 65.5 169.5t168.5 68.5q61 0 110.5 -27.5t78.5 -77.5h1v100
h53v-461q0 -104 -58 -165t-172 -61zM286 61q84 0 134.5 54t50.5 138q0 83 -52.5 135.5t-132.5 52.5q-83 0 -134.5 -54t-51.5 -134q0 -86 53 -139t133 -53z" />
    <glyph glyph-name="uni01EA" unicode="&#x1ea;" horiz-adv-x="824" 
d="M456 -3q-34 -14 -54.5 -39.5t-20.5 -51.5q0 -50 55 -50q29 0 53 12l5 -39q-25 -12 -66 -12q-43 0 -68 21t-25 59q0 53 58 97v2q-144 7 -238.5 107t-94.5 253q0 158 100.5 258.5t252.5 100.5q150 0 250.5 -100t100.5 -259q0 -147 -87 -245.5t-221 -113.5zM118 356
q0 -134 84.5 -220.5t210.5 -86.5q123 0 207.5 86t84.5 221q0 134 -84.5 219.5t-207.5 85.5q-126 0 -210.5 -86t-84.5 -219z" />
    <glyph glyph-name="uni01EB" unicode="&#x1eb;" horiz-adv-x="586" 
d="M327 -3q-33 -15 -53.5 -40t-20.5 -51q0 -50 55 -50q29 0 53 12l5 -39q-25 -12 -66 -12q-43 0 -68 21t-25 59q0 53 60 98l-1 1q-99 10 -159.5 79t-60.5 167q0 105 69 176.5t178 71.5q106 0 176.5 -69t70.5 -179q0 -99 -60 -166.5t-153 -78.5zM100 242q0 -83 54 -140
t139 -57q82 0 137.5 55t55.5 142q0 88 -55.5 143.5t-137.5 55.5q-85 0 -139 -57.5t-54 -141.5z" />
    <glyph glyph-name="Aringacute" unicode="&#x1fa;" horiz-adv-x="659" 
d="M329 773q-35 0 -60.5 24.5t-25.5 59.5t25 59.5t61 24.5q45 0 71 -36l79 53l69 1l-133 -94v-8q0 -35 -25 -59.5t-61 -24.5zM329 904q-19 0 -33 -14t-14 -33t14 -32.5t33 -13.5t33 13.5t14 32.5t-14 33t-33 14zM358 710l274 -710h-60l-73 191h-340l-72 -191h-60l271 710h60
zM177 242h304l-151 400h-2z" />
    <glyph glyph-name="aringacute" unicode="&#x1fb;" horiz-adv-x="598" 
d="M293 550q-35 0 -60.5 24.5t-25.5 59.5t25 59.5t61 24.5q41 0 67 -31l77 52h70l-129 -90q0 -3 0.5 -8t0.5 -7q0 -35 -25 -59.5t-61 -24.5zM293 681q-19 0 -33 -14t-14 -33t14 -32.5t33 -13.5t33 13.5t14 32.5t-14 33t-33 14zM473 485h53v-485h-51v109l-2 1
q-27 -53 -76.5 -84t-113.5 -31q-102 0 -170.5 68t-68.5 176q0 107 67.5 179t171.5 72q62 0 112 -30.5t77 -84.5h1v110zM289 45q78 0 132 54t54 139q0 86 -52 144.5t-133 58.5t-136 -56.5t-55 -146.5q0 -82 53 -137.5t137 -55.5z" />
    <glyph glyph-name="AEacute" unicode="&#x1fc;" horiz-adv-x="915" 
d="M424 788l113 128h62l-118 -128h-57zM7 0l392 710h458v-52h-367v-278h308v-52h-308v-276h387v-52h-444v191h-259l-106 -191h-61zM201 242h232v417h-1z" />
    <glyph glyph-name="aeacute" unicode="&#x1fd;" horiz-adv-x="791" 
d="M532 698l-124 -138h-59l120 138h63zM750 253q0 -13 -2 -23h-351q6 -87 50 -136t115 -49q49 0 78 17.5t56 55.5l38 -32q-33 -46 -72.5 -68.5t-101.5 -22.5q-128 0 -181 121h-1q-17 -55 -67 -88t-118 -33q-76 0 -117 41t-41 102q0 62 45 100t134 38l133 1v18
q0 80 -24.5 113t-82.5 33q-79 0 -146 -39l-22 43q78 45 170 45q61 0 95 -27.5t47 -86.5h2q24 54 68.5 84t101.5 30q84 0 139 -67t55 -170zM400 275h295q-5 75 -42 120.5t-99 45.5q-65 0 -106 -46t-48 -120zM197 42q63 0 106.5 38.5t43.5 107.5v44l-129 -1q-59 0 -94.5 -23.5
t-35.5 -69.5q0 -41 28 -68.5t81 -27.5z" />
    <glyph glyph-name="Oslashacute" unicode="&#x1fe;" horiz-adv-x="824" 
d="M544 916l-118 -128h-57l113 128h62zM677 600q87 -98 87 -244q0 -160 -101 -260.5t-250 -100.5q-132 0 -226 77l-85 -91l-37 33l86 92q-91 101 -91 250q0 158 100.5 258.5t252.5 100.5q136 0 230 -82l82 88l34 -32zM118 356q0 -122 73 -208l413 443q-79 70 -191 70
q-126 0 -210.5 -86t-84.5 -219zM413 49q123 0 207.5 86t84.5 221q0 117 -68 201l-411 -443q79 -65 187 -65z" />
    <glyph glyph-name="oslashacute" unicode="&#x1ff;" horiz-adv-x="586" 
d="M446 698l-124 -138h-59l120 138h63zM545 471l-62 -65q57 -68 57 -164q0 -108 -71 -177.5t-176 -69.5q-87 0 -151 48l-57 -60l-34 30l57 60q-62 70 -62 169q0 105 69 176.5t178 71.5q94 0 159 -54l61 64zM100 242q0 -76 45 -130l271 286q-51 43 -123 43q-85 0 -139 -57.5
t-54 -141.5zM486 242q0 71 -39 125l-269 -286q49 -36 115 -36q82 0 137.5 55t55.5 142z" />
    <glyph glyph-name="Scommaaccent" unicode="&#x218;" horiz-adv-x="569" 
d="M288 -5q-150 0 -245 109l38 44q37 -49 93 -74t116 -25q74 0 121.5 34.5t47.5 96.5q0 31 -11.5 54t-35.5 39.5t-49 28t-64 26.5q-12 4 -19 7q-39 15 -62 25t-54.5 28.5t-49 37.5t-30.5 48t-13 64q0 76 59.5 126.5t150.5 50.5q117 0 214 -78l-35 -45q-86 71 -178 71
q-62 0 -107 -33t-45 -90q0 -30 12 -52.5t41 -41.5t50 -28.5t67 -27.5q107 -43 138 -62q80 -50 80 -143q0 -86 -64.5 -138t-165.5 -52zM220 -206l-14 34q64 8 64 68q0 23 -6 50h50q5 -28 5 -53q0 -42 -25.5 -68.5t-73.5 -30.5z" />
    <glyph glyph-name="scommaaccent" unicode="&#x219;" horiz-adv-x="427" 
d="M217 -5q-108 0 -184 69l28 40q68 -61 156 -61q53 0 84 24.5t31 60.5t-26.5 53.5t-88.5 38.5q-4 1 -6 2t-5.5 2t-6.5 2q-72 25 -108 55t-36 86q0 53 43 88t108 35q94 0 162 -59l-29 -40q-59 51 -135 51q-39 0 -67 -21.5t-28 -52.5q0 -24 16.5 -42.5t35 -27.5t54.5 -23
q96 -35 120 -50q52 -33 52 -98q-1 -56 -45.5 -94t-124.5 -38zM136 -206l-14 34q64 8 64 68q0 23 -6 50h50q5 -28 5 -53q0 -42 -25.5 -68.5t-73.5 -30.5z" />
    <glyph glyph-name="uni021A" unicode="&#x21a;" horiz-adv-x="558" 
d="M249 0v658h-222v52h504v-52h-225v-658h-57zM208 -206l-14 34q64 8 64 68q0 23 -6 50h50q5 -28 5 -53q0 -42 -25.5 -68.5t-73.5 -30.5z" />
    <glyph glyph-name="uni021B" unicode="&#x21b;" horiz-adv-x="358" 
d="M209 -5q-64 0 -91 36t-27 106v301h-64v47h64v171l53 6v-177h177v-47h-177v-287q0 -55 14.5 -80t56.5 -25q48 0 91 28l14 -48q-51 -31 -111 -31zM128 -206l-14 34q64 8 64 68q0 23 -6 50h50q5 -28 5 -53q0 -42 -25.5 -68.5t-73.5 -30.5z" />
    <glyph glyph-name="uni0232" unicode="&#x232;" horiz-adv-x="580" 
d="M152 822v47h277v-47h-277zM261 0v320l-244 390h66l205 -331h2l207 331h66l-245 -390v-320h-57z" />
    <glyph glyph-name="uni0233" unicode="&#x233;" horiz-adv-x="516" 
d="M121 607v48h277v-48h-277zM151 -198l87 211l-214 472h59l181 -407h1l168 407h57l-282 -683h-57z" />
    <glyph glyph-name="uni0237" unicode="&#x237;" horiz-adv-x="201" 
d="M18 -203q-39 0 -74 16l9 49q25 -15 58 -15q68 0 68 86v552h53v-552q0 -62 -28.5 -99t-85.5 -37z" />
    <glyph glyph-name="uni0251" unicode="&#x251;" horiz-adv-x="598" 
d="M283 -5q-102 0 -170.5 68t-68.5 176q0 107 67.5 179t171.5 72q62 0 112 -30.5t77 -84.5h1v110h53v-485h-51v109l-2 1q-27 -53 -76.5 -84t-113.5 -31zM289 45q78 0 132 54t54 139q0 86 -52 144.5t-133 58.5t-136 -56.5t-55 -146.5q0 -82 53 -137.5t137 -55.5z" />
    <glyph glyph-name="uni0259" unicode="&#x259;" horiz-adv-x="545" 
d="M257 490q105 0 173.5 -68.5t68.5 -179.5q0 -110 -61 -178.5t-169 -68.5q-103 0 -163.5 65.5t-61.5 167.5q0 16 2 28h400q-4 84 -57.5 135t-134.5 51q-78 0 -151 -41l-22 43q83 46 176 46zM269 45q76 0 121.5 44.5t53.5 120.5h-346q4 -75 50.5 -120t120.5 -45z" />
    <glyph glyph-name="uni0261" unicode="&#x261;" horiz-adv-x="593" 
d="M292 -202q-110 0 -199 54l14 49q90 -54 183 -54q88 0 134 46.5t46 121.5v104h-1q-27 -50 -75.5 -79t-112.5 -29q-101 0 -168.5 66.5t-67.5 174.5q0 101 65.5 169.5t168.5 68.5q61 0 110.5 -27.5t78.5 -77.5h1v100h53v-461q0 -104 -58 -165t-172 -61zM286 61
q84 0 134.5 54t50.5 138q0 83 -52.5 135.5t-132.5 52.5q-83 0 -134.5 -54t-51.5 -134q0 -86 53 -139t133 -53z" />
    <glyph glyph-name="uni0272" unicode="&#x272;" horiz-adv-x="560" 
d="M321 490q80 0 125.5 -51t45.5 -149v-290h-53v273q0 168 -131 168q-80 0 -128.5 -54.5t-48.5 -145.5v-303q0 -140 -118 -140q-38 0 -67 14l5 45q25 -13 56 -13q71 0 71 90v551h53v-107h2q27 53 76.5 82.5t111.5 29.5z" />
    <glyph glyph-name="uni02BB" unicode="&#x2bb;" horiz-adv-x="181" 
d="M66 432l10 229h44l4 -229h-58z" />
    <glyph glyph-name="uni02BC" unicode="&#x2bc;" horiz-adv-x="140" 
d="M29 528l27 182h54l-40 -182h-41z" />
    <glyph glyph-name="uni02BE" unicode="&#x2be;" horiz-adv-x="200" 
d="M42 467l-6 42q42 2 67.5 27t25.5 65t-25.5 65t-67.5 27l6 42q61 -3 97.5 -41t36.5 -93t-36.5 -93.5t-97.5 -40.5z" />
    <glyph glyph-name="uni02BF" unicode="&#x2bf;" horiz-adv-x="225" 
d="M183 467q-61 2 -97.5 40.5t-36.5 93.5t36.5 93t97.5 41l6 -42q-42 -2 -67.5 -27t-25.5 -65t25.5 -65t67.5 -27z" />
    <glyph glyph-name="circumflex" unicode="&#x2c6;" horiz-adv-x="512" 
d="M110 545l119 133h57l116 -133h-57l-86 98h-2l-90 -98h-57z" />
    <glyph glyph-name="caron" unicode="&#x2c7;" horiz-adv-x="512" 
d="M226 544l-116 134h56l88 -99h2l89 99h57l-119 -134h-57z" />
    <glyph glyph-name="uni02C8" unicode="&#x2c8;" horiz-adv-x="165" 
d="M59 677h47v-277h-47v277z" />
    <glyph glyph-name="uni02C9" unicode="&#x2c9;" horiz-adv-x="398" 
d="M60 607v48h277v-48h-277z" />
    <glyph glyph-name="uni02CA" unicode="&#x2ca;" horiz-adv-x="299" 
d="M73 560l120 138h63l-124 -138h-59z" />
    <glyph glyph-name="uni02CB" unicode="&#x2cb;" horiz-adv-x="299" 
d="M167 561l-117 133h63l112 -133h-58z" />
    <glyph glyph-name="uni02CC" unicode="&#x2cc;" horiz-adv-x="165" 
d="M59 130h47v-277h-47v277z" />
    <glyph glyph-name="breve" unicode="&#x2d8;" horiz-adv-x="472" 
d="M236 542q-57 0 -93.5 35.5t-40.5 98.5h44q3 -39 26.5 -64.5t63.5 -25.5q39 0 63 25.5t26 64.5h45q-5 -64 -41.5 -99t-92.5 -35z" />
    <glyph glyph-name="dotaccent" unicode="&#x2d9;" horiz-adv-x="488" 
d="M244 575q-19 0 -31.5 13t-12.5 31q0 19 12.5 31t31.5 12t31.5 -12t12.5 -31q0 -18 -12.5 -31t-31.5 -13z" />
    <glyph glyph-name="ring" unicode="&#x2da;" horiz-adv-x="446" 
d="M223 532q-35 0 -60.5 24.5t-25.5 59.5t25 59.5t61 24.5q35 0 60.5 -24.5t25.5 -59.5t-25 -59.5t-61 -24.5zM223 570q19 0 33 13.5t14 32.5t-14 33t-33 14t-33 -14t-14 -33t14 -32.5t33 -13.5z" />
    <glyph glyph-name="ogonek" unicode="&#x2db;" horiz-adv-x="468" 
d="M271 -183q-43 0 -68 21t-25 59q0 30 23 62t65 55l39 -14q-36 -14 -58.5 -40.5t-22.5 -53.5q0 -50 55 -50q29 0 53 12l5 -39q-25 -12 -66 -12z" />
    <glyph glyph-name="tilde" unicode="&#x2dc;" horiz-adv-x="517" 
d="M337 557q-7 0 -13.5 1t-14.5 4t-12.5 4.5t-13.5 7t-11 6.5t-12 8l-11 7q-36 25 -61 25q-40 0 -62 -57l-37 14q29 89 94 89q34 0 80 -30q3 -2 12.5 -9t14.5 -10t12.5 -7t14.5 -6t14 -2q41 0 59 59l38 -13q-13 -44 -37.5 -67.5t-53.5 -23.5z" />
    <glyph glyph-name="hungarumlaut" unicode="&#x2dd;" horiz-adv-x="519" 
d="M97 545l119 138h60l-124 -138h-55zM244 545l119 138h60l-125 -138h-54z" />
    <glyph glyph-name="gravecomb" unicode="&#x300;" 
d="M-476 546l-117 133h63l112 -133h-58z" />
    <glyph glyph-name="acutecomb" unicode="&#x301;" 
d="M-580 545l120 138h63l-124 -138h-59z" />
    <glyph glyph-name="uni0302" unicode="&#x302;" 
d="M-646 545l119 133h57l116 -133h-57l-86 98h-2l-90 -98h-57z" />
    <glyph glyph-name="tildecomb" unicode="&#x303;" 
d="M-421 557q-7 0 -13.5 1t-14.5 4t-12.5 4.5t-13.5 7t-11 6.5t-12 8l-11 7q-36 25 -61 25q-40 0 -62 -57l-37 14q29 89 94 89q34 0 80 -30q3 -2 12.5 -9t14.5 -10t12.5 -7t14.5 -6t14 -2q41 0 59 59l38 -13q-13 -44 -37.5 -67.5t-53.5 -23.5z" />
    <glyph glyph-name="uni0304" unicode="&#x304;" 
d="M-638 592v48h277v-48h-277z" />
    <glyph glyph-name="uni0306" unicode="&#x306;" 
d="M-500 542q-57 0 -93.5 35.5t-40.5 98.5h44q3 -39 26.5 -64.5t63.5 -25.5q39 0 63 25.5t26 64.5h45q-5 -64 -41.5 -99t-92.5 -35z" />
    <glyph glyph-name="uni0307" unicode="&#x307;" 
d="M-499 575q-19 0 -31.5 13t-12.5 31q0 19 12.5 31t31.5 12t31.5 -12t12.5 -31q0 -18 -12.5 -31t-31.5 -13z" />
    <glyph glyph-name="uni0308" unicode="&#x308;" 
d="M-584 576q-18 0 -31 13t-13 30q0 18 13 30.5t31 12.5q19 0 31.5 -12t12.5 -31q0 -18 -12.5 -30.5t-31.5 -12.5zM-419 576q-19 0 -31.5 13t-12.5 30q0 19 12.5 31t31.5 12t31.5 -12t12.5 -31q0 -18 -12.5 -30.5t-31.5 -12.5z" />
    <glyph glyph-name="hookabovecomb" unicode="&#x309;" 
d="M-529 540q91 62 91 100q0 36 -49 36q-50 0 -90 -32l-12 35q49 38 111 38q39 0 62.5 -18t23.5 -55q0 -51 -86 -104h-51z" />
    <glyph glyph-name="uni030A" unicode="&#x30a;" 
d="M-500 535q-35 0 -60.5 24.5t-25.5 59.5t25 59.5t61 24.5q35 0 60.5 -24.5t25.5 -59.5t-25 -59.5t-61 -24.5zM-500 573q19 0 33 13.5t14 32.5t-14 33t-33 14t-33 -14t-14 -33t14 -32.5t33 -13.5z" />
    <glyph glyph-name="uni030B" unicode="&#x30b;" 
d="M-600 545l119 138h60l-124 -138h-55zM-453 545l119 138h60l-125 -138h-54z" />
    <glyph glyph-name="uni030C" unicode="&#x30c;" 
d="M-530 544l-116 134h56l88 -99h2l89 99h57l-119 -134h-57z" />
    <glyph glyph-name="uni0312" unicode="&#x312;" 
d="M-515 540q-5 27 -5 52q0 43 25 69t74 30l14 -34q-64 -8 -64 -67q0 -24 6 -50h-50z" />
    <glyph glyph-name="uni0313" unicode="&#x313;" 
d="M-466 688q5 -27 5 -52q0 -43 -25 -69t-74 -30l-14 34q64 8 64 67q0 24 -6 50h50z" />
    <glyph glyph-name="uni031B" unicode="&#x31b;" 
d="M-506 471l-1 39q51 1 71.5 29.5t20.5 97.5v73h53v-75q0 -87 -36.5 -126.5t-107.5 -37.5z" />
    <glyph glyph-name="dotbelowcomb" unicode="&#x323;" 
d="M-500 -108q19 0 31.5 -13t12.5 -31q0 -19 -12.5 -31t-31.5 -12t-31.5 12t-12.5 31q0 18 12.5 31t31.5 13z" />
    <glyph glyph-name="uni0324" unicode="&#x324;" 
d="M-583 -109q19 0 31.5 -12.5t12.5 -30.5q0 -19 -12.5 -31t-31.5 -12t-31.5 12t-12.5 31q0 18 12.5 30.5t31.5 12.5zM-418 -109q18 0 31 -13t13 -30q0 -18 -13 -30.5t-31 -12.5q-19 0 -31.5 12t-12.5 31q0 18 12.5 30.5t31.5 12.5z" />
    <glyph glyph-name="uni0326" unicode="&#x326;" 
d="M-579 -206l-14 34q64 8 64 68q0 23 -6 50h50q5 -28 5 -53q0 -42 -25.5 -68.5t-73.5 -30.5z" />
    <glyph glyph-name="uni0327" unicode="&#x327;" 
d="M-529 -186q-29 0 -52 6v34q23 -7 47 -7q25 0 43 11.5t18 32.5q0 20 -22 34.5t-61 14.5v25l19 41h38l-17 -39v-1q36 -2 60 -22.5t24 -55.5q0 -32 -25 -53t-72 -21z" />
    <glyph glyph-name="uni0328" unicode="&#x328;" 
d="M-536 -183q-43 0 -68 21t-25 59q0 30 23 62t65 55l39 -14q-36 -14 -58.5 -40.5t-22.5 -53.5q0 -50 55 -50q29 0 53 12l5 -39q-26 -12 -66 -12z" />
    <glyph glyph-name="uni032E" unicode="&#x32e;" 
d="M-500 -213q-56 0 -92.5 35t-41.5 99h45q2 -39 26 -64.5t63 -25.5q40 0 63.5 25.5t26.5 64.5h44q-4 -63 -40.5 -98.5t-93.5 -35.5z" />
    <glyph glyph-name="uni0331" unicode="&#x331;" 
d="M-361 -183h-277v48h277v-48z" />
    <glyph glyph-name="uni0335" unicode="&#x335;" 
d="M-627 259v41h260v-41h-260z" />
    <glyph glyph-name="uni0374" unicode="&#x374;" horiz-adv-x="242" 
d="M44 486l53 237h57l-61 -237h-49z" />
    <glyph glyph-name="uni0375" unicode="&#x375;" horiz-adv-x="231" 
d="M74 -141l53 238h57l-61 -238h-49z" />
    <glyph glyph-name="uni037E" unicode="&#x37e;" horiz-adv-x="200" 
d="M99 402q-19 0 -32 12.5t-13 31.5t13 31.5t32 12.5t32 -12.5t13 -31.5t-13 -31.5t-32 -12.5zM37 -129l34 230h59l-52 -230h-41z" />
    <glyph glyph-name="tonos" unicode="&#x384;" horiz-adv-x="461" 
d="M179 545l59 158h63l-68 -158h-54z" />
    <glyph glyph-name="dieresistonos" unicode="&#x385;" horiz-adv-x="578" 
d="M249 548l44 158h53l-51 -158h-46zM146 575q-18 0 -30.5 13t-12.5 31q0 19 12 31t31 12t32 -12t13 -31q0 -18 -13 -31t-32 -13zM414 576q-19 0 -31 12.5t-12 30.5t12 30.5t31 12.5q18 0 31 -12.5t13 -30.5t-13 -30.5t-31 -12.5z" />
    <glyph glyph-name="Alphatonos" unicode="&#x386;" horiz-adv-x="659" 
d="M27 0l271 710h60l274 -710h-60l-73 191h-340l-72 -191h-60zM-10 545l75 158h62l-84 -158h-53zM177 242h304l-151 400h-2z" />
    <glyph glyph-name="anoteleia" unicode="&#x387;" horiz-adv-x="206" 
d="M103 402q-19 0 -32 12.5t-13 31.5t13 31.5t32 12.5t32 -12.5t13 -31.5t-13 -31.5t-32 -12.5z" />
    <glyph glyph-name="Epsilontonos" unicode="&#x388;" horiz-adv-x="579" 
d="M88 0v710h424v-52h-367v-278h305v-52h-305v-276h388v-52h-445zM-131 545l75 158h62l-84 -158h-53z" />
    <glyph glyph-name="Etatonos" unicode="&#x389;" horiz-adv-x="707" 
d="M88 0v710h57v-348h417v348h57v-710h-57v310h-417v-310h-57zM-131 545l75 158h62l-84 -158h-53z" />
    <glyph glyph-name="Iotatonos" unicode="&#x38a;" horiz-adv-x="246" 
d="M94 0v710h57v-710h-57zM-126 545l75 158h62l-84 -158h-53z" />
    <glyph glyph-name="Omicrontonos" unicode="&#x38c;" horiz-adv-x="824" 
d="M413 -5q-152 0 -252.5 101t-100.5 260q0 158 100.5 258.5t252.5 100.5q150 0 250.5 -100t100.5 -259q0 -160 -101 -260.5t-250 -100.5zM-77 545l75 158h62l-84 -158h-53zM413 49q123 0 207.5 86t84.5 221q0 134 -84.5 219.5t-207.5 85.5q-126 0 -210.5 -86t-84.5 -219
q0 -134 84.5 -220.5t210.5 -86.5z" />
    <glyph glyph-name="Upsilontonos" unicode="&#x38e;" horiz-adv-x="580" 
d="M261 0v320l-244 390h66l205 -331h2l207 331h66l-245 -390v-320h-57zM-167 545l75 158h62l-84 -158h-53z" />
    <glyph glyph-name="Omegatonos" unicode="&#x38f;" horiz-adv-x="779" 
d="M70 0v52h174v2q-87 51 -136 133.5t-49 184.5q0 147 92.5 245t237.5 98q146 0 238.5 -98t92.5 -245q0 -102 -48.5 -184.5t-135.5 -133.5v-2h173v-52h-259v52q99 50 155 132t56 187q0 126 -76 208t-196 82q-120 -1 -195.5 -82.5t-75.5 -207.5q0 -105 56 -187t155 -132v-52
h-259zM-81 545l75 158h62l-84 -158h-53z" />
    <glyph glyph-name="iotadieresistonos" unicode="&#x390;" horiz-adv-x="253" 
d="M88 563l44 158h53l-51 -158h-46zM-15 590q-18 0 -30.5 13t-12.5 31q0 19 12 31t31 12t32 -12t13 -31q0 -18 -13 -31t-32 -13zM253 591q-19 0 -31 12.5t-12 30.5t12 30.5t31 12.5q18 0 31 -12.5t13 -30.5t-13 -30.5t-31 -12.5zM174 -5q-92 0 -92 113v377h53v-360
q0 -21 1.5 -33t6 -24t15 -17t27.5 -5q25 0 49 8l6 -47q-38 -12 -66 -12z" />
    <glyph glyph-name="Alpha" unicode="&#x391;" horiz-adv-x="659" 
d="M27 0l271 710h60l274 -710h-60l-73 191h-340l-72 -191h-60zM177 242h304l-151 400h-2z" />
    <glyph glyph-name="Beta" unicode="&#x392;" horiz-adv-x="623" 
d="M88 0v710h219q105 0 166 -41.5t61 -130.5q0 -57 -31 -102t-90 -63v-1q68 -12 112 -58.5t44 -123.5q0 -87 -61 -138.5t-180 -51.5h-240zM145 394h171q67 0 113.5 32t46.5 102q0 130 -174 130h-157v-264zM145 52h180q85 0 135 36t50 105q0 71 -49.5 110.5t-141.5 39.5h-174
v-291z" />
    <glyph glyph-name="Gamma" unicode="&#x393;" horiz-adv-x="547" 
d="M88 0v710h435v-52h-378v-658h-57z" />
    <glyph glyph-name="uni0394" unicode="&#x394;" horiz-adv-x="644" 
d="M32 0v46l258 664h61l261 -664v-46h-580zM96 52h452l-226 588h-1z" />
    <glyph glyph-name="Epsilon" unicode="&#x395;" horiz-adv-x="579" 
d="M88 0v710h424v-52h-367v-278h305v-52h-305v-276h388v-52h-445z" />
    <glyph glyph-name="Zeta" unicode="&#x396;" horiz-adv-x="601" 
d="M56 0v47l405 609l-1 2h-380v52h456v-47l-407 -609l2 -2h408v-52h-483z" />
    <glyph glyph-name="Eta" unicode="&#x397;" horiz-adv-x="707" 
d="M88 0v710h57v-348h417v348h57v-710h-57v310h-417v-310h-57z" />
    <glyph glyph-name="Theta" unicode="&#x398;" horiz-adv-x="833" 
d="M413 -5q-152 0 -252.5 101t-100.5 260q0 158 100.5 258.5t252.5 100.5q150 0 250.5 -100t100.5 -259q0 -160 -101 -260.5t-250 -100.5zM413 49q123 0 207.5 86t84.5 221q0 134 -84.5 219.5t-207.5 85.5q-126 0 -210.5 -86t-84.5 -219q0 -134 84.5 -220.5t210.5 -86.5z
M223 325v53h384v-53h-384z" />
    <glyph glyph-name="Iota" unicode="&#x399;" horiz-adv-x="246" 
d="M94 0v710h57v-710h-57z" />
    <glyph glyph-name="Kappa" unicode="&#x39a;" horiz-adv-x="630" 
d="M88 0v710h57v-434h2l368 434h73l-283 -329l289 -381h-71l-255 336l-123 -143v-193h-57z" />
    <glyph glyph-name="Lambda" unicode="&#x39b;" horiz-adv-x="657" 
d="M29 0l268 710h60l271 -710h-62l-237 633h-2l-237 -633h-61z" />
    <glyph glyph-name="Mu" unicode="&#x39c;" horiz-adv-x="865" 
d="M89 0v710h57l286 -491h2l285 491h57v-710h-57v599h-1l-265 -450h-41l-266 450h-1v-599h-56z" />
    <glyph glyph-name="Nu" unicode="&#x39d;" horiz-adv-x="740" 
d="M88 0v710h56l449 -615h2v615h56v-710h-57l-448 611h-1v-611h-57z" />
    <glyph glyph-name="Xi" unicode="&#x39e;" horiz-adv-x="611" 
d="M70 656v54h471v-54h-471zM111 325v53h388v-53h-388zM63 0v54h485v-54h-485z" />
    <glyph glyph-name="Omicron" unicode="&#x39f;" horiz-adv-x="824" 
d="M413 -5q-152 0 -252.5 101t-100.5 260q0 158 100.5 258.5t252.5 100.5q150 0 250.5 -100t100.5 -259q0 -160 -101 -260.5t-250 -100.5zM413 49q123 0 207.5 86t84.5 221q0 134 -84.5 219.5t-207.5 85.5q-126 0 -210.5 -86t-84.5 -219q0 -134 84.5 -220.5t210.5 -86.5z
" />
    <glyph glyph-name="Pi" unicode="&#x3a0;" horiz-adv-x="685" 
d="M88 0v710h508v-710h-56v658h-395v-658h-57z" />
    <glyph glyph-name="Rho" unicode="&#x3a1;" horiz-adv-x="598" 
d="M88 0v710h242q115 0 171 -57t56 -153q0 -107 -65.5 -160t-178.5 -53h-168v-287h-57zM145 340h163q98 0 144 43.5t46 116.5q0 77 -45.5 117.5t-124.5 40.5h-183v-318z" />
    <glyph glyph-name="Sigma" unicode="&#x3a3;" horiz-adv-x="566" 
d="M55 0v43l208 314l-208 309v44h466v-52h-388l-2 -3l201 -298l-201 -302l1 -3h389v-52h-466z" />
    <glyph glyph-name="Tau" unicode="&#x3a4;" horiz-adv-x="558" 
d="M249 0v658h-222v52h504v-52h-225v-658h-57z" />
    <glyph glyph-name="Upsilon" unicode="&#x3a5;" horiz-adv-x="580" 
d="M261 0v320l-244 390h66l205 -331h2l207 331h66l-245 -390v-320h-57z" />
    <glyph glyph-name="Phi" unicode="&#x3a6;" horiz-adv-x="845" 
d="M792 361q0 -129 -93 -208t-249 -80v-73h-56v73q-157 1 -249.5 80t-92.5 208q0 137 92 219.5t250 83.5v64h56v-64q157 -1 249.5 -83.5t92.5 -219.5zM111 361q0 -105 76 -170t208 -66v486q-133 -1 -208.5 -69.5t-75.5 -180.5zM450 125q132 1 207.5 66t75.5 170
q0 113 -75 181t-208 69v-486z" />
    <glyph glyph-name="Chi" unicode="&#x3a7;" horiz-adv-x="635" 
d="M33 0l248 355l-247 355h67l217 -310h1l216 310h66l-246 -355l248 -355h-68l-216 307h-2l-217 -307h-67z" />
    <glyph glyph-name="Psi" unicode="&#x3a8;" horiz-adv-x="779" 
d="M650 710h57l-1 -253q0 -137 -69 -209t-220 -73v-175h-56v175q-289 3 -289 282l1 253h57l-1 -249q0 -115 53.5 -174t178.5 -60v483h56v-483q121 1 176.5 58t55.5 176z" />
    <glyph glyph-name="uni03A9" unicode="&#x3a9;" horiz-adv-x="779" 
d="M70 0v52h174v2q-87 51 -136 133.5t-49 184.5q0 147 92.5 245t237.5 98q146 0 238.5 -98t92.5 -245q0 -102 -48.5 -184.5t-135.5 -133.5v-2h173v-52h-259v52q99 50 155 132t56 187q0 126 -76 208t-196 82q-120 -1 -195.5 -82.5t-75.5 -207.5q0 -105 56 -187t155 -132v-52
h-259z" />
    <glyph glyph-name="Iotadieresis" unicode="&#x3aa;" horiz-adv-x="246" 
d="M13 809q-18 0 -30.5 13t-12.5 31q0 19 12 31t31 12t32 -12t13 -31q0 -18 -13 -31t-32 -13zM234 810q-19 0 -31.5 12.5t-12.5 30.5t12.5 30.5t31.5 12.5t31.5 -12t12.5 -31q0 -18 -12.5 -30.5t-31.5 -12.5zM94 0v710h57v-710h-57z" />
    <glyph glyph-name="Upsilondieresis" unicode="&#x3ab;" horiz-adv-x="580" 
d="M175 809q-18 0 -30.5 13t-12.5 31q0 19 12 31t31 12t32 -12t13 -31q0 -18 -13 -31t-32 -13zM396 810q-19 0 -31.5 12.5t-12.5 30.5t12.5 30.5t31.5 12.5t31.5 -12t12.5 -31q0 -18 -12.5 -30.5t-31.5 -12.5zM261 0v320l-244 390h66l205 -331h2l207 331h66l-245 -390v-320
h-57z" />
    <glyph glyph-name="alphatonos" unicode="&#x3ac;" horiz-adv-x="605" 
d="M271 561l59 158h63l-68 -158h-54zM270 -4q-97 0 -161.5 68t-64.5 175t64.5 179t167.5 72q65 0 115 -34.5t75 -96.5h1l8 126h52l-22 -230v-121q0 -43 9.5 -66t37.5 -23q18 0 38 8l5 -46q-26 -11 -58 -11q-72 0 -78 100l-1 21q-27 -56 -76 -88.5t-112 -32.5zM274 45
q73 0 125.5 53.5t59.5 139.5q0 89 -48.5 146t-129.5 57q-78 0 -130.5 -56t-52.5 -147q0 -82 49 -137.5t127 -55.5z" />
    <glyph glyph-name="epsilontonos" unicode="&#x3ad;" horiz-adv-x="469" 
d="M338 719l-68 -158h-54l59 158h63zM412 88l24 -41q-93 -52 -204 -52q-84 0 -133.5 34t-49.5 100q0 41 25 74.5t69 47.5q-38 17 -59.5 46t-21.5 59q0 65 48 99.5t130 34.5q106 0 194 -50l-21 -42q-90 45 -169 43q-61 0 -94 -24t-33 -64q0 -31 30 -56.5t87 -25.5h86v-45
h-100q-59 0 -87.5 -28.5t-28.5 -63.5q0 -44 36.5 -66.5t101.5 -22.5q92 0 170 43z" />
    <glyph glyph-name="etatonos" unicode="&#x3ae;" horiz-adv-x="560" 
d="M259 561l59 158h63l-68 -158h-54zM438 -198v471q0 87 -35.5 127.5t-96.5 40.5q-78 0 -126 -54.5t-48 -146.5v-240h-53v485h53v-105h1q28 52 77 81t110 29q80 0 125.5 -51t45.5 -149v-488h-53z" />
    <glyph glyph-name="iotatonos" unicode="&#x3af;" horiz-adv-x="249" 
d="M85 560l59 158h63l-68 -158h-54zM174 -5q-92 0 -92 113v377h53v-360q0 -21 1.5 -33t6 -24t15 -17t27.5 -5q25 0 49 8l6 -47q-38 -12 -66 -12z" />
    <glyph glyph-name="upsilondieresistonos" unicode="&#x3b0;" horiz-adv-x="549" 
d="M246 563l44 158h53l-51 -158h-46zM143 590q-18 0 -30.5 13t-12.5 31q0 19 12 31t31 12t32 -12t13 -31q0 -18 -13 -31t-32 -13zM411 591q-19 0 -31 12.5t-12 30.5t12 30.5t31 12.5q18 0 31 -12.5t13 -30.5t-13 -30.5t-31 -12.5zM274 -5q-94 0 -150 61t-56 173v256h53v-245
q0 -100 43 -147.5t110 -47.5q71 0 112 47t41 148v245h53v-256q0 -114 -54 -174t-152 -60z" />
    <glyph glyph-name="alpha" unicode="&#x3b1;" horiz-adv-x="605" 
d="M270 -4q-97 0 -161.5 68t-64.5 175t64.5 179t167.5 72q65 0 115 -34.5t75 -96.5h1l8 126h52l-22 -230v-121q0 -43 9.5 -66t37.5 -23q18 0 38 8l5 -46q-26 -11 -58 -11q-72 0 -78 100l-1 21q-27 -56 -76 -88.5t-112 -32.5zM274 45q73 0 125.5 53.5t59.5 139.5
q0 89 -48.5 146t-129.5 57q-78 0 -130.5 -56t-52.5 -147q0 -82 49 -137.5t127 -55.5z" />
    <glyph glyph-name="beta" unicode="&#x3b2;" horiz-adv-x="573" 
d="M79 -198v697q0 120 58 181t157 61q88 0 143 -50t55 -127q0 -126 -101 -166v-1q66 -22 102.5 -73t36.5 -115q0 -95 -60.5 -154.5t-160.5 -59.5q-121 0 -176 101h-1v-294h-53zM305 45q78 0 124.5 45.5t46.5 116.5q0 69 -48.5 115t-137.5 46h-43v48h40q38 0 66.5 10
t44.5 24.5t25.5 35t12.5 38t3 36.5q0 57 -38.5 94.5t-104.5 37.5q-75 0 -119.5 -47t-44.5 -143v-278q0 -73 48 -126t125 -53z" />
    <glyph glyph-name="gamma" unicode="&#x3b3;" horiz-adv-x="509" 
d="M237 -198v39.5v40.5t-1 32t-3 35t-6 28.5t-10 31.5l-190 476h58l169 -429h2l168 429h58l-200 -497q3 -14 5 -27.5t2.5 -33t0.5 -32.5v-44v-49h-53z" />
    <glyph glyph-name="delta" unicode="&#x3b4;" horiz-adv-x="568" 
d="M347 479q78 -26 128 -86t50 -156q0 -108 -69 -175t-170 -67q-105 0 -172.5 69.5t-67.5 173.5q0 82 46.5 143.5t123.5 95.5q-112 46 -112 136q0 57 48 92.5t133 35.5q108 2 199 -50l-21 -44q-83 45 -176 45q-61 0 -95 -22t-34 -59q0 -34 23 -57.5t77 -43.5q7 -3 89 -31z
M286 45q78 0 131.5 52.5t53.5 139.5q0 158 -167 208q-28 9 -34 11q-78 -28 -124 -86t-46 -132q0 -83 52 -138t134 -55z" />
    <glyph glyph-name="epsilon" unicode="&#x3b5;" horiz-adv-x="469" 
d="M412 88l24 -41q-93 -52 -204 -52q-84 0 -133.5 34t-49.5 100q0 41 25 74.5t69 47.5q-38 17 -59.5 46t-21.5 59q0 65 48 99.5t130 34.5q106 0 194 -50l-21 -42q-90 45 -169 43q-61 0 -94 -24t-33 -64q0 -31 30 -56.5t87 -25.5h86v-45h-100q-59 0 -87.5 -28.5t-28.5 -63.5
q0 -44 36.5 -66.5t101.5 -22.5q92 0 170 43z" />
    <glyph glyph-name="zeta" unicode="&#x3b6;" horiz-adv-x="446" 
d="M367 -206l-47 25q19 22 29 35.5t20 35t10 41.5q0 30 -22 44.5t-91 36.5q-45 15 -72 26.5t-59 30.5t-48.5 40t-28 53.5t-11.5 73.5q1 106 87.5 222t232.5 229v2h-292v47h376v-42q-155 -112 -252 -233t-98 -225q0 -32 10 -57.5t24 -42t43.5 -32t52.5 -24.5t67 -24
q75 -25 105.5 -48.5t30.5 -69.5q0 -67 -67 -144z" />
    <glyph glyph-name="eta" unicode="&#x3b7;" horiz-adv-x="560" 
d="M438 -198v471q0 87 -35.5 127.5t-96.5 40.5q-78 0 -126 -54.5t-48 -146.5v-240h-53v485h53v-105h1q28 52 77 81t110 29q80 0 125.5 -51t45.5 -149v-488h-53z" />
    <glyph glyph-name="theta" unicode="&#x3b8;" horiz-adv-x="566" 
d="M286 741q109 0 174.5 -92.5t65.5 -279.5q0 -109 -23 -190.5t-78.5 -132.5t-138.5 -51q-110 0 -175.5 92.5t-65.5 281.5q0 80 13.5 146t41.5 117.5t75.5 80t110.5 28.5zM286 692q-89 0 -134.5 -77.5t-50.5 -213.5h370q-5 146 -54 218.5t-131 72.5zM286 45q92 0 138 82.5
t48 226.5h-372q2 -155 52 -232t134 -77z" />
    <glyph glyph-name="iota" unicode="&#x3b9;" horiz-adv-x="249" 
d="M174 -5q-92 0 -92 113v377h53v-360q0 -21 1.5 -33t6 -24t15 -17t27.5 -5q25 0 49 8l6 -47q-38 -12 -66 -12z" />
    <glyph glyph-name="kappa" unicode="&#x3ba;" horiz-adv-x="533" 
d="M78 0v485h53v-296l3 -1l306 297h69l-212 -205l221 -280h-66l-192 244l-129 -123v-121h-53z" />
    <glyph glyph-name="lambda" unicode="&#x3bb;" horiz-adv-x="535" 
d="M504 0h-57q-80 223 -157 423v-1h-1l-199 -422h-58l231 492q-31 80 -35 91q-21 56 -44.5 83t-62.5 27q-16 0 -48 -9l-7 47q30 10 64 10q54 0 88.5 -37t62.5 -111q165 -434 223 -593z" />
    <glyph glyph-name="uni03BC" unicode="&#x3bc;" horiz-adv-x="560" 
d="M76 -198v683h53v-261q0 -89 37.5 -134t104.5 -45q69 0 114.5 55t45.5 145v240h53v-485h-48l-4 103h-2q-26 -51 -70.5 -79.5t-97.5 -28.5q-94 0 -134 76l-2 -1q3 -54 3 -110v-158h-53z" />
    <glyph glyph-name="nu" unicode="&#x3bd;" horiz-adv-x="508" 
d="M229 0l-203 485h58l170 -414h2l168 414h57l-201 -485h-51z" />
    <glyph glyph-name="xi" unicode="&#x3be;" horiz-adv-x="463" 
d="M371 -206l-47 25q60 69 60 109q1 30 -25 45.5t-117 47.5t-143.5 79t-52.5 123q0 60 39.5 109.5t108.5 70.5v2q-110 41 -110 156q0 82 56.5 131t135.5 49q95 0 182 -50l-21 -44q-83 45 -156 45q-62 0 -102.5 -37.5t-40.5 -94.5q0 -71 51.5 -103.5t135.5 -32.5h73v-47h-103
q-88 0 -141 -45.5t-53 -106.5q0 -58 42.5 -93.5t123.5 -65.5q100 -36 136 -61.5t35 -71.5q0 -59 -67 -139z" />
    <glyph glyph-name="omicron" unicode="&#x3bf;" horiz-adv-x="572" 
d="M286 -5q-107 0 -174.5 71t-67.5 176q0 106 67.5 177t174.5 71q105 0 173.5 -69t68.5 -179q0 -109 -69 -178t-173 -69zM286 45q81 0 134.5 55t53.5 142q0 88 -53.5 143.5t-134.5 55.5q-84 0 -136.5 -57t-52.5 -142q0 -84 53 -140.5t136 -56.5z" />
    <glyph glyph-name="pi" unicode="&#x3c0;" horiz-adv-x="597" 
d="M579 485v-47h-102v-439h-53v439h-259v-438h-53v438h-90v47h557z" />
    <glyph glyph-name="rho" unicode="&#x3c1;" horiz-adv-x="587" 
d="M67 -198v437q0 110 66 180.5t166 70.5q107 0 175.5 -72t68.5 -179q0 -108 -67.5 -176t-167.5 -68q-62 0 -110.5 28.5t-76.5 77.5h-1v-299h-53zM300 45q84 0 136 55.5t52 137.5q0 90 -54 146.5t-135 56.5q-80 0 -130.5 -58.5t-50.5 -144.5q0 -85 52.5 -139t129.5 -54z" />
    <glyph glyph-name="uni03C2" unicode="&#x3c2;" horiz-adv-x="492" 
d="M363 -206l-47 24q22 24 30.5 34.5t19 31.5t10.5 40q0 30 -21.5 46t-82.5 40q-56 22 -91.5 40.5t-70 47.5t-50.5 69t-16 93q0 101 65 165.5t171 64.5q51 0 100.5 -21t84.5 -60l-37 -34q-58 66 -147 66q-83 0 -133 -51t-50 -130t48.5 -122t153.5 -83q70 -27 100.5 -53
t30.5 -72q0 -57 -68 -136z" />
    <glyph glyph-name="sigma" unicode="&#x3c3;" horiz-adv-x="575" 
d="M282 -5q-102 0 -169.5 67t-67.5 176q0 105 67 176t175 71h272v-47h-152v-2q113 -76 113 -204q0 -101 -66.5 -169t-171.5 -68zM282 45q82 0 132.5 55t50.5 138q0 134 -131 200h-47q-84 0 -136 -57.5t-52 -142.5q0 -87 52.5 -140t130.5 -53z" />
    <glyph glyph-name="tau" unicode="&#x3c4;" horiz-adv-x="448" 
d="M274 -5q-64 0 -88.5 33t-24.5 104v306h-151v47h406v-47h-202v-288q0 -56 13 -80.5t57 -24.5q48 0 101 30l14 -47q-60 -33 -125 -33z" />
    <glyph glyph-name="upsilon" unicode="&#x3c5;" horiz-adv-x="547" 
d="M274 -5q-94 0 -150 61t-56 173v256h53v-245q0 -100 43 -147.5t110 -47.5q71 0 112 47t41 148v245h53v-256q0 -114 -54 -174t-152 -60z" />
    <glyph glyph-name="phi" unicode="&#x3c6;" horiz-adv-x="683" 
d="M637 263q0 -113 -75 -189t-201 -77v-195h-53v195q-114 1 -187.5 67.5t-73.5 177.5q0 139 105 253l50 -17q-100 -107 -100 -232q0 -89 57.5 -143.5t148.5 -56.5v255q0 96 40.5 142.5t99.5 46.5q82 0 135.5 -65t53.5 -162zM361 46q105 2 163.5 63t58.5 153q0 71 -35.5 125
t-95.5 54q-41 0 -66 -36t-25 -106v-253z" />
    <glyph glyph-name="chi" unicode="&#x3c7;" horiz-adv-x="505" 
d="M457 -202q-36 0 -58.5 21t-43.5 65l-103 216h-2l-169 -298h-60l204 354l-110 225q-30 60 -67 60q-3 0 -6 -0.5t-7.5 -1.5t-6.5 -1l-7 45q20 7 40 7q35 0 58 -21t43 -65l92 -194h1l158 275h59l-191 -329l121 -249q29 -60 66 -60q12 0 22 3l5 -45q-18 -7 -38 -7z" />
    <glyph glyph-name="psi" unicode="&#x3c8;" horiz-adv-x="681" 
d="M563 485h53v-257q0 -112 -66.5 -172t-185.5 -61v-193h-53v193q-115 1 -180.5 61t-65.5 172v257h53v-245q0 -99 53 -146t140 -48v585h53v-585q91 1 145 48t54 146v245z" />
    <glyph glyph-name="omega" unicode="&#x3c9;" horiz-adv-x="743" 
d="M223 -5q-77 0 -126.5 67t-49.5 174q0 149 104 260l46 -15q-96 -111 -96 -241q0 -90 36 -142.5t91 -52.5q59 0 88.5 53t29.5 147v119h52v-119q0 -94 29.5 -147t88.5 -53q56 0 91.5 52.5t35.5 142.5q0 131 -96 241l48 15q102 -112 102 -260q0 -107 -49 -174t-127 -67
q-112 0 -148 122h-2q-36 -122 -148 -122z" />
    <glyph glyph-name="iotadieresis" unicode="&#x3ca;" horiz-adv-x="249" 
d="M-3 590q-18 0 -30.5 13t-12.5 31q0 19 12 31t31 12t32 -12t13 -31q0 -18 -13 -31t-32 -13zM218 591q-19 0 -31.5 12.5t-12.5 30.5t12.5 30.5t31.5 12.5t31.5 -12t12.5 -31q0 -18 -12.5 -30.5t-31.5 -12.5zM174 -5q-92 0 -92 113v377h53v-360q0 -21 1.5 -33t6 -24t15 -17
t27.5 -5q25 0 49 8l6 -47q-38 -12 -66 -12z" />
    <glyph glyph-name="upsilondieresis" unicode="&#x3cb;" horiz-adv-x="547" 
d="M162 591q-18 0 -30.5 13t-12.5 31q0 19 12 31t31 12t32 -12t13 -31q0 -18 -13 -31t-32 -13zM383 592q-19 0 -31.5 12.5t-12.5 30.5t12.5 30.5t31.5 12.5t31.5 -12t12.5 -31q0 -18 -12.5 -30.5t-31.5 -12.5zM274 -5q-94 0 -150 61t-56 173v256h53v-245q0 -100 43 -147.5
t110 -47.5q71 0 112 47t41 148v245h53v-256q0 -114 -54 -174t-152 -60z" />
    <glyph glyph-name="omicrontonos" unicode="&#x3cc;" horiz-adv-x="572" 
d="M259 561l59 158h63l-68 -158h-54zM286 -5q-107 0 -174.5 71t-67.5 176q0 106 67.5 177t174.5 71q105 0 173.5 -69t68.5 -179q0 -109 -69 -178t-173 -69zM286 45q81 0 134.5 55t53.5 142q0 88 -53.5 143.5t-134.5 55.5q-84 0 -136.5 -57t-52.5 -142q0 -84 53 -140.5
t136 -56.5z" />
    <glyph glyph-name="upsilontonos" unicode="&#x3cd;" horiz-adv-x="547" 
d="M250 561l59 158h63l-68 -158h-54zM274 -5q-94 0 -150 61t-56 173v256h53v-245q0 -100 43 -147.5t110 -47.5q71 0 112 47t41 148v245h53v-256q0 -114 -54 -174t-152 -60z" />
    <glyph glyph-name="omegatonos" unicode="&#x3ce;" horiz-adv-x="743" 
d="M347 561l59 158h63l-68 -158h-54zM223 -5q-77 0 -126.5 67t-49.5 174q0 149 104 260l46 -15q-96 -111 -96 -241q0 -90 36 -142.5t91 -52.5q59 0 88.5 53t29.5 147v119h52v-119q0 -94 29.5 -147t88.5 -53q56 0 91.5 52.5t35.5 142.5q0 131 -96 241l48 15
q102 -112 102 -260q0 -107 -49 -174t-127 -67q-112 0 -148 122h-2q-36 -122 -148 -122z" />
    <glyph glyph-name="uni03D7" unicode="&#x3d7;" horiz-adv-x="567" 
d="M194 -216q-107 0 -186 48l10 51q72 -51 171 -51q77 0 144 39.5t133 124.5v4q-155 61 -212 237l-123 -127v-110h-53v485h53v-301l2 -1l290 302h68l-199 -208q69 -203 245 -242v-29q-87 -118 -165.5 -170t-177.5 -52z" />
    <glyph glyph-name="uni1E0C" unicode="&#x1e0c;" horiz-adv-x="716" 
d="M88 0v710h201q167 0 268 -98.5t101 -257.5t-99.5 -256.5t-266.5 -97.5h-204zM145 52h144q142 0 226 84t84 218q0 135 -85.5 219.5t-224.5 84.5h-144v-606zM332 -108q19 0 31.5 -13t12.5 -31q0 -19 -12.5 -31t-31.5 -12t-31.5 12t-12.5 31q0 18 12.5 31t31.5 13z" />
    <glyph glyph-name="uni1E0D" unicode="&#x1e0d;" horiz-adv-x="607" 
d="M285 -5q-102 0 -170.5 68t-68.5 176q0 107 67 179t172 72q62 0 112.5 -30.5t77.5 -85.5h2v362h52v-736h-51v111h-2q-25 -53 -75.5 -84.5t-115.5 -31.5zM291 45q79 0 133 54t54 139q0 86 -52.5 144.5t-134.5 58.5q-81 0 -136 -56.5t-55 -146.5q0 -82 53 -137.5t138 -55.5z
M303 -108q19 0 31.5 -13t12.5 -31q0 -19 -12.5 -31t-31.5 -12t-31.5 12t-12.5 31q0 18 12.5 31t31.5 13z" />
    <glyph glyph-name="uni1E0E" unicode="&#x1e0e;" horiz-adv-x="716" 
d="M88 0v710h201q167 0 268 -98.5t101 -257.5t-99.5 -256.5t-266.5 -97.5h-204zM145 52h144q142 0 226 84t84 218q0 135 -85.5 219.5t-224.5 84.5h-144v-606zM471 -183h-277v48h277v-48z" />
    <glyph glyph-name="uni1E0F" unicode="&#x1e0f;" horiz-adv-x="607" 
d="M285 -5q-102 0 -170.5 68t-68.5 176q0 107 67 179t172 72q62 0 112.5 -30.5t77.5 -85.5h2v362h52v-736h-51v111h-2q-25 -53 -75.5 -84.5t-115.5 -31.5zM291 45q79 0 133 54t54 139q0 86 -52.5 144.5t-134.5 58.5q-81 0 -136 -56.5t-55 -146.5q0 -82 53 -137.5t138 -55.5z
M442 -183h-277v48h277v-48z" />
    <glyph glyph-name="uni1E20" unicode="&#x1e20;" horiz-adv-x="760" 
d="M267 822v47h277v-47h-277zM410 -4q-154 0 -252 98.5t-98 259.5q0 160 96.5 260.5t252.5 100.5q161 0 265 -105l-40 -36q-90 87 -225 87q-128 0 -209 -84.5t-81 -222.5q0 -135 80.5 -220t210.5 -85q132 0 219 69v184h-237v52h293v-266q-104 -92 -275 -92z" />
    <glyph glyph-name="uni1E21" unicode="&#x1e21;" horiz-adv-x="593" 
d="M148 607v48h277v-48h-277zM292 -202q-110 0 -199 54l14 49q90 -54 183 -54q88 0 134 46.5t46 121.5v104h-1q-27 -50 -75.5 -79t-112.5 -29q-101 0 -168.5 66.5t-67.5 174.5q0 101 65.5 169.5t168.5 68.5q61 0 110.5 -27.5t78.5 -77.5h1v100h53v-461q0 -104 -58 -165
t-172 -61zM286 61q84 0 134.5 54t50.5 138q0 83 -52.5 135.5t-132.5 52.5q-83 0 -134.5 -54t-51.5 -134q0 -86 53 -139t133 -53z" />
    <glyph glyph-name="uni1E24" unicode="&#x1e24;" horiz-adv-x="707" 
d="M88 0v710h57v-348h417v348h57v-710h-57v310h-417v-310h-57zM354 -108q19 0 31.5 -13t12.5 -31q0 -19 -12.5 -31t-31.5 -12t-31.5 12t-12.5 31q0 18 12.5 31t31.5 13z" />
    <glyph glyph-name="uni1E25" unicode="&#x1e25;" horiz-adv-x="565" 
d="M78 0v736h53v-356h1q27 52 77.5 81t115.5 29q80 0 126 -50.5t46 -147.5v-292h-53v275q0 166 -131 166q-83 0 -132.5 -54t-49.5 -145v-242h-53zM285 -108q19 0 31.5 -13t12.5 -31q0 -19 -12.5 -31t-31.5 -12t-31.5 12t-12.5 31q0 18 12.5 31t31.5 13z" />
    <glyph glyph-name="uni1E2A" unicode="&#x1e2a;" horiz-adv-x="707" 
d="M88 0v710h57v-348h417v348h57v-710h-57v310h-417v-310h-57zM354 -213q-56 0 -92.5 35t-41.5 99h45q2 -39 26 -64.5t63 -25.5q40 0 63.5 25.5t26.5 64.5h44q-4 -63 -40.5 -98.5t-93.5 -35.5z" />
    <glyph glyph-name="uni1E2B" unicode="&#x1e2b;" horiz-adv-x="565" 
d="M78 0v736h53v-356h1q27 52 77.5 81t115.5 29q80 0 126 -50.5t46 -147.5v-292h-53v275q0 166 -131 166q-83 0 -132.5 -54t-49.5 -145v-242h-53zM285 -213q-56 0 -92.5 35t-41.5 99h45q2 -39 26 -64.5t63 -25.5q40 0 63.5 25.5t26.5 64.5h44q-4 -63 -40.5 -98.5
t-93.5 -35.5z" />
    <glyph glyph-name="uni1E30" unicode="&#x1e30;" horiz-adv-x="630" 
d="M248 788l113 128h62l-118 -128h-57zM88 0v710h57v-434h2l368 434h73l-283 -329l289 -381h-71l-255 336l-123 -143v-193h-57z" />
    <glyph glyph-name="uni1E31" unicode="&#x1e31;" horiz-adv-x="501" 
d="M78 0v736h53v-554l2 -1l276 304h66l-187 -205l186 -280h-61l-163 242l-119 -129v-113h-53zM216 560l120 138h63l-124 -138h-59z" />
    <glyph glyph-name="uni1E36" unicode="&#x1e36;" horiz-adv-x="544" 
d="M88 0v710h57v-658h372v-52h-429zM301 -108q19 0 31.5 -13t12.5 -31q0 -19 -12.5 -31t-31.5 -12t-31.5 12t-12.5 31q0 18 12.5 31t31.5 13z" />
    <glyph glyph-name="uni1E37" unicode="&#x1e37;" horiz-adv-x="221" 
d="M84 0v736h53v-736h-53zM120 -108q19 0 31.5 -13t12.5 -31q0 -19 -12.5 -31t-31.5 -12t-31.5 12t-12.5 31q0 18 12.5 31t31.5 13z" />
    <glyph glyph-name="uni1E38" unicode="&#x1e38;" horiz-adv-x="544" 
d="M130 822v47h277v-47h-277zM88 0v710h57v-658h372v-52h-429zM301 -108q19 0 31.5 -13t12.5 -31q0 -19 -12.5 -31t-31.5 -12t-31.5 12t-12.5 31q0 18 12.5 31t31.5 13z" />
    <glyph glyph-name="uni1E39" unicode="&#x1e39;" horiz-adv-x="221" 
d="M-26 835v47h277v-47h-277zM84 0v736h53v-736h-53zM120 -108q19 0 31.5 -13t12.5 -31q0 -19 -12.5 -31t-31.5 -12t-31.5 12t-12.5 31q0 18 12.5 31t31.5 13z" />
    <glyph glyph-name="uni1E3A" unicode="&#x1e3a;" horiz-adv-x="544" 
d="M88 0v710h57v-658h372v-52h-429zM440 -183h-277v48h277v-48z" />
    <glyph glyph-name="uni1E3B" unicode="&#x1e3b;" horiz-adv-x="221" 
d="M84 0v736h53v-736h-53zM259 -183h-277v48h277v-48z" />
    <glyph glyph-name="uni1E42" unicode="&#x1e42;" horiz-adv-x="865" 
d="M89 0v710h57l286 -491h2l285 491h57v-710h-57v599h-1l-265 -450h-41l-266 450h-1v-599h-56zM431 -108q19 0 31.5 -13t12.5 -31q0 -19 -12.5 -31t-31.5 -12t-31.5 12t-12.5 31q0 18 12.5 31t31.5 13z" />
    <glyph glyph-name="uni1E43" unicode="&#x1e43;" horiz-adv-x="874" 
d="M78 0v485h53v-106h1q27 52 73 81.5t100 29.5q60 0 99.5 -32.5t55.5 -91.5h2q25 58 73.5 91t107.5 33q81 0 123 -55t42 -156v-279h-53v262q0 179 -124 179q-67 0 -112.5 -55.5t-45.5 -145.5v-240h-53v262q0 88 -33 133.5t-94 45.5q-70 0 -116 -55.5t-46 -145.5v-240h-53z
M447 -108q19 0 31.5 -13t12.5 -31q0 -19 -12.5 -31t-31.5 -12t-31.5 12t-12.5 31q0 18 12.5 31t31.5 13z" />
    <glyph glyph-name="uni1E44" unicode="&#x1e44;" horiz-adv-x="740" 
d="M371 809q-19 0 -31.5 13t-12.5 31q0 19 12.5 31t31.5 12t31.5 -12t12.5 -31q0 -18 -12.5 -31t-31.5 -13zM88 0v710h56l449 -615h2v615h56v-710h-57l-448 611h-1v-611h-57z" />
    <glyph glyph-name="uni1E45" unicode="&#x1e45;" horiz-adv-x="560" 
d="M288 590q-19 0 -31.5 13t-12.5 31q0 19 12.5 31t31.5 12t31.5 -12t12.5 -31q0 -18 -12.5 -31t-31.5 -13zM78 0v485h53v-107h2q27 53 76.5 82.5t111.5 29.5q80 0 125.5 -51t45.5 -149v-290h-53v273q0 168 -131 168q-80 0 -128.5 -54.5t-48.5 -145.5v-241h-53z" />
    <glyph glyph-name="uni1E46" unicode="&#x1e46;" horiz-adv-x="740" 
d="M88 0v710h56l449 -615h2v615h56v-710h-57l-448 611h-1v-611h-57zM378 -108q19 0 31.5 -13t12.5 -31q0 -19 -12.5 -31t-31.5 -12t-31.5 12t-12.5 31q0 18 12.5 31t31.5 13z" />
    <glyph glyph-name="uni1E47" unicode="&#x1e47;" horiz-adv-x="560" 
d="M78 0v485h53v-107h2q27 53 76.5 82.5t111.5 29.5q80 0 125.5 -51t45.5 -149v-290h-53v273q0 168 -131 168q-80 0 -128.5 -54.5t-48.5 -145.5v-241h-53zM296 -108q19 0 31.5 -13t12.5 -31q0 -19 -12.5 -31t-31.5 -12t-31.5 12t-12.5 31q0 18 12.5 31t31.5 13z" />
    <glyph glyph-name="uni1E48" unicode="&#x1e48;" horiz-adv-x="740" 
d="M88 0v710h56l449 -615h2v615h56v-710h-57l-448 611h-1v-611h-57zM517 -183h-277v48h277v-48z" />
    <glyph glyph-name="uni1E49" unicode="&#x1e49;" horiz-adv-x="560" 
d="M78 0v485h53v-107h2q27 53 76.5 82.5t111.5 29.5q80 0 125.5 -51t45.5 -149v-290h-53v273q0 168 -131 168q-80 0 -128.5 -54.5t-48.5 -145.5v-241h-53zM435 -183h-277v48h277v-48z" />
    <glyph glyph-name="uni1E5A" unicode="&#x1e5a;" horiz-adv-x="628" 
d="M88 0v710h243q114 0 171 -57.5t57 -152.5q0 -93 -51 -144.5t-143 -63.5l208 -292h-69l-202 287h-157v-287h-57zM145 340h166q97 0 143 43.5t46 116.5q0 77 -46 117.5t-128 40.5h-181v-318zM314 -108q19 0 31.5 -13t12.5 -31q0 -19 -12.5 -31t-31.5 -12t-31.5 12t-12.5 31
q0 18 12.5 31t31.5 13z" />
    <glyph glyph-name="uni1E5B" unicode="&#x1e5b;" horiz-adv-x="336" 
d="M78 0v485h53v-103h2q52 108 165 108h26v-59q-22 2 -31 2q-74 0 -118 -54t-44 -141v-238h-53zM116 -108q19 0 31.5 -13t12.5 -31q0 -19 -12.5 -31t-31.5 -12t-31.5 12t-12.5 31q0 18 12.5 31t31.5 13z" />
    <glyph glyph-name="uni1E5C" unicode="&#x1e5c;" horiz-adv-x="628" 
d="M170 822v47h277v-47h-277zM88 0v710h243q114 0 171 -57.5t57 -152.5q0 -93 -51 -144.5t-143 -63.5l208 -292h-69l-202 287h-157v-287h-57zM145 340h166q97 0 143 43.5t46 116.5q0 77 -46 117.5t-128 40.5h-181v-318zM314 -108q19 0 31.5 -13t12.5 -31q0 -19 -12.5 -31
t-31.5 -12t-31.5 12t-12.5 31q0 18 12.5 31t31.5 13z" />
    <glyph glyph-name="uni1E5D" unicode="&#x1e5d;" horiz-adv-x="336" 
d="M66 607v48h277v-48h-277zM78 0v485h53v-103h2q52 108 165 108h26v-59q-22 2 -31 2q-74 0 -118 -54t-44 -141v-238h-53zM116 -108q19 0 31.5 -13t12.5 -31q0 -19 -12.5 -31t-31.5 -12t-31.5 12t-12.5 31q0 18 12.5 31t31.5 13z" />
    <glyph glyph-name="uni1E5E" unicode="&#x1e5e;" horiz-adv-x="628" 
d="M88 0v710h243q114 0 171 -57.5t57 -152.5q0 -93 -51 -144.5t-143 -63.5l208 -292h-69l-202 287h-157v-287h-57zM145 340h166q97 0 143 43.5t46 116.5q0 77 -46 117.5t-128 40.5h-181v-318zM453 -183h-277v48h277v-48z" />
    <glyph glyph-name="uni1E5F" unicode="&#x1e5f;" horiz-adv-x="336" 
d="M78 0v485h53v-103h2q52 108 165 108h26v-59q-22 2 -31 2q-74 0 -118 -54t-44 -141v-238h-53zM255 -183h-277v48h277v-48z" />
    <glyph glyph-name="uni1E60" unicode="&#x1e60;" horiz-adv-x="569" 
d="M285 809q-19 0 -31.5 13t-12.5 31q0 19 12.5 31t31.5 12t31.5 -12t12.5 -31q0 -18 -12.5 -31t-31.5 -13zM288 -5q-150 0 -245 109l38 44q37 -49 93 -74t116 -25q74 0 121.5 34.5t47.5 96.5q0 31 -11.5 54t-35.5 39.5t-49 28t-64 26.5q-12 4 -19 7q-39 15 -62 25
t-54.5 28.5t-49 37.5t-30.5 48t-13 64q0 76 59.5 126.5t150.5 50.5q117 0 214 -78l-35 -45q-86 71 -178 71q-62 0 -107 -33t-45 -90q0 -30 12 -52.5t41 -41.5t50 -28.5t67 -27.5q107 -43 138 -62q80 -50 80 -143q0 -86 -64.5 -138t-165.5 -52z" />
    <glyph glyph-name="uni1E61" unicode="&#x1e61;" horiz-adv-x="427" 
d="M219 590q-19 0 -31.5 13t-12.5 31q0 19 12.5 31t31.5 12t31.5 -12t12.5 -31q0 -18 -12.5 -31t-31.5 -13zM217 -5q-108 0 -184 69l28 40q68 -61 156 -61q53 0 84 24.5t31 60.5t-26.5 53.5t-88.5 38.5q-4 1 -6 2t-5.5 2t-6.5 2q-72 25 -108 55t-36 86q0 53 43 88t108 35
q94 0 162 -59l-29 -40q-59 51 -135 51q-39 0 -67 -21.5t-28 -52.5q0 -24 16.5 -42.5t35 -27.5t54.5 -23q96 -35 120 -50q52 -33 52 -98q-1 -56 -45.5 -94t-124.5 -38z" />
    <glyph glyph-name="uni1E62" unicode="&#x1e62;" horiz-adv-x="569" 
d="M288 -5q-150 0 -245 109l38 44q37 -49 93 -74t116 -25q74 0 121.5 34.5t47.5 96.5q0 31 -11.5 54t-35.5 39.5t-49 28t-64 26.5q-12 4 -19 7q-39 15 -62 25t-54.5 28.5t-49 37.5t-30.5 48t-13 64q0 76 59.5 126.5t150.5 50.5q117 0 214 -78l-35 -45q-86 71 -178 71
q-62 0 -107 -33t-45 -90q0 -30 12 -52.5t41 -41.5t50 -28.5t67 -27.5q107 -43 138 -62q80 -50 80 -143q0 -86 -64.5 -138t-165.5 -52zM298 -108q19 0 31.5 -13t12.5 -31q0 -19 -12.5 -31t-31.5 -12t-31.5 12t-12.5 31q0 18 12.5 31t31.5 13z" />
    <glyph glyph-name="uni1E63" unicode="&#x1e63;" horiz-adv-x="427" 
d="M217 -5q-108 0 -184 69l28 40q68 -61 156 -61q53 0 84 24.5t31 60.5t-26.5 53.5t-88.5 38.5q-4 1 -6 2t-5.5 2t-6.5 2q-72 25 -108 55t-36 86q0 53 43 88t108 35q94 0 162 -59l-29 -40q-59 51 -135 51q-39 0 -67 -21.5t-28 -52.5q0 -24 16.5 -42.5t35 -27.5t54.5 -23
q96 -35 120 -50q52 -33 52 -98q-1 -56 -45.5 -94t-124.5 -38zM214 -108q19 0 31.5 -13t12.5 -31q0 -19 -12.5 -31t-31.5 -12t-31.5 12t-12.5 31q0 18 12.5 31t31.5 13z" />
    <glyph glyph-name="uni1E6C" unicode="&#x1e6c;" horiz-adv-x="558" 
d="M249 0v658h-222v52h504v-52h-225v-658h-57zM286 -108q19 0 31.5 -13t12.5 -31q0 -19 -12.5 -31t-31.5 -12t-31.5 12t-12.5 31q0 18 12.5 31t31.5 13z" />
    <glyph glyph-name="uni1E6D" unicode="&#x1e6d;" horiz-adv-x="358" 
d="M209 -5q-64 0 -91 36t-27 106v301h-64v47h64v171l53 6v-177h177v-47h-177v-287q0 -55 14.5 -80t56.5 -25q48 0 91 28l14 -48q-51 -31 -111 -31zM206 -108q19 0 31.5 -13t12.5 -31q0 -19 -12.5 -31t-31.5 -12t-31.5 12t-12.5 31q0 18 12.5 31t31.5 13z" />
    <glyph glyph-name="uni1E6E" unicode="&#x1e6e;" horiz-adv-x="558" 
d="M249 0v658h-222v52h504v-52h-225v-658h-57zM425 -183h-277v48h277v-48z" />
    <glyph glyph-name="uni1E6F" unicode="&#x1e6f;" horiz-adv-x="358" 
d="M209 -5q-64 0 -91 36t-27 106v301h-64v47h64v171l53 6v-177h177v-47h-177v-287q0 -55 14.5 -80t56.5 -25q48 0 91 28l14 -48q-51 -31 -111 -31zM345 -183h-277v48h277v-48z" />
    <glyph glyph-name="Wgrave" unicode="&#x1e80;" horiz-adv-x="1006" 
d="M478 788l-118 128h63l113 -128h-58zM262 0l-229 710h61l196 -619h1l180 619h64l179 -619h1l197 619h61l-228 -710h-59l-182 628h-1l-183 -628h-58z" />
    <glyph glyph-name="wgrave" unicode="&#x1e81;" horiz-adv-x="759" 
d="M348 561l-117 133h63l112 -133h-58zM200 0l-170 485h56l139 -403h2l127 403h49l129 -403h2l140 403h54l-170 -485h-51l-127 401h-1l-129 -401h-50z" />
    <glyph glyph-name="Wacute" unicode="&#x1e82;" horiz-adv-x="1006" 
d="M474 788l113 128h62l-118 -128h-57zM262 0l-229 710h61l196 -619h1l180 619h64l179 -619h1l197 619h61l-228 -710h-59l-182 628h-1l-183 -628h-58z" />
    <glyph glyph-name="wacute" unicode="&#x1e83;" horiz-adv-x="759" 
d="M349 560l120 138h63l-124 -138h-59zM200 0l-170 485h56l139 -403h2l127 403h49l129 -403h2l140 403h54l-170 -485h-51l-127 401h-1l-129 -401h-50z" />
    <glyph glyph-name="Wdieresis" unicode="&#x1e84;" horiz-adv-x="1006" 
d="M421 810q-18 0 -31 13t-13 30q0 18 13 30.5t31 12.5q19 0 31.5 -12t12.5 -31q0 -18 -12.5 -30.5t-31.5 -12.5zM586 810q-18 0 -31 13t-13 30q0 19 12.5 31t31.5 12t31.5 -12t12.5 -31q0 -18 -12.5 -30.5t-31.5 -12.5zM262 0l-229 710h61l196 -619h1l180 619h64l179 -619
h1l197 619h61l-228 -710h-59l-182 628h-1l-183 -628h-58z" />
    <glyph glyph-name="wdieresis" unicode="&#x1e85;" horiz-adv-x="759" 
d="M295 591q-18 0 -31 13t-13 30q0 18 13 30.5t31 12.5q19 0 31.5 -12t12.5 -31q0 -18 -12.5 -30.5t-31.5 -12.5zM460 591q-18 0 -31 12.5t-13 30.5q0 19 12.5 31t31.5 12t31.5 -12t12.5 -31q0 -18 -12.5 -30.5t-31.5 -12.5zM200 0l-170 485h56l139 -403h2l127 403h49
l129 -403h2l140 403h54l-170 -485h-51l-127 401h-1l-129 -401h-50z" />
    <glyph glyph-name="uni1E8E" unicode="&#x1e8e;" horiz-adv-x="580" 
d="M291 809q-19 0 -31.5 13t-12.5 31q0 19 12.5 31t31.5 12t31.5 -12t12.5 -31q0 -18 -12.5 -31t-31.5 -13zM261 0v320l-244 390h66l205 -331h2l207 331h66l-245 -390v-320h-57z" />
    <glyph glyph-name="uni1E8F" unicode="&#x1e8f;" horiz-adv-x="516" 
d="M260 590q-19 0 -31.5 13t-12.5 31q0 19 12.5 31t31.5 12t31.5 -12t12.5 -31q0 -18 -12.5 -31t-31.5 -13zM151 -198l87 211l-214 472h59l181 -407h1l168 407h57l-282 -683h-57z" />
    <glyph glyph-name="uni1E92" unicode="&#x1e92;" horiz-adv-x="601" 
d="M56 0v47l405 609l-1 2h-380v52h456v-47l-407 -609l2 -2h408v-52h-483zM297 -108q19 0 31.5 -13t12.5 -31q0 -19 -12.5 -31t-31.5 -12t-31.5 12t-12.5 31q0 18 12.5 31t31.5 13z" />
    <glyph glyph-name="uni1E93" unicode="&#x1e93;" horiz-adv-x="455" 
d="M33 0v42l310 395v1h-296v47h370v-39l-312 -397v-2h314v-47h-386zM226 -108q19 0 31.5 -13t12.5 -31q0 -19 -12.5 -31t-31.5 -12t-31.5 12t-12.5 31q0 18 12.5 31t31.5 13z" />
    <glyph glyph-name="uni1E97" unicode="&#x1e97;" horiz-adv-x="358" 
d="M71 736q-18 0 -31 13t-13 30q0 18 13 30.5t31 12.5q19 0 31.5 -12t12.5 -31q0 -18 -12.5 -30.5t-31.5 -12.5zM236 736q-18 0 -31 13t-13 30q0 19 12.5 31t31.5 12t31.5 -12t12.5 -31q0 -18 -12.5 -30.5t-31.5 -12.5zM209 -5q-64 0 -91 36t-27 106v301h-64v47h64v171l53 6
v-177h177v-47h-177v-287q0 -55 14.5 -80t56.5 -25q48 0 91 28l14 -48q-51 -31 -111 -31z" />
    <glyph glyph-name="uni1E9E" unicode="&#x1e9e;" horiz-adv-x="718" 
d="M464 390q108 -42 141 -63q78 -50 78 -142q0 -86 -64.5 -138t-162.5 -52q-133 0 -227 94l28 53q38 -46 91.5 -69.5t109.5 -23.5q71 0 118.5 35t47.5 96q0 32 -10 54.5t-39.5 41t-47 26.5t-67.5 27l-15 6q-47 17 -94 40l143 265l-1 3q-100 20 -187 20q-96 0 -140.5 -39
t-45.5 -124v-500h-57l1 504q0 108 58.5 159.5t176.5 51.5q124 0 275 -37l-147 -273z" />
    <glyph glyph-name="uni1EA0" unicode="&#x1ea0;" horiz-adv-x="659" 
d="M27 0l271 710h60l274 -710h-60l-73 191h-340l-72 -191h-60zM177 242h304l-151 400h-2zM329 -108q19 0 31.5 -13t12.5 -31q0 -19 -12.5 -31t-31.5 -12t-31.5 12t-12.5 31q0 18 12.5 31t31.5 13z" />
    <glyph glyph-name="uni1EA1" unicode="&#x1ea1;" horiz-adv-x="598" 
d="M283 -5q-102 0 -170.5 68t-68.5 176q0 107 67.5 179t171.5 72q62 0 112 -30.5t77 -84.5h1v110h53v-485h-51v109l-2 1q-27 -53 -76.5 -84t-113.5 -31zM289 45q78 0 132 54t54 139q0 86 -52 144.5t-133 58.5t-136 -56.5t-55 -146.5q0 -82 53 -137.5t137 -55.5zM291 -108
q19 0 31.5 -13t12.5 -31q0 -19 -12.5 -31t-31.5 -12t-31.5 12t-12.5 31q0 18 12.5 31t31.5 13z" />
    <glyph glyph-name="uni1EA2" unicode="&#x1ea2;" horiz-adv-x="659" 
d="M305 781q5 3 17 11.5t17.5 12.5t15 11.5t14.5 13t10.5 12t8 13t2.5 12.5q0 36 -49 36q-52 0 -90 -31l-12 35q49 36 111 36q39 0 63 -18t24 -54q0 -6 -1.5 -12.5t-4 -11.5t-6.5 -11t-7.5 -10t-10 -9t-10 -8t-11 -8l-10.5 -7l-10.5 -7t-9.5 -6h-51zM27 0l271 710h60
l274 -710h-60l-73 191h-340l-72 -191h-60zM177 242h304l-151 400h-2z" />
    <glyph glyph-name="uni1EA3" unicode="&#x1ea3;" horiz-adv-x="598" 
d="M264 555q91 62 91 100q0 36 -49 36q-50 0 -90 -32l-12 35q49 38 111 38q39 0 62.5 -18t23.5 -55q0 -51 -86 -104h-51zM283 -5q-102 0 -170.5 68t-68.5 176q0 107 67.5 179t171.5 72q62 0 112 -30.5t77 -84.5h1v110h53v-485h-51v109l-2 1q-27 -53 -76.5 -84t-113.5 -31z
M289 45q78 0 132 54t54 139q0 86 -52 144.5t-133 58.5t-136 -56.5t-55 -146.5q0 -82 53 -137.5t137 -55.5z" />
    <glyph glyph-name="uni1EA4" unicode="&#x1ea4;" horiz-adv-x="659" 
d="M465 848l109 135h63l-124 -135h-48zM182 788l120 118h57l117 -118h-58l-87 85h-2l-90 -85h-57zM27 0l271 710h60l274 -710h-60l-73 191h-340l-72 -191h-60zM177 242h304l-151 400h-2z" />
    <glyph glyph-name="uni1EA5" unicode="&#x1ea5;" horiz-adv-x="598" 
d="M403 643l110 138h62l-124 -138h-48zM149 561l119 133h57l116 -133h-57l-86 98h-2l-90 -98h-57zM283 -5q-102 0 -170.5 68t-68.5 176q0 107 67.5 179t171.5 72q62 0 112 -30.5t77 -84.5h1v110h53v-485h-51v109l-2 1q-27 -53 -76.5 -84t-113.5 -31zM289 45q78 0 132 54
t54 139q0 86 -52 144.5t-133 58.5t-136 -56.5t-55 -146.5q0 -82 53 -137.5t137 -55.5z" />
    <glyph glyph-name="uni1EA6" unicode="&#x1ea6;" horiz-adv-x="659" 
d="M503 847l-124 134h63l108 -134h-47zM182 788l120 118h57l117 -118h-58l-87 85h-2l-90 -85h-57zM27 0l271 710h60l274 -710h-60l-73 191h-340l-72 -191h-60zM177 242h304l-151 400h-2z" />
    <glyph glyph-name="uni1EA7" unicode="&#x1ea7;" horiz-adv-x="598" 
d="M458 643l-125 138h63l109 -138h-47zM146 561l119 133h57l116 -133h-57l-86 98h-2l-90 -98h-57zM283 -5q-102 0 -170.5 68t-68.5 176q0 107 67.5 179t171.5 72q62 0 112 -30.5t77 -84.5h1v110h53v-485h-51v109l-2 1q-27 -53 -76.5 -84t-113.5 -31zM289 45q78 0 132 54
t54 139q0 86 -52 144.5t-133 58.5t-136 -56.5t-55 -146.5q0 -82 53 -137.5t137 -55.5z" />
    <glyph glyph-name="uni1EA8" unicode="&#x1ea8;" horiz-adv-x="659" 
d="M463 851q4 3 16 11t16.5 11.5t14 11t14 12t10 11t7.5 12t2 11.5q0 33 -46 33q-50 0 -84 -29l-12 33q49 33 105 33q81 0 81 -67q0 -6 -1.5 -12.5t-5 -12.5t-6.5 -10.5t-9.5 -10t-10 -8.5t-11 -8.5t-11 -7.5t-11.5 -7t-10 -6h-48zM182 788l120 118h57l117 -118h-58l-87 85
h-2l-90 -85h-57zM27 0l271 710h60l274 -710h-60l-73 191h-340l-72 -191h-60zM177 242h304l-151 400h-2z" />
    <glyph glyph-name="uni1EA9" unicode="&#x1ea9;" horiz-adv-x="598" 
d="M419 642q87 58 87 95q0 35 -47 35t-86 -31l-11 33q46 37 106 37q37 0 59.5 -17t22.5 -53q0 -50 -82 -99h-49zM146 560l119 133h57l116 -133h-57l-86 98h-2l-90 -98h-57zM283 -5q-102 0 -170.5 68t-68.5 176q0 107 67.5 179t171.5 72q62 0 112 -30.5t77 -84.5h1v110h53
v-485h-51v109l-2 1q-27 -53 -76.5 -84t-113.5 -31zM289 45q78 0 132 54t54 139q0 86 -52 144.5t-133 58.5t-136 -56.5t-55 -146.5q0 -82 53 -137.5t137 -55.5z" />
    <glyph glyph-name="uni1EAA" unicode="&#x1eaa;" horiz-adv-x="659" 
d="M410 925q-26 0 -84 36q-38 27 -63 27q-39 0 -58 -57l-37 15q30 83 93 83q30 0 80 -30q4 -3 15.5 -10.5t17.5 -11t15.5 -7t17.5 -3.5q39 0 56 58l37 -13q-27 -87 -90 -87zM182 788l120 118h57l117 -118h-58l-87 85h-2l-90 -85h-57zM27 0l271 710h60l274 -710h-60l-73 191
h-340l-72 -191h-60zM177 242h304l-151 400h-2z" />
    <glyph glyph-name="uni1EAB" unicode="&#x1eab;" horiz-adv-x="598" 
d="M164 757l-37 14q29 87 91 87q32 0 76 -28q5 -3 16 -10t15.5 -9.5t12 -6.5t13.5 -5.5t12 -1.5q42 0 60 58l37 -12q-27 -90 -92 -90q-31 0 -85 37q-39 25 -61 24q-37 0 -58 -57zM148 560l119 133h57l116 -133h-57l-86 98h-2l-90 -98h-57zM283 -5q-102 0 -170.5 68
t-68.5 176q0 107 67.5 179t171.5 72q62 0 112 -30.5t77 -84.5h1v110h53v-485h-51v109l-2 1q-27 -53 -76.5 -84t-113.5 -31zM289 45q78 0 132 54t54 139q0 86 -52 144.5t-133 58.5t-136 -56.5t-55 -146.5q0 -82 53 -137.5t137 -55.5z" />
    <glyph glyph-name="uni1EAC" unicode="&#x1eac;" horiz-adv-x="659" 
d="M182 788l120 118h57l117 -118h-58l-87 85h-2l-90 -85h-57zM27 0l271 710h60l274 -710h-60l-73 191h-340l-72 -191h-60zM177 242h304l-151 400h-2zM329 -108q19 0 31.5 -13t12.5 -31q0 -19 -12.5 -31t-31.5 -12t-31.5 12t-12.5 31q0 18 12.5 31t31.5 13z" />
    <glyph glyph-name="uni1EAD" unicode="&#x1ead;" horiz-adv-x="598" 
d="M147 560l119 133h57l116 -133h-57l-86 98h-2l-90 -98h-57zM283 -5q-102 0 -170.5 68t-68.5 176q0 107 67.5 179t171.5 72q62 0 112 -30.5t77 -84.5h1v110h53v-485h-51v109l-2 1q-27 -53 -76.5 -84t-113.5 -31zM289 45q78 0 132 54t54 139q0 86 -52 144.5t-133 58.5
t-136 -56.5t-55 -146.5q0 -82 53 -137.5t137 -55.5zM291 -108q19 0 31.5 -13t12.5 -31q0 -19 -12.5 -31t-31.5 -12t-31.5 12t-12.5 31q0 18 12.5 31t31.5 13z" />
    <glyph glyph-name="uni1EAE" unicode="&#x1eae;" horiz-adv-x="659" 
d="M304 890l109 134h63l-124 -134h-48zM330 780q-59 0 -98.5 30.5t-43.5 80.5h47q3 -29 28.5 -50t66.5 -21t66.5 21t27.5 50h48q-5 -50 -44 -80.5t-98 -30.5zM27 0l271 710h60l274 -710h-60l-73 191h-340l-72 -191h-60zM177 242h304l-151 400h-2z" />
    <glyph glyph-name="uni1EAF" unicode="&#x1eaf;" horiz-adv-x="598" 
d="M262 698l109 138h63l-125 -138h-47zM293 557q-57 0 -93.5 35.5t-40.5 98.5h44q3 -39 26.5 -64.5t63.5 -25.5q39 0 63 25.5t26 64.5h45q-5 -64 -41.5 -99t-92.5 -35zM283 -5q-102 0 -170.5 68t-68.5 176q0 107 67.5 179t171.5 72q62 0 112 -30.5t77 -84.5h1v110h53v-485
h-51v109l-2 1q-27 -53 -76.5 -84t-113.5 -31zM289 45q78 0 132 54t54 139q0 86 -52 144.5t-133 58.5t-136 -56.5t-55 -146.5q0 -82 53 -137.5t137 -55.5z" />
    <glyph glyph-name="uni1EB0" unicode="&#x1eb0;" horiz-adv-x="659" 
d="M312 890l-124 134h62l109 -134h-47zM329 780q-59 0 -98.5 30.5t-43.5 80.5h47q3 -29 28.5 -50t66.5 -21t66.5 21t27.5 50h48q-5 -50 -44 -80.5t-98 -30.5zM27 0l271 710h60l274 -710h-60l-73 191h-340l-72 -191h-60zM177 242h304l-151 400h-2z" />
    <glyph glyph-name="uni1EB1" unicode="&#x1eb1;" horiz-adv-x="598" 
d="M284 698l-124 138h62l109 -138h-47zM293 557q-57 0 -93.5 35.5t-40.5 98.5h44q3 -39 26.5 -64.5t63.5 -25.5q39 0 63 25.5t26 64.5h45q-5 -64 -41.5 -99t-92.5 -35zM283 -5q-102 0 -170.5 68t-68.5 176q0 107 67.5 179t171.5 72q62 0 112 -30.5t77 -84.5h1v110h53v-485
h-51v109l-2 1q-27 -53 -76.5 -84t-113.5 -31zM289 45q78 0 132 54t54 139q0 86 -52 144.5t-133 58.5t-136 -56.5t-55 -146.5q0 -82 53 -137.5t137 -55.5z" />
    <glyph glyph-name="uni1EB2" unicode="&#x1eb2;" horiz-adv-x="659" 
d="M295 890q5 3 15 10.5t15.5 11.5t14 10.5t13.5 11t10 10.5t7 11.5t2 11.5q0 33 -44 33q-46 0 -81 -28l-11 31q42 33 100 33q35 0 56.5 -16t21.5 -49q0 -6 -1.5 -12t-5 -12t-6.5 -10.5t-9 -10t-9.5 -8.5t-11 -8t-10 -7t-11 -7t-9.5 -6h-46zM329 780q-59 0 -98.5 30.5
t-43.5 80.5h47q3 -29 28.5 -50t66.5 -21t66.5 21t27.5 50h48q-5 -50 -44 -80.5t-98 -30.5zM27 0l271 710h60l274 -710h-60l-73 191h-340l-72 -191h-60zM177 242h304l-151 400h-2z" />
    <glyph glyph-name="uni1EB3" unicode="&#x1eb3;" horiz-adv-x="598" 
d="M260 683q87 58 87 95q0 35 -47 35t-86 -31l-11 33q46 37 106 37q37 0 59.5 -17t22.5 -53q0 -50 -82 -99h-49zM292 558q-57 0 -94.5 34.5t-41.5 96.5h45q3 -39 27 -63.5t64 -24.5t64 25t26 63h46q-5 -62 -42 -96.5t-94 -34.5zM283 -5q-102 0 -170.5 68t-68.5 176
q0 107 67.5 179t171.5 72q62 0 112 -30.5t77 -84.5h1v110h53v-485h-51v109l-2 1q-27 -53 -76.5 -84t-113.5 -31zM289 45q78 0 132 54t54 139q0 86 -52 144.5t-133 58.5t-136 -56.5t-55 -146.5q0 -82 53 -137.5t137 -55.5z" />
    <glyph glyph-name="uni1EB4" unicode="&#x1eb4;" horiz-adv-x="659" 
d="M407 911q-7 0 -15.5 2t-13.5 3.5t-15 7t-12.5 7t-14.5 9t-13 7.5q-38 27 -63 27q-39 0 -58 -57l-37 15q30 83 93 83q30 0 80 -30q4 -3 15.5 -10.5t17.5 -11t15.5 -7t17.5 -3.5q39 0 56 58l37 -13q-27 -87 -90 -87zM329 780q-59 0 -98.5 30.5t-43.5 80.5h47
q3 -29 28.5 -50t66.5 -21t66.5 21t27.5 50h48q-5 -50 -44 -80.5t-98 -30.5zM27 0l271 710h60l274 -710h-60l-73 191h-340l-72 -191h-60zM177 242h304l-151 400h-2z" />
    <glyph glyph-name="uni1EB5" unicode="&#x1eb5;" horiz-adv-x="598" 
d="M164 745l-37 14q29 87 91 87q32 0 76 -28q5 -3 16 -10t15.5 -9.5t12 -6.5t13.5 -5.5t12 -1.5q42 0 60 58l37 -12q-27 -90 -92 -90q-31 0 -85 37q-39 25 -61 24q-37 0 -58 -57zM293 557q-57 0 -93.5 35.5t-40.5 98.5h44q3 -39 26.5 -64.5t63.5 -25.5q39 0 63 25.5t26 64.5
h45q-5 -64 -41.5 -99t-92.5 -35zM283 -5q-102 0 -170.5 68t-68.5 176q0 107 67.5 179t171.5 72q62 0 112 -30.5t77 -84.5h1v110h53v-485h-51v109l-2 1q-27 -53 -76.5 -84t-113.5 -31zM289 45q78 0 132 54t54 139q0 86 -52 144.5t-133 58.5t-136 -56.5t-55 -146.5
q0 -82 53 -137.5t137 -55.5z" />
    <glyph glyph-name="uni1EB6" unicode="&#x1eb6;" horiz-adv-x="659" 
d="M329 783q-56 0 -93 34t-41 89h44q3 -32 27 -55t63 -23t63 23t26 55h45q-5 -56 -42 -89.5t-92 -33.5zM27 0l271 710h60l274 -710h-60l-73 191h-340l-72 -191h-60zM177 242h304l-151 400h-2zM329 -108q19 0 31.5 -13t12.5 -31q0 -19 -12.5 -31t-31.5 -12t-31.5 12t-12.5 31
q0 18 12.5 31t31.5 13z" />
    <glyph glyph-name="uni1EB7" unicode="&#x1eb7;" horiz-adv-x="598" 
d="M293 557q-57 0 -93.5 35.5t-40.5 98.5h44q3 -39 26.5 -64.5t63.5 -25.5q39 0 63 25.5t26 64.5h45q-5 -64 -41.5 -99t-92.5 -35zM283 -5q-102 0 -170.5 68t-68.5 176q0 107 67.5 179t171.5 72q62 0 112 -30.5t77 -84.5h1v110h53v-485h-51v109l-2 1q-27 -53 -76.5 -84
t-113.5 -31zM289 45q78 0 132 54t54 139q0 86 -52 144.5t-133 58.5t-136 -56.5t-55 -146.5q0 -82 53 -137.5t137 -55.5zM291 -108q19 0 31.5 -13t12.5 -31q0 -19 -12.5 -31t-31.5 -12t-31.5 12t-12.5 31q0 18 12.5 31t31.5 13z" />
    <glyph glyph-name="uni1EB8" unicode="&#x1eb8;" horiz-adv-x="579" 
d="M88 0v710h424v-52h-367v-278h305v-52h-305v-276h388v-52h-445zM309 -108q19 0 31.5 -13t12.5 -31q0 -19 -12.5 -31t-31.5 -12t-31.5 12t-12.5 31q0 18 12.5 31t31.5 13z" />
    <glyph glyph-name="uni1EB9" unicode="&#x1eb9;" horiz-adv-x="542" 
d="M499 255q0 -21 -1 -24h-398q4 -83 55 -134.5t131 -51.5q100 0 156 73l38 -32q-68 -91 -195 -91q-105 0 -172 69.5t-67 178.5q0 107 67 177t168 70q97 0 157.5 -66.5t60.5 -168.5zM281 441q-70 0 -119.5 -45.5t-59.5 -120.5h344q-8 75 -51.5 120.5t-113.5 45.5zM287 -108
q19 0 31.5 -13t12.5 -31q0 -19 -12.5 -31t-31.5 -12t-31.5 12t-12.5 31q0 18 12.5 31t31.5 13z" />
    <glyph glyph-name="uni1EBA" unicode="&#x1eba;" horiz-adv-x="579" 
d="M274 781q5 3 17 11.5t17.5 12.5t15 11.5t14.5 13t10.5 12t8 13t2.5 12.5q0 36 -49 36q-52 0 -90 -31l-12 35q49 36 111 36q39 0 63 -18t24 -54q0 -6 -1.5 -12.5t-4 -11.5t-6.5 -11t-7.5 -10t-10 -9t-10 -8t-11 -8l-10.5 -7l-10.5 -7t-9.5 -6h-51zM88 0v710h424v-52h-367
v-278h305v-52h-305v-276h388v-52h-445z" />
    <glyph glyph-name="uni1EBB" unicode="&#x1ebb;" horiz-adv-x="542" 
d="M295 691q-50 0 -90 -32l-12 35q49 38 111 38q39 0 62.5 -18t23.5 -55q0 -51 -86 -104h-51q91 62 91 100q0 36 -49 36zM499 255q0 -21 -1 -24h-398q4 -83 55 -134.5t131 -51.5q100 0 156 73l38 -32q-68 -91 -195 -91q-105 0 -172 69.5t-67 178.5q0 107 67 177t168 70
q97 0 157.5 -66.5t60.5 -168.5zM281 441q-70 0 -119.5 -45.5t-59.5 -120.5h344q-8 75 -51.5 120.5t-113.5 45.5z" />
    <glyph glyph-name="uni1EBC" unicode="&#x1ebc;" horiz-adv-x="579" 
d="M376 788q-29 0 -86 37q-40 27 -64 27q-40 0 -60 -58l-37 15q30 86 94 86q30 0 82 -31q3 -2 15.5 -10.5t18.5 -12t16 -7t18 -3.5q38 0 57 59l37 -13q-27 -89 -91 -89zM88 0v710h424v-52h-367v-278h305v-52h-305v-276h388v-52h-445z" />
    <glyph glyph-name="uni1EBD" unicode="&#x1ebd;" horiz-adv-x="542" 
d="M212 635q-40 0 -62 -57l-37 14q29 89 94 89q34 0 80 -30q3 -2 12.5 -9t14.5 -10t12.5 -7t14.5 -6t14 -2q41 0 59 59l38 -13q-13 -44 -37.5 -67.5t-53.5 -23.5q-7 0 -13.5 1t-14.5 4t-12.5 4.5t-13.5 7t-11 6.5t-12 8l-11 7q-36 25 -61 25zM499 255q0 -21 -1 -24h-398
q4 -83 55 -134.5t131 -51.5q100 0 156 73l38 -32q-68 -91 -195 -91q-105 0 -172 69.5t-67 178.5q0 107 67 177t168 70q97 0 157.5 -66.5t60.5 -168.5zM281 441q-70 0 -119.5 -45.5t-59.5 -120.5h344q-8 75 -51.5 120.5t-113.5 45.5z" />
    <glyph glyph-name="uni1EBE" unicode="&#x1ebe;" horiz-adv-x="579" 
d="M434 848l109 135h63l-124 -135h-48zM151 788l120 118h57l117 -118h-58l-87 85h-2l-90 -85h-57zM88 0v710h424v-52h-367v-278h305v-52h-305v-276h388v-52h-445z" />
    <glyph glyph-name="uni1EBF" unicode="&#x1ebf;" horiz-adv-x="542" 
d="M564 781l-124 -138h-48l110 138h62zM285 659l-90 -98h-57l119 133h57l116 -133h-57l-86 98h-2zM281 490q97 0 157.5 -66.5t60.5 -168.5q0 -21 -1 -24h-398q4 -83 55 -134.5t131 -51.5q100 0 156 73l38 -32q-68 -91 -195 -91q-105 0 -172 69.5t-67 178.5q0 107 67 177
t168 70zM281 441q-70 0 -119.5 -45.5t-59.5 -120.5h344q-8 75 -51.5 120.5t-113.5 45.5z" />
    <glyph glyph-name="uni1EC0" unicode="&#x1ec0;" horiz-adv-x="579" 
d="M472 847l-124 134h63l108 -134h-47zM151 788l120 118h57l117 -118h-58l-87 85h-2l-90 -85h-57zM88 0v710h424v-52h-367v-278h305v-52h-305v-276h388v-52h-445z" />
    <glyph glyph-name="uni1EC1" unicode="&#x1ec1;" horiz-adv-x="542" 
d="M494 643h-47l-125 138h63zM282 659l-90 -98h-57l119 133h57l116 -133h-57l-86 98h-2zM499 255q0 -21 -1 -24h-398q4 -83 55 -134.5t131 -51.5q100 0 156 73l38 -32q-68 -91 -195 -91q-105 0 -172 69.5t-67 178.5q0 107 67 177t168 70q97 0 157.5 -66.5t60.5 -168.5z
M281 441q-70 0 -119.5 -45.5t-59.5 -120.5h344q-8 75 -51.5 120.5t-113.5 45.5z" />
    <glyph glyph-name="uni1EC2" unicode="&#x1ec2;" horiz-adv-x="579" 
d="M432 851q4 3 16 11t16.5 11.5t14 11t14 12t10 11t7.5 12t2 11.5q0 33 -46 33q-50 0 -84 -29l-12 33q49 33 105 33q81 0 81 -67q0 -6 -1.5 -12.5t-5 -12.5t-6.5 -10.5t-9.5 -10t-10 -8.5t-11 -8.5t-11 -7.5t-11.5 -7t-10 -6h-48zM151 788l120 118h57l117 -118h-58l-87 85
h-2l-90 -85h-57zM88 0v710h424v-52h-367v-278h305v-52h-305v-276h388v-52h-445z" />
    <glyph glyph-name="uni1EC3" unicode="&#x1ec3;" horiz-adv-x="542" 
d="M457 811q37 0 59.5 -17t22.5 -53q0 -50 -82 -99h-49q87 58 87 95q0 35 -47 35t-86 -31l-11 33q46 37 106 37zM282 658l-90 -98h-57l119 133h57l116 -133h-57l-86 98h-2zM281 490q97 0 157.5 -66.5t60.5 -168.5q0 -21 -1 -24h-398q4 -83 55 -134.5t131 -51.5q100 0 156 73
l38 -32q-68 -91 -195 -91q-105 0 -172 69.5t-67 178.5q0 107 67 177t168 70zM281 441q-70 0 -119.5 -45.5t-59.5 -120.5h344q-8 75 -51.5 120.5t-113.5 45.5z" />
    <glyph glyph-name="uni1EC4" unicode="&#x1ec4;" horiz-adv-x="579" 
d="M379 925q-7 0 -15.5 2t-13.5 3.5t-15 7t-12.5 7t-14.5 9t-13 7.5q-38 27 -63 27q-39 0 -58 -57l-37 15q30 83 93 83q30 0 80 -30q4 -3 15.5 -10.5t17.5 -11t15.5 -7t17.5 -3.5q39 0 56 58l37 -13q-27 -87 -90 -87zM151 788l120 118h57l117 -118h-58l-87 85h-2l-90 -85
h-57zM88 0v710h424v-52h-367v-278h305v-52h-305v-276h388v-52h-445z" />
    <glyph glyph-name="uni1EC5" unicode="&#x1ec5;" horiz-adv-x="542" 
d="M211 814q-37 0 -58 -57l-37 14q29 87 91 87q32 0 76 -28q5 -3 16 -10t15.5 -9.5t12 -6.5t13.5 -5.5t12 -1.5q42 0 60 58l37 -12q-27 -90 -92 -90q-31 0 -85 37q-39 25 -61 24zM256 693h57l116 -133h-57l-86 98h-2l-90 -98h-57zM499 255q0 -21 -1 -24h-398
q4 -83 55 -134.5t131 -51.5q100 0 156 73l38 -32q-68 -91 -195 -91q-105 0 -172 69.5t-67 178.5q0 107 67 177t168 70q97 0 157.5 -66.5t60.5 -168.5zM281 441q-70 0 -119.5 -45.5t-59.5 -120.5h344q-8 75 -51.5 120.5t-113.5 45.5z" />
    <glyph glyph-name="uni1EC6" unicode="&#x1ec6;" horiz-adv-x="579" 
d="M151 788l120 118h57l117 -118h-58l-87 85h-2l-90 -85h-57zM88 0v710h424v-52h-367v-278h305v-52h-305v-276h388v-52h-445zM309 -108q19 0 31.5 -13t12.5 -31q0 -19 -12.5 -31t-31.5 -12t-31.5 12t-12.5 31q0 18 12.5 31t31.5 13z" />
    <glyph glyph-name="uni1EC7" unicode="&#x1ec7;" horiz-adv-x="542" 
d="M283 658l-90 -98h-57l119 133h57l116 -133h-57l-86 98h-2zM499 255q0 -21 -1 -24h-398q4 -83 55 -134.5t131 -51.5q100 0 156 73l38 -32q-68 -91 -195 -91q-105 0 -172 69.5t-67 178.5q0 107 67 177t168 70q97 0 157.5 -66.5t60.5 -168.5zM281 441q-70 0 -119.5 -45.5
t-59.5 -120.5h344q-8 75 -51.5 120.5t-113.5 45.5zM287 -108q19 0 31.5 -13t12.5 -31q0 -19 -12.5 -31t-31.5 -12t-31.5 12t-12.5 31q0 18 12.5 31t31.5 13z" />
    <glyph glyph-name="uni1EC8" unicode="&#x1ec8;" horiz-adv-x="246" 
d="M98 781q5 3 17 11.5t17.5 12.5t15 11.5t14.5 13t10.5 12t8 13t2.5 12.5q0 36 -49 36q-52 0 -90 -31l-12 35q49 36 111 36q39 0 63 -18t24 -54q0 -6 -1.5 -12.5t-4 -11.5t-6.5 -11t-7.5 -10t-10 -9t-10 -8t-11 -8l-10.5 -7l-10.5 -7t-9.5 -6h-51zM94 0v710h57v-710h-57z
" />
    <glyph glyph-name="uni1EC9" unicode="&#x1ec9;" horiz-adv-x="222" 
d="M82 555q91 62 91 100q0 36 -49 36q-50 0 -90 -32l-12 35q49 38 111 38q39 0 62.5 -18t23.5 -55q0 -51 -86 -104h-51zM84 0v485h53v-485h-53z" />
    <glyph glyph-name="uni1ECA" unicode="&#x1eca;" horiz-adv-x="246" 
d="M94 0v710h57v-710h-57zM124 -108q19 0 31.5 -13t12.5 -31q0 -19 -12.5 -31t-31.5 -12t-31.5 12t-12.5 31q0 18 12.5 31t31.5 13z" />
    <glyph glyph-name="uni1ECB" unicode="&#x1ecb;" horiz-adv-x="222" 
d="M112 590q-19 0 -31.5 13t-12.5 31q0 19 12.5 31t31.5 12t31.5 -12t12.5 -31q0 -18 -12.5 -31t-31.5 -13zM84 0v485h53v-485h-53zM111 -108q19 0 31.5 -13t12.5 -31q0 -19 -12.5 -31t-31.5 -12t-31.5 12t-12.5 31q0 18 12.5 31t31.5 13z" />
    <glyph glyph-name="uni1ECC" unicode="&#x1ecc;" horiz-adv-x="824" 
d="M413 -5q-152 0 -252.5 101t-100.5 260q0 158 100.5 258.5t252.5 100.5q150 0 250.5 -100t100.5 -259q0 -160 -101 -260.5t-250 -100.5zM413 49q123 0 207.5 86t84.5 221q0 134 -84.5 219.5t-207.5 85.5q-126 0 -210.5 -86t-84.5 -219q0 -134 84.5 -220.5t210.5 -86.5z
M413 -108q19 0 31.5 -13t12.5 -31q0 -19 -12.5 -31t-31.5 -12t-31.5 12t-12.5 31q0 18 12.5 31t31.5 13z" />
    <glyph glyph-name="uni1ECD" unicode="&#x1ecd;" horiz-adv-x="586" 
d="M293 -5q-109 0 -178 71t-69 176t69 176.5t178 71.5q106 0 176.5 -69t70.5 -179q0 -108 -71 -177.5t-176 -69.5zM293 45q82 0 137.5 55t55.5 142q0 88 -55.5 143.5t-137.5 55.5q-85 0 -139 -57.5t-54 -141.5q0 -83 54 -140t139 -57zM293 -108q19 0 31.5 -13t12.5 -31
q0 -19 -12.5 -31t-31.5 -12t-31.5 12t-12.5 31q0 18 12.5 31t31.5 13z" />
    <glyph glyph-name="uni1ECE" unicode="&#x1ece;" horiz-adv-x="824" 
d="M389 781q5 3 17 11.5t17.5 12.5t15 11.5t14.5 13t10.5 12t8 13t2.5 12.5q0 36 -49 36q-52 0 -90 -31l-12 35q49 36 111 36q39 0 63 -18t24 -54q0 -6 -1.5 -12.5t-4 -11.5t-6.5 -11t-7.5 -10t-10 -9t-10 -8t-11 -8l-10.5 -7l-10.5 -7t-9.5 -6h-51zM413 -5
q-152 0 -252.5 101t-100.5 260q0 158 100.5 258.5t252.5 100.5q150 0 250.5 -100t100.5 -259q0 -160 -101 -260.5t-250 -100.5zM413 49q123 0 207.5 86t84.5 221q0 134 -84.5 219.5t-207.5 85.5q-126 0 -210.5 -86t-84.5 -219q0 -134 84.5 -220.5t210.5 -86.5z" />
    <glyph glyph-name="uni1ECF" unicode="&#x1ecf;" horiz-adv-x="586" 
d="M265 555q91 62 91 100q0 36 -49 36q-50 0 -90 -32l-12 35q49 38 111 38q39 0 62.5 -18t23.5 -55q0 -51 -86 -104h-51zM293 -5q-109 0 -178 71t-69 176t69 176.5t178 71.5q106 0 176.5 -69t70.5 -179q0 -108 -71 -177.5t-176 -69.5zM293 45q82 0 137.5 55t55.5 142
q0 88 -55.5 143.5t-137.5 55.5q-85 0 -139 -57.5t-54 -141.5q0 -83 54 -140t139 -57z" />
    <glyph glyph-name="uni1ED0" unicode="&#x1ed0;" horiz-adv-x="824" 
d="M549 848l109 135h63l-124 -135h-48zM266 788l120 118h57l117 -118h-58l-87 85h-2l-90 -85h-57zM413 -5q-152 0 -252.5 101t-100.5 260q0 158 100.5 258.5t252.5 100.5q150 0 250.5 -100t100.5 -259q0 -160 -101 -260.5t-250 -100.5zM413 49q123 0 207.5 86t84.5 221
q0 134 -84.5 219.5t-207.5 85.5q-126 0 -210.5 -86t-84.5 -219q0 -134 84.5 -220.5t210.5 -86.5z" />
    <glyph glyph-name="uni1ED1" unicode="&#x1ed1;" horiz-adv-x="586" 
d="M404 643l110 138h62l-124 -138h-48zM150 561l119 133h57l116 -133h-57l-86 98h-2l-90 -98h-57zM293 -5q-109 0 -178 71t-69 176t69 176.5t178 71.5q106 0 176.5 -69t70.5 -179q0 -108 -71 -177.5t-176 -69.5zM293 45q82 0 137.5 55t55.5 142q0 88 -55.5 143.5
t-137.5 55.5q-85 0 -139 -57.5t-54 -141.5q0 -83 54 -140t139 -57z" />
    <glyph glyph-name="uni1ED2" unicode="&#x1ed2;" horiz-adv-x="824" 
d="M587 847l-124 134h63l108 -134h-47zM266 788l120 118h57l117 -118h-58l-87 85h-2l-90 -85h-57zM413 -5q-152 0 -252.5 101t-100.5 260q0 158 100.5 258.5t252.5 100.5q150 0 250.5 -100t100.5 -259q0 -160 -101 -260.5t-250 -100.5zM413 49q123 0 207.5 86t84.5 221
q0 134 -84.5 219.5t-207.5 85.5q-126 0 -210.5 -86t-84.5 -219q0 -134 84.5 -220.5t210.5 -86.5z" />
    <glyph glyph-name="uni1ED3" unicode="&#x1ed3;" horiz-adv-x="586" 
d="M459 643l-125 138h63l109 -138h-47zM147 561l119 133h57l116 -133h-57l-86 98h-2l-90 -98h-57zM293 -5q-109 0 -178 71t-69 176t69 176.5t178 71.5q106 0 176.5 -69t70.5 -179q0 -108 -71 -177.5t-176 -69.5zM293 45q82 0 137.5 55t55.5 142q0 88 -55.5 143.5
t-137.5 55.5q-85 0 -139 -57.5t-54 -141.5q0 -83 54 -140t139 -57z" />
    <glyph glyph-name="uni1ED4" unicode="&#x1ed4;" horiz-adv-x="824" 
d="M547 851q4 3 16 11t16.5 11.5t14 11t14 12t10 11t7.5 12t2 11.5q0 33 -46 33q-50 0 -84 -29l-12 33q49 33 105 33q81 0 81 -67q0 -6 -1.5 -12.5t-5 -12.5t-6.5 -10.5t-9.5 -10t-10 -8.5t-11 -8.5t-11 -7.5t-11.5 -7t-10 -6h-48zM266 788l120 118h57l117 -118h-58l-87 85
h-2l-90 -85h-57zM413 -5q-152 0 -252.5 101t-100.5 260q0 158 100.5 258.5t252.5 100.5q150 0 250.5 -100t100.5 -259q0 -160 -101 -260.5t-250 -100.5zM413 49q123 0 207.5 86t84.5 221q0 134 -84.5 219.5t-207.5 85.5q-126 0 -210.5 -86t-84.5 -219q0 -134 84.5 -220.5
t210.5 -86.5z" />
    <glyph glyph-name="uni1ED5" unicode="&#x1ed5;" horiz-adv-x="586" 
d="M420 642q87 58 87 95q0 35 -47 35t-86 -31l-11 33q46 37 106 37q37 0 59.5 -17t22.5 -53q0 -50 -82 -99h-49zM147 560l119 133h57l116 -133h-57l-86 98h-2l-90 -98h-57zM293 -5q-109 0 -178 71t-69 176t69 176.5t178 71.5q106 0 176.5 -69t70.5 -179q0 -108 -71 -177.5
t-176 -69.5zM293 45q82 0 137.5 55t55.5 142q0 88 -55.5 143.5t-137.5 55.5q-85 0 -139 -57.5t-54 -141.5q0 -83 54 -140t139 -57z" />
    <glyph glyph-name="uni1ED6" unicode="&#x1ed6;" horiz-adv-x="824" 
d="M494 925q-26 0 -84 36q-38 27 -63 27q-39 0 -58 -57l-37 15q30 83 93 83q30 0 80 -30q4 -3 15.5 -10.5t17.5 -11t15.5 -7t17.5 -3.5q39 0 56 58l37 -13q-27 -87 -90 -87zM266 788l120 118h57l117 -118h-58l-87 85h-2l-90 -85h-57zM413 -5q-152 0 -252.5 101t-100.5 260
q0 158 100.5 258.5t252.5 100.5q150 0 250.5 -100t100.5 -259q0 -160 -101 -260.5t-250 -100.5zM413 49q123 0 207.5 86t84.5 221q0 134 -84.5 219.5t-207.5 85.5q-126 0 -210.5 -86t-84.5 -219q0 -134 84.5 -220.5t210.5 -86.5z" />
    <glyph glyph-name="uni1ED7" unicode="&#x1ed7;" horiz-adv-x="586" 
d="M165 757l-37 14q29 87 91 87q32 0 76 -28q5 -3 16 -10t15.5 -9.5t12 -6.5t13.5 -5.5t12 -1.5q42 0 60 58l37 -12q-27 -90 -92 -90q-31 0 -85 37q-39 25 -61 24q-37 0 -58 -57zM149 560l119 133h57l116 -133h-57l-86 98h-2l-90 -98h-57zM293 -5q-109 0 -178 71t-69 176
t69 176.5t178 71.5q106 0 176.5 -69t70.5 -179q0 -108 -71 -177.5t-176 -69.5zM293 45q82 0 137.5 55t55.5 142q0 88 -55.5 143.5t-137.5 55.5q-85 0 -139 -57.5t-54 -141.5q0 -83 54 -140t139 -57z" />
    <glyph glyph-name="uni1ED8" unicode="&#x1ed8;" horiz-adv-x="824" 
d="M266 788l120 118h57l117 -118h-58l-87 85h-2l-90 -85h-57zM413 -5q-152 0 -252.5 101t-100.5 260q0 158 100.5 258.5t252.5 100.5q150 0 250.5 -100t100.5 -259q0 -160 -101 -260.5t-250 -100.5zM413 49q123 0 207.5 86t84.5 221q0 134 -84.5 219.5t-207.5 85.5
q-126 0 -210.5 -86t-84.5 -219q0 -134 84.5 -220.5t210.5 -86.5zM413 -108q19 0 31.5 -13t12.5 -31q0 -19 -12.5 -31t-31.5 -12t-31.5 12t-12.5 31q0 18 12.5 31t31.5 13z" />
    <glyph glyph-name="uni1ED9" unicode="&#x1ed9;" horiz-adv-x="586" 
d="M148 560l119 133h57l116 -133h-57l-86 98h-2l-90 -98h-57zM293 -5q-109 0 -178 71t-69 176t69 176.5t178 71.5q106 0 176.5 -69t70.5 -179q0 -108 -71 -177.5t-176 -69.5zM293 45q82 0 137.5 55t55.5 142q0 88 -55.5 143.5t-137.5 55.5q-85 0 -139 -57.5t-54 -141.5
q0 -83 54 -140t139 -57zM293 -108q19 0 31.5 -13t12.5 -31q0 -19 -12.5 -31t-31.5 -12t-31.5 12t-12.5 31q0 18 12.5 31t31.5 13z" />
    <glyph glyph-name="uni1EDA" unicode="&#x1eda;" horiz-adv-x="864" 
d="M544 916l-118 -128h-57l113 128h62zM769 774h53v-75q0 -141 -102 -161q44 -82 44 -182q0 -160 -101 -260.5t-250 -100.5q-152 0 -252.5 101t-100.5 260q0 158 100.5 258.5t252.5 100.5q87 0 161.5 -36.5t122.5 -102.5q39 5 55.5 34t16.5 91v73zM413 49q123 0 207.5 86
t84.5 221q0 134 -84.5 219.5t-207.5 85.5q-126 0 -210.5 -86t-84.5 -219q0 -134 84.5 -220.5t210.5 -86.5z" />
    <glyph glyph-name="uni1EDB" unicode="&#x1edb;" horiz-adv-x="658" 
d="M446 698l-124 -138h-59l120 138h63zM580 565h53v-75q0 -145 -107 -162q14 -40 14 -86q0 -108 -71 -177.5t-176 -69.5q-109 0 -178 71t-69 176t69 176.5t178 71.5q71 0 128 -33t89 -90q39 6 54.5 34.5t15.5 90.5v73zM293 45q82 0 137.5 55t55.5 142q0 88 -55.5 143.5
t-137.5 55.5q-85 0 -139 -57.5t-54 -141.5q0 -83 54 -140t139 -57z" />
    <glyph glyph-name="uni1EDC" unicode="&#x1edc;" horiz-adv-x="864" 
d="M450 788h-58l-118 128h63zM769 774h53v-75q0 -141 -102 -161q44 -82 44 -182q0 -160 -101 -260.5t-250 -100.5q-152 0 -252.5 101t-100.5 260q0 158 100.5 258.5t252.5 100.5q87 0 161.5 -36.5t122.5 -102.5q39 5 55.5 34t16.5 91v73zM413 49q123 0 207.5 86t84.5 221
q0 134 -84.5 219.5t-207.5 85.5q-126 0 -210.5 -86t-84.5 -219q0 -134 84.5 -220.5t210.5 -86.5z" />
    <glyph glyph-name="uni1EDD" unicode="&#x1edd;" horiz-adv-x="658" 
d="M341 561h-58l-117 133h63zM580 565h53v-75q0 -145 -107 -162q14 -40 14 -86q0 -108 -71 -177.5t-176 -69.5q-109 0 -178 71t-69 176t69 176.5t178 71.5q71 0 128 -33t89 -90q39 6 54.5 34.5t15.5 90.5v73zM293 45q82 0 137.5 55t55.5 142q0 88 -55.5 143.5t-137.5 55.5
q-85 0 -139 -57.5t-54 -141.5q0 -83 54 -140t139 -57z" />
    <glyph glyph-name="uni1EDE" unicode="&#x1ede;" horiz-adv-x="864" 
d="M425 903q-52 0 -90 -31l-12 35q49 36 111 36q39 0 63 -18t24 -54q0 -6 -1.5 -12.5t-4 -11.5t-6.5 -11t-7.5 -10t-10 -9t-10 -8t-11 -8l-10.5 -7l-10.5 -7t-9.5 -6h-51q5 3 17 11.5t17.5 12.5t15 11.5t14.5 13t10.5 12t8 13t2.5 12.5q0 36 -49 36zM769 774h53v-75
q0 -141 -102 -161q44 -82 44 -182q0 -160 -101 -260.5t-250 -100.5q-152 0 -252.5 101t-100.5 260q0 158 100.5 258.5t252.5 100.5q87 0 161.5 -36.5t122.5 -102.5q39 5 55.5 34t16.5 91v73zM413 49q123 0 207.5 86t84.5 221q0 134 -84.5 219.5t-207.5 85.5
q-126 0 -210.5 -86t-84.5 -219q0 -134 84.5 -220.5t210.5 -86.5z" />
    <glyph glyph-name="uni1EDF" unicode="&#x1edf;" horiz-adv-x="658" 
d="M307 691q-50 0 -90 -32l-12 35q49 38 111 38q39 0 62.5 -18t23.5 -55q0 -51 -86 -104h-51q91 62 91 100q0 36 -49 36zM580 565h53v-75q0 -145 -107 -162q14 -40 14 -86q0 -108 -71 -177.5t-176 -69.5q-109 0 -178 71t-69 176t69 176.5t178 71.5q71 0 128 -33t89 -90
q39 6 54.5 34.5t15.5 90.5v73zM293 45q82 0 137.5 55t55.5 142q0 88 -55.5 143.5t-137.5 55.5q-85 0 -139 -57.5t-54 -141.5q0 -83 54 -140t139 -57z" />
    <glyph glyph-name="uni1EE0" unicode="&#x1ee0;" horiz-adv-x="864" 
d="M341 852q-40 0 -60 -58l-37 15q30 86 94 86q30 0 82 -31q3 -2 15.5 -10.5t18.5 -12t16 -7t18 -3.5q38 0 57 59l37 -13q-27 -89 -91 -89q-29 0 -86 37q-40 27 -64 27zM769 774h53v-75q0 -141 -102 -161q44 -82 44 -182q0 -160 -101 -260.5t-250 -100.5q-152 0 -252.5 101
t-100.5 260q0 158 100.5 258.5t252.5 100.5q87 0 161.5 -36.5t122.5 -102.5q39 5 55.5 34t16.5 91v73zM413 49q123 0 207.5 86t84.5 221q0 134 -84.5 219.5t-207.5 85.5q-126 0 -210.5 -86t-84.5 -219q0 -134 84.5 -220.5t210.5 -86.5z" />
    <glyph glyph-name="uni1EE1" unicode="&#x1ee1;" horiz-adv-x="658" 
d="M224 635q-40 0 -62 -57l-37 14q29 89 94 89q34 0 80 -30q3 -2 12.5 -9t14.5 -10t12.5 -7t14.5 -6t14 -2q41 0 59 59l38 -13q-13 -44 -37.5 -67.5t-53.5 -23.5q-7 0 -13.5 1t-14.5 4t-12.5 4.5t-13.5 7t-11 6.5t-12 8l-11 7q-36 25 -61 25zM580 565h53v-75
q0 -145 -107 -162q14 -40 14 -86q0 -108 -71 -177.5t-176 -69.5q-109 0 -178 71t-69 176t69 176.5t178 71.5q71 0 128 -33t89 -90q39 6 54.5 34.5t15.5 90.5v73zM293 45q82 0 137.5 55t55.5 142q0 88 -55.5 143.5t-137.5 55.5q-85 0 -139 -57.5t-54 -141.5q0 -83 54 -140
t139 -57z" />
    <glyph glyph-name="uni1EE2" unicode="&#x1ee2;" horiz-adv-x="864" 
d="M769 774h53v-75q0 -141 -102 -161q44 -82 44 -182q0 -160 -101 -260.5t-250 -100.5q-152 0 -252.5 101t-100.5 260q0 158 100.5 258.5t252.5 100.5q87 0 161.5 -36.5t122.5 -102.5q39 5 55.5 34t16.5 91v73zM413 49q123 0 207.5 86t84.5 221q0 134 -84.5 219.5
t-207.5 85.5q-126 0 -210.5 -86t-84.5 -219q0 -134 84.5 -220.5t210.5 -86.5zM413 -108q19 0 31.5 -13t12.5 -31q0 -19 -12.5 -31t-31.5 -12t-31.5 12t-12.5 31q0 18 12.5 31t31.5 13z" />
    <glyph glyph-name="uni1EE3" unicode="&#x1ee3;" horiz-adv-x="658" 
d="M580 565h53v-75q0 -145 -107 -162q14 -40 14 -86q0 -108 -71 -177.5t-176 -69.5q-109 0 -178 71t-69 176t69 176.5t178 71.5q71 0 128 -33t89 -90q39 6 54.5 34.5t15.5 90.5v73zM293 45q82 0 137.5 55t55.5 142q0 88 -55.5 143.5t-137.5 55.5q-85 0 -139 -57.5
t-54 -141.5q0 -83 54 -140t139 -57zM293 -108q19 0 31.5 -13t12.5 -31q0 -19 -12.5 -31t-31.5 -12t-31.5 12t-12.5 31q0 18 12.5 31t31.5 13z" />
    <glyph glyph-name="uni1EE4" unicode="&#x1ee4;" horiz-adv-x="695" 
d="M347 -5q-120 0 -193.5 78t-73.5 213v424h56v-421q0 -110 57.5 -174.5t153.5 -64.5q95 0 153.5 64t58.5 175v421h57v-424q0 -135 -73.5 -213t-195.5 -78zM347 -108q19 0 31.5 -13t12.5 -31q0 -19 -12.5 -31t-31.5 -12t-31.5 12t-12.5 31q0 18 12.5 31t31.5 13z" />
    <glyph glyph-name="uni1EE5" unicode="&#x1ee5;" horiz-adv-x="548" 
d="M250 -5q-87 0 -135 54t-48 153v283h53v-265q0 -175 139 -175q69 0 116.5 56t47.5 147v237h53v-485h-53v104l-2 1q-26 -52 -71.5 -81t-99.5 -29zM274 -108q19 0 31.5 -13t12.5 -31q0 -19 -12.5 -31t-31.5 -12t-31.5 12t-12.5 31q0 18 12.5 31t31.5 13z" />
    <glyph glyph-name="uni1EE6" unicode="&#x1ee6;" horiz-adv-x="695" 
d="M324 781q5 3 17 11.5t17.5 12.5t15 11.5t14.5 13t10.5 12t8 13t2.5 12.5q0 36 -49 36q-52 0 -90 -31l-12 35q49 36 111 36q39 0 63 -18t24 -54q0 -6 -1.5 -12.5t-4 -11.5t-6.5 -11t-7.5 -10t-10 -9t-10 -8t-11 -8l-10.5 -7l-10.5 -7t-9.5 -6h-51zM347 -5
q-120 0 -193.5 78t-73.5 213v424h56v-421q0 -110 57.5 -174.5t153.5 -64.5q95 0 153.5 64t58.5 175v421h57v-424q0 -135 -73.5 -213t-195.5 -78z" />
    <glyph glyph-name="uni1EE7" unicode="&#x1ee7;" horiz-adv-x="548" 
d="M242 555q91 62 91 100q0 36 -49 36q-50 0 -90 -32l-12 35q49 38 111 38q39 0 62.5 -18t23.5 -55q0 -51 -86 -104h-51zM250 -5q-87 0 -135 54t-48 153v283h53v-265q0 -175 139 -175q69 0 116.5 56t47.5 147v237h53v-485h-53v104l-2 1q-26 -52 -71.5 -81t-99.5 -29z" />
    <glyph glyph-name="uni1EE8" unicode="&#x1ee8;" horiz-adv-x="766" 
d="M464 916l-118 -128h-57l113 128h62zM696 774h53v-75q0 -161 -133 -164v-249q0 -135 -73.5 -213t-195.5 -78q-120 0 -193.5 78t-73.5 213v424h56v-421q0 -110 57.5 -174.5t153.5 -64.5q95 0 153.5 64t58.5 175v421h57v-135q45 4 62.5 32.5t17.5 93.5v73z" />
    <glyph glyph-name="uni1EE9" unicode="&#x1ee9;" horiz-adv-x="629" 
d="M418 698l-124 -138h-59l120 138h63zM552 565h53v-75q0 -158 -129 -164v-326h-53v104l-2 1q-26 -52 -71.5 -81t-99.5 -29q-87 0 -135 54t-48 153v283h53v-265q0 -175 139 -175q69 0 116.5 56t47.5 147v237h53v-119q42 5 59 33.5t17 92.5v73z" />
    <glyph glyph-name="uni1EEA" unicode="&#x1eea;" horiz-adv-x="766" 
d="M396 788h-58l-118 128h63zM696 774h53v-75q0 -161 -133 -164v-249q0 -135 -73.5 -213t-195.5 -78q-120 0 -193.5 78t-73.5 213v424h56v-421q0 -110 57.5 -174.5t153.5 -64.5q95 0 153.5 64t58.5 175v421h57v-135q45 4 62.5 32.5t17.5 93.5v73z" />
    <glyph glyph-name="uni1EEB" unicode="&#x1eeb;" horiz-adv-x="629" 
d="M319 561h-58l-117 133h63zM552 565h53v-75q0 -158 -129 -164v-326h-53v104l-2 1q-26 -52 -71.5 -81t-99.5 -29q-87 0 -135 54t-48 153v283h53v-265q0 -175 139 -175q69 0 116.5 56t47.5 147v237h53v-119q42 5 59 33.5t17 92.5v73z" />
    <glyph glyph-name="uni1EEC" unicode="&#x1eec;" horiz-adv-x="766" 
d="M360 903q-52 0 -90 -31l-12 35q49 36 111 36q39 0 63 -18t24 -54q0 -6 -1.5 -12.5t-4 -11.5t-6.5 -11t-7.5 -10t-10 -9t-10 -8t-11 -8l-10.5 -7l-10.5 -7t-9.5 -6h-51q5 3 17 11.5t17.5 12.5t15 11.5t14.5 13t10.5 12t8 13t2.5 12.5q0 36 -49 36zM696 774h53v-75
q0 -161 -133 -164v-249q0 -135 -73.5 -213t-195.5 -78q-120 0 -193.5 78t-73.5 213v424h56v-421q0 -110 57.5 -174.5t153.5 -64.5q95 0 153.5 64t58.5 175v421h57v-135q45 4 62.5 32.5t17.5 93.5v73z" />
    <glyph glyph-name="uni1EED" unicode="&#x1eed;" horiz-adv-x="629" 
d="M284 691q-50 0 -90 -32l-12 35q49 38 111 38q39 0 62.5 -18t23.5 -55q0 -51 -86 -104h-51q91 62 91 100q0 36 -49 36zM552 565h53v-75q0 -158 -129 -164v-326h-53v104l-2 1q-26 -52 -71.5 -81t-99.5 -29q-87 0 -135 54t-48 153v283h53v-265q0 -175 139 -175
q69 0 116.5 56t47.5 147v237h53v-119q42 5 59 33.5t17 92.5v73z" />
    <glyph glyph-name="uni1EEE" unicode="&#x1eee;" horiz-adv-x="766" 
d="M276 852q-40 0 -60 -58l-37 15q30 86 94 86q30 0 82 -31q3 -2 15.5 -10.5t18.5 -12t16 -7t18 -3.5q38 0 57 59l37 -13q-27 -89 -91 -89q-29 0 -86 37q-40 27 -64 27zM696 774h53v-75q0 -161 -133 -164v-249q0 -135 -73.5 -213t-195.5 -78q-120 0 -193.5 78t-73.5 213v424
h56v-421q0 -110 57.5 -174.5t153.5 -64.5q95 0 153.5 64t58.5 175v421h57v-135q45 4 62.5 32.5t17.5 93.5v73z" />
    <glyph glyph-name="uni1EEF" unicode="&#x1eef;" horiz-adv-x="629" 
d="M201 635q-40 0 -62 -57l-37 14q29 89 94 89q34 0 80 -30q3 -2 12.5 -9t14.5 -10t12.5 -7t14.5 -6t14 -2q41 0 59 59l38 -13q-13 -44 -37.5 -67.5t-53.5 -23.5q-7 0 -13.5 1t-14.5 4t-12.5 4.5t-13.5 7t-11 6.5t-13 8l-10 7q-36 25 -61 25zM552 565h53v-75
q0 -158 -129 -164v-326h-53v104l-2 1q-26 -52 -71.5 -81t-99.5 -29q-87 0 -135 54t-48 153v283h53v-265q0 -175 139 -175q69 0 116.5 56t47.5 147v237h53v-119q42 5 59 33.5t17 92.5v73z" />
    <glyph glyph-name="uni1EF0" unicode="&#x1ef0;" horiz-adv-x="766" 
d="M696 774h53v-75q0 -161 -133 -164v-249q0 -135 -73.5 -213t-195.5 -78q-120 0 -193.5 78t-73.5 213v424h56v-421q0 -110 57.5 -174.5t153.5 -64.5q95 0 153.5 64t58.5 175v421h57v-135q45 4 62.5 32.5t17.5 93.5v73zM347 -108q19 0 31.5 -13t12.5 -31q0 -19 -12.5 -31
t-31.5 -12t-31.5 12t-12.5 31q0 18 12.5 31t31.5 13z" />
    <glyph glyph-name="uni1EF1" unicode="&#x1ef1;" horiz-adv-x="629" 
d="M552 565h53v-75q0 -158 -129 -164v-326h-53v104l-2 1q-26 -52 -71.5 -81t-99.5 -29q-87 0 -135 54t-48 153v283h53v-265q0 -175 139 -175q69 0 116.5 56t47.5 147v237h53v-119q42 5 59 33.5t17 92.5v73zM274 -108q19 0 31.5 -13t12.5 -31q0 -19 -12.5 -31t-31.5 -12
t-31.5 12t-12.5 31q0 18 12.5 31t31.5 13z" />
    <glyph glyph-name="Ygrave" unicode="&#x1ef2;" horiz-adv-x="580" 
d="M292 788l-118 128h63l113 -128h-58zM261 0v320l-244 390h66l205 -331h2l207 331h66l-245 -390v-320h-57z" />
    <glyph glyph-name="ygrave" unicode="&#x1ef3;" horiz-adv-x="516" 
d="M253 561l-117 133h63l112 -133h-58zM151 -198l87 211l-214 472h59l181 -407h1l168 407h57l-282 -683h-57z" />
    <glyph glyph-name="uni1EF4" unicode="&#x1ef4;" horiz-adv-x="580" 
d="M261 0v320l-244 390h66l205 -331h2l207 331h66l-245 -390v-320h-57zM289 -108q19 0 31.5 -13t12.5 -31q0 -19 -12.5 -31t-31.5 -12t-31.5 12t-12.5 31q0 18 12.5 31t31.5 13z" />
    <glyph glyph-name="uni1EF5" unicode="&#x1ef5;" horiz-adv-x="516" 
d="M151 -198l87 211l-214 472h59l181 -407h1l168 407h57l-282 -683h-57zM381 -108q19 0 31.5 -13t12.5 -31q0 -19 -12.5 -31t-31.5 -12t-31.5 12t-12.5 31q0 18 12.5 31t31.5 13z" />
    <glyph glyph-name="uni1EF6" unicode="&#x1ef6;" horiz-adv-x="580" 
d="M266 781q5 3 17 11.5t17.5 12.5t15 11.5t14.5 13t10.5 12t8 13t2.5 12.5q0 36 -49 36q-52 0 -90 -31l-12 35q49 36 111 36q39 0 63 -18t24 -54q0 -6 -1.5 -12.5t-4 -11.5t-6.5 -11t-7.5 -10t-10 -9t-10 -8t-11 -8l-10.5 -7l-10.5 -7t-9.5 -6h-51zM261 0v320l-244 390h66
l205 -331h2l207 331h66l-245 -390v-320h-57z" />
    <glyph glyph-name="uni1EF7" unicode="&#x1ef7;" horiz-adv-x="516" 
d="M230 555q91 62 91 100q0 36 -49 36q-50 0 -90 -32l-12 35q49 38 111 38q39 0 62.5 -18t23.5 -55q0 -51 -86 -104h-51zM151 -198l87 211l-214 472h59l181 -407h1l168 407h57l-282 -683h-57z" />
    <glyph glyph-name="uni1EF8" unicode="&#x1ef8;" horiz-adv-x="580" 
d="M368 788q-29 0 -86 37q-40 27 -64 27q-40 0 -60 -58l-37 15q30 86 94 86q30 0 82 -31q3 -2 15.5 -10.5t18.5 -12t16 -7t18 -3.5q38 0 57 59l37 -13q-27 -89 -91 -89zM261 0v320l-244 390h66l205 -331h2l207 331h66l-245 -390v-320h-57z" />
    <glyph glyph-name="uni1EF9" unicode="&#x1ef9;" horiz-adv-x="516" 
d="M338 572q-7 0 -13.5 1t-14.5 4t-12.5 4.5t-13.5 7t-11 6.5t-13 8l-10 7q-36 25 -61 25q-40 0 -62 -57l-37 14q29 89 94 89q34 0 80 -30q3 -2 12.5 -9t14.5 -10t12.5 -7t14.5 -6t14 -2q41 0 59 59l38 -13q-13 -44 -37.5 -67.5t-53.5 -23.5zM151 -198l87 211l-214 472h59
l181 -407h1l168 407h57l-282 -683h-57z" />
    <glyph glyph-name="uni2002" unicode="&#x2002;" horiz-adv-x="467" 
 />
    <glyph glyph-name="uni2003" unicode="&#x2003;" horiz-adv-x="934" 
 />
    <glyph glyph-name="uni2007" unicode="&#x2007;" horiz-adv-x="586" 
 />
    <glyph glyph-name="uni2009" unicode="&#x2009;" horiz-adv-x="25" 
 />
    <glyph glyph-name="uni2010" unicode="&#x2010;" horiz-adv-x="404" 
d="M56 282v52h293v-52h-293z" />
    <glyph glyph-name="figuredash" unicode="&#x2012;" horiz-adv-x="586" 
d="M56 273v48h474v-48h-474z" />
    <glyph glyph-name="endash" unicode="&#x2013;" horiz-adv-x="578" 
d="M56 273v48h467v-48h-467z" />
    <glyph glyph-name="emdash" unicode="&#x2014;" horiz-adv-x="1045" 
d="M56 273v48h934v-48h-934z" />
    <glyph glyph-name="uni2015" unicode="&#x2015;" horiz-adv-x="1191" 
d="M56 273v48h1080v-48h-1080z" />
    <glyph glyph-name="quoteleft" unicode="&#x2018;" horiz-adv-x="180" 
d="M136 709l-33 -229h-59l48 229h44z" />
    <glyph glyph-name="quoteright" unicode="&#x2019;" horiz-adv-x="180" 
d="M44 481l33 229h59l-48 -229h-44z" />
    <glyph glyph-name="quotesinglbase" unicode="&#x201a;" horiz-adv-x="185" 
d="M33 -76l34 230h59l-52 -230h-41z" />
    <glyph glyph-name="quotedblleft" unicode="&#x201c;" horiz-adv-x="294" 
d="M137 710l-34 -229h-59l48 229h45zM250 710l-33 -229h-59l48 229h44z" />
    <glyph glyph-name="quotedblright" unicode="&#x201d;" horiz-adv-x="294" 
d="M44 481l33 229h59l-48 -229h-44zM157 481l34 229h59l-48 -229h-45z" />
    <glyph glyph-name="quotedblbase" unicode="&#x201e;" horiz-adv-x="298" 
d="M33 -74l33 229h59l-48 -229h-44zM146 -74l34 229h59l-48 -229h-45z" />
    <glyph glyph-name="dagger" unicode="&#x2020;" horiz-adv-x="395" 
d="M198 261l-19 38l2 138v112h-21l-104 -4v41l104 -2h20l-1 101h41l-4 -101h19l104 2v-41l-104 4h-20v-112l5 -138z" />
    <glyph glyph-name="daggerdbl" unicode="&#x2021;" horiz-adv-x="395" 
d="M179 60l1 100h-20l-104 -2v40l104 -2h21v110l-2 73l2 73v97h-21l-104 -3v40l104 -3h20l-1 102h40l-3 -102h19l104 3v-40l-104 3h-20v-97l4 -73l-4 -73v-110h20l104 3v-40l-123 1l3 -100h-40z" />
    <glyph glyph-name="bullet" unicode="&#x2022;" horiz-adv-x="390" 
d="M195 222q-40 0 -67.5 27t-27.5 67q0 39 27.5 66.5t67.5 27.5q39 0 67 -27.5t28 -66.5t-28 -66.5t-67 -27.5z" />
    <glyph glyph-name="ellipsis" unicode="&#x2026;" horiz-adv-x="1000" 
d="M164 -5q-19 0 -32 12.5t-13 31.5t13 31.5t32 12.5t32 -12.5t13 -31.5t-13 -31.5t-32 -12.5zM497 -5q-19 0 -32 12.5t-13 31.5t13 31.5t32 12.5t32 -12.5t13 -31.5t-13 -31.5t-32 -12.5zM831 -5q-19 0 -32 12.5t-13 31.5t13 31.5t32 12.5t32 -12.5t13 -31.5t-13 -31.5
t-32 -12.5z" />
    <glyph glyph-name="perthousand" unicode="&#x2030;" horiz-adv-x="1414" 
d="M352 -12l-45 18l308 714l44 -19zM238 326q-84 0 -141 54.5t-57 140.5q0 82 55 138t143 56q83 0 140.5 -54t57.5 -140q0 -82 -55.5 -138.5t-142.5 -56.5zM238 369q67 0 109 44t42 108q0 67 -43.5 108.5t-107.5 41.5q-67 0 -108.5 -43t-41.5 -107q0 -67 43.5 -109.5
t106.5 -42.5zM723 -5q-83 0 -140 54.5t-57 140.5q0 82 55 138t142 56q84 0 141 -54t57 -140q0 -82 -55.5 -138.5t-142.5 -56.5zM1170 -5q-84 0 -141 54.5t-57 140.5q0 82 55 138t143 56q84 0 141 -54t57 -140q0 -82 -55.5 -138.5t-142.5 -56.5zM723 39q67 0 109 43.5
t42 107.5q0 67 -43.5 108.5t-107.5 41.5q-67 0 -109 -43t-42 -107q0 -67 43.5 -109t107.5 -42zM1170 39q67 0 109 43.5t42 107.5q0 67 -43.5 108.5t-107.5 41.5q-67 0 -108.5 -43t-41.5 -107q0 -67 43 -109t107 -42z" />
    <glyph glyph-name="minute" unicode="&#x2032;" horiz-adv-x="220" 
d="M44 481l73 229h59l-88 -229h-44z" />
    <glyph glyph-name="second" unicode="&#x2033;" horiz-adv-x="344" 
d="M44 481l73 229h59l-88 -229h-44zM168 481l73 229h59l-88 -229h-44z" />
    <glyph glyph-name="guilsinglleft" unicode="&#x2039;" horiz-adv-x="280" 
d="M219 469l-126 -225l126 -225h-53l-127 225l127 225h53z" />
    <glyph glyph-name="guilsinglright" unicode="&#x203a;" horiz-adv-x="280" 
d="M61 20l126 225l-126 225h53l127 -225l-127 -225h-53z" />
    <glyph glyph-name="uni203D" unicode="&#x203d;" horiz-adv-x="433" 
d="M209 741q82 0 135.5 -51t53.5 -130q0 -54 -24 -95.5t-68 -87.5q-5 -5 -21.5 -22t-22 -23t-17 -20t-16 -22.5t-9 -20t-4.5 -22.5l-1 -54h-45l-9 410h61l-5 -247q11 14 38 43q28 30 42.5 48.5t28 48t13.5 59.5q0 62 -38.5 97t-94.5 35q-92 0 -142 -78l-39 39q66 93 184 93z
M193 83q19 0 32 -12.5t13 -31.5t-13 -31.5t-32 -12.5t-32 12.5t-13 31.5t13 31.5t32 12.5z" />
    <glyph glyph-name="uni2042" unicode="&#x2042;" horiz-adv-x="835" 
d="M393 399l4 128l-109 -68l-19 35l114 60l-115 61l20 35l109 -68l-4 128h40l-4 -128l109 68l20 -35l-114 -60l114 -61l-20 -33l-109 66l4 -128h-40zM182 64l4 128l-109 -68l-19 35l114 60l-115 61l20 35l109 -68l-4 128h40l-4 -128l109 68l20 -35l-114 -60l114 -61l-20 -33
l-109 66l4 -128h-40zM613 64l4 128l-109 -68l-19 35l114 60l-115 61l20 35l109 -68l-4 128h40l-4 -128l109 68l20 -35l-114 -60l114 -61l-20 -33l-109 66l4 -128h-40z" />
    <glyph glyph-name="fraction" unicode="&#x2044;" horiz-adv-x="228" 
d="M-12 -12l-44 18l307 714l45 -19z" />
    <glyph glyph-name="uni2051" unicode="&#x2051;" horiz-adv-x="404" 
d="M182 399l4 128l-109 -68l-19 35l114 60l-115 61l20 35l109 -68l-4 128h40l-4 -128l109 68l20 -35l-114 -60l114 -61l-20 -33l-109 66l4 -128h-40zM182 50l4 128l-109 -68l-19 35l114 60l-115 61l20 34l109 -66l-4 128h40l-4 -128l109 67l20 -35l-114 -61l114 -60l-20 -34
l-109 67l4 -128h-40z" />
    <glyph glyph-name="uni2070" unicode="&#x2070;" horiz-adv-x="390" 
d="M195 431q-76 0 -122 56t-46 154q0 96 45.5 154t122.5 58q76 0 122 -56.5t46 -155.5q0 -95 -45.5 -152.5t-122.5 -57.5zM195 476q57 0 89 44.5t32 120.5q0 81 -33.5 124t-87.5 43q-57 0 -88.5 -45t-31.5 -122q0 -79 33 -122t87 -43z" />
    <glyph glyph-name="colonmonetary" unicode="&#x20a1;" horiz-adv-x="577" 
d="M551 56q-83 -60 -192 -60q-69 0 -127 26l-36 -80l-34 14l37 83q-30 20 -52 42l-63 -139l-34 14l71 157q-64 89 -64 229q0 162 82 255.5t220 93.5q15 0 22 -1l22 49l35 -14l-18 -39q30 -5 63 -18l32 71l35 -14l-33 -73q23 -14 29 -18l-33 -43l-18 12l-241 -532
q47 -23 105 -23q92 0 161 50zM115 342q0 -96 34 -166l209 463q-110 -1 -176.5 -79t-66.5 -218zM172 138q21 -28 50 -49l239 531q-32 13 -63 17z" />
    <glyph glyph-name="lira" unicode="&#x20a4;" horiz-adv-x="554" 
d="M188 52h341v-52h-484v52h86v200h-67v43h67v85h-67v42h67v48q0 112 54 167t137 55q116 0 180 -99l-33 -37q-51 82 -141 82q-64 0 -102.5 -44t-38.5 -131v-41h174v-42h-174v-85h174v-43h-173v-200z" />
    <glyph glyph-name="uni20A6" unicode="&#x20a6;" horiz-adv-x="617" 
d="M604 376h-56v-83h56v-41h-56v-252h-61l-153 252h-208v-252h-56v252h-56v41h56v83h-56v41h56v270h60l163 -270h198v270h57v-270h56v-41zM126 596v-179h109l-108 179h-1zM126 293h184l-51 83h-133v-83zM491 293v83h-174l50 -83h124zM491 87v165h-99l98 -165h1z" />
    <glyph glyph-name="peseta" unicode="&#x20a7;" horiz-adv-x="637" 
d="M616 501v-42h-79q-6 -95 -68 -140t-163 -45h-141v-274h-56v459h-86v42h86v186h214q103 0 156 -49t58 -137h79zM165 636v-135h316q-13 135 -157 135h-159zM308 324q83 0 125.5 36t47.5 99h-316v-135h143z" />
    <glyph glyph-name="dong" unicode="&#x20ab;" horiz-adv-x="602" 
d="M529 620h63v-41h-63v-579h-51v111h-2q-25 -53 -75.5 -84.5t-115.5 -31.5q-102 0 -170.5 68t-68.5 176q0 107 67 179t172 72q62 0 112.5 -30.5t77.5 -85.5h2v205h-225v41h225v116h52v-116zM291 45q79 0 133 54t54 139q0 86 -52.5 144.5t-134.5 58.5q-81 0 -136 -56.5
t-55 -146.5q0 -82 53 -137.5t138 -55.5zM67 -134v49h464v-49h-464z" />
    <glyph glyph-name="Euro" unicode="&#x20ac;" horiz-adv-x="590" 
d="M531 98l32 -42q-85 -60 -193 -60t-191 65.5t-104 196.5h-63v42h58q-2 26 -2 42q0 15 2 43h-58v42h63q20 124 98.5 194t196.5 70q105 0 188 -57l-33 -43q-67 48 -155 48q-91 0 -154.5 -55.5t-81.5 -156.5h315v-42h-321q-2 -28 -2 -43q0 -16 2 -42h321v-42h-316
q20 -105 86 -157.5t151 -52.5q92 0 161 50z" />
    <glyph glyph-name="uni20AE" unicode="&#x20ae;" horiz-adv-x="536" 
d="M506 635h-211v-244l143 58l21 -39l-164 -67v-75l143 59l21 -39l-164 -67v-221h-57v198l-136 -56l-20 38l156 64v76l-136 -56l-21 39l157 64v268h-208v52h476v-52z" />
    <glyph glyph-name="uni20B1" unicode="&#x20b1;" horiz-adv-x="637" 
d="M616 549v-39h-79q1 -10 1 -31q0 -11 -2 -31h80v-40h-87q-39 -134 -223 -134h-141v-274h-56v408h-86v40h86v62h-86v39h86v138h214q173 0 207 -138h86zM328 636h-163v-89h309q-29 89 -146 89zM165 510v-62h317q2 18 2 29q0 13 -2 33h-317zM313 324q128 0 160 86h-308v-86
h148z" />
    <glyph glyph-name="uni20B2" unicode="&#x20b2;" horiz-adv-x="633" 
d="M571 354v-284q-79 -72 -201 -74v-120h-45v122q-53 6 -99 29t-83.5 63.5t-59.5 105t-22 146.5q0 150 71 242t193 105v103h45v-101q103 -2 185 -60l-33 -43q-68 50 -153 51v-285h202zM119 342q0 -133 58.5 -205.5t148.5 -85.5v586q-95 -13 -151 -90t-56 -205zM517 98v205
h-148v-255q89 2 148 50z" />
    <glyph glyph-name="uni20B4" unicode="&#x20b4;" horiz-adv-x="551" 
d="M467 132l37 -45q-92 -91 -236 -91q-101 0 -153.5 41.5t-52.5 106.5q0 37 18 67t44 48h-75v43h119q21 11 60.5 34t60.5 34h-240v43h292q87 50 87 116q0 51 -39.5 79t-99.5 28q-92 0 -176 -64l-36 46q102 70 214 70q92 0 145 -44t53 -109q0 -76 -81 -122h91v-43h-130
q-10 -6 -54 -31t-67 -37h251v-43h-317q-64 -41 -64 -104q0 -50 41.5 -78t112.5 -28q115 0 195 83z" />
    <glyph glyph-name="uni20B5" unicode="&#x20b5;" horiz-adv-x="587" 
d="M559 58q-84 -61 -189 -62v-120h-45v122q-113 13 -188.5 99t-75.5 245q0 150 71 242t193 105v103h45v-101q103 -2 185 -60l-33 -43q-68 50 -153 51v-591q90 1 159 53zM119 342q0 -134 59 -206.5t148 -84.5v586q-95 -13 -151 -90t-56 -205z" />
    <glyph glyph-name="uni20B8" unicode="&#x20b8;" horiz-adv-x="532" 
d="M30 687h472v-45h-472v45zM30 515v45h472v-45h-209v-515h-57v515h-206z" />
    <glyph glyph-name="uni20B9" unicode="&#x20b9;" horiz-adv-x="568" 
d="M530 642h-184v-1q59 -36 75 -108h109v-45h-105q0 -91 -62 -143.5t-176 -52.5h-38l317 -292h-77l-323 298v44h129q82 0 125.5 38.5t45.5 107.5h-300v45h296q-12 51 -53.5 80t-105.5 29h-137v45h464v-45z" />
    <glyph glyph-name="uni20BA" unicode="&#x20ba;" horiz-adv-x="515" 
d="M445 189l48 -20q-63 -169 -244 -169h-167v225l-64 -32l-17 39l81 40v76l-64 -32l-18 38l82 41v292h57v-264l206 102l17 -39l-223 -110v-76l206 102l17 -39l-223 -110v-204h103q83 0 130 33.5t73 106.5z" />
    <glyph glyph-name="uni20BC" unicode="&#x20bc;" horiz-adv-x="730" 
d="M390 690q124 -7 194 -84t70 -205v-401h-56v400q0 105 -54.5 167.5t-151.5 70.5v-530h-51v530q-101 -7 -155.5 -69.5t-54.5 -168.5v-400h-55v401q0 131 70.5 207t195.5 82v89h48v-89z" />
    <glyph glyph-name="uni20BD" unicode="&#x20bd;" horiz-adv-x="581" 
d="M323 283h-141v-83h244v-42h-244v-158h-57v158h-98v42h98v83h-98v43h98v361h214q109 0 162.5 -54t53.5 -150q0 -102 -63 -151t-169 -49zM182 635v-305h139q88 0 131.5 41.5t43.5 108.5q0 79 -42.5 117t-116.5 38h-155z" />
    <glyph glyph-name="uni2113" unicode="&#x2113;" horiz-adv-x="440" 
d="M397 105l23 -18q-63 -92 -168 -92q-72 0 -112 43t-43 115q-39 -32 -55 -43l-15 21q65 51 70 56l2 273q1 116 43.5 167.5t110.5 51.5q52 0 79.5 -39t27.5 -107q0 -146 -197 -325v-24q0 -83 30 -119.5t74 -36.5q38 0 72.5 23t57.5 54zM257 644q-94 0 -94 -177v-223
q167 164 167 288q0 58 -17 85t-56 27z" />
    <glyph glyph-name="uni2116" unicode="&#x2116;" horiz-adv-x="1137" 
d="M913 413q-67 0 -109.5 43t-42.5 107t42.5 106.5t109.5 42.5q65 0 108.5 -42t43.5 -107q0 -66 -43.5 -108t-108.5 -42zM88 0v710h56l449 -615h2v615h56v-710h-57l-448 611h-1v-611h-57zM913 454q46 0 77.5 30.5t31.5 78.5t-31.5 78.5t-77.5 30.5q-48 0 -78 -31.5
t-30 -77.5t30 -77.5t78 -31.5zM768 306v45h295v-45h-295z" />
    <glyph glyph-name="uni2117" unicode="&#x2117;" horiz-adv-x="680" 
d="M340 20q-123 0 -209 88t-86 210t86.5 210t209.5 88t208.5 -87.5t85.5 -210.5q0 -122 -86 -210t-209 -88zM340 61q106 0 180 75.5t74 181.5t-73.5 181.5t-179.5 75.5t-180.5 -76t-74.5 -181q0 -106 73.5 -181.5t180.5 -75.5zM241 158v324h111q53 0 78.5 -26.5t25.5 -70.5
q0 -49 -29.5 -73.5t-81.5 -24.5h-67v-129h-37zM279 321h64q75 0 75 64q0 29 -18 45.5t-50 16.5h-71v-126z" />
    <glyph glyph-name="uni2120" unicode="&#x2120;" horiz-adv-x="692" 
d="M158 385q-81 0 -125 50l24 27q37 -41 99 -41q37 0 57.5 14t20.5 38t-17 35t-64 23q-54 15 -81 35.5t-27 58.5q1 40 30.5 63.5t77.5 23.5q59 0 111 -36l-20 -32q-44 32 -90 32q-30 0 -50 -14t-20 -37q0 -20 19 -32.5t68 -26.5q53 -15 77.5 -33.5t24.5 -56.5q0 -43 -31 -67
t-84 -24zM329 387v323h40l119 -210l118 210h41v-323h-39v250l-106 -184h-28l-107 184v-250h-38z" />
    <glyph glyph-name="trademark" unicode="&#x2122;" horiz-adv-x="669" 
d="M117 387v287h-97v36h234v-36h-98v-287h-39zM305 387v323h41l119 -210l118 210h41v-323h-40v250l-106 -184h-28l-107 184v-250h-38z" />
    <glyph glyph-name="uni2126" unicode="&#x2126;" horiz-adv-x="779" 
d="M70 0v52h174v2q-87 51 -136 133.5t-49 184.5q0 147 92.5 245t237.5 98q146 0 238.5 -98t92.5 -245q0 -102 -48.5 -184.5t-135.5 -133.5v-2h173v-52h-259v52q99 50 155 132t56 187q0 126 -76 208t-196 82q-120 -1 -195.5 -82.5t-75.5 -207.5q0 -105 56 -187t155 -132v-52
h-259z" />
    <glyph glyph-name="estimated" unicode="&#x212e;" horiz-adv-x="780" 
d="M390 -10q-144 0 -237 93t-93 228q0 140 95.5 230.5t234.5 90.5q144 0 237.5 -93.5t93.5 -227.5v-9h-553v-185q40 -52 101 -76.5t122 -24.5q60 0 115.5 23t90.5 63h41q-41 -52 -109 -82t-139 -30zM168 330h439l1 183q-38 45 -97.5 68.5t-119.5 23.5q-64 0 -125 -25.5
t-97 -74.5z" />
    <glyph glyph-name="partialdiff" unicode="&#x2202;" horiz-adv-x="560" 
d="M273 691q68 0 118 -40t75.5 -104t37 -128.5t11.5 -129.5q0 -144 -65.5 -219t-172.5 -75q-102 0 -167.5 61.5t-65.5 156.5q0 101 61 160.5t158 59.5q126 0 195 -97q-4 58 -15 107.5t-32 96t-59 73.5t-88 27q-56 0 -153 -45l-17 49q97 47 179 47zM278 50q78 0 128 54.5
t54 153.5q-26 53 -75 89t-115 36q-77 0 -123 -46t-46 -124q0 -70 49 -116.5t128 -46.5z" />
    <glyph glyph-name="emptyset" unicode="&#x2205;" horiz-adv-x="687" 
d="M566 512q71 -86 71 -194q0 -120 -85.5 -208t-208.5 -88q-110 0 -193 73l-42 -42l-28 27l43 43q-73 83 -73 195q0 121 85.5 208.5t208.5 87.5q111 0 195 -74l36 36l28 -27zM95 318q0 -94 60 -163l351 352q-69 61 -162 61q-104 0 -176.5 -73.5t-72.5 -176.5zM343 68
q104 0 176 73.5t72 176.5q0 90 -58 161l-351 -352q69 -59 161 -59z" />
    <glyph glyph-name="uni2206" unicode="&#x2206;" horiz-adv-x="644" 
d="M32 0v46l258 664h61l261 -664v-46h-580zM96 52h452l-226 588h-1z" />
    <glyph glyph-name="product" unicode="&#x220f;" horiz-adv-x="672" 
d="M83 -101v811h507v-811h-57v759h-393v-759h-57z" />
    <glyph glyph-name="summation" unicode="&#x2211;" horiz-adv-x="585" 
d="M55 -90v44l227 357l-227 355v44h494v-52h-418l-1 -3l217 -344l-217 -345l1 -3h418v-53h-494z" />
    <glyph glyph-name="minus" unicode="&#x2212;" horiz-adv-x="588" 
d="M62 252v49h464v-49h-464z" />
    <glyph glyph-name="radical" unicode="&#x221a;" horiz-adv-x="670" 
d="M306 0l-167 499h-107v49h151l155 -470h2l329 744h45l-366 -822h-42z" />
    <glyph glyph-name="infinity" unicode="&#x221e;" horiz-adv-x="767" 
d="M556 430q65 0 111.5 -45.5t46.5 -111.5t-46.5 -111t-111.5 -45q-97 0 -173 115q-77 -115 -173 -115q-66 0 -111.5 45t-45.5 111q0 68 46.5 112.5t110.5 44.5q97 0 173 -116q78 116 173 116zM212 162q74 0 143 111q-70 112 -143 112q-47 0 -79.5 -32t-32.5 -80t32.5 -79.5
t79.5 -31.5zM556 162q46 0 78.5 32t32.5 79q0 48 -32.5 80t-78.5 32q-77 0 -145 -112q70 -111 145 -111z" />
    <glyph glyph-name="integral" unicode="&#x222b;" horiz-adv-x="317" 
d="M1 -169q-11 -1 -31 1l5 43h8q46 0 59 19.5t24 89.5l87 579q11 73 34.5 101.5t78.5 29.5q20 0 40 -4l-4 -40q-3 0 -8.5 0.5t-8.5 0.5q-47 0 -59 -18.5t-23 -91.5l-87 -581q-12 -73 -36 -100.5t-79 -28.5z" />
    <glyph glyph-name="uni2236" unicode="&#x2236;" horiz-adv-x="206" 
d="M99 463q-19 0 -32 12.5t-13 31.5t13 31.5t32 12.5t32 -12.5t13 -31.5t-13 -31.5t-32 -12.5zM99 56q-19 0 -32 12.5t-13 31.5t13 31.5t32 12.5t32 -12.5t13 -31.5t-13 -31.5t-32 -12.5z" />
    <glyph glyph-name="approxequal" unicode="&#x2248;" horiz-adv-x="590" 
d="M408 331q-36 0 -103.5 24.5t-105.5 24.5q-67 0 -120 -39l-15 38q18 17 54.5 33.5t79.5 16.5q45 0 108.5 -24.5t99.5 -24.5q51 0 104 49l16 -40q-56 -58 -118 -58zM408 115q-36 0 -103.5 24.5t-105.5 24.5q-67 0 -120 -39l-15 38q19 17 55.5 33.5t78.5 16.5
q45 0 108.5 -24.5t99.5 -24.5q50 0 104 48l16 -39q-54 -58 -118 -58z" />
    <glyph glyph-name="notequal" unicode="&#x2260;" horiz-adv-x="568" 
d="M517 365h-167l-83 -177h250v-49h-273l-61 -132l-38 15l54 117h-146v49h169l82 177h-251v49h274l63 135l38 -16l-55 -119h144v-49z" />
    <glyph glyph-name="lessequal" unicode="&#x2264;" horiz-adv-x="567" 
d="M502 141l-440 207v40l440 208v-55l-365 -173l365 -172v-55zM502 0h-441v49h441v-49z" />
    <glyph glyph-name="greaterequal" unicode="&#x2265;" horiz-adv-x="568" 
d="M71 141v55l365 172l-365 173v55l440 -208v-40zM71 0v49h441v-49h-441z" />
    <glyph glyph-name="lozenge" unicode="&#x25ca;" horiz-adv-x="444" 
d="M220 0l-179 338l179 339l183 -339zM221 94l124 244l-125 245l-122 -245z" />
    <glyph glyph-name="uni2713" unicode="&#x2713;" horiz-adv-x="588" 
d="M213 115l-193 200l33 32l151 -158l352 575l40 -24z" />
    <glyph glyph-name="uni2715" unicode="&#x2715;" horiz-adv-x="380" 
d="M48 104l-32 31l143 142l-143 141l32 31l141 -141l142 142l32 -31l-143 -143l143 -142l-32 -30l-141 140z" />
    <glyph glyph-name="uni2E18" unicode="&#x2e18;" horiz-adv-x="399" 
d="M240 402q-19 0 -32 12.5t-13 31.5t13 31.5t32 12.5t32 -12.5t13 -31.5t-13 -31.5t-32 -12.5zM369 -124l39 -39q-66 -93 -184 -93q-82 0 -135.5 51t-53.5 130q0 54 24 95.5t68 87.5q5 5 21.5 22t22 23t17 20t16 22.5t9 20t4.5 22.5l1 54h45l9 -410h-61l5 247
q-11 -14 -38 -43q-28 -30 -42.5 -48.5t-28 -48t-13.5 -59.5q0 -62 38.5 -97t94.5 -35q92 0 142 78z" />
    <glyph glyph-name="uni00A40301" horiz-adv-x="481" 
d="M346 788l113 128h62l-118 -128h-57zM214 -4q-47 0 -97.5 24t-88.5 68l32 42q73 -80 153 -80q134 0 134 174v486h56v-490q0 -224 -189 -224z" />
    <glyph glyph-name="Tdieresis" horiz-adv-x="558" 
d="M194 828q-18 0 -31 13t-13 30q0 18 13 30.5t31 12.5q19 0 31.5 -12t12.5 -31q0 -18 -12.5 -30.5t-31.5 -12.5zM359 828q-19 0 -31.5 13t-12.5 30q0 19 12.5 31t31.5 12t31.5 -12t12.5 -31q0 -18 -12.5 -30.5t-31.5 -12.5zM249 0v658h-222v52h504v-52h-225v-658h-57z" />
    <glyph glyph-name="Q.alt" horiz-adv-x="823" 
d="M764 356q0 -109 -49.5 -193.5t-134.5 -128.5l152 -126l-34 -43l-173 147q-54 -17 -112 -17q-156 0 -254.5 103t-98.5 258q0 153 98.5 256t254.5 103q150 0 250.5 -100t100.5 -259zM118 356q0 -130 82.5 -218.5t212.5 -88.5q123 0 207.5 86t84.5 221q0 134 -84.5 219.5
t-207.5 85.5q-130 0 -212.5 -88t-82.5 -217z" />
    <glyph glyph-name="i.loclTRK" horiz-adv-x="222" 
d="M112 590q-19 0 -31.5 13t-12.5 31q0 19 12.5 31t31.5 12t31.5 -12t12.5 -31q0 -18 -12.5 -31t-31.5 -13zM84 0v485h53v-485h-53z" />
    <glyph glyph-name="uni006A0301" horiz-adv-x="201" 
d="M80 572l120 138h63l-124 -138h-59zM18 -203q-39 0 -74 16l9 49q25 -15 58 -15q68 0 68 86v552h53v-552q0 -62 -28.5 -99t-85.5 -37z" />
    <glyph glyph-name="a.alt" horiz-adv-x="491" 
d="M245 490q178 0 178 -210v-280h-50l-1 77l-2 1q-26 -37 -70.5 -60t-98.5 -23q-78 0 -120.5 41t-42.5 103q0 66 45.5 105t136.5 39h152v1q0 158 -130 158q-76 0 -147 -41l-21 45q83 44 171 44zM208 42q69 0 116.5 37t47.5 86v73h-152q-60 0 -95 -25t-35 -72
q0 -44 29.5 -71.5t88.5 -27.5z" />
    <glyph glyph-name="aacute.alt" horiz-adv-x="491" 
d="M392 696l-124 -138h-59l120 138h63zM245 490q178 0 178 -210v-280h-50l-1 77l-2 1q-26 -37 -70.5 -60t-98.5 -23q-78 0 -120.5 41t-42.5 103q0 66 45.5 105t136.5 39h152v1q0 158 -130 158q-76 0 -147 -41l-21 45q83 44 171 44zM208 42q69 0 116.5 37t47.5 86v73h-152
q-60 0 -95 -25t-35 -72q0 -44 29.5 -71.5t88.5 -27.5z" />
    <glyph glyph-name="abreve.alt" horiz-adv-x="491" 
d="M258 557q-57 0 -93.5 35.5t-40.5 98.5h44q3 -39 26.5 -64.5t63.5 -25.5q39 0 63 25.5t26 64.5h45q-5 -64 -41.5 -99t-92.5 -35zM245 490q178 0 178 -210v-280h-50l-1 77l-2 1q-26 -37 -70.5 -60t-98.5 -23q-78 0 -120.5 41t-42.5 103q0 66 45.5 105t136.5 39h152v1
q0 158 -130 158q-76 0 -147 -41l-21 45q83 44 171 44zM208 42q69 0 116.5 37t47.5 86v73h-152q-60 0 -95 -25t-35 -72q0 -44 29.5 -71.5t88.5 -27.5z" />
    <glyph glyph-name="uni1EAF.alt" horiz-adv-x="491" 
d="M399 836l-125 -138h-47l109 138h63zM258 557q-57 0 -93.5 35.5t-40.5 98.5h44q3 -39 26.5 -64.5t63.5 -25.5q39 0 63 25.5t26 64.5h45q-5 -64 -41.5 -99t-92.5 -35zM245 490q178 0 178 -210v-280h-50l-1 77l-2 1q-26 -37 -70.5 -60t-98.5 -23q-78 0 -120.5 41t-42.5 103
q0 66 45.5 105t136.5 39h152v1q0 158 -130 158q-76 0 -147 -41l-21 45q83 44 171 44zM208 42q69 0 116.5 37t47.5 86v73h-152q-60 0 -95 -25t-35 -72q0 -44 29.5 -71.5t88.5 -27.5z" />
    <glyph glyph-name="uni1EB7.alt" horiz-adv-x="491" 
d="M258 557q-57 0 -93.5 35.5t-40.5 98.5h44q3 -39 26.5 -64.5t63.5 -25.5q39 0 63 25.5t26 64.5h45q-5 -64 -41.5 -99t-92.5 -35zM245 490q178 0 178 -210v-280h-50l-1 77l-2 1q-26 -37 -70.5 -60t-98.5 -23q-78 0 -120.5 41t-42.5 103q0 66 45.5 105t136.5 39h152v1
q0 158 -130 158q-76 0 -147 -41l-21 45q83 44 171 44zM208 42q69 0 116.5 37t47.5 86v73h-152q-60 0 -95 -25t-35 -72q0 -44 29.5 -71.5t88.5 -27.5zM255 -108q19 0 31.5 -13t12.5 -31q0 -19 -12.5 -31t-31.5 -12t-31.5 12t-12.5 31q0 18 12.5 31t31.5 13z" />
    <glyph glyph-name="uni1EB1.alt" horiz-adv-x="491" 
d="M296 698h-47l-124 138h62zM258 557q-57 0 -93.5 35.5t-40.5 98.5h44q3 -39 26.5 -64.5t63.5 -25.5q39 0 63 25.5t26 64.5h45q-5 -64 -41.5 -99t-92.5 -35zM245 490q178 0 178 -210v-280h-50l-1 77l-2 1q-26 -37 -70.5 -60t-98.5 -23q-78 0 -120.5 41t-42.5 103
q0 66 45.5 105t136.5 39h152v1q0 158 -130 158q-76 0 -147 -41l-21 45q83 44 171 44zM208 42q69 0 116.5 37t47.5 86v73h-152q-60 0 -95 -25t-35 -72q0 -44 29.5 -71.5t88.5 -27.5z" />
    </font>
</defs>
</svg>
