<?xml version="1.0" standalone="no"?>
<!DOCTYPE svg PUBLIC "-//W3C//DTD SVG 1.1//EN" "http://www.w3.org/Graphics/SVG/1.1/DTD/svg11.dtd" >
<svg xmlns="http://www.w3.org/2000/svg" xmlns:xlink="http://www.w3.org/1999/xlink" version="1.1">
<metadata>
Created by FontForge 20170731 at Sat Jul 15 13:37:45 2017
 By Aleksey,,,
Copyright (c) 2015 by Kostas Bartsokas. All rights reserved.
</metadata>
<defs>
<font id="AvertaStd-LightItalic" horiz-adv-x="0" >
  <font-face 
    font-family="Averta Std Light"
    font-weight="300"
    font-style="italic"
    font-stretch="normal"
    units-per-em="1000"
    panose-1="0 0 4 0 0 0 0 0 0 0"
    ascent="800"
    descent="-200"
    x-height="485"
    cap-height="710"
    bbox="-676 -329 1321 1035"
    underline-thickness="29"
    underline-position="-136"
    slope="-7"
    unicode-range="U+000D-2E18"
  />
<missing-glyph horiz-adv-x="398" 
 />
    <glyph glyph-name=".notdef" horiz-adv-x="398" 
 />
    <glyph glyph-name=".null" 
 />
    <glyph glyph-name="nonmarkingreturn" horiz-adv-x="333" 
 />
    <glyph glyph-name="CR" unicode="&#xd;" 
 />
    <glyph glyph-name="space" unicode=" " horiz-adv-x="225" 
 />
    <glyph glyph-name="exclam" unicode="!" horiz-adv-x="226" 
d="M92 195l57 541h58l-75 -541h-40zM97 -5q-19 0 -30.5 12t-11.5 30t12 30.5t31 12.5q18 0 30 -12t12 -30t-12.5 -30.5t-30.5 -12.5z" />
    <glyph glyph-name="quotedbl" unicode="&#x22;" horiz-adv-x="288" 
d="M75 481l59 229h58l-73 -229h-44zM183 481l58 229h58l-72 -229h-44z" />
    <glyph glyph-name="numbersign" unicode="#" horiz-adv-x="573" 
d="M93 -30l56 214h-112l6 43h117l45 173h-122l5 42h128l55 214h41l-55 -214h157l55 214h41l-55 -214h115l-5 -42h-123l-44 -173h127l-6 -43h-134l-54 -214h-41l55 214h-156l-55 -214h-41zM200 227h158l44 173h-157z" />
    <glyph glyph-name="dollar" unicode="$" horiz-adv-x="520" 
d="M290 365q4 -2 27.5 -15t29 -16.5t25 -15.5t25.5 -18t20.5 -18t19.5 -21t12.5 -22t10 -26.5t2.5 -28.5q0 -86 -57.5 -136.5t-148.5 -51.5l-15 -120h-42l15 123q-52 8 -98 35t-74 70l42 38q56 -94 167 -94q68 0 111 36t43 94q0 21 -9.5 38.5t-27 32.5t-38 27.5t-48.5 27.5
q-11 6 -17 9q-29 16 -39 22t-35 22t-35 27.5t-24.5 29.5t-20 37.5t-5.5 41.5q0 75 52.5 122.5t135.5 50.5l15 126h42l-15 -128q91 -13 148 -81l-40 -37q-56 69 -144 69q-59 0 -98 -32.5t-39 -83.5q0 -23 9 -41.5t30.5 -36t37 -27t50.5 -29.5z" />
    <glyph glyph-name="percent" unicode="%" horiz-adv-x="943" 
d="M322 -12l-43 19l365 714l43 -20zM255 326q-77 0 -127.5 50.5t-50.5 129.5q0 87 58 147.5t141 60.5q79 0 130.5 -49.5t51.5 -128.5q0 -90 -59 -150t-144 -60zM256 370q65 0 109.5 47t44.5 118q0 60 -37.5 97.5t-97.5 37.5q-63 0 -107 -47.5t-44 -116.5q0 -60 37.5 -98
t94.5 -38zM685 -5q-77 0 -127.5 50.5t-50.5 129.5q0 87 58 147.5t142 60.5q79 0 130 -49.5t51 -128.5q0 -91 -59 -150.5t-144 -59.5zM686 39q65 0 110 46.5t45 118.5q0 60 -38 97.5t-97 37.5q-63 0 -107.5 -47.5t-44.5 -115.5q0 -60 37.5 -98.5t94.5 -38.5z" />
    <glyph glyph-name="ampersand" unicode="&#x26;" horiz-adv-x="721" 
d="M218 -5q-78 0 -126.5 48t-48.5 128q0 78 41 140.5t108 89.5q-63 40 -63 115q0 85 57.5 142t145.5 57q72 0 113 -36.5t51 -92.5l-49 -16q-6 43 -34.5 69.5t-78.5 27.5q-69 0 -110 -42.5t-41 -108.5q0 -37 23 -64.5t60 -27.5h448l-6 -49h-169q-8 -108 -43.5 -191.5
t-107 -136t-170.5 -52.5zM224 46q115 0 184.5 91.5t79.5 237.5h-213q-70 0 -123 -61t-53 -138q0 -58 33 -94t92 -36z" />
    <glyph glyph-name="quotesingle" unicode="'" horiz-adv-x="180" 
d="M75 481l59 229h58l-73 -229h-44z" />
    <glyph glyph-name="parenleft" unicode="(" horiz-adv-x="251" 
d="M116 -144q-51 148 -51 307q0 153 42.5 303.5t121.5 269.5l37 -18q-73 -117 -112 -260t-39 -287q0 -149 46 -294z" />
    <glyph glyph-name="parenright" unicode=")" horiz-adv-x="251" 
d="M40 -142l-39 17q148 263 148 545q0 164 -48 295l43 23q55 -128 55 -311q0 -301 -159 -569z" />
    <glyph glyph-name="asterisk" unicode="*" horiz-adv-x="384" 
d="M192 399l19 129l-103 -68l-16 34l108 61l-94 60l23 35l89 -68l13 128h38l-20 -128l104 68l16 -35l-108 -60l94 -61l-23 -33l-89 67l-13 -129h-38z" />
    <glyph glyph-name="plus" unicode="+" horiz-adv-x="541" 
d="M222 45l25 207h-185l6 49h186l25 208h49l-25 -208h184l-7 -49h-184l-25 -207h-49z" />
    <glyph glyph-name="comma" unicode="," horiz-adv-x="186" 
d="M-10 -129l58 229h58l-76 -229h-40z" />
    <glyph glyph-name="hyphen" unicode="-" horiz-adv-x="381" 
d="M64 282l6 52h264l-6 -52h-264z" />
    <glyph glyph-name="period" unicode="." horiz-adv-x="210" 
d="M79 -5q-19 0 -30.5 12t-11.5 30t12 30.5t31 12.5q18 0 30 -12t12 -30t-12.5 -30.5t-30.5 -12.5z" />
    <glyph glyph-name="slash" unicode="/" horiz-adv-x="349" 
d="M-30 -114l-38 21l452 851l37 -21z" />
    <glyph glyph-name="zero" unicode="0" horiz-adv-x="574" 
d="M255 -5q-85 0 -137.5 66.5t-52.5 193.5q0 111 30 208t95.5 162.5t154.5 65.5q86 0 136.5 -65.5t50.5 -194.5q0 -83 -17 -159.5t-50 -139t-87.5 -100t-122.5 -37.5zM256 47q74 0 126 60t74 144.5t22 180.5q0 104 -37 156t-100 52q-55 0 -98.5 -35t-69 -92t-39 -123.5
t-13.5 -135.5q0 -102 37.5 -154.5t97.5 -52.5z" />
    <glyph glyph-name="one" unicode="1" horiz-adv-x="336" 
d="M246 687h46l-85 -687h-54l76 613l-142 -107l-27 43z" />
    <glyph glyph-name="two" unicode="2" horiz-adv-x="466" 
d="M7 0l5 41l237 235q67 66 103.5 124t36.5 123q0 49 -28 83t-78 34q-49 0 -95 -29.5t-70 -80.5l-41 29q29 59 86.5 95.5t123.5 36.5q68 0 112.5 -46t44.5 -119q0 -133 -150 -279l-200 -194v-2h303l-7 -51h-383z" />
    <glyph glyph-name="three" unicode="3" horiz-adv-x="479" 
d="M200 -5q-76 0 -124.5 37t-64.5 98l52 19q23 -102 136 -102q76 0 122.5 48t46.5 125q0 52 -32 83t-96 31h-60l6 48h58q68 0 109 45t41 110q0 49 -30.5 76t-81.5 27q-92 0 -152 -81l-45 27q75 105 200 105q73 0 118.5 -38t45.5 -109q0 -66 -31.5 -114.5t-86.5 -69.5v-2
q93 -35 93 -144q0 -97 -63 -158t-161 -61z" />
    <glyph glyph-name="four" unicode="4" horiz-adv-x="505" 
d="M373 176h94l-7 -50h-94l-15 -126h-54l15 126h-300l5 42l372 519h46zM321 175l50 403l-286 -403h236z" />
    <glyph glyph-name="five" unicode="5" horiz-adv-x="503" 
d="M478 636h-271l-39 -227q52 22 112 22q81 0 128 -46.5t47 -131.5q0 -113 -69 -185.5t-175 -72.5q-66 0 -115 33.5t-70 89.5l46 27q17 -46 53 -72t86 -26q83 0 136 57.5t53 144.5q0 65 -35 99t-99 34q-80 0 -126 -40l-35 10l59 335h321z" />
    <glyph glyph-name="six" unicode="6" horiz-adv-x="532" 
d="M242 -5q-84 0 -135 56.5t-51 151.5q0 171 104.5 319.5t263.5 185.5l7 -49q-111 -28 -191.5 -117t-111.5 -204l1 -1q71 92 193 92q71 0 116 -48t45 -128q0 -110 -69 -184t-172 -74zM244 48q76 0 130 58t54 145q0 58 -33.5 92.5t-92.5 34.5q-62 0 -113 -35t-77 -91
q-2 -28 -2 -41q0 -75 35.5 -119t98.5 -44z" />
    <glyph glyph-name="seven" unicode="7" horiz-adv-x="447" 
d="M84 687h382l-5 -42l-337 -655l-54 13l327 633h-319z" />
    <glyph glyph-name="eight" unicode="8" horiz-adv-x="526" 
d="M226 -4q-87 0 -137 44t-50 119q0 74 41.5 132.5t113.5 79.5v1q-35 11 -59 41t-24 79q0 87 59.5 143t150.5 56q73 0 117 -38.5t44 -104.5q0 -60 -33.5 -109t-85.5 -65v-2q51 -13 80.5 -52t29.5 -97q0 -102 -69.5 -164.5t-177.5 -62.5zM281 396q62 0 105 39.5t43 101.5
q0 51 -31 78t-86 27q-64 0 -106.5 -41t-42.5 -103q0 -49 32 -75.5t86 -26.5zM235 46q77 0 129.5 49.5t52.5 123.5q0 61 -37.5 93t-101.5 32q-80 0 -132 -50t-52 -122q0 -59 38.5 -92.5t102.5 -33.5z" />
    <glyph glyph-name="nine" unicode="9" horiz-adv-x="532" 
d="M127 -24l-7 48q110 27 195 120.5t115 211.5l-1 1q-79 -100 -197 -100q-72 0 -115 46.5t-43 123.5q0 112 70.5 188t176.5 76q83 0 132 -55t49 -156q0 -172 -108.5 -321t-266.5 -183zM245 308q58 0 111.5 33t89.5 96q1 13 1 39q-1 82 -35 123t-95 41q-81 0 -135 -59
t-54 -144q0 -59 30 -94t87 -35z" />
    <glyph glyph-name="colon" unicode=":" horiz-adv-x="207" 
d="M130 405q-19 0 -30.5 12t-11.5 30t12 30.5t31 12.5q18 0 30 -12t12 -30t-12.5 -30.5t-30.5 -12.5zM78 -5q-19 0 -30.5 12t-11.5 30t12 30.5t31 12.5q18 0 30 -12t12 -30t-12.5 -30.5t-30.5 -12.5z" />
    <glyph glyph-name="semicolon" unicode=";" horiz-adv-x="201" 
d="M130 405q-19 0 -30.5 12t-11.5 30t12 30.5t31 12.5q18 0 30 -12t12 -30t-12.5 -30.5t-30.5 -12.5zM-1 -129l58 229h58l-76 -229h-40z" />
    <glyph glyph-name="less" unicode="&#x3c;" horiz-adv-x="526" 
d="M430 54l-372 207l4 38l423 209l-6 -54l-345 -174l302 -173z" />
    <glyph glyph-name="equal" unicode="=" horiz-adv-x="534" 
d="M85 365l6 49h419l-6 -49h-419zM59 139l6 49h419l-6 -49h-419z" />
    <glyph glyph-name="greater" unicode="&#x3e;" horiz-adv-x="525" 
d="M51 54l6 53l345 173l-303 174l7 54l372 -209l-4 -38z" />
    <glyph glyph-name="question" unicode="?" horiz-adv-x="404" 
d="M148 192l7 55q1 12 4.5 23t7 20t11.5 20.5t12 18t15.5 19t16 17.5t18 19t17.5 18q46 49 68.5 88t22.5 90q0 52 -28 80t-75 28q-83 0 -134 -76l-35 35q70 94 182 94q66 0 107.5 -42t41.5 -113q0 -60 -28.5 -107.5t-80.5 -99.5q-4 -5 -18.5 -19.5t-19 -19.5t-15.5 -17.5
t-15.5 -19t-10.5 -17t-9.5 -19.5t-4.5 -19l-9 -56h-48zM161 -5q-19 0 -30.5 12t-11.5 30t12 30.5t31 12.5q18 0 30 -12t12 -30t-12.5 -30.5t-30.5 -12.5z" />
    <glyph glyph-name="at" unicode="@" horiz-adv-x="899" 
d="M407 -135q-154 0 -254 99.5t-100 260.5q0 54 14 110t47.5 114t82.5 102.5t125.5 73t168.5 28.5q161 0 260.5 -97.5t99.5 -256.5q0 -41 -9.5 -82.5t-29 -81.5t-56.5 -65.5t-85 -25.5q-45 0 -69.5 26t-29.5 70q-5 10 -7 29h-2q-28 -52 -74.5 -83t-100.5 -31
q-65 0 -105 43.5t-40 121.5q0 103 59.5 175t158.5 72q87 0 130 -46l2 1l5 41h52l-27 -223q-5 -43 -5 -55q-4 -97 63 -97q42 0 72 36.5t42 82.5t12 91q0 140 -87 227t-229 87q-100 0 -179 -36.5t-124 -95t-68 -124t-23 -131.5q0 -140 88.5 -228.5t221.5 -88.5q127 0 223 52
l22 -33q-105 -62 -245 -62zM402 104q59 0 112 57t63 135l10 75q-20 23 -54 35t-66 12q-78 0 -123.5 -57.5t-45.5 -136.5q0 -56 27 -88t77 -32z" />
    <glyph glyph-name="A" unicode="A" horiz-adv-x="606" 
d="M-1 0l330 710h60l159 -710h-58l-41 191h-304l-88 -191h-58zM167 242h272l-87 397h-2z" />
    <glyph glyph-name="B" unicode="B" horiz-adv-x="587" 
d="M64 0l87 710h211q78 0 125 -34t47 -108q0 -61 -33.5 -115t-93.5 -75v-2q119 -28 119 -147q0 -110 -70 -169.5t-194 -59.5h-198zM168 395h150q70 0 114.5 47t44.5 119q0 97 -128 97h-149zM126 52h138q94 0 149 45.5t55 131.5q0 116 -151 116h-155z" />
    <glyph glyph-name="C" unicode="C" horiz-adv-x="672" 
d="M346 -5q-124 0 -199 79.5t-75 219.5q0 111 45 207t128 155t186 59q150 0 244 -151l-48 -33q-40 69 -87 100t-110 31q-86 0 -156 -52.5t-107 -136t-37 -178.5q0 -114 58.5 -180t159.5 -66q55 0 111.5 26t99.5 74l42 -35q-48 -55 -115.5 -87t-139.5 -32z" />
    <glyph glyph-name="D" unicode="D" horiz-adv-x="671" 
d="M64 0l87 710h189q138 0 212 -77t74 -213q0 -186 -104 -303t-274 -117h-184zM126 52h125q141 0 229 103.5t88 263.5q0 112 -60 175.5t-172 63.5h-135z" />
    <glyph glyph-name="E" unicode="E" horiz-adv-x="546" 
d="M64 0l87 710h384l-6 -52h-329l-34 -278h272l-5 -52h-273l-34 -276h347l-6 -52h-403z" />
    <glyph glyph-name="F" unicode="F" horiz-adv-x="530" 
d="M64 0l87 710h400l-5 -52h-346l-35 -285h295l-5 -51h-296l-39 -322h-56z" />
    <glyph glyph-name="G" unicode="G" horiz-adv-x="706" 
d="M352 -5q-129 0 -204.5 79t-75.5 219q0 172 102.5 297t257.5 125q143 0 231 -113l-45 -36q-75 96 -189 96q-85 0 -154.5 -51.5t-106.5 -135.5t-37 -181q0 -115 58.5 -180.5t164.5 -65.5q116 0 202 69l23 185h-208l6 52h264l-33 -267q-49 -45 -117.5 -68.5t-138.5 -23.5z
" />
    <glyph glyph-name="H" unicode="H" horiz-adv-x="668" 
d="M64 0l87 710h56l-43 -348h370l42 348h56l-87 -710h-56l38 310h-369l-38 -310h-56z" />
    <glyph glyph-name="I" unicode="I" horiz-adv-x="255" 
d="M70 0l87 710h56l-87 -710h-56z" />
    <glyph glyph-name="J" unicode="J" horiz-adv-x="452" 
d="M166 -5q-44 0 -86.5 24.5t-69.5 69.5l38 40q49 -80 118 -80q127 0 147 179l59 482h56l-59 -485q-14 -117 -64 -173.5t-139 -56.5z" />
    <glyph glyph-name="K" unicode="K" horiz-adv-x="588" 
d="M607 710l-287 -324l205 -386h-65l-181 345l-136 -152l-23 -193h-56l87 710h56l-53 -430l2 -1l380 431h71z" />
    <glyph glyph-name="L" unicode="L" horiz-adv-x="509" 
d="M64 0l87 710h56l-81 -658h332l-6 -52h-388z" />
    <glyph glyph-name="M" unicode="M" horiz-adv-x="808" 
d="M64 0l87 710h56l194 -489h3l312 489h55l-86 -710h-56l72 591h-3l-284 -442h-41l-179 449h-2l-72 -598h-56z" />
    <glyph glyph-name="N" unicode="N" horiz-adv-x="697" 
d="M64 0l87 710h54l323 -614l2 1l75 613h55l-87 -710h-56l-320 609h-3l-74 -609h-56z" />
    <glyph glyph-name="O" unicode="O" horiz-adv-x="755" 
d="M349 -5q-127 0 -203 79t-76 218q0 112 44.5 208t129 155.5t190.5 59.5q127 0 203 -78t76 -218q0 -176 -100.5 -300t-263.5 -124zM352 48q134 0 218 109t84 261q0 118 -59.5 181.5t-165.5 63.5q-131 0 -216 -111t-85 -259q0 -116 60 -180.5t164 -64.5z" />
    <glyph glyph-name="P" unicode="P" horiz-adv-x="563" 
d="M64 0l87 710h220q90 0 135.5 -45.5t45.5 -128.5q0 -113 -66.5 -180.5t-184.5 -67.5h-146l-35 -288h-56zM161 339h146q88 0 137.5 53.5t49.5 143.5q0 61 -36.5 91.5t-97.5 30.5h-160z" />
    <glyph glyph-name="Q" unicode="Q" horiz-adv-x="772" 
d="M715 419q0 -184 -104 -305l74 -83l-37 -39l-75 84q-94 -81 -222 -81q-127 0 -203 79t-76 218q0 112 44.5 208t129 155.5t190.5 59.5q127 0 203 -78t76 -218zM354 48q104 0 182 70l-75 84l36 39l75 -84q84 106 84 261q0 118 -60 181t-166 63q-87 0 -157 -53t-106.5 -136.5
t-36.5 -179.5q0 -116 60 -180.5t164 -64.5z" />
    <glyph glyph-name="R" unicode="R" horiz-adv-x="593" 
d="M64 0l87 710h222q90 0 135.5 -45.5t45.5 -128.5q0 -97 -51 -162t-143 -80l145 -294h-63l-140 288h-147l-35 -288h-56zM161 339h148q87 0 136.5 53.5t49.5 143.5q0 61 -36 91.5t-97 30.5h-162z" />
    <glyph glyph-name="S" unicode="S" horiz-adv-x="538" 
d="M255 -5q-67 0 -128 30t-98 86l42 37q64 -100 181 -100q74 0 120.5 39.5t46.5 103.5q0 10 -2.5 20t-5 17.5t-10 16.5t-12 14.5t-16 14t-17 13t-20.5 13.5t-21 12.5t-23.5 13.5t-23.5 13q-35 19 -50.5 28t-44 29.5t-41.5 37t-24 42t-11 54.5q0 83 59.5 134t152.5 51
q55 0 106 -23t86 -64l-40 -37q-60 72 -156 72q-65 0 -107.5 -35.5t-42.5 -91.5q0 -20 9 -38.5t17.5 -30t32.5 -28t35 -23t44 -25.5q4 -2 30 -16.5t31.5 -18t27 -17t27.5 -19.5t21.5 -19t20.5 -22.5t13.5 -23t11 -28t2.5 -30.5q0 -93 -62.5 -147.5t-160.5 -54.5z" />
    <glyph glyph-name="T" unicode="T" horiz-adv-x="513" 
d="M198 0l81 658h-198l6 52h455l-7 -52h-200l-81 -658h-56z" />
    <glyph glyph-name="U" unicode="U" horiz-adv-x="653" 
d="M295 -5q-121 0 -171.5 79t-34.5 217l52 419h56l-52 -420q-14 -112 23.5 -176.5t128.5 -64.5q93 0 150.5 58t72.5 177l51 426h56l-52 -426q-35 -289 -280 -289z" />
    <glyph glyph-name="V" unicode="V" horiz-adv-x="600" 
d="M246 0l-157 710h58l134 -629h1l285 629h61l-329 -710h-53z" />
    <glyph glyph-name="W" unicode="W" horiz-adv-x="919" 
d="M211 0l-119 710h58l100 -617h2l232 617h64l84 -612h3l246 612h61l-292 -710h-58l-87 618h-2l-234 -618h-58z" />
    <glyph glyph-name="X" unicode="X" horiz-adv-x="578" 
d="M0 0l266 355l-177 355h63l154 -311h3l228 311h69l-266 -356l179 -354h-66l-154 308h-3l-230 -308h-66z" />
    <glyph glyph-name="Y" unicode="Y" horiz-adv-x="532" 
d="M208 0l39 320l-171 390h61l143 -333h2l226 333h65l-270 -390l-39 -320h-56z" />
    <glyph glyph-name="Z" unicode="Z" horiz-adv-x="562" 
d="M29 0l6 46l437 610v2h-342l7 52h414l-6 -46l-439 -609l1 -3h366l-6 -52h-438z" />
    <glyph glyph-name="bracketleft" unicode="[" horiz-adv-x="277" 
d="M31 -142l107 869h155l-4 -43h-109l-97 -784h109l-5 -42h-156z" />
    <glyph glyph-name="backslash" unicode="\" horiz-adv-x="355" 
d="M293 -114l-243 851l44 21l243 -852z" />
    <glyph glyph-name="bracketright" unicode="]" horiz-adv-x="279" 
d="M-4 -142l6 42h110l96 784h-110l5 43h157l-107 -869h-157z" />
    <glyph glyph-name="asciicircum" unicode="^" horiz-adv-x="435" 
d="M98 500l154 210h45l103 -210h-51l-78 170l-122 -170h-51z" />
    <glyph glyph-name="underscore" unicode="_" horiz-adv-x="465" 
d="M-44 -68l5 40h476l-5 -40h-476z" />
    <glyph glyph-name="grave" unicode="`" horiz-adv-x="468" 
d="M283 545l-96 138h61l91 -138h-56z" />
    <glyph glyph-name="a" unicode="a" horiz-adv-x="542" 
d="M212 -5q-79 0 -123 55t-44 139q0 124 69 212.5t179 88.5q97 0 145 -56l3 1l6 50h52l-59 -485h-52l16 132h-2q-35 -63 -83.5 -100t-106.5 -37zM219 43q76 0 134 76.5t72 183.5l10 77q-24 32 -64.5 47t-76.5 15q-87 0 -141.5 -75.5t-54.5 -178.5q0 -65 31.5 -105t89.5 -40z
" />
    <glyph glyph-name="b" unicode="b" horiz-adv-x="555" 
d="M243 -5q-110 0 -186 50l85 691h51l-45 -378l2 -1q72 133 192 133q81 0 124.5 -56t43.5 -147q0 -120 -72 -206t-195 -86zM241 44q98 0 156.5 72.5t58.5 174.5q0 68 -31 109t-92 41q-78 0 -135.5 -75.5t-71.5 -183.5l-14 -111q53 -27 129 -27z" />
    <glyph glyph-name="c" unicode="c" horiz-adv-x="481" 
d="M231 -4q-80 0 -133 52.5t-53 146.5q0 124 70 209.5t185 85.5q110 0 163 -78l-42 -32q-40 62 -122 62q-90 0 -145.5 -70.5t-55.5 -172.5q0 -70 38.5 -112t97.5 -42q93 0 150 68l41 -30q-72 -87 -194 -87z" />
    <glyph glyph-name="d" unicode="d" horiz-adv-x="553" 
d="M213 -5q-80 0 -124 54.5t-44 139.5q0 124 69.5 212.5t178.5 88.5q98 0 149 -57l2 1l37 302h52l-90 -736h-53l17 133l-2 1q-34 -64 -83.5 -101.5t-108.5 -37.5zM220 43q77 0 135.5 76.5t72.5 182.5l9 78q-23 33 -63.5 47.5t-78.5 14.5q-87 0 -141.5 -75.5t-54.5 -178.5
q0 -65 31.5 -105t89.5 -40z" />
    <glyph glyph-name="e" unicode="e" horiz-adv-x="466" 
d="M236 45q80 0 140 68l40 -30q-75 -87 -181 -87q-86 0 -138 54t-52 147q0 122 70 207.5t181 85.5q53 0 99 -29.5t46 -91.5q0 -151 -344 -179q2 -68 40.5 -106.5t98.5 -38.5zM295 442q-74 0 -130 -58t-66 -150q289 23 289 132q0 41 -28.5 58.5t-64.5 17.5z" />
    <glyph glyph-name="f" unicode="f" horiz-adv-x="290" 
d="M60 0l53 439h-56l5 46h57l13 109q19 147 130 147q56 0 94 -27l-14 -46q-32 24 -74 24q-72 0 -85 -109l-12 -98h134l-5 -46h-135l-53 -439h-52z" />
    <glyph glyph-name="g" unicode="g" horiz-adv-x="544" 
d="M184 -202q-89 0 -160 40l17 49q69 -40 146 -40q89 0 141 46.5t68 175.5l10 79h-2q-34 -62 -84 -100t-109 -38q-79 0 -122.5 55t-43.5 140q0 113 69.5 199t177.5 86q98 0 147 -55l2 1l6 49h52l-51 -420q-10 -79 -33.5 -133.5t-60 -82.5t-77 -39.5t-93.5 -11.5zM219 58
q73 0 132.5 71.5t71.5 164.5l11 86q-24 32 -64 46.5t-76 14.5q-86 0 -141 -72.5t-55 -165.5q0 -65 31.5 -105t89.5 -40z" />
    <glyph glyph-name="h" unicode="h" horiz-adv-x="540" 
d="M51 0l91 736h52l-48 -386l2 -1q36 65 92 103t115 38q147 0 121 -198l-39 -292h-52l38 289q20 153 -81 153q-69 0 -135.5 -72t-78.5 -169l-24 -201h-53z" />
    <glyph glyph-name="i" unicode="i" horiz-adv-x="223" 
d="M160 591q-18 0 -29 12t-11 30q0 19 12 31t30 12t30 -11.5t12 -29.5q0 -19 -12.5 -31.5t-31.5 -12.5zM56 0l59 485h52l-60 -485h-51z" />
    <glyph glyph-name="j" unicode="j" horiz-adv-x="188" 
d="M137 591q-18 0 -29 12t-11 30q0 19 12 31t30 12t30 -11.5t12 -29.5q0 -19 -12.5 -31.5t-31.5 -12.5zM-45 -202q-38 0 -66 17l13 45q22 -16 49 -16q30 0 49.5 23t26.5 83l66 535h52l-67 -541q-16 -146 -123 -146z" />
    <glyph glyph-name="k" unicode="k" horiz-adv-x="481" 
d="M408 -4q-11 -2 -22 2q-21 4 -38.5 23.5t-26 37.5t-27.5 62l-35 81q-71 -58 -143 -93l-13 -109h-52l91 736h52l-70 -567l2 -1q100 56 176.5 143t104.5 174h53q-34 -127 -160 -248l43 -99q25 -58 40.5 -76.5t39.5 -22.5z" />
    <glyph glyph-name="l" unicode="l" horiz-adv-x="218" 
d="M56 0l90 736h53l-91 -736h-52z" />
    <glyph glyph-name="m" unicode="m" horiz-adv-x="820" 
d="M52 0l59 485h52l-16 -126l3 -1q34 61 84 96.5t101 35.5q114 0 118 -130l2 -1q34 61 83.5 96t102.5 35q144 0 118 -198l-40 -292h-52l39 289q20 153 -76 153q-60 0 -119 -69t-73 -172l-26 -201h-52l38 289q18 153 -75 153q-61 0 -122 -72t-73 -168l-24 -202h-52z" />
    <glyph glyph-name="n" unicode="n" horiz-adv-x="540" 
d="M51 0l61 485h52l-17 -132h2q37 63 92.5 100t113.5 37q147 0 121 -198l-39 -292h-52l38 289q20 152 -81 152q-69 0 -135.5 -70.5t-78.5 -169.5l-24 -201h-53z" />
    <glyph glyph-name="o" unicode="o" horiz-adv-x="539" 
d="M242 -5q-90 0 -144 54t-54 149q0 121 70.5 206.5t184.5 85.5q90 0 143 -52t53 -146q0 -128 -68.5 -212.5t-184.5 -84.5zM243 44q88 0 143.5 68.5t55.5 176.5q0 75 -40 114t-106 39q-86 0 -142.5 -69.5t-56.5 -170.5q0 -73 39.5 -115.5t106.5 -42.5z" />
    <glyph glyph-name="p" unicode="p" horiz-adv-x="553" 
d="M27 -198l84 683h52l-16 -132l2 -1q72 138 196 138q77 0 120.5 -55t43.5 -139q0 -124 -69.5 -212.5t-180.5 -88.5q-97 0 -147 55l-2 -1l-31 -247h-52zM251 44q92 0 148.5 73t56.5 176q0 66 -31 107.5t-90 41.5q-78 0 -137 -75t-72 -180l-10 -81q21 -33 59.5 -47.5
t75.5 -14.5z" />
    <glyph glyph-name="q" unicode="q" horiz-adv-x="544" 
d="M364 -198l40 331h-2q-33 -63 -82.5 -100.5t-107.5 -37.5q-79 0 -123 55t-44 139q0 124 69 212.5t179 88.5q94 0 146 -54l2 1l6 48h52l-83 -683h-52zM219 43q76 0 134.5 77t71.5 183l10 77q-24 32 -63.5 46.5t-76.5 14.5q-87 0 -142 -75t-55 -178q0 -65 31.5 -105
t89.5 -40z" />
    <glyph glyph-name="r" unicode="r" horiz-adv-x="301" 
d="M52 0l59 485h52l-15 -126h2q59 111 168 131l-7 -62q-73 -7 -122 -69t-61 -157l-24 -202h-52z" />
    <glyph glyph-name="s" unicode="s" horiz-adv-x="403" 
d="M179 -5q-104 0 -165 73l34 36q54 -61 131 -61q51 0 84 23t33 63q0 9 -1.5 16.5t-6.5 15t-8.5 12.5t-12 11t-13.5 9.5t-17 9.5l-17 8.5t-20 9t-19 8.5q-55 23 -86 52t-31 77q0 60 45 96t109 36q89 0 145 -61l-35 -36q-46 51 -113 51q-42 0 -70 -23t-28 -61q0 -29 24.5 -49
t69.5 -40q2 -1 19 -8.5t20 -9t18 -9.5t19 -11t16 -11t16 -13.5t11.5 -14.5t10.5 -17.5t5.5 -19t2.5 -22.5q1 -66 -48 -103t-122 -37z" />
    <glyph glyph-name="t" unicode="t" horiz-adv-x="332" 
d="M159 -5q-104 0 -87 135l38 309h-58l6 46h57l21 167l53 10l-22 -177h155l-6 -46h-154l-37 -302q-12 -91 48 -91q42 0 88 33l7 -50q-49 -34 -109 -34z" />
    <glyph glyph-name="u" unicode="u" horiz-adv-x="524" 
d="M193 -5q-156 0 -129 196l40 294h52l-39 -290q-12 -84 11.5 -117.5t76.5 -33.5q62 0 122.5 66.5t73.5 157.5l26 217h52l-59 -485h-53l17 130h-2q-33 -62 -83 -98.5t-106 -36.5z" />
    <glyph glyph-name="v" unicode="v" horiz-adv-x="483" 
d="M190 -5q-76 0 -107 50.5t-18 159.5l35 280h52l-35 -277q-11 -91 9.5 -127.5t67.5 -36.5q57 0 112.5 59.5t79.5 158.5q24 108 4 223h55q19 -122 -8 -238q-30 -124 -100.5 -188t-146.5 -64z" />
    <glyph glyph-name="w" unicode="w" horiz-adv-x="772" 
d="M185 -5q-148 0 -121 200l38 290h52l-37 -286q-20 -155 81 -155q50 0 105 64.5t67 163.5l26 213h52l-34 -283q-11 -89 9 -123.5t64 -34.5q55 0 110.5 60t77.5 158q24 108 4 223h55q20 -126 -8 -238q-30 -124 -100 -188t-143 -64q-58 0 -89.5 34.5t-32.5 101.5h-2
q-30 -60 -80.5 -98t-93.5 -38z" />
    <glyph glyph-name="x" unicode="x" horiz-adv-x="448" 
d="M1 0l192 244l-132 241h61l105 -199h4l154 199h64l-193 -243l133 -242h-61l-107 200h-2l-157 -200h-61z" />
    <glyph glyph-name="y" unicode="y" horiz-adv-x="521" 
d="M426 485h52l-52 -421q-18 -150 -83 -208t-164 -58q-84 0 -155 40l17 48q68 -40 139 -40q79 0 129.5 47.5t65.5 174.5l7 62l-2 1q-32 -62 -82.5 -99t-107.5 -37q-156 0 -129 196l40 294h52l-39 -290q-11 -84 12.5 -117t75.5 -34q65 0 126 69.5t72 163.5z" />
    <glyph glyph-name="z" unicode="z" horiz-adv-x="427" 
d="M353 -24q-54 16 -125 20t-223 4l5 41l326 397v1h-265l6 46h335l-4 -39l-327 -398v-2q210 0 287 -24z" />
    <glyph glyph-name="braceleft" unicode="{" horiz-adv-x="299" 
d="M159 -142q-40 0 -63 27.5t-17 73.5l28 232q1 19 1 34.5t-15 26.5t-47 13l4 44q25 2 41 9t24 19t10.5 21.5t4.5 26.5l31 242q5 43 32.5 71.5t70.5 28.5h40l-5 -40h-24q-27 0 -46.5 -20t-23.5 -51l-29 -235q-6 -43 -19 -64t-45 -29v-2q29 -8 37.5 -29.5t2.5 -66.5l-26 -212
q-4 -43 7.5 -62t42.5 -19h26l-4 -39h-39z" />
    <glyph glyph-name="bar" unicode="|" horiz-adv-x="277" 
d="M71 -115l105 852h47l-105 -852h-47z" />
    <glyph glyph-name="braceright" unicode="}" horiz-adv-x="299" 
d="M7 -142l5 39h24q32 0 49.5 20t22.5 64l26 212q5 46 18.5 66t46.5 27v2q-30 8 -38.5 30.5t-2.5 65.5l29 234q4 31 -10 50t-42 19h-26l4 40h40q42 0 64 -30t17 -73l-30 -241q-2 -19 -2 -34t15 -26t47 -14l-4 -44q-32 -2 -50 -14.5t-22.5 -25.5t-7.5 -36l-28 -232
q-6 -46 -35 -72.5t-69 -26.5h-41z" />
    <glyph glyph-name="asciitilde" unicode="~" horiz-adv-x="517" 
d="M347 221q-36 0 -88 33q-47 28 -75 28q-48 0 -79 -57l-39 17q46 91 115 91q37 0 84 -29q52 -33 80 -33q48 0 75 58l39 -16q-20 -44 -50 -68t-62 -24z" />
    <glyph glyph-name="uni00A0" unicode="&#xa0;" horiz-adv-x="225" 
 />
    <glyph glyph-name="exclamdown" unicode="&#xa1;" horiz-adv-x="219" 
d="M128 490q19 0 30.5 -12t11.5 -30t-12 -30.5t-31 -12.5q-18 0 -30 12t-12 30t12.5 30.5t30.5 12.5zM133 290l-57 -541h-58l75 541h40z" />
    <glyph glyph-name="cent" unicode="&#xa2;" horiz-adv-x="489" 
d="M247 99q95 0 153 68l41 -30q-66 -75 -162 -85l-13 -110h-39l13 108q-76 2 -128 55.5t-52 143.5q0 118 66 202.5t174 91.5l14 116h39l-14 -116q93 -9 140 -77l-42 -31q-41 61 -120 61q-91 0 -147 -71t-56 -174q0 -68 38 -110t95 -42z" />
    <glyph glyph-name="sterling" unicode="&#xa3;" horiz-adv-x="508" 
d="M18 0l6 52h76l37 306h-59l5 43h60l8 65q14 119 67.5 172t127.5 53q107 0 153 -100l-36 -35q-35 81 -112 81q-124 0 -146 -179l-7 -57h153l-5 -43h-153l-37 -306h302l-6 -52h-434z" />
    <glyph glyph-name="currency" unicode="&#xa4;" horiz-adv-x="457" 
d="M415 410q0 -83 -55 -143l59 -74l-30 -28l-59 76q-48 -35 -109 -35q-62 0 -101 34l-75 -74l-25 28l76 75q-22 36 -22 85q0 88 52 148l-59 75l31 28l57 -74q49 38 111 38q60 0 100 -37l75 74l25 -28l-76 -75q25 -39 25 -93zM116 359q0 -52 29.5 -82t79.5 -30q62 0 105 46.5
t43 112.5q0 55 -30.5 88t-79.5 33q-62 0 -104.5 -49t-42.5 -119z" />
    <glyph glyph-name="yen" unicode="&#xa5;" horiz-adv-x="497" 
d="M537 687l-221 -341h130l-5 -40h-151l-6 -9l-9 -75h156l-5 -40h-156l-23 -182h-56l23 182h-161l5 40h161l9 75l-4 9h-155l5 40h135l-136 341h63l126 -332h2l208 332h65z" />
    <glyph glyph-name="brokenbar" unicode="&#xa6;" horiz-adv-x="278" 
d="M202 565l-19 -154h1l-44 -353h-48l44 353l19 154h47z" />
    <glyph glyph-name="section" unicode="&#xa7;" horiz-adv-x="486" 
d="M281 414q83 -37 107 -56q42 -36 42 -89q0 -102 -105 -146q60 -40 60 -105q0 -78 -52 -124t-136 -46q-119 0 -177 90l36 37q21 -38 59.5 -57t81.5 -19q59 0 95 30t36 84q0 39 -27 61t-92 52q-32 15 -46 22t-38 22t-34 27.5t-19 33t-9 44.5q0 48 28 85.5t75 56.5
q-54 39 -54 102q0 73 50.5 119t124.5 46q47 0 91 -18t70 -48l-35 -38q-47 53 -124 53q-51 0 -85.5 -30t-34.5 -80q0 -27 16.5 -47.5t36 -31.5t59.5 -30zM282 147q94 32 94 116q0 36 -24.5 55.5t-85.5 47.5q-6 3 -9 4q-20 8 -44 20q-43 -10 -69 -40.5t-26 -69.5q0 -20 7 -35
t27 -29t34 -21.5t50 -24.5q5 -3 14.5 -7.5t17 -8t14.5 -7.5z" />
    <glyph glyph-name="dieresis" unicode="&#xa8;" horiz-adv-x="466" 
d="M202 576q-18 0 -29.5 12t-11.5 30q0 19 12 31t30 12q19 0 31 -11.5t12 -29.5q0 -19 -12.5 -31.5t-31.5 -12.5zM354 576q-18 0 -29.5 12t-11.5 30q0 19 12 31t31 12q18 0 30 -11.5t12 -29.5q0 -19 -12.5 -31.5t-31.5 -12.5z" />
    <glyph glyph-name="copyright" unicode="&#xa9;" horiz-adv-x="685" 
d="M342 20q-124 0 -210 88t-86 210t86.5 210t210.5 88q123 0 208.5 -88t85.5 -210t-86 -210t-209 -88zM342 61q106 0 180 75.5t74 181.5t-73.5 181.5t-179.5 75.5q-107 0 -181.5 -76t-74.5 -181q0 -106 74 -181.5t181 -75.5zM349 154q-69 0 -114.5 42.5t-45.5 118.5
q0 72 42.5 118.5t117.5 46.5q76 0 127 -61l-29 -24q-40 48 -98 48q-57 0 -89.5 -35.5t-32.5 -92.5q0 -58 34.5 -91t87.5 -33q62 0 98 48l29 -25q-48 -60 -127 -60z" />
    <glyph glyph-name="ordfeminine" unicode="&#xaa;" horiz-adv-x="367" 
d="M179 394q-45 0 -73.5 31t-28.5 88q0 73 43 125t111 52q55 0 87 -30h2l3 27h41l-36 -290h-40l8 68h-2q-44 -71 -115 -71zM186 434q42 0 78.5 37.5t43.5 97.5l7 47q-8 15 -30.5 24.5t-48.5 9.5q-52 0 -84.5 -39t-32.5 -97q0 -38 17.5 -59t49.5 -21z" />
    <glyph glyph-name="guillemotleft" unicode="&#xab;" horiz-adv-x="407" 
d="M130 20l-88 225l144 225h50l-142 -225l87 -225h-51zM282 20l-89 225l144 225h51l-142 -225l87 -225h-51z" />
    <glyph glyph-name="logicalnot" unicode="&#xac;" horiz-adv-x="528" 
d="M406 175l19 156h-349l6 48h397l-24 -204h-49z" />
    <glyph glyph-name="registered" unicode="&#xae;" horiz-adv-x="685" 
d="M343 616q123 0 208.5 -88t85.5 -210t-86 -210t-209 -88q-124 0 -210 88t-86 210t86.5 210t210.5 88zM342 61q106 0 180 75.5t74 181.5t-73.5 181.5t-179.5 75.5q-107 0 -181.5 -76t-74.5 -181q0 -106 74 -181.5t181 -75.5zM458 385q0 -80 -78 -95l92 -132h-44l-90 129
h-58v-129h-38v324h112q52 0 78 -26.5t26 -70.5zM280 447v-126h65q75 0 75 64q0 29 -18.5 45.5t-50.5 16.5h-71z" />
    <glyph glyph-name="macron" unicode="&#xaf;" horiz-adv-x="429" 
d="M132 593l6 46h251l-6 -46h-251z" />
    <glyph glyph-name="degree" unicode="&#xb0;" horiz-adv-x="374" 
d="M211 449q-51 0 -80.5 30t-29.5 79q0 65 41 111t102 46q49 0 80 -31.5t31 -84.5q0 -61 -40.5 -105.5t-103.5 -44.5zM214 489q43 0 72 31.5t29 76.5q0 35 -20 56.5t-54 21.5q-43 0 -71.5 -32.5t-28.5 -81.5q0 -34 19.5 -53t53.5 -19z" />
    <glyph glyph-name="plusminus" unicode="&#xb1;" horiz-adv-x="537" 
d="M235 151l25 207h-185l6 49h186l25 208h49l-25 -208h184l-7 -49h-184l-25 -207h-49zM31 -1l6 49h419l-6 -49h-419z" />
    <glyph glyph-name="uni00B2" unicode="&#xb2;" horiz-adv-x="308" 
d="M50 436l3 33l155 143q37 36 56.5 64.5t19.5 63.5q0 31 -17 49.5t-48 18.5q-25 0 -51.5 -16t-42.5 -44l-34 27q21 34 57 55.5t76 21.5q47 0 77 -28.5t30 -77.5q0 -78 -86 -157l-122 -109l1 -2h180l-6 -42h-248z" />
    <glyph glyph-name="uni00B3" unicode="&#xb3;" horiz-adv-x="310" 
d="M180 432q-49 0 -82.5 22.5t-44.5 59.5l44 15q16 -55 82 -55q42 0 68 25.5t26 65.5q0 28 -20.5 46.5t-57.5 18.5h-34l5 38h38q37 0 61 23.5t24 59.5q0 28 -18 43t-49 15q-56 0 -85 -45l-37 24q42 64 124 64q49 0 79.5 -25t30.5 -70q0 -77 -70 -106v-2q56 -23 56 -87
q0 -59 -39.5 -94.5t-100.5 -35.5z" />
    <glyph glyph-name="acute" unicode="&#xb4;" horiz-adv-x="466" 
d="M201 545l125 138h62l-129 -138h-58z" />
    <glyph glyph-name="uni00B5" unicode="&#xb5;" horiz-adv-x="542" 
d="M496 48l9 -41q-24 -12 -57 -12q-82 0 -75 107v5q-60 -112 -167 -112q-77 0 -101 70h-2q-1 -48 -8 -106l-19 -157h-52l84 683h52l-36 -293q-10 -77 17 -112.5t70 -35.5q64 0 115.5 54.5t63.5 152.5l29 234h52l-44 -358q-6 -44 1 -64t39 -20q9 0 29 5z" />
    <glyph glyph-name="paragraph" unicode="&#xb6;" horiz-adv-x="404" 
d="M222 -149l92 749h-53l-74 -600h-39l47 383q-51 1 -83.5 29t-32.5 77q0 63 42.5 107.5t114.5 44.5h121l-97 -790h-38z" />
    <glyph glyph-name="periodcentered" unicode="&#xb7;" horiz-adv-x="201" 
d="M104 199q-19 0 -30.5 12t-11.5 30t12 30.5t31 12.5q18 0 30 -12t12 -30t-12.5 -30.5t-30.5 -12.5z" />
    <glyph glyph-name="cedilla" unicode="&#xb8;" horiz-adv-x="313" 
d="M80 -184q-23 0 -42 4l3 34q15 -5 36 -5q30 0 48.5 13.5t18.5 39.5q0 35 -70 36l4 27l22 41h37l-24 -41l1 -1q70 -5 70 -61q0 -41 -29 -64t-75 -23z" />
    <glyph glyph-name="uni00B9" unicode="&#xb9;" horiz-adv-x="232" 
d="M203 847h37l-51 -411h-46l44 351l-85 -60l-20 36z" />
    <glyph glyph-name="ordmasculine" unicode="&#xba;" horiz-adv-x="351" 
d="M195 394q-54 0 -86 32t-32 90q0 71 42.5 122.5t110.5 51.5q53 0 85 -30.5t32 -88.5q0 -74 -41.5 -125.5t-110.5 -51.5zM197 434q46 0 76.5 38t30.5 96q0 41 -21 62t-55 21q-46 0 -77 -38.5t-31 -93.5q0 -39 20.5 -62t56.5 -23z" />
    <glyph glyph-name="guillemotright" unicode="&#xbb;" horiz-adv-x="407" 
d="M20 20l142 225l-87 225h51l89 -225l-144 -225h-51zM173 20l141 225l-86 225h50l90 -225l-145 -225h-50z" />
    <glyph glyph-name="onequarter" unicode="&#xbc;" horiz-adv-x="660" 
d="M495 721l43 -20l-366 -713l-42 19zM172 299h-46l44 351l-85 -60l-20 36l121 84h37zM562 114h58l-5 -41h-58l-9 -73h-45l9 73h-181l4 32l228 306h36zM521 112l27 219l-160 -219h133z" />
    <glyph glyph-name="onehalf" unicode="&#xbd;" horiz-adv-x="694" 
d="M495 721l43 -20l-366 -713l-42 19zM172 299h-46l44 351l-85 -60l-20 36l121 84h37zM455 44l1 -2h180l-6 -42h-248l3 33l155 143q37 36 56.5 64.5t19.5 63.5q0 31 -17 49.5t-48 18.5q-25 0 -51.5 -16t-42.5 -44l-34 27q21 34 57 55.5t76 21.5q47 0 77 -28.5t30 -77.5
q0 -78 -86 -157z" />
    <glyph glyph-name="threequarters" unicode="&#xbe;" horiz-adv-x="722" 
d="M557 721l43 -20l-366 -713l-42 19zM303 425q0 -59 -39.5 -94.5t-100.5 -35.5q-49 0 -82.5 22.5t-44.5 59.5l44 15q16 -55 82 -55q42 0 68 25.5t26 65.5q0 28 -20.5 46.5t-57.5 18.5h-34l5 38h38q37 0 61 23.5t24 59.5q0 28 -18 43t-49 15q-56 0 -85 -45l-37 24
q42 64 124 64q49 0 79.5 -25t30.5 -70q0 -77 -70 -106v-2q56 -23 56 -87zM624 114h58l-5 -41h-58l-9 -73h-45l9 73h-181l4 32l228 306h36zM583 112l27 219l-160 -219h133z" />
    <glyph glyph-name="questiondown" unicode="&#xbf;" horiz-adv-x="375" 
d="M249 490q19 0 30.5 -12t11.5 -30t-12 -30.5t-31 -12.5q-18 0 -30 12t-12 30t12.5 30.5t30.5 12.5zM262 293l-7 -55q-1 -12 -4.5 -23t-7 -20t-11.5 -20.5t-12 -18t-15.5 -19t-16 -17.5t-18 -19t-17.5 -18q-46 -49 -68.5 -88t-22.5 -90q0 -52 28 -80t75 -28q83 0 134 76
l35 -35q-70 -94 -182 -94q-66 0 -107.5 42t-41.5 113q0 60 28.5 107.5t80.5 99.5q4 5 18.5 19.5t19 19.5t15.5 17.5t15.5 19t10.5 17t9.5 19.5t4.5 19l9 56h48z" />
    <glyph glyph-name="Agrave" unicode="&#xc0;" horiz-adv-x="606" 
d="M344 788l-98 128l62 -1l92 -127h-56zM-1 0l330 710h60l159 -710h-58l-41 191h-304l-88 -191h-58zM167 242h272l-87 397h-2z" />
    <glyph glyph-name="Aacute" unicode="&#xc1;" horiz-adv-x="606" 
d="M349 788l123 127l61 1l-128 -128h-56zM-1 0l330 710h60l159 -710h-58l-41 191h-304l-88 -191h-58zM167 242h272l-87 397h-2z" />
    <glyph glyph-name="Acircumflex" unicode="&#xc2;" horiz-adv-x="606" 
d="M236 788l126 118h52l90 -118h-54l-65 83h-3l-91 -83h-55zM-1 0l330 710h60l159 -710h-58l-41 191h-304l-88 -191h-58zM167 242h272l-87 397h-2z" />
    <glyph glyph-name="Atilde" unicode="&#xc3;" horiz-adv-x="606" 
d="M448 788q-30 0 -75 38q-33 26 -51 26q-37 0 -63 -59l-36 17q37 84 95 84q33 0 69 -32q2 -2 9 -7.5t10 -7.5t9 -6.5t10 -6t9 -3t10 -1.5q38 0 62 60l35 -15q-17 -42 -42 -64.5t-51 -22.5zM-1 0l330 710h60l159 -710h-58l-41 191h-304l-88 -191h-58zM167 242h272l-87 397
h-2z" />
    <glyph glyph-name="Adieresis" unicode="&#xc4;" horiz-adv-x="606" 
d="M302 810q-18 0 -29.5 12t-11.5 30q0 19 12 31t30 12q19 0 31 -11.5t12 -29.5q0 -19 -12.5 -31.5t-31.5 -12.5zM454 810q-18 0 -29.5 12t-11.5 30q0 19 12 31t31 12q18 0 30 -11.5t12 -29.5q0 -19 -12.5 -31.5t-31.5 -12.5zM-1 0l330 710h60l159 -710h-58l-41 191h-304
l-88 -191h-58zM167 242h272l-87 397h-2z" />
    <glyph glyph-name="Aring" unicode="&#xc5;" horiz-adv-x="606" 
d="M377 779q-35 0 -58.5 23.5t-23.5 58.5q0 37 24 60.5t61 23.5q36 0 59.5 -23t23.5 -58q0 -37 -24.5 -61t-61.5 -24zM378 816q21 0 34.5 13.5t13.5 33.5t-13 33t-33 13t-33.5 -13.5t-13.5 -33.5t12.5 -33t32.5 -13zM-1 0l330 710h60l159 -710h-58l-41 191h-304l-88 -191
h-58zM167 242h272l-87 397h-2z" />
    <glyph glyph-name="AE" unicode="&#xc6;" horiz-adv-x="842" 
d="M-24 0l441 710h415l-6 -52h-331l-33 -278h277l-6 -52h-278l-33 -276h348l-6 -52h-403l23 191h-227l-118 -191h-63zM186 241h205l49 408h-1z" />
    <glyph glyph-name="Ccedilla" unicode="&#xc7;" horiz-adv-x="672" 
d="M430 662q-86 0 -156 -52.5t-107 -136t-37 -178.5q0 -114 58.5 -180t159.5 -66q55 0 111.5 26t99.5 74l42 -35q-48 -54 -115 -86t-138 -33l-18 -30l1 -1q70 -5 70 -61q0 -41 -29 -64t-75 -23q-23 0 -42 4l3 34q15 -5 36 -5q30 0 48.5 13.5t18.5 39.5q0 35 -70 36l4 27
l17 32q-109 11 -174.5 89.5t-65.5 207.5q0 111 45 207t128 155t186 59q150 0 244 -151l-48 -33q-40 69 -87 100t-110 31z" />
    <glyph glyph-name="Egrave" unicode="&#xc8;" horiz-adv-x="546" 
d="M377 790l-98 128l62 -1l92 -127h-56zM64 0l87 710h384l-6 -52h-329l-34 -278h272l-5 -52h-273l-34 -276h347l-6 -52h-403z" />
    <glyph glyph-name="Eacute" unicode="&#xc9;" horiz-adv-x="546" 
d="M286 790l123 127l61 1l-128 -128h-56zM64 0l87 710h384l-6 -52h-329l-34 -278h272l-5 -52h-273l-34 -276h347l-6 -52h-403z" />
    <glyph glyph-name="Ecircumflex" unicode="&#xca;" horiz-adv-x="546" 
d="M226 790l126 118h52l90 -118h-54l-65 83h-3l-91 -83h-55zM64 0l87 710h384l-6 -52h-329l-34 -278h272l-5 -52h-273l-34 -276h347l-6 -52h-403z" />
    <glyph glyph-name="Edieresis" unicode="&#xcb;" horiz-adv-x="546" 
d="M292 812q-18 0 -29.5 12t-11.5 30q0 19 12 31t30 12q19 0 31 -11.5t12 -29.5q0 -19 -12.5 -31.5t-31.5 -12.5zM444 812q-18 0 -29.5 12t-11.5 30q0 19 12 31t31 12q18 0 30 -11.5t12 -29.5q0 -19 -12.5 -31.5t-31.5 -12.5zM64 0l87 710h384l-6 -52h-329l-34 -278h272
l-5 -52h-273l-34 -276h347l-6 -52h-403z" />
    <glyph glyph-name="Igrave" unicode="&#xcc;" horiz-adv-x="255" 
d="M167 788l-98 128l62 -1l92 -127h-56zM70 0l87 710h56l-87 -710h-56z" />
    <glyph glyph-name="Iacute" unicode="&#xcd;" horiz-adv-x="255" 
d="M171 788l123 127l61 1l-128 -128h-56zM70 0l87 710h56l-87 -710h-56z" />
    <glyph glyph-name="Icircumflex" unicode="&#xce;" horiz-adv-x="255" 
d="M59 788l126 118h52l90 -118h-54l-65 83h-3l-91 -83h-55zM70 0l87 710h56l-87 -710h-56z" />
    <glyph glyph-name="Idieresis" unicode="&#xcf;" horiz-adv-x="255" 
d="M125 810q-18 0 -29.5 12t-11.5 30q0 19 12 31t30 12q19 0 31 -11.5t12 -29.5q0 -19 -12.5 -31.5t-31.5 -12.5zM277 810q-18 0 -29.5 12t-11.5 30q0 19 12 31t31 12q18 0 30 -11.5t12 -29.5q0 -19 -12.5 -31.5t-31.5 -12.5zM70 0l87 710h56l-87 -710h-56z" />
    <glyph glyph-name="Eth" unicode="&#xd0;" horiz-adv-x="671" 
d="M340 710q138 0 212 -77t74 -213q0 -186 -104 -303t-274 -117h-184l40 330h-74l7 51h74l40 329h189zM251 52q141 0 229 103.5t88 263.5q0 112 -60 175.5t-172 63.5h-135l-34 -277h174l-7 -51h-174l-34 -278h125z" />
    <glyph glyph-name="Ntilde" unicode="&#xd1;" horiz-adv-x="697" 
d="M495 788q-30 0 -75 38q-33 26 -51 26q-37 0 -63 -59l-36 17q37 84 95 84q33 0 69 -32q2 -2 9 -7.5t10 -7.5t9 -6.5t10 -6t9 -3t10 -1.5q38 0 62 60l35 -15q-17 -42 -42 -64.5t-51 -22.5zM64 0l87 710h54l323 -614l2 1l75 613h55l-87 -710h-56l-320 609h-3l-74 -609h-56z
" />
    <glyph glyph-name="Ograve" unicode="&#xd2;" horiz-adv-x="755" 
d="M443 788l-98 128l62 -1l92 -127h-56zM349 -5q-127 0 -203 79t-76 218q0 112 44.5 208t129 155.5t190.5 59.5q127 0 203 -78t76 -218q0 -176 -100.5 -300t-263.5 -124zM352 48q134 0 218 109t84 261q0 118 -59.5 181.5t-165.5 63.5q-131 0 -216 -111t-85 -259
q0 -116 60 -180.5t164 -64.5z" />
    <glyph glyph-name="Oacute" unicode="&#xd3;" horiz-adv-x="755" 
d="M431 788l123 127l61 1l-128 -128h-56zM349 -5q-127 0 -203 79t-76 218q0 112 44.5 208t129 155.5t190.5 59.5q127 0 203 -78t76 -218q0 -176 -100.5 -300t-263.5 -124zM352 48q134 0 218 109t84 261q0 118 -59.5 181.5t-165.5 63.5q-131 0 -216 -111t-85 -259
q0 -116 60 -180.5t164 -64.5z" />
    <glyph glyph-name="Ocircumflex" unicode="&#xd4;" horiz-adv-x="755" 
d="M328 788l126 118h52l90 -118h-54l-65 83h-3l-91 -83h-55zM349 -5q-127 0 -203 79t-76 218q0 112 44.5 208t129 155.5t190.5 59.5q127 0 203 -78t76 -218q0 -176 -100.5 -300t-263.5 -124zM352 48q134 0 218 109t84 261q0 118 -59.5 181.5t-165.5 63.5q-131 0 -216 -111
t-85 -259q0 -116 60 -180.5t164 -64.5z" />
    <glyph glyph-name="Otilde" unicode="&#xd5;" horiz-adv-x="755" 
d="M540 788q-30 0 -75 38q-33 26 -51 26q-37 0 -63 -59l-36 17q37 84 95 84q33 0 69 -32q2 -2 9 -7.5t10 -7.5t9 -6.5t10 -6t9 -3t10 -1.5q38 0 62 60l35 -15q-17 -42 -42 -64.5t-51 -22.5zM349 -5q-127 0 -203 79t-76 218q0 112 44.5 208t129 155.5t190.5 59.5
q127 0 203 -78t76 -218q0 -176 -100.5 -300t-263.5 -124zM352 48q134 0 218 109t84 261q0 118 -59.5 181.5t-165.5 63.5q-131 0 -216 -111t-85 -259q0 -116 60 -180.5t164 -64.5z" />
    <glyph glyph-name="Odieresis" unicode="&#xd6;" horiz-adv-x="755" 
d="M394 810q-18 0 -29.5 12t-11.5 30q0 19 12 31t30 12q19 0 31 -11.5t12 -29.5q0 -19 -12.5 -31.5t-31.5 -12.5zM546 810q-18 0 -29.5 12t-11.5 30q0 19 12 31t31 12q18 0 30 -11.5t12 -29.5q0 -19 -12.5 -31.5t-31.5 -12.5zM349 -5q-127 0 -203 79t-76 218q0 112 44.5 208
t129 155.5t190.5 59.5q127 0 203 -78t76 -218q0 -176 -100.5 -300t-263.5 -124zM352 48q134 0 218 109t84 261q0 118 -59.5 181.5t-165.5 63.5q-131 0 -216 -111t-85 -259q0 -116 60 -180.5t164 -64.5z" />
    <glyph glyph-name="multiply" unicode="&#xd7;" horiz-adv-x="467" 
d="M76 87l-32 33l159 156l-120 156l38 35l119 -156l158 156l32 -34l-158 -157l119 -156l-38 -33l-120 155z" />
    <glyph glyph-name="Oslash" unicode="&#xd8;" horiz-adv-x="761" 
d="M735 692l-75 -82q54 -74 54 -191q0 -176 -100.5 -300t-263.5 -124q-115 0 -189 66l-70 -77l-30 31l70 77q-60 79 -60 200q0 112 44.5 208t129 155.5t190.5 59.5q123 0 198 -73l71 79zM129 293q0 -96 42 -158l423 466q-59 62 -164 62q-131 0 -216 -111t-85 -259zM655 418
q0 89 -35 148l-421 -464q59 -54 154 -54q134 0 218 109t84 261z" />
    <glyph glyph-name="Ugrave" unicode="&#xd9;" horiz-adv-x="653" 
d="M375 785l-98 128l62 -1l92 -127h-56zM295 -5q-121 0 -171.5 79t-34.5 217l52 419h56l-52 -420q-14 -112 23.5 -176.5t128.5 -64.5q93 0 150.5 58t72.5 177l51 426h56l-52 -426q-35 -289 -280 -289z" />
    <glyph glyph-name="Uacute" unicode="&#xda;" horiz-adv-x="653" 
d="M353 788l123 127l61 1l-128 -128h-56zM295 -5q-121 0 -171.5 79t-34.5 217l52 419h56l-52 -420q-14 -112 23.5 -176.5t128.5 -64.5q93 0 150.5 58t72.5 177l51 426h56l-52 -426q-35 -289 -280 -289z" />
    <glyph glyph-name="Ucircumflex" unicode="&#xdb;" horiz-adv-x="653" 
d="M260 788l126 118h52l90 -118h-54l-65 83h-3l-91 -83h-55zM295 -5q-121 0 -171.5 79t-34.5 217l52 419h56l-52 -420q-14 -112 23.5 -176.5t128.5 -64.5q93 0 150.5 58t72.5 177l51 426h56l-52 -426q-35 -289 -280 -289z" />
    <glyph glyph-name="Udieresis" unicode="&#xdc;" horiz-adv-x="653" 
d="M326 810q-18 0 -29.5 12t-11.5 30q0 19 12 31t30 12q19 0 31 -11.5t12 -29.5q0 -19 -12.5 -31.5t-31.5 -12.5zM478 810q-18 0 -29.5 12t-11.5 30q0 19 12 31t31 12q18 0 30 -11.5t12 -29.5q0 -19 -12.5 -31.5t-31.5 -12.5zM295 -5q-121 0 -171.5 79t-34.5 217l52 419h56
l-52 -420q-14 -112 23.5 -176.5t128.5 -64.5q93 0 150.5 58t72.5 177l51 426h56l-52 -426q-35 -289 -280 -289z" />
    <glyph glyph-name="Yacute" unicode="&#xdd;" horiz-adv-x="532" 
d="M296 788l123 127l61 1l-128 -128h-56zM208 0l39 320l-171 390h61l143 -333h2l226 333h65l-270 -390l-39 -320h-56z" />
    <glyph glyph-name="Thorn" unicode="&#xde;" horiz-adv-x="578" 
d="M64 0l87 710h55l-17 -148h178q91 0 136.5 -45.5t45.5 -128.5q0 -112 -66.5 -180.5t-184.5 -68.5h-161l-17 -139h-56zM143 191h162q87 0 136.5 53.5t49.5 143.5q0 62 -36 92.5t-97 30.5h-176z" />
    <glyph glyph-name="germandbls" unicode="&#xdf;" horiz-adv-x="580" 
d="M383 -5q-109 0 -170 73l36 37q51 -62 133 -62q51 0 82 24.5t31 64.5q0 34 -23.5 55t-78.5 50q-42 23 -63 37.5t-38 40.5t-16 58q1 19 8 34.5t22.5 30.5t25.5 23t34 24t31 21q69 48 69 102q0 38 -34 61t-95 23t-109 -35t-58 -113l-66 -544h-52l67 552q11 93 72.5 141
t143.5 48q86 0 135 -35.5t49 -95.5q0 -44 -24 -75.5t-69 -61.5q-7 -5 -22.5 -15t-23 -15t-19 -14t-16.5 -16t-10 -16.5t-5 -19.5q-3 -29 17.5 -48.5t69.5 -46.5q36 -20 52.5 -30t39 -29t31 -40t8.5 -48q0 -67 -46 -103.5t-119 -36.5z" />
    <glyph glyph-name="agrave" unicode="&#xe0;" horiz-adv-x="542" 
d="M313 560l-96 138h61l91 -138h-56zM212 -5q-79 0 -123 55t-44 139q0 124 69 212.5t179 88.5q97 0 145 -56l3 1l6 50h52l-59 -485h-52l16 132h-2q-35 -63 -83.5 -100t-106.5 -37zM219 43q76 0 134 76.5t72 183.5l10 77q-24 32 -64.5 47t-76.5 15q-87 0 -141.5 -75.5
t-54.5 -178.5q0 -65 31.5 -105t89.5 -40z" />
    <glyph glyph-name="aacute" unicode="&#xe1;" horiz-adv-x="542" 
d="M280 560l125 138h62l-129 -138h-58zM212 -5q-79 0 -123 55t-44 139q0 124 69 212.5t179 88.5q97 0 145 -56l3 1l6 50h52l-59 -485h-52l16 132h-2q-35 -63 -83.5 -100t-106.5 -37zM219 43q76 0 134 76.5t72 183.5l10 77q-24 32 -64.5 47t-76.5 15q-87 0 -141.5 -75.5
t-54.5 -178.5q0 -65 31.5 -105t89.5 -40z" />
    <glyph glyph-name="acircumflex" unicode="&#xe2;" horiz-adv-x="542" 
d="M203 558l123 140h51l93 -140h-55l-64 104h-1l-91 -104h-56zM212 -5q-79 0 -123 55t-44 139q0 124 69 212.5t179 88.5q97 0 145 -56l3 1l6 50h52l-59 -485h-52l16 132h-2q-35 -63 -83.5 -100t-106.5 -37zM219 43q76 0 134 76.5t72 183.5l10 77q-24 32 -64.5 47t-76.5 15
q-87 0 -141.5 -75.5t-54.5 -178.5q0 -65 31.5 -105t89.5 -40z" />
    <glyph glyph-name="atilde" unicode="&#xe3;" horiz-adv-x="542" 
d="M411 572q-31 0 -75 39q-33 25 -50 25q-38 0 -64 -59l-36 17q36 87 96 87q30 0 68 -32t57 -32q38 0 62 60l35 -15q-17 -44 -42 -67t-51 -23zM212 -5q-79 0 -123 55t-44 139q0 124 69 212.5t179 88.5q97 0 145 -56l3 1l6 50h52l-59 -485h-52l16 132h-2q-35 -63 -83.5 -100
t-106.5 -37zM219 43q76 0 134 76.5t72 183.5l10 77q-24 32 -64.5 47t-76.5 15q-87 0 -141.5 -75.5t-54.5 -178.5q0 -65 31.5 -105t89.5 -40z" />
    <glyph glyph-name="adieresis" unicode="&#xe4;" horiz-adv-x="542" 
d="M268 591q-18 0 -29.5 12t-11.5 30q0 19 12 31t30 12q19 0 31 -11.5t12 -29.5q0 -19 -12.5 -31.5t-31.5 -12.5zM420 591q-18 0 -29.5 12t-11.5 30q0 19 12 31t31 12q18 0 30 -11.5t12 -29.5q0 -19 -12.5 -31.5t-31.5 -12.5zM212 -5q-79 0 -123 55t-44 139q0 124 69 212.5
t179 88.5q97 0 145 -56l3 1l6 50h52l-59 -485h-52l16 132h-2q-35 -63 -83.5 -100t-106.5 -37zM219 43q76 0 134 76.5t72 183.5l10 77q-24 32 -64.5 47t-76.5 15q-87 0 -141.5 -75.5t-54.5 -178.5q0 -65 31.5 -105t89.5 -40z" />
    <glyph glyph-name="aring" unicode="&#xe5;" horiz-adv-x="542" 
d="M342 553q-35 0 -58.5 23.5t-23.5 58.5q0 37 24 60.5t61 23.5q36 0 59.5 -23t23.5 -58q0 -37 -24.5 -61t-61.5 -24zM343 590q21 0 34.5 13.5t13.5 33.5t-13 33t-33 13t-33.5 -13.5t-13.5 -33.5t12.5 -33t32.5 -13zM212 -5q-79 0 -123 55t-44 139q0 124 69 212.5t179 88.5
q97 0 145 -56l3 1l6 50h52l-59 -485h-52l16 132h-2q-35 -63 -83.5 -100t-106.5 -37zM219 43q76 0 134 76.5t72 183.5l10 77q-24 32 -64.5 47t-76.5 15q-87 0 -141.5 -75.5t-54.5 -178.5q0 -65 31.5 -105t89.5 -40z" />
    <glyph glyph-name="ae" unicode="&#xe6;" horiz-adv-x="689" 
d="M486 45q72 0 126 68l41 -30q-32 -41 -77 -64t-91 -23q-72 0 -116.5 35.5t-57.5 101.5q-24 -64 -64.5 -101t-89.5 -37q-59 0 -95.5 49t-35.5 130q1 124 73 218t189 94q76 0 126 -37q57 41 134 41q59 0 94.5 -30.5t35.5 -80.5q0 -81 -94 -130.5t-236 -59.5q1 -68 38 -106
t100 -38zM626 378q0 33 -24.5 48t-57.5 15q-78 0 -131 -58.5t-63 -150.5q119 10 197.5 48.5t78.5 97.5zM162 42q45 0 80.5 51.5t55.5 124.5q11 125 79 199q-35 20 -86 20q-66 0 -116 -42t-73 -102t-23 -125q0 -58 23.5 -92t59.5 -34z" />
    <glyph glyph-name="ccedilla" unicode="&#xe7;" horiz-adv-x="481" 
d="M234 45q93 0 150 68l41 -30q-68 -83 -180 -87l-18 -31l1 -1q70 -5 70 -61q0 -41 -29 -64t-75 -23q-23 0 -42 4l3 34q15 -5 36 -5q30 0 48.5 13.5t18.5 39.5q0 35 -70 36l4 27l17 32q-72 7 -118 59t-46 139q0 124 70 209.5t185 85.5q110 0 163 -78l-42 -32q-40 62 -122 62
q-90 0 -145.5 -70.5t-55.5 -172.5q0 -70 38.5 -112t97.5 -42z" />
    <glyph glyph-name="egrave" unicode="&#xe8;" horiz-adv-x="466" 
d="M353 560h-56l-96 138h61zM236 45q80 0 140 68l40 -30q-75 -87 -181 -87q-86 0 -138 54t-52 147q0 122 70 207.5t181 85.5q53 0 99 -29.5t46 -91.5q0 -151 -344 -179q2 -68 40.5 -106.5t98.5 -38.5zM295 442q-74 0 -130 -58t-66 -150q289 23 289 132q0 41 -28.5 58.5
t-64.5 17.5z" />
    <glyph glyph-name="eacute" unicode="&#xe9;" horiz-adv-x="466" 
d="M460 698l-129 -138h-58l125 138h62zM441 369q0 -151 -344 -179q2 -68 40.5 -106.5t98.5 -38.5q80 0 140 68l40 -30q-75 -87 -181 -87q-86 0 -138 54t-52 147q0 122 70 207.5t181 85.5q53 0 99 -29.5t46 -91.5zM99 234q289 23 289 132q0 41 -28.5 58.5t-64.5 17.5
q-74 0 -130 -58t-66 -150z" />
    <glyph glyph-name="ecircumflex" unicode="&#xea;" horiz-adv-x="466" 
d="M307 662l-91 -104h-56l123 140h51l93 -140h-55l-64 104h-1zM236 45q80 0 140 68l40 -30q-75 -87 -181 -87q-86 0 -138 54t-52 147q0 122 70 207.5t181 85.5q53 0 99 -29.5t46 -91.5q0 -151 -344 -179q2 -68 40.5 -106.5t98.5 -38.5zM295 442q-74 0 -130 -58t-66 -150
q289 23 289 132q0 41 -28.5 58.5t-64.5 17.5z" />
    <glyph glyph-name="edieresis" unicode="&#xeb;" horiz-adv-x="466" 
d="M225 591q-18 0 -29.5 12t-11.5 30q0 19 12 31t30 12q19 0 31 -11.5t12 -29.5q0 -19 -12.5 -31.5t-31.5 -12.5zM377 591q-18 0 -29.5 12t-11.5 30q0 19 12 31t31 12q18 0 30 -11.5t12 -29.5q0 -19 -12.5 -31.5t-31.5 -12.5zM236 45q80 0 140 68l40 -30q-75 -87 -181 -87
q-86 0 -138 54t-52 147q0 122 70 207.5t181 85.5q53 0 99 -29.5t46 -91.5q0 -151 -344 -179q2 -68 40.5 -106.5t98.5 -38.5zM295 442q-74 0 -130 -58t-66 -150q289 23 289 132q0 41 -28.5 58.5t-64.5 17.5z" />
    <glyph glyph-name="igrave" unicode="&#xec;" horiz-adv-x="224" 
d="M119 563l-64 138h60l60 -138h-56zM56 0l59 485h52l-60 -485h-51z" />
    <glyph glyph-name="iacute" unicode="&#xed;" horiz-adv-x="223" 
d="M130 560l125 138h62l-129 -138h-58zM56 0l59 485h52l-60 -485h-51z" />
    <glyph glyph-name="icircumflex" unicode="&#xee;" horiz-adv-x="223" 
d="M18 558l123 140h51l93 -140h-55l-64 104h-1l-91 -104h-56zM56 0l59 485h52l-60 -485h-51z" />
    <glyph glyph-name="idieresis" unicode="&#xef;" horiz-adv-x="223" 
d="M84 591q-17 0 -28.5 12t-11.5 30q0 19 12 31t30 12q17 0 29 -11.5t12 -29.5q0 -19 -12.5 -31.5t-30.5 -12.5zM233 591q-17 0 -29 12t-12 30q0 19 12.5 31t30.5 12q17 0 28.5 -11.5t11.5 -29.5q0 -19 -12.5 -31.5t-29.5 -12.5zM56 0l59 485h52l-60 -485h-51z" />
    <glyph glyph-name="eth" unicode="&#xf0;" horiz-adv-x="540" 
d="M443 545q56 -101 56 -230q-1 -136 -69 -227.5t-188 -91.5q-90 0 -144 54t-54 146q0 119 71 203t179 84q84 0 141 -54q-12 51 -35 94q-25 45 -60 82l-65 -71l-29 26l65 72q-51 44 -109 68l22 39q65 -25 120 -71l75 83l31 -27l-77 -83q43 -44 70 -96zM242 45q66 0 113.5 40
t69.5 102t21 136q0 17 -2 47q-52 64 -141 64q-90 0 -148 -68t-58 -166q0 -72 39.5 -113.5t105.5 -41.5z" />
    <glyph glyph-name="ntilde" unicode="&#xf1;" horiz-adv-x="540" 
d="M401 572q-31 0 -75 39q-33 25 -50 25q-38 0 -64 -59l-36 17q36 87 96 87q30 0 68 -32t57 -32q38 0 62 60l35 -15q-17 -44 -42 -67t-51 -23zM51 0l61 485h52l-17 -132h2q37 63 92.5 100t113.5 37q147 0 121 -198l-39 -292h-52l38 289q20 152 -81 152q-69 0 -135.5 -70.5
t-78.5 -169.5l-24 -201h-53z" />
    <glyph glyph-name="ograve" unicode="&#xf2;" horiz-adv-x="539" 
d="M304 560l-96 138h61l91 -138h-56zM242 -5q-90 0 -144 54t-54 149q0 121 70.5 206.5t184.5 85.5q90 0 143 -52t53 -146q0 -128 -68.5 -212.5t-184.5 -84.5zM243 44q88 0 143.5 68.5t55.5 176.5q0 75 -40 114t-106 39q-86 0 -142.5 -69.5t-56.5 -170.5q0 -73 39.5 -115.5
t106.5 -42.5z" />
    <glyph glyph-name="oacute" unicode="&#xf3;" horiz-adv-x="539" 
d="M289 560l125 138h62l-129 -138h-58zM242 -5q-90 0 -144 54t-54 149q0 121 70.5 206.5t184.5 85.5q90 0 143 -52t53 -146q0 -128 -68.5 -212.5t-184.5 -84.5zM243 44q88 0 143.5 68.5t55.5 176.5q0 75 -40 114t-106 39q-86 0 -142.5 -69.5t-56.5 -170.5q0 -73 39.5 -115.5
t106.5 -42.5z" />
    <glyph glyph-name="ocircumflex" unicode="&#xf4;" horiz-adv-x="539" 
d="M183 558l123 140h51l93 -140h-55l-64 104h-1l-91 -104h-56zM242 -5q-90 0 -144 54t-54 149q0 121 70.5 206.5t184.5 85.5q90 0 143 -52t53 -146q0 -128 -68.5 -212.5t-184.5 -84.5zM243 44q88 0 143.5 68.5t55.5 176.5q0 75 -40 114t-106 39q-86 0 -142.5 -69.5
t-56.5 -170.5q0 -73 39.5 -115.5t106.5 -42.5z" />
    <glyph glyph-name="otilde" unicode="&#xf5;" horiz-adv-x="539" 
d="M391 572q-31 0 -75 39q-33 25 -50 25q-38 0 -64 -59l-36 17q36 87 96 87q30 0 68 -32t57 -32q38 0 62 60l35 -15q-17 -44 -42 -67t-51 -23zM242 -5q-90 0 -144 54t-54 149q0 121 70.5 206.5t184.5 85.5q90 0 143 -52t53 -146q0 -128 -68.5 -212.5t-184.5 -84.5zM243 44
q88 0 143.5 68.5t55.5 176.5q0 75 -40 114t-106 39q-86 0 -142.5 -69.5t-56.5 -170.5q0 -73 39.5 -115.5t106.5 -42.5z" />
    <glyph glyph-name="odieresis" unicode="&#xf6;" horiz-adv-x="539" 
d="M248 591q-18 0 -29.5 12t-11.5 30q0 19 12 31t30 12q19 0 31 -11.5t12 -29.5q0 -19 -12.5 -31.5t-31.5 -12.5zM400 591q-18 0 -29.5 12t-11.5 30q0 19 12 31t31 12q18 0 30 -11.5t12 -29.5q0 -19 -12.5 -31.5t-31.5 -12.5zM242 -5q-90 0 -144 54t-54 149
q0 121 70.5 206.5t184.5 85.5q90 0 143 -52t53 -146q0 -128 -68.5 -212.5t-184.5 -84.5zM243 44q88 0 143.5 68.5t55.5 176.5q0 75 -40 114t-106 39q-86 0 -142.5 -69.5t-56.5 -170.5q0 -73 39.5 -115.5t106.5 -42.5z" />
    <glyph glyph-name="divide" unicode="&#xf7;" horiz-adv-x="545" 
d="M310 426q-18 0 -29 12t-11 30q0 19 12 31t30 12t30 -11.5t12 -29.5q0 -19 -12.5 -31.5t-31.5 -12.5zM77 252l6 49h419l-6 -49h-419zM267 37q-18 0 -29 12t-11 30q0 19 12 31t30 12t30 -11.5t12 -29.5q0 -19 -12.5 -31.5t-31.5 -12.5z" />
    <glyph glyph-name="oslash" unicode="&#xf8;" horiz-adv-x="542" 
d="M520 471l-56 -58q32 -50 32 -121q0 -128 -68.5 -212.5t-184.5 -84.5q-85 0 -138 48l-57 -58l-28 25l60 62q-35 52 -35 126q0 121 70.5 206.5t184.5 85.5q87 0 138 -48l54 56zM98 202q0 -52 21 -90l283 292q-38 38 -105 38q-86 0 -142.5 -69.5t-56.5 -170.5zM443 289
q0 48 -18 84l-283 -291q40 -38 102 -38q88 0 143.5 68.5t55.5 176.5z" />
    <glyph glyph-name="ugrave" unicode="&#xf9;" horiz-adv-x="524" 
d="M283 560l-96 138h61l91 -138h-56zM193 -5q-156 0 -129 196l40 294h52l-39 -290q-12 -84 11.5 -117.5t76.5 -33.5q62 0 122.5 66.5t73.5 157.5l26 217h52l-59 -485h-53l17 130h-2q-33 -62 -83 -98.5t-106 -36.5z" />
    <glyph glyph-name="uacute" unicode="&#xfa;" horiz-adv-x="524" 
d="M263 560l125 138h62l-129 -138h-58zM193 -5q-156 0 -129 196l40 294h52l-39 -290q-12 -84 11.5 -117.5t76.5 -33.5q62 0 122.5 66.5t73.5 157.5l26 217h52l-59 -485h-53l17 130h-2q-33 -62 -83 -98.5t-106 -36.5z" />
    <glyph glyph-name="ucircumflex" unicode="&#xfb;" horiz-adv-x="524" 
d="M164 558l123 140h51l93 -140h-55l-64 104h-1l-91 -104h-56zM193 -5q-156 0 -129 196l40 294h52l-39 -290q-12 -84 11.5 -117.5t76.5 -33.5q62 0 122.5 66.5t73.5 157.5l26 217h52l-59 -485h-53l17 130h-2q-33 -62 -83 -98.5t-106 -36.5z" />
    <glyph glyph-name="udieresis" unicode="&#xfc;" horiz-adv-x="524" 
d="M229 591q-18 0 -29.5 12t-11.5 30q0 19 12 31t30 12q19 0 31 -11.5t12 -29.5q0 -19 -12.5 -31.5t-31.5 -12.5zM381 591q-18 0 -29.5 12t-11.5 30q0 19 12 31t31 12q18 0 30 -11.5t12 -29.5q0 -19 -12.5 -31.5t-31.5 -12.5zM193 -5q-156 0 -129 196l40 294h52l-39 -290
q-12 -84 11.5 -117.5t76.5 -33.5q62 0 122.5 66.5t73.5 157.5l26 217h52l-59 -485h-53l17 130h-2q-33 -62 -83 -98.5t-106 -36.5z" />
    <glyph glyph-name="yacute" unicode="&#xfd;" horiz-adv-x="521" 
d="M453 698l-129 -138h-58l125 138h62zM426 485h52l-52 -421q-18 -150 -83 -208t-164 -58q-84 0 -155 40l17 48q68 -40 139 -40q79 0 129.5 47.5t65.5 174.5l7 62l-2 1q-32 -62 -82.5 -99t-107.5 -37q-156 0 -129 196l40 294h52l-39 -290q-11 -84 12.5 -117t75.5 -34
q65 0 126 69.5t72 163.5z" />
    <glyph glyph-name="thorn" unicode="&#xfe;" horiz-adv-x="553" 
d="M27 -198l115 934h52l-48 -383l3 -1q72 138 196 138q77 0 120.5 -55t43.5 -139q0 -124 -69.5 -212.5t-180.5 -88.5q-97 0 -147 55l-2 -1l-31 -247h-52zM251 44q92 0 148.5 73t56.5 176q0 66 -31 107.5t-90 41.5q-78 0 -137 -75t-72 -180l-10 -81q21 -33 59.5 -47.5
t75.5 -14.5z" />
    <glyph glyph-name="ydieresis" unicode="&#xff;" horiz-adv-x="521" 
d="M228 591q-18 0 -29.5 12t-11.5 30q0 19 12 31t30 12q19 0 31 -11.5t12 -29.5q0 -19 -12.5 -31.5t-31.5 -12.5zM380 591q-18 0 -29.5 12t-11.5 30q0 19 12 31t31 12q18 0 30 -11.5t12 -29.5q0 -19 -12.5 -31.5t-31.5 -12.5zM426 485h52l-52 -421q-18 -150 -83 -208
t-164 -58q-84 0 -155 40l17 48q68 -40 139 -40q79 0 129.5 47.5t65.5 174.5l7 62l-2 1q-32 -62 -82.5 -99t-107.5 -37q-156 0 -129 196l40 294h52l-39 -290q-11 -84 12.5 -117t75.5 -34q65 0 126 69.5t72 163.5z" />
    <glyph glyph-name="Amacron" unicode="&#x100;" horiz-adv-x="606" 
d="M253 822l6 45h251l-6 -45h-251zM-1 0l330 710h60l159 -710h-58l-41 191h-304l-88 -191h-58zM167 242h272l-87 397h-2z" />
    <glyph glyph-name="amacron" unicode="&#x101;" horiz-adv-x="542" 
d="M217 608l6 46h251l-6 -46h-251zM212 -5q-79 0 -123 55t-44 139q0 124 69 212.5t179 88.5q97 0 145 -56l3 1l6 50h52l-59 -485h-52l16 132h-2q-35 -63 -83.5 -100t-106.5 -37zM219 43q76 0 134 76.5t72 183.5l10 77q-24 32 -64.5 47t-76.5 15q-87 0 -141.5 -75.5
t-54.5 -178.5q0 -65 31.5 -105t89.5 -40z" />
    <glyph glyph-name="Abreve" unicode="&#x102;" horiz-adv-x="606" 
d="M371 783q-55 0 -82.5 33t-22.5 91l43 -1q-3 -34 12 -56.5t51 -22.5q37 0 63 23.5t33 56.5l43 -1q-11 -55 -50 -89t-90 -34zM-1 0l330 710h60l159 -710h-58l-41 191h-304l-88 -191h-58zM167 242h272l-87 397h-2z" />
    <glyph glyph-name="abreve" unicode="&#x103;" horiz-adv-x="542" 
d="M334 557q-55 0 -82 35t-23 99h43q-7 -90 64 -90q38 0 63.5 25t31.5 65h43q-11 -63 -49 -98.5t-91 -35.5zM212 -5q-79 0 -123 55t-44 139q0 124 69 212.5t179 88.5q97 0 145 -56l3 1l6 50h52l-59 -485h-52l16 132h-2q-35 -63 -83.5 -100t-106.5 -37zM219 43q76 0 134 76.5
t72 183.5l10 77q-24 32 -64.5 47t-76.5 15q-87 0 -141.5 -75.5t-54.5 -178.5q0 -65 31.5 -105t89.5 -40z" />
    <glyph glyph-name="Aogonek" unicode="&#x104;" horiz-adv-x="606" 
d="M548 -133l2 -38q-26 -12 -61 -12q-38 0 -58 18.5t-19 52.5q3 59 77 116l-40 187h-304l-88 -191h-58l330 710h60l159 -710h-3q-85 -48 -87 -104q-1 -18 9.5 -29t31.5 -11q27 0 49 11zM167 242h272l-87 397h-2z" />
    <glyph glyph-name="aogonek" unicode="&#x105;" horiz-adv-x="542" 
d="M392 -144q27 0 49 11l2 -38q-25 -12 -61 -12q-38 0 -58 18.5t-19 52.5q3 63 84 121l15 123h-2q-35 -63 -83.5 -100t-106.5 -37q-79 0 -123 55t-44 139q0 124 69 212.5t179 88.5q97 0 145 -56l3 1l6 50h52l-59 -485h-2q-85 -48 -87 -104q-1 -18 9.5 -29t31.5 -11zM219 43
q76 0 134 76.5t72 183.5l10 77q-24 32 -64.5 47t-76.5 15q-87 0 -141.5 -75.5t-54.5 -178.5q0 -65 31.5 -105t89.5 -40z" />
    <glyph glyph-name="Cacute" unicode="&#x106;" horiz-adv-x="672" 
d="M420 788l123 127l61 1l-128 -128h-56zM346 -5q-124 0 -199 79.5t-75 219.5q0 111 45 207t128 155t186 59q150 0 244 -151l-48 -33q-40 69 -87 100t-110 31q-86 0 -156 -52.5t-107 -136t-37 -178.5q0 -114 58.5 -180t159.5 -66q55 0 111.5 26t99.5 74l42 -35
q-48 -55 -115.5 -87t-139.5 -32z" />
    <glyph glyph-name="cacute" unicode="&#x107;" horiz-adv-x="481" 
d="M283 560l125 138h62l-129 -138h-58zM231 -4q-80 0 -133 52.5t-53 146.5q0 124 70 209.5t185 85.5q110 0 163 -78l-42 -32q-40 62 -122 62q-90 0 -145.5 -70.5t-55.5 -172.5q0 -70 38.5 -112t97.5 -42q93 0 150 68l41 -30q-72 -87 -194 -87z" />
    <glyph glyph-name="Ccircumflex" unicode="&#x108;" horiz-adv-x="672" 
d="M327 788l126 118h52l90 -118h-54l-65 83h-3l-91 -83h-55zM346 -5q-124 0 -199 79.5t-75 219.5q0 111 45 207t128 155t186 59q150 0 244 -151l-48 -33q-40 69 -87 100t-110 31q-86 0 -156 -52.5t-107 -136t-37 -178.5q0 -114 58.5 -180t159.5 -66q55 0 111.5 26t99.5 74
l42 -35q-48 -55 -115.5 -87t-139.5 -32z" />
    <glyph glyph-name="ccircumflex" unicode="&#x109;" horiz-adv-x="481" 
d="M184 558l123 140h51l93 -140h-55l-64 104h-1l-91 -104h-56zM231 -4q-80 0 -133 52.5t-53 146.5q0 124 70 209.5t185 85.5q110 0 163 -78l-42 -32q-40 62 -122 62q-90 0 -145.5 -70.5t-55.5 -172.5q0 -70 38.5 -112t97.5 -42q93 0 150 68l41 -30q-72 -87 -194 -87z" />
    <glyph glyph-name="Cdotaccent" unicode="&#x10a;" horiz-adv-x="672" 
d="M469 810q-18 0 -29 12t-11 30q0 19 12 31t30 12t30 -11.5t12 -29.5q0 -19 -12.5 -31.5t-31.5 -12.5zM346 -5q-124 0 -199 79.5t-75 219.5q0 111 45 207t128 155t186 59q150 0 244 -151l-48 -33q-40 69 -87 100t-110 31q-86 0 -156 -52.5t-107 -136t-37 -178.5
q0 -114 58.5 -180t159.5 -66q55 0 111.5 26t99.5 74l42 -35q-48 -55 -115.5 -87t-139.5 -32z" />
    <glyph glyph-name="cdotaccent" unicode="&#x10b;" horiz-adv-x="481" 
d="M326 591q-18 0 -29 12t-11 30q0 19 12 31t30 12t30 -11.5t12 -29.5q0 -19 -12.5 -31.5t-31.5 -12.5zM231 -4q-80 0 -133 52.5t-53 146.5q0 124 70 209.5t185 85.5q110 0 163 -78l-42 -32q-40 62 -122 62q-90 0 -145.5 -70.5t-55.5 -172.5q0 -70 38.5 -112t97.5 -42
q93 0 150 68l41 -30q-72 -87 -194 -87z" />
    <glyph glyph-name="Ccaron" unicode="&#x10c;" horiz-adv-x="672" 
d="M436 788l-91 118h54l66 -83h2l91 83h55l-126 -118h-51zM346 -5q-124 0 -199 79.5t-75 219.5q0 111 45 207t128 155t186 59q150 0 244 -151l-48 -33q-40 69 -87 100t-110 31q-86 0 -156 -52.5t-107 -136t-37 -178.5q0 -114 58.5 -180t159.5 -66q55 0 111.5 26t99.5 74
l42 -35q-48 -55 -115.5 -87t-139.5 -32z" />
    <glyph glyph-name="ccaron" unicode="&#x10d;" horiz-adv-x="481" 
d="M289 559l-88 134h52l65 -98h2l92 98h54l-126 -134h-51zM231 -4q-80 0 -133 52.5t-53 146.5q0 124 70 209.5t185 85.5q110 0 163 -78l-42 -32q-40 62 -122 62q-90 0 -145.5 -70.5t-55.5 -172.5q0 -70 38.5 -112t97.5 -42q93 0 150 68l41 -30q-72 -87 -194 -87z" />
    <glyph glyph-name="Dcaron" unicode="&#x10e;" horiz-adv-x="671" 
d="M375 788l-91 118h54l66 -83h2l91 83h55l-126 -118h-51zM64 0l87 710h189q138 0 212 -77t74 -213q0 -186 -104 -303t-274 -117h-184zM126 52h125q141 0 229 103.5t88 263.5q0 112 -60 175.5t-172 63.5h-135z" />
    <glyph glyph-name="dcaron" unicode="&#x10f;" horiz-adv-x="592" 
d="M583 592l45 172h56l-60 -172h-41zM213 -5q-80 0 -124 54.5t-44 139.5q0 124 69.5 212.5t178.5 88.5q98 0 149 -57l2 1l37 302h52l-90 -736h-53l17 133l-2 1q-34 -64 -83.5 -101.5t-108.5 -37.5zM220 43q77 0 135.5 76.5t72.5 182.5l9 78q-23 33 -63.5 47.5t-78.5 14.5
q-87 0 -141.5 -75.5t-54.5 -178.5q0 -65 31.5 -105t89.5 -40z" />
    <glyph glyph-name="Dcroat" unicode="&#x110;" horiz-adv-x="671" 
d="M340 710q138 0 212 -77t74 -213q0 -186 -104 -303t-274 -117h-184l40 330h-74l7 51h74l40 329h189zM251 52q141 0 229 103.5t88 263.5q0 112 -60 175.5t-172 63.5h-135l-34 -277h174l-7 -51h-174l-34 -278h125z" />
    <glyph glyph-name="dcroat" unicode="&#x111;" horiz-adv-x="542" 
d="M575 619l-5 -40h-56l-71 -579h-53l17 133l-2 1q-34 -64 -83.5 -101.5t-108.5 -37.5q-80 0 -124 54.5t-44 139.5q0 124 69.5 212.5t178.5 88.5q98 0 149 -57l2 1l18 145h-202l5 40h202l14 117h52l-14 -117h56zM428 302l9 78q-23 33 -63.5 47.5t-78.5 14.5
q-87 0 -141.5 -75.5t-54.5 -178.5q0 -65 31.5 -105t89.5 -40q77 0 135.5 76.5t72.5 182.5z" />
    <glyph glyph-name="Emacron" unicode="&#x112;" horiz-adv-x="546" 
d="M243 824l6 45h251l-6 -45h-251zM64 0l87 710h384l-6 -52h-329l-34 -278h272l-5 -52h-273l-34 -276h347l-6 -52h-403z" />
    <glyph glyph-name="emacron" unicode="&#x113;" horiz-adv-x="466" 
d="M431 654l-6 -46h-251l6 46h251zM236 45q80 0 140 68l40 -30q-75 -87 -181 -87q-86 0 -138 54t-52 147q0 122 70 207.5t181 85.5q53 0 99 -29.5t46 -91.5q0 -151 -344 -179q2 -68 40.5 -106.5t98.5 -38.5zM295 442q-74 0 -130 -58t-66 -150q289 23 289 132
q0 41 -28.5 58.5t-64.5 17.5z" />
    <glyph glyph-name="Ebreve" unicode="&#x114;" horiz-adv-x="546" 
d="M361 785q-55 0 -82.5 33t-22.5 91l43 -1q-3 -34 12 -56.5t51 -22.5q37 0 63 23.5t33 56.5l43 -1q-11 -55 -50 -89t-90 -34zM64 0l87 710h384l-6 -52h-329l-34 -278h272l-5 -52h-273l-34 -276h347l-6 -52h-403z" />
    <glyph glyph-name="ebreve" unicode="&#x115;" horiz-adv-x="466" 
d="M291 557q-55 0 -82 35t-23 99h43q-7 -90 64 -90q38 0 63.5 25t31.5 65h43q-11 -63 -49 -98.5t-91 -35.5zM236 45q80 0 140 68l40 -30q-75 -87 -181 -87q-86 0 -138 54t-52 147q0 122 70 207.5t181 85.5q53 0 99 -29.5t46 -91.5q0 -151 -344 -179q2 -68 40.5 -106.5
t98.5 -38.5zM295 442q-74 0 -130 -58t-66 -150q289 23 289 132q0 41 -28.5 58.5t-64.5 17.5z" />
    <glyph glyph-name="Edotaccent" unicode="&#x116;" horiz-adv-x="546" 
d="M368 812q-18 0 -29 12t-11 30q0 19 12 31t30 12t30 -11.5t12 -29.5q0 -19 -12.5 -31.5t-31.5 -12.5zM64 0l87 710h384l-6 -52h-329l-34 -278h272l-5 -52h-273l-34 -276h347l-6 -52h-403z" />
    <glyph glyph-name="edotaccent" unicode="&#x117;" horiz-adv-x="466" 
d="M302 591q-18 0 -29 12t-11 30q0 19 12 31t30 12t30 -11.5t12 -29.5q0 -19 -12.5 -31.5t-31.5 -12.5zM236 45q80 0 140 68l40 -30q-75 -87 -181 -87q-86 0 -138 54t-52 147q0 122 70 207.5t181 85.5q53 0 99 -29.5t46 -91.5q0 -151 -344 -179q2 -68 40.5 -106.5
t98.5 -38.5zM295 442q-74 0 -130 -58t-66 -150q289 23 289 132q0 41 -28.5 58.5t-64.5 17.5z" />
    <glyph glyph-name="Eogonek" unicode="&#x118;" horiz-adv-x="546" 
d="M529 658h-329l-34 -278h272l-5 -52h-273l-34 -276h347l-6 -52h-2q-85 -48 -87 -104q-1 -18 9.5 -29t31.5 -11q27 0 49 11l2 -38q-26 -12 -61 -12q-38 0 -58 18.5t-19 52.5q3 58 72 112h-340l87 710h384z" />
    <glyph glyph-name="eogonek" unicode="&#x119;" horiz-adv-x="466" 
d="M236 45q80 0 140 68l40 -30q-52 -61 -115 -78q-42 -18 -72 -49.5t-30 -61.5q0 -38 42 -38q26 0 48 11l2 -38q-25 -12 -61 -12q-77 0 -77 66q0 64 69 112l-1 1q-80 5 -128 58.5t-48 142.5q0 122 70 207.5t181 85.5q53 0 99 -29.5t46 -91.5q0 -151 -344 -179
q2 -68 40.5 -106.5t98.5 -38.5zM295 442q-74 0 -130 -58t-66 -150q289 23 289 132q0 41 -28.5 58.5t-64.5 17.5z" />
    <glyph glyph-name="Ecaron" unicode="&#x11a;" horiz-adv-x="546" 
d="M335 790l-91 118h54l66 -83h2l91 83h55l-126 -118h-51zM64 0l87 710h384l-6 -52h-329l-34 -278h272l-5 -52h-273l-34 -276h347l-6 -52h-403z" />
    <glyph glyph-name="ecaron" unicode="&#x11b;" horiz-adv-x="466" 
d="M316 559h-51l-88 134h52l65 -98h2l92 98h54zM441 369q0 -151 -344 -179q2 -68 40.5 -106.5t98.5 -38.5q80 0 140 68l40 -30q-75 -87 -181 -87q-86 0 -138 54t-52 147q0 122 70 207.5t181 85.5q53 0 99 -29.5t46 -91.5zM99 234q289 23 289 132q0 41 -28.5 58.5t-64.5 17.5
q-74 0 -130 -58t-66 -150z" />
    <glyph glyph-name="Gcircumflex" unicode="&#x11c;" horiz-adv-x="706" 
d="M311 788l126 118h52l90 -118h-54l-65 83h-3l-91 -83h-55zM352 -5q-129 0 -204.5 79t-75.5 219q0 172 102.5 297t257.5 125q143 0 231 -113l-45 -36q-75 96 -189 96q-85 0 -154.5 -51.5t-106.5 -135.5t-37 -181q0 -115 58.5 -180.5t164.5 -65.5q116 0 202 69l23 185h-208
l6 52h264l-33 -267q-49 -45 -117.5 -68.5t-138.5 -23.5z" />
    <glyph glyph-name="gcircumflex" unicode="&#x11d;" horiz-adv-x="544" 
d="M191 558l123 140h51l93 -140h-55l-64 104h-1l-91 -104h-56zM184 -202q-89 0 -160 40l17 49q69 -40 146 -40q89 0 141 46.5t68 175.5l10 79h-2q-34 -62 -84 -100t-109 -38q-79 0 -122.5 55t-43.5 140q0 113 69.5 199t177.5 86q98 0 147 -55l2 1l6 49h52l-51 -420
q-10 -79 -33.5 -133.5t-60 -82.5t-77 -39.5t-93.5 -11.5zM219 58q73 0 132.5 71.5t71.5 164.5l11 86q-24 32 -64 46.5t-76 14.5q-86 0 -141 -72.5t-55 -165.5q0 -65 31.5 -105t89.5 -40z" />
    <glyph glyph-name="Gbreve" unicode="&#x11e;" horiz-adv-x="706" 
d="M446 783q-55 0 -82.5 33t-22.5 91l43 -1q-3 -34 12 -56.5t51 -22.5q37 0 63 23.5t33 56.5l43 -1q-11 -55 -50 -89t-90 -34zM352 -5q-129 0 -204.5 79t-75.5 219q0 172 102.5 297t257.5 125q143 0 231 -113l-45 -36q-75 96 -189 96q-85 0 -154.5 -51.5t-106.5 -135.5
t-37 -181q0 -115 58.5 -180.5t164.5 -65.5q116 0 202 69l23 185h-208l6 52h264l-33 -267q-49 -45 -117.5 -68.5t-138.5 -23.5z" />
    <glyph glyph-name="gbreve" unicode="&#x11f;" horiz-adv-x="544" 
d="M322 557q-55 0 -82 35t-23 99h43q-7 -90 64 -90q38 0 63.5 25t31.5 65h43q-11 -63 -49 -98.5t-91 -35.5zM184 -202q-89 0 -160 40l17 49q69 -40 146 -40q89 0 141 46.5t68 175.5l10 79h-2q-34 -62 -84 -100t-109 -38q-79 0 -122.5 55t-43.5 140q0 113 69.5 199t177.5 86
q98 0 147 -55l2 1l6 49h52l-51 -420q-10 -79 -33.5 -133.5t-60 -82.5t-77 -39.5t-93.5 -11.5zM219 58q73 0 132.5 71.5t71.5 164.5l11 86q-24 32 -64 46.5t-76 14.5q-86 0 -141 -72.5t-55 -165.5q0 -65 31.5 -105t89.5 -40z" />
    <glyph glyph-name="Gdotaccent" unicode="&#x120;" horiz-adv-x="706" 
d="M453 810q-18 0 -29 12t-11 30q0 19 12 31t30 12t30 -11.5t12 -29.5q0 -19 -12.5 -31.5t-31.5 -12.5zM352 -5q-129 0 -204.5 79t-75.5 219q0 172 102.5 297t257.5 125q143 0 231 -113l-45 -36q-75 96 -189 96q-85 0 -154.5 -51.5t-106.5 -135.5t-37 -181
q0 -115 58.5 -180.5t164.5 -65.5q116 0 202 69l23 185h-208l6 52h264l-33 -267q-49 -45 -117.5 -68.5t-138.5 -23.5z" />
    <glyph glyph-name="gdotaccent" unicode="&#x121;" horiz-adv-x="544" 
d="M333 591q-18 0 -29 12t-11 30q0 19 12 31t30 12t30 -11.5t12 -29.5q0 -19 -12.5 -31.5t-31.5 -12.5zM184 -202q-89 0 -160 40l17 49q69 -40 146 -40q89 0 141 46.5t68 175.5l10 79h-2q-34 -62 -84 -100t-109 -38q-79 0 -122.5 55t-43.5 140q0 113 69.5 199t177.5 86
q98 0 147 -55l2 1l6 49h52l-51 -420q-10 -79 -33.5 -133.5t-60 -82.5t-77 -39.5t-93.5 -11.5zM219 58q73 0 132.5 71.5t71.5 164.5l11 86q-24 32 -64 46.5t-76 14.5q-86 0 -141 -72.5t-55 -165.5q0 -65 31.5 -105t89.5 -40z" />
    <glyph glyph-name="Gcommaaccent" unicode="&#x122;" horiz-adv-x="706" 
d="M352 -5q-129 0 -204.5 79t-75.5 219q0 172 102.5 297t257.5 125q143 0 231 -113l-45 -36q-75 96 -189 96q-85 0 -154.5 -51.5t-106.5 -135.5t-37 -181q0 -115 58.5 -180.5t164.5 -65.5q116 0 202 69l23 185h-208l6 52h264l-33 -267q-49 -45 -117.5 -68.5t-138.5 -23.5z
M256 -206l-9 34q36 6 52 28.5t16 69.5q0 12 -1 20h47q0 -1 0.5 -7.5t0.5 -14.5q0 -121 -106 -130z" />
    <glyph glyph-name="gcommaaccent" unicode="&#x123;" horiz-adv-x="544" 
d="M413 706l9 -34q-36 -6 -52 -28.5t-16 -69.5q0 -12 1 -20h-47q0 1 -0.5 7.5t-0.5 14.5q0 121 106 130zM184 -202q-89 0 -160 40l17 49q69 -40 146 -40q89 0 141 46.5t68 175.5l10 79h-2q-34 -62 -84 -100t-109 -38q-79 0 -122.5 55t-43.5 140q0 113 69.5 199t177.5 86
q98 0 147 -55l2 1l6 49h52l-51 -420q-10 -79 -33.5 -133.5t-60 -82.5t-77 -39.5t-93.5 -11.5zM219 58q73 0 132.5 71.5t71.5 164.5l11 86q-24 32 -64 46.5t-76 14.5q-86 0 -141 -72.5t-55 -165.5q0 -65 31.5 -105t89.5 -40z" />
    <glyph glyph-name="Hcircumflex" unicode="&#x124;" horiz-adv-x="668" 
d="M269 788l126 118h52l90 -118h-54l-65 83h-3l-91 -83h-55zM64 0l87 710h56l-43 -348h370l42 348h56l-87 -710h-56l38 310h-369l-38 -310h-56z" />
    <glyph glyph-name="hcircumflex" unicode="&#x125;" horiz-adv-x="540" 
d="M162 800l126 118h52l90 -118h-54l-65 83h-3l-91 -83h-55zM51 0l91 736h52l-48 -386l2 -1q36 65 92 103t115 38q147 0 121 -198l-39 -292h-52l38 289q20 153 -81 153q-69 0 -135.5 -72t-78.5 -169l-24 -201h-53z" />
    <glyph glyph-name="Hbar" unicode="&#x126;" horiz-adv-x="666" 
d="M671 576l-5 -42h-55l-65 -534h-56l38 310h-369l-38 -310h-56l65 534h-60l5 42h61l16 134h56l-17 -134h370l16 134h56l-16 -134h54zM535 362l21 172h-370l-21 -172h370z" />
    <glyph glyph-name="hbar" unicode="&#x127;" horiz-adv-x="540" 
d="M355 490q147 0 121 -198l-39 -292h-52l38 289q20 153 -81 153q-69 0 -135.5 -72t-78.5 -169l-24 -201h-53l72 579h-76l5 40h76l14 117h52l-15 -117h191l-5 -40h-191l-28 -229l2 -1q36 65 92 103t115 38z" />
    <glyph glyph-name="Itilde" unicode="&#x128;" horiz-adv-x="255" 
d="M271 788q-30 0 -75 38q-33 26 -51 26q-37 0 -63 -59l-36 17q37 84 95 84q33 0 69 -32q2 -2 9 -7.5t10 -7.5t9 -6.5t10 -6t9 -3t10 -1.5q38 0 62 60l35 -15q-17 -42 -42 -64.5t-51 -22.5zM70 0l87 710h56l-87 -710h-56z" />
    <glyph glyph-name="itilde" unicode="&#x129;" horiz-adv-x="223" 
d="M224 573q-29 0 -71 38q-29 25 -50 25q-37 0 -62 -58l-34 17q36 84 93 84q29 0 68 -31q2 -2 10 -9t11.5 -9.5t10 -7t12 -6t11.5 -1.5q35 0 60 60l33 -15q-17 -42 -41.5 -64.5t-50.5 -22.5zM56 0l59 485h52l-60 -485h-51z" />
    <glyph glyph-name="Imacron" unicode="&#x12a;" horiz-adv-x="255" 
d="M76 822l6 45h251l-6 -45h-251zM70 0l87 710h56l-87 -710h-56z" />
    <glyph glyph-name="imacron" unicode="&#x12b;" horiz-adv-x="223" 
d="M32 608l6 46h251l-6 -46h-251zM56 0l59 485h52l-60 -485h-51z" />
    <glyph glyph-name="Ibreve" unicode="&#x12c;" horiz-adv-x="255" 
d="M194 783q-55 0 -82.5 33t-22.5 91l43 -1q-3 -34 12 -56.5t51 -22.5q37 0 63 23.5t33 56.5l43 -1q-11 -55 -50 -89t-90 -34zM70 0l87 710h56l-87 -710h-56z" />
    <glyph glyph-name="ibreve" unicode="&#x12d;" horiz-adv-x="223" 
d="M154 558q-47 0 -74.5 35.5t-23.5 97.5h42q-4 -42 10 -67t47 -25q35 0 55.5 25.5t25.5 66.5h43q-10 -62 -44 -97.5t-81 -35.5zM56 0l59 485h52l-60 -485h-51z" />
    <glyph glyph-name="Iogonek" unicode="&#x12e;" horiz-adv-x="255" 
d="M78 -144q27 0 49 11l2 -38q-26 -12 -61 -12q-38 0 -58 18.5t-19 52.5q3 62 80 118l86 704h56l-87 -710h-2q-85 -48 -87 -104q-1 -18 9.5 -29t31.5 -11z" />
    <glyph glyph-name="iogonek" unicode="&#x12f;" horiz-adv-x="223" 
d="M162 676q18 0 30 -11.5t12 -29.5q0 -19 -12.5 -31.5t-31.5 -12.5q-18 0 -29 12t-11 30q0 19 12 31t30 12zM105 0q-85 -48 -87 -104q-1 -18 9.5 -29t31.5 -11q27 0 49 11l2 -38q-26 -12 -61 -12q-38 0 -58 18.5t-19 52.5q3 66 85 121l58 476h52l-60 -485h-2z" />
    <glyph glyph-name="Idotaccent" unicode="&#x130;" horiz-adv-x="255" 
d="M201 810q-18 0 -29 12t-11 30q0 19 12 31t30 12t30 -11.5t12 -29.5q0 -19 -12.5 -31.5t-31.5 -12.5zM70 0l87 710h56l-87 -710h-56z" />
    <glyph glyph-name="dotlessi" unicode="&#x131;" horiz-adv-x="223" 
d="M56 0l59 485h52l-60 -485h-51z" />
    <glyph glyph-name="IJ" unicode="&#x132;" horiz-adv-x="707" 
d="M70 0l87 710h56l-87 -710h-56zM421 -5q-44 0 -86.5 24.5t-69.5 69.5l38 40q49 -80 118 -80q127 0 147 179l59 482h56l-59 -485q-14 -117 -64 -173.5t-139 -56.5z" />
    <glyph glyph-name="ij" unicode="&#x133;" horiz-adv-x="411" 
d="M160 591q-18 0 -29 12t-11 30q0 19 12 31t30 12t30 -11.5t12 -29.5q0 -19 -12.5 -31.5t-31.5 -12.5zM360 591q-18 0 -29 12t-11 30q0 19 12 31t30 12t30 -11.5t12 -29.5q0 -19 -12.5 -31.5t-31.5 -12.5zM56 0l59 485h52l-60 -485h-51zM178 -202q-38 0 -66 17l13 45
q22 -16 49 -16q30 0 49.5 23t26.5 83l66 535h52l-67 -541q-16 -146 -123 -146z" />
    <glyph glyph-name="Jcircumflex" unicode="&#x134;" horiz-adv-x="452" 
d="M274 788l126 118h52l90 -118h-54l-65 83h-3l-91 -83h-55zM166 -5q-44 0 -86.5 24.5t-69.5 69.5l38 40q49 -80 118 -80q127 0 147 179l59 482h56l-59 -485q-14 -117 -64 -173.5t-139 -56.5z" />
    <glyph glyph-name="jcircumflex" unicode="&#x135;" horiz-adv-x="188" 
d="M-5 558l123 140h51l93 -140h-55l-64 104h-1l-91 -104h-56zM-45 -202q-38 0 -66 17l13 45q22 -16 49 -16q30 0 49.5 23t26.5 83l66 535h52l-67 -541q-16 -146 -123 -146z" />
    <glyph glyph-name="Kcommaaccent" unicode="&#x136;" horiz-adv-x="588" 
d="M607 710l-287 -324l205 -386h-65l-181 345l-136 -152l-23 -193h-56l87 710h56l-53 -430l2 -1l380 431h71zM238 -54h47q0 -1 0.5 -7.5t0.5 -14.5q0 -121 -106 -130l-9 34q36 6 52 28.5t16 69.5q0 12 -1 20z" />
    <glyph glyph-name="kcommaaccent" unicode="&#x137;" horiz-adv-x="481" 
d="M408 -4q-11 -2 -22 2q-21 4 -38.5 23.5t-26 37.5t-27.5 62l-35 81q-71 -58 -143 -93l-13 -109h-52l91 736h52l-70 -567l2 -1q100 56 176.5 143t104.5 174h53q-34 -127 -160 -248l43 -99q25 -58 40.5 -76.5t39.5 -22.5zM124 -206l-9 34q36 6 52 28.5t16 69.5q0 12 -1 20
h47q0 -1 0.5 -7.5t0.5 -14.5q0 -121 -106 -130z" />
    <glyph glyph-name="kgreenlandic" unicode="&#x138;" horiz-adv-x="481" 
d="M408 -4q-16 0 -22 2q-21 4 -38.5 23.5t-26 37.5t-27.5 62l-35 81q-71 -58 -143 -93l-13 -109h-52l60 485h52l-39 -315l3 -2q100 56 176 143t104 174h53q-34 -127 -160 -248l43 -99q25 -58 40.5 -76.5t39.5 -22.5z" />
    <glyph glyph-name="Lacute" unicode="&#x139;" horiz-adv-x="509" 
d="M248 788l123 127l61 1l-128 -128h-56zM64 0l87 710h56l-81 -658h332l-6 -52h-388z" />
    <glyph glyph-name="lacute" unicode="&#x13a;" horiz-adv-x="218" 
d="M157 801l123 127l61 1l-128 -128h-56zM56 0l90 736h53l-91 -736h-52z" />
    <glyph glyph-name="Lcommaaccent" unicode="&#x13b;" horiz-adv-x="509" 
d="M64 0l87 710h56l-81 -658h332l-6 -52h-388zM164 -206l-9 34q36 6 52 28.5t16 69.5q0 12 -1 20h47q0 -1 0.5 -7.5t0.5 -14.5q0 -121 -106 -130z" />
    <glyph glyph-name="lcommaaccent" unicode="&#x13c;" horiz-adv-x="218" 
d="M56 0l90 736h53l-91 -736h-52zM-6 -206l-9 34q36 6 52 28.5t16 69.5q0 12 -1 20h47q0 -1 0.5 -7.5t0.5 -14.5q0 -121 -106 -130z" />
    <glyph glyph-name="Lcaron" unicode="&#x13d;" horiz-adv-x="509" 
d="M290 592l45 172h55l-59 -172h-41zM64 0l87 710h56l-81 -658h332l-6 -52h-388z" />
    <glyph glyph-name="lcaron" unicode="&#x13e;" horiz-adv-x="261" 
d="M253 592l46 172h55l-59 -172h-42zM56 0l90 736h53l-91 -736h-52z" />
    <glyph glyph-name="Ldot" unicode="&#x13f;" horiz-adv-x="509" 
d="M64 0l87 710h56l-81 -658h332l-6 -52h-388zM371 296q-19 0 -30.5 12t-11.5 30t12 30.5t31 12.5q18 0 30 -12t12 -30t-12.5 -30.5t-30.5 -12.5z" />
    <glyph glyph-name="ldot" unicode="&#x140;" horiz-adv-x="290" 
d="M56 0l90 736h53l-91 -736h-52zM257 223q-19 0 -30.5 12t-11.5 30t12 30.5t31 12.5q18 0 30 -12t12 -30t-12.5 -30.5t-30.5 -12.5z" />
    <glyph glyph-name="Lslash" unicode="&#x141;" horiz-adv-x="519" 
d="M136 52h332l-6 -52h-388l36 294l-91 -39l8 50l89 39l45 366h56l-42 -340l107 47l-7 -51l-106 -46z" />
    <glyph glyph-name="lslash" unicode="&#x142;" horiz-adv-x="242" 
d="M244 391l-6 -47l-80 -33l-38 -311h-52l35 288l-77 -32l6 47l77 32l49 401h53l-47 -378z" />
    <glyph glyph-name="Nacute" unicode="&#x143;" horiz-adv-x="697" 
d="M343 788l123 127l61 1l-128 -128h-56zM64 0l87 710h54l323 -614l2 1l75 613h55l-87 -710h-56l-320 609h-3l-74 -609h-56z" />
    <glyph glyph-name="nacute" unicode="&#x144;" horiz-adv-x="540" 
d="M273 560l125 138h62l-129 -138h-58zM51 0l61 485h52l-17 -132h2q37 63 92.5 100t113.5 37q147 0 121 -198l-39 -292h-52l38 289q20 152 -81 152q-69 0 -135.5 -70.5t-78.5 -169.5l-24 -201h-53z" />
    <glyph glyph-name="Ncommaaccent" unicode="&#x145;" horiz-adv-x="697" 
d="M64 0l87 710h54l323 -614l2 1l75 613h55l-87 -710h-56l-320 609h-3l-74 -609h-56zM227 -206l-9 34q36 6 52 28.5t16 69.5q0 12 -1 20h47q0 -1 0.5 -7.5t0.5 -14.5q0 -121 -106 -130z" />
    <glyph glyph-name="ncommaaccent" unicode="&#x146;" horiz-adv-x="540" 
d="M51 0l61 485h52l-17 -132h2q37 63 92.5 100t113.5 37q147 0 121 -198l-39 -292h-52l38 289q20 152 -81 152q-69 0 -135.5 -70.5t-78.5 -169.5l-24 -201h-53zM152 -206l-9 34q36 6 52 28.5t16 69.5q0 12 -1 20h47q0 -1 0.5 -7.5t0.5 -14.5q0 -121 -106 -130z" />
    <glyph glyph-name="Ncaron" unicode="&#x147;" horiz-adv-x="697" 
d="M392 788l-91 118h54l66 -83h2l91 83h55l-126 -118h-51zM64 0l87 710h54l323 -614l2 1l75 613h55l-87 -710h-56l-320 609h-3l-74 -609h-56z" />
    <glyph glyph-name="ncaron" unicode="&#x148;" horiz-adv-x="540" 
d="M298 559l-88 134h52l65 -98h2l92 98h54l-126 -134h-51zM51 0l61 485h52l-17 -132h2q37 63 92.5 100t113.5 37q147 0 121 -198l-39 -292h-52l38 289q20 152 -81 152q-69 0 -135.5 -70.5t-78.5 -169.5l-24 -201h-53z" />
    <glyph glyph-name="napostrophe" unicode="&#x149;" horiz-adv-x="640" 
d="M51 529l45 181h55l-59 -181h-41zM151 0l61 485h52l-17 -132h2q37 63 92.5 100t113.5 37q147 0 121 -198l-39 -292h-52l38 289q20 152 -81 152q-69 0 -135.5 -70.5t-78.5 -169.5l-24 -201h-53z" />
    <glyph glyph-name="Eng" unicode="&#x14a;" horiz-adv-x="697" 
d="M605 710h55l-89 -726q-12 -98 -56.5 -142t-123.5 -44q-26 0 -62 9l7 48q26 -8 55 -8q54 0 84.5 30t39.5 107l2 17l-320 608h-3l-74 -609h-56l87 710h54l323 -614l2 1z" />
    <glyph glyph-name="eng" unicode="&#x14b;" horiz-adv-x="537" 
d="M261 -202q-26 0 -49 8l9 43q17 -6 37 -6q51 0 81.5 35t42.5 129l37 282q11 83 -10.5 117.5t-70.5 34.5q-68 0 -132.5 -70.5t-76.5 -168.5l-25 -202h-52l60 485h52l-16 -131l2 -1q35 63 89.5 100t112.5 37q146 0 120 -198l-38 -292q-14 -107 -56 -154.5t-117 -47.5z" />
    <glyph glyph-name="Omacron" unicode="&#x14c;" horiz-adv-x="755" 
d="M345 822l6 45h251l-6 -45h-251zM349 -5q-127 0 -203 79t-76 218q0 112 44.5 208t129 155.5t190.5 59.5q127 0 203 -78t76 -218q0 -176 -100.5 -300t-263.5 -124zM352 48q134 0 218 109t84 261q0 118 -59.5 181.5t-165.5 63.5q-131 0 -216 -111t-85 -259q0 -116 60 -180.5
t164 -64.5z" />
    <glyph glyph-name="omacron" unicode="&#x14d;" horiz-adv-x="539" 
d="M197 608l6 46h251l-6 -46h-251zM242 -5q-90 0 -144 54t-54 149q0 121 70.5 206.5t184.5 85.5q90 0 143 -52t53 -146q0 -128 -68.5 -212.5t-184.5 -84.5zM243 44q88 0 143.5 68.5t55.5 176.5q0 75 -40 114t-106 39q-86 0 -142.5 -69.5t-56.5 -170.5q0 -73 39.5 -115.5
t106.5 -42.5z" />
    <glyph glyph-name="Obreve" unicode="&#x14e;" horiz-adv-x="755" 
d="M463 783q-55 0 -82.5 33t-22.5 91l43 -1q-3 -34 12 -56.5t51 -22.5q37 0 63 23.5t33 56.5l43 -1q-11 -55 -50 -89t-90 -34zM349 -5q-127 0 -203 79t-76 218q0 112 44.5 208t129 155.5t190.5 59.5q127 0 203 -78t76 -218q0 -176 -100.5 -300t-263.5 -124zM352 48
q134 0 218 109t84 261q0 118 -59.5 181.5t-165.5 63.5q-131 0 -216 -111t-85 -259q0 -116 60 -180.5t164 -64.5z" />
    <glyph glyph-name="obreve" unicode="&#x14f;" horiz-adv-x="539" 
d="M314 557q-55 0 -82 35t-23 99h43q-7 -90 64 -90q38 0 63.5 25t31.5 65h43q-11 -63 -49 -98.5t-91 -35.5zM242 -5q-90 0 -144 54t-54 149q0 121 70.5 206.5t184.5 85.5q90 0 143 -52t53 -146q0 -128 -68.5 -212.5t-184.5 -84.5zM243 44q88 0 143.5 68.5t55.5 176.5
q0 75 -40 114t-106 39q-86 0 -142.5 -69.5t-56.5 -170.5q0 -73 39.5 -115.5t106.5 -42.5z" />
    <glyph glyph-name="Ohungarumlaut" unicode="&#x150;" horiz-adv-x="755" 
d="M367 783l124 138h59l-129 -138h-54zM504 783l123 138h59l-129 -138h-53zM349 -5q-127 0 -203 79t-76 218q0 112 44.5 208t129 155.5t190.5 59.5q127 0 203 -78t76 -218q0 -176 -100.5 -300t-263.5 -124zM352 48q134 0 218 109t84 261q0 118 -59.5 181.5t-165.5 63.5
q-131 0 -216 -111t-85 -259q0 -116 60 -180.5t164 -64.5z" />
    <glyph glyph-name="ohungarumlaut" unicode="&#x151;" horiz-adv-x="539" 
d="M222 560l124 138h59l-129 -138h-54zM359 560l123 138h59l-129 -138h-53zM242 -5q-90 0 -144 54t-54 149q0 121 70.5 206.5t184.5 85.5q90 0 143 -52t53 -146q0 -128 -68.5 -212.5t-184.5 -84.5zM243 44q88 0 143.5 68.5t55.5 176.5q0 75 -40 114t-106 39
q-86 0 -142.5 -69.5t-56.5 -170.5q0 -73 39.5 -115.5t106.5 -42.5z" />
    <glyph glyph-name="OE" unicode="&#x152;" horiz-adv-x="866" 
d="M850 658h-328l-35 -278h272l-6 -52h-271l-35 -276h346l-5 -52h-442q-127 0 -201 79.5t-74 216.5q0 111 44 205t127.5 151.5t188.5 57.5h424zM392 53l75 604h-42q-85 0 -154 -50t-105.5 -132t-36.5 -178q0 -115 58.5 -179.5t162.5 -64.5h42z" />
    <glyph glyph-name="oe" unicode="&#x153;" horiz-adv-x="736" 
d="M538 45q29 0 63 17t60 51l41 -30q-32 -41 -76 -64t-89 -23q-61 0 -103 33t-59 93h-1q-28 -58 -74.5 -92t-104.5 -34q-73 0 -117.5 52.5t-44.5 143.5q0 126 65 212t164 86q54 0 91.5 -32.5t50.5 -93.5h2q30 60 81 93t114 33q56 0 91 -29t35 -79q0 -55 -46 -98
t-112.5 -66.5t-154.5 -38.5q4 -64 37.5 -99t86.5 -35zM367 273q4 78 -24.5 123t-82.5 45q-73 0 -123.5 -72t-50.5 -175q0 -72 31.5 -110.5t81.5 -38.5q66 0 114.5 65t53.5 163zM597 441q-72 0 -123 -60t-59 -157q259 49 259 154q0 33 -23.5 48t-53.5 15z" />
    <glyph glyph-name="Racute" unicode="&#x154;" horiz-adv-x="593" 
d="M283 788l123 127l61 1l-128 -128h-56zM64 0l87 710h222q90 0 135.5 -45.5t45.5 -128.5q0 -97 -51 -162t-143 -80l145 -294h-63l-140 288h-147l-35 -288h-56zM161 339h148q87 0 136.5 53.5t49.5 143.5q0 61 -36 91.5t-97 30.5h-162z" />
    <glyph glyph-name="racute" unicode="&#x155;" horiz-adv-x="302" 
d="M159 560l125 138h62l-129 -138h-58zM52 0l59 485h52l-15 -126h2q59 111 168 131l-7 -62q-73 -7 -122 -69t-61 -157l-24 -202h-52z" />
    <glyph glyph-name="Rcommaaccent" unicode="&#x156;" horiz-adv-x="593" 
d="M64 0l87 710h222q90 0 135.5 -45.5t45.5 -128.5q0 -97 -51 -162t-143 -80l145 -294h-63l-140 288h-147l-35 -288h-56zM161 339h148q87 0 136.5 53.5t49.5 143.5q0 61 -36 91.5t-97 30.5h-162zM170 -206l-9 34q36 6 52 28.5t16 69.5q0 12 -1 20h47q0 -1 0.5 -7.5
t0.5 -14.5q0 -121 -106 -130z" />
    <glyph glyph-name="rcommaaccent" unicode="&#x157;" horiz-adv-x="301" 
d="M52 0l59 485h52l-15 -126h2q59 111 168 131l-7 -62q-73 -7 -122 -69t-61 -157l-24 -202h-52zM-11 -206l-9 34q36 6 52 28.5t16 69.5q0 12 -1 20h47q0 -1 0.5 -7.5t0.5 -14.5q0 -121 -106 -130z" />
    <glyph glyph-name="Rcaron" unicode="&#x158;" horiz-adv-x="593" 
d="M332 788l-91 118h54l66 -83h2l91 83h55l-126 -118h-51zM64 0l87 710h222q90 0 135.5 -45.5t45.5 -128.5q0 -97 -51 -162t-143 -80l145 -294h-63l-140 288h-147l-35 -288h-56zM161 339h148q87 0 136.5 53.5t49.5 143.5q0 61 -36 91.5t-97 30.5h-162z" />
    <glyph glyph-name="rcaron" unicode="&#x159;" horiz-adv-x="301" 
d="M203 559l-88 134h52l65 -98h2l92 98h54l-126 -134h-51zM52 0l59 485h52l-15 -126h2q59 111 168 131l-7 -62q-73 -7 -122 -69t-61 -157l-24 -202h-52z" />
    <glyph glyph-name="Sacute" unicode="&#x15a;" horiz-adv-x="538" 
d="M313 788l123 127l61 1l-128 -128h-56zM255 -5q-67 0 -128 30t-98 86l42 37q64 -100 181 -100q74 0 120.5 39.5t46.5 103.5q0 10 -2.5 20t-5 17.5t-10 16.5t-12 14.5t-16 14t-17 13t-20.5 13.5t-21 12.5t-23.5 13.5t-23.5 13q-35 19 -50.5 28t-44 29.5t-41.5 37t-24 42
t-11 54.5q0 83 59.5 134t152.5 51q55 0 106 -23t86 -64l-40 -37q-60 72 -156 72q-65 0 -107.5 -35.5t-42.5 -91.5q0 -20 9 -38.5t17.5 -30t32.5 -28t35 -23t44 -25.5q4 -2 30 -16.5t31.5 -18t27 -17t27.5 -19.5t21.5 -19t20.5 -22.5t13.5 -23t11 -28t2.5 -30.5
q0 -93 -62.5 -147.5t-160.5 -54.5z" />
    <glyph glyph-name="sacute" unicode="&#x15b;" horiz-adv-x="403" 
d="M209 560l125 138h62l-129 -138h-58zM179 -5q-104 0 -165 73l34 36q54 -61 131 -61q51 0 84 23t33 63q0 9 -1.5 16.5t-6.5 15t-8.5 12.5t-12 11t-13.5 9.5t-17 9.5l-17 8.5t-20 9t-19 8.5q-55 23 -86 52t-31 77q0 60 45 96t109 36q89 0 145 -61l-35 -36q-46 51 -113 51
q-42 0 -70 -23t-28 -61q0 -29 24.5 -49t69.5 -40q2 -1 19 -8.5t20 -9t18 -9.5t19 -11t16 -11t16 -13.5t11.5 -14.5t10.5 -17.5t5.5 -19t2.5 -22.5q1 -66 -48 -103t-122 -37z" />
    <glyph glyph-name="Scircumflex" unicode="&#x15c;" horiz-adv-x="538" 
d="M190 788l126 118h52l90 -118h-54l-65 83h-3l-91 -83h-55zM255 -5q-67 0 -128 30t-98 86l42 37q64 -100 181 -100q74 0 120.5 39.5t46.5 103.5q0 10 -2.5 20t-5 17.5t-10 16.5t-12 14.5t-16 14t-17 13t-20.5 13.5t-21 12.5t-23.5 13.5t-23.5 13q-35 19 -50.5 28t-44 29.5
t-41.5 37t-24 42t-11 54.5q0 83 59.5 134t152.5 51q55 0 106 -23t86 -64l-40 -37q-60 72 -156 72q-65 0 -107.5 -35.5t-42.5 -91.5q0 -20 9 -38.5t17.5 -30t32.5 -28t35 -23t44 -25.5q4 -2 30 -16.5t31.5 -18t27 -17t27.5 -19.5t21.5 -19t20.5 -22.5t13.5 -23t11 -28
t2.5 -30.5q0 -93 -62.5 -147.5t-160.5 -54.5z" />
    <glyph glyph-name="scircumflex" unicode="&#x15d;" horiz-adv-x="403" 
d="M108 558l123 140h51l93 -140h-55l-64 104h-1l-91 -104h-56zM179 -5q-104 0 -165 73l34 36q54 -61 131 -61q51 0 84 23t33 63q0 9 -1.5 16.5t-6.5 15t-8.5 12.5t-12 11t-13.5 9.5t-17 9.5l-17 8.5t-20 9t-19 8.5q-55 23 -86 52t-31 77q0 60 45 96t109 36q89 0 145 -61
l-35 -36q-46 51 -113 51q-42 0 -70 -23t-28 -61q0 -29 24.5 -49t69.5 -40q2 -1 19 -8.5t20 -9t18 -9.5t19 -11t16 -11t16 -13.5t11.5 -14.5t10.5 -17.5t5.5 -19t2.5 -22.5q1 -66 -48 -103t-122 -37z" />
    <glyph glyph-name="Scedilla" unicode="&#x15e;" horiz-adv-x="538" 
d="M293 391q4 -2 30 -16.5t31.5 -18t27 -17t27.5 -19.5t21.5 -19t20.5 -22.5t13.5 -23t11 -28t2.5 -30.5q0 -93 -62.5 -147.5t-160.5 -54.5h-1l-18 -30l1 -1q70 -5 70 -61q0 -41 -29 -64t-75 -23q-23 0 -42 4l3 34q15 -5 36 -5q30 0 48.5 13.5t18.5 39.5q0 35 -70 36l4 27
l17 32q-124 17 -189 114l42 37q64 -100 181 -100q74 0 120.5 39.5t46.5 103.5q0 10 -2.5 20t-5 17.5t-10 16.5t-12 14.5t-16 14t-17 13t-20.5 13.5t-21 12.5t-23.5 13.5t-23.5 13q-35 19 -50.5 28t-44 29.5t-41.5 37t-24 42t-11 54.5q0 83 59.5 134t152.5 51q55 0 106 -23
t86 -64l-40 -37q-60 72 -156 72q-65 0 -107.5 -35.5t-42.5 -91.5q0 -20 9 -38.5t17.5 -30t32.5 -28t35 -23t44 -25.5z" />
    <glyph glyph-name="scedilla" unicode="&#x15f;" horiz-adv-x="403" 
d="M211 271q2 -1 19 -8.5t20 -9t18 -9.5t19 -11t16 -11t16 -13.5t11.5 -14.5t10.5 -17.5t5.5 -19t2.5 -22.5q1 -66 -48 -103t-122 -37h-2l-18 -30l1 -1q70 -5 70 -61q0 -41 -29 -64t-75 -23q-23 0 -42 4l3 34q15 -5 36 -5q30 0 48.5 13.5t18.5 39.5q0 35 -70 36l4 27l18 33
q-79 11 -128 70l34 36q54 -61 131 -61q51 0 84 23t33 63q0 9 -1.5 16.5t-6.5 15t-8.5 12.5t-12 11t-13.5 9.5t-17 9.5l-17 8.5t-20 9t-19 8.5q-55 23 -86 52t-31 77q0 60 45 96t109 36q89 0 145 -61l-35 -36q-46 51 -113 51q-42 0 -70 -23t-28 -61q0 -29 24.5 -49t69.5 -40z
" />
    <glyph glyph-name="Scaron" unicode="&#x160;" horiz-adv-x="538" 
d="M299 788l-91 118h54l66 -83h2l91 83h55l-126 -118h-51zM255 -5q-67 0 -128 30t-98 86l42 37q64 -100 181 -100q74 0 120.5 39.5t46.5 103.5q0 10 -2.5 20t-5 17.5t-10 16.5t-12 14.5t-16 14t-17 13t-20.5 13.5t-21 12.5t-23.5 13.5t-23.5 13q-35 19 -50.5 28t-44 29.5
t-41.5 37t-24 42t-11 54.5q0 83 59.5 134t152.5 51q55 0 106 -23t86 -64l-40 -37q-60 72 -156 72q-65 0 -107.5 -35.5t-42.5 -91.5q0 -20 9 -38.5t17.5 -30t32.5 -28t35 -23t44 -25.5q4 -2 30 -16.5t31.5 -18t27 -17t27.5 -19.5t21.5 -19t20.5 -22.5t13.5 -23t11 -28
t2.5 -30.5q0 -93 -62.5 -147.5t-160.5 -54.5z" />
    <glyph glyph-name="scaron" unicode="&#x161;" horiz-adv-x="403" 
d="M213 559l-88 134h52l65 -98h2l92 98h54l-126 -134h-51zM179 -5q-104 0 -165 73l34 36q54 -61 131 -61q51 0 84 23t33 63q0 9 -1.5 16.5t-6.5 15t-8.5 12.5t-12 11t-13.5 9.5t-17 9.5l-17 8.5t-20 9t-19 8.5q-55 23 -86 52t-31 77q0 60 45 96t109 36q89 0 145 -61l-35 -36
q-46 51 -113 51q-42 0 -70 -23t-28 -61q0 -29 24.5 -49t69.5 -40q2 -1 19 -8.5t20 -9t18 -9.5t19 -11t16 -11t16 -13.5t11.5 -14.5t10.5 -17.5t5.5 -19t2.5 -22.5q1 -66 -48 -103t-122 -37z" />
    <glyph glyph-name="uni0162" unicode="&#x162;" horiz-adv-x="513" 
d="M87 710h455l-7 -52h-200l-81 -658h-15l-20 -35l1 -1q70 -5 70 -61q0 -41 -29 -64t-75 -23q-23 0 -42 4l3 34q15 -5 36 -5q30 0 48.5 13.5t18.5 39.5q0 35 -70 36l4 27l19 35h-5l81 658h-198z" />
    <glyph glyph-name="uni0163" unicode="&#x163;" horiz-adv-x="332" 
d="M162 439l-37 -302q-12 -91 48 -91q42 0 88 33l7 -50q-49 -34 -109 -34h-3l-18 -30l1 -1q70 -5 70 -61q0 -41 -29 -64t-75 -23q-23 0 -42 4l3 34q15 -5 36 -5q30 0 48.5 13.5t18.5 39.5q0 35 -70 36l4 27l19 36q-63 21 -50 129l38 309h-58l6 46h57l21 167l53 10l-22 -177
h155l-6 -46h-154z" />
    <glyph glyph-name="Tcaron" unicode="&#x164;" horiz-adv-x="513" 
d="M296 788l-91 118h54l66 -83h2l91 83h55l-126 -118h-51zM198 0l81 658h-198l6 52h455l-7 -52h-200l-81 -658h-56z" />
    <glyph glyph-name="tcaron" unicode="&#x165;" horiz-adv-x="337" 
d="M261 592l45 172h55l-59 -172h-41zM159 -5q-104 0 -87 135l38 309h-58l6 46h57l21 167l53 10l-22 -177h155l-6 -46h-154l-37 -302q-12 -91 48 -91q42 0 88 33l7 -50q-49 -34 -109 -34z" />
    <glyph glyph-name="Tbar" unicode="&#x166;" horiz-adv-x="513" 
d="M535 658h-200l-33 -272h107l-4 -45h-109l-42 -341h-56l42 341h-103l4 45h105l33 272h-198l6 52h455z" />
    <glyph glyph-name="tbar" unicode="&#x167;" horiz-adv-x="332" 
d="M316 439h-154l-17 -139h133l-6 -41h-132l-15 -122q-12 -91 48 -91q42 0 88 33l7 -50q-49 -34 -109 -34q-104 0 -87 135l16 129h-51l6 41h50l17 139h-58l6 46h57l21 167l53 10l-22 -177h155z" />
    <glyph glyph-name="Utilde" unicode="&#x168;" horiz-adv-x="653" 
d="M472 788q-30 0 -75 38q-33 26 -51 26q-37 0 -63 -59l-36 17q37 84 95 84q33 0 69 -32q2 -2 9 -7.5t10 -7.5t9 -6.5t10 -6t9 -3t10 -1.5q38 0 62 60l35 -15q-17 -42 -42 -64.5t-51 -22.5zM295 -5q-121 0 -171.5 79t-34.5 217l52 419h56l-52 -420q-14 -112 23.5 -176.5
t128.5 -64.5q93 0 150.5 58t72.5 177l51 426h56l-52 -426q-35 -289 -280 -289z" />
    <glyph glyph-name="utilde" unicode="&#x169;" horiz-adv-x="524" 
d="M372 572q-31 0 -75 39q-33 25 -50 25q-38 0 -64 -59l-36 17q36 87 96 87q30 0 68 -32t57 -32q38 0 62 60l35 -15q-17 -44 -42 -67t-51 -23zM193 -5q-156 0 -129 196l40 294h52l-39 -290q-12 -84 11.5 -117.5t76.5 -33.5q62 0 122.5 66.5t73.5 157.5l26 217h52l-59 -485
h-53l17 130h-2q-33 -62 -83 -98.5t-106 -36.5z" />
    <glyph glyph-name="Umacron" unicode="&#x16a;" horiz-adv-x="653" 
d="M277 822l6 45h251l-6 -45h-251zM295 -5q-121 0 -171.5 79t-34.5 217l52 419h56l-52 -420q-14 -112 23.5 -176.5t128.5 -64.5q93 0 150.5 58t72.5 177l51 426h56l-52 -426q-35 -289 -280 -289z" />
    <glyph glyph-name="umacron" unicode="&#x16b;" horiz-adv-x="524" 
d="M178 608l6 46h251l-6 -46h-251zM193 -5q-156 0 -129 196l40 294h52l-39 -290q-12 -84 11.5 -117.5t76.5 -33.5q62 0 122.5 66.5t73.5 157.5l26 217h52l-59 -485h-53l17 130h-2q-33 -62 -83 -98.5t-106 -36.5z" />
    <glyph glyph-name="Ubreve" unicode="&#x16c;" horiz-adv-x="653" 
d="M395 783q-55 0 -82.5 33t-22.5 91l43 -1q-3 -34 12 -56.5t51 -22.5q37 0 63 23.5t33 56.5l43 -1q-11 -55 -50 -89t-90 -34zM295 -5q-121 0 -171.5 79t-34.5 217l52 419h56l-52 -420q-14 -112 23.5 -176.5t128.5 -64.5q93 0 150.5 58t72.5 177l51 426h56l-52 -426
q-35 -289 -280 -289z" />
    <glyph glyph-name="ubreve" unicode="&#x16d;" horiz-adv-x="524" 
d="M295 557q-55 0 -82 35t-23 99h43q-7 -90 64 -90q38 0 63.5 25t31.5 65h43q-11 -63 -49 -98.5t-91 -35.5zM193 -5q-156 0 -129 196l40 294h52l-39 -290q-12 -84 11.5 -117.5t76.5 -33.5q62 0 122.5 66.5t73.5 157.5l26 217h52l-59 -485h-53l17 130h-2q-33 -62 -83 -98.5
t-106 -36.5z" />
    <glyph glyph-name="Uring" unicode="&#x16e;" horiz-adv-x="653" 
d="M401 779q-35 0 -58.5 23.5t-23.5 58.5q0 37 24 60.5t61 23.5q36 0 59.5 -23t23.5 -58q0 -37 -24.5 -61t-61.5 -24zM402 816q21 0 34.5 13.5t13.5 33.5t-13 33t-33 13t-33.5 -13.5t-13.5 -33.5t12.5 -33t32.5 -13zM295 -5q-121 0 -171.5 79t-34.5 217l52 419h56l-52 -420
q-14 -112 23.5 -176.5t128.5 -64.5q93 0 150.5 58t72.5 177l51 426h56l-52 -426q-35 -289 -280 -289z" />
    <glyph glyph-name="uring" unicode="&#x16f;" horiz-adv-x="524" 
d="M303 553q-35 0 -58.5 23.5t-23.5 58.5q0 37 24 60.5t61 23.5q36 0 59.5 -23t23.5 -58q0 -37 -24.5 -61t-61.5 -24zM304 590q21 0 34.5 13.5t13.5 33.5t-13 33t-33 13t-33.5 -13.5t-13.5 -33.5t12.5 -33t32.5 -13zM193 -5q-156 0 -129 196l40 294h52l-39 -290
q-12 -84 11.5 -117.5t76.5 -33.5q62 0 122.5 66.5t73.5 157.5l26 217h52l-59 -485h-53l17 130h-2q-33 -62 -83 -98.5t-106 -36.5z" />
    <glyph glyph-name="Uhungarumlaut" unicode="&#x170;" horiz-adv-x="653" 
d="M299 783l124 138h59l-129 -138h-54zM436 783l123 138h59l-129 -138h-53zM295 -5q-121 0 -171.5 79t-34.5 217l52 419h56l-52 -420q-14 -112 23.5 -176.5t128.5 -64.5q93 0 150.5 58t72.5 177l51 426h56l-52 -426q-35 -289 -280 -289z" />
    <glyph glyph-name="uhungarumlaut" unicode="&#x171;" horiz-adv-x="524" 
d="M203 560l124 138h59l-129 -138h-54zM340 560l123 138h59l-129 -138h-53zM193 -5q-156 0 -129 196l40 294h52l-39 -290q-12 -84 11.5 -117.5t76.5 -33.5q62 0 122.5 66.5t73.5 157.5l26 217h52l-59 -485h-53l17 130h-2q-33 -62 -83 -98.5t-106 -36.5z" />
    <glyph glyph-name="Uogonek" unicode="&#x172;" horiz-adv-x="653" 
d="M571 710h56l-52 -426q-30 -245 -211 -282q-44 -20 -73.5 -49.5t-30.5 -56.5q-1 -18 10 -29t31 -11q28 0 50 11l1 -38q-24 -12 -60 -12q-40 0 -59.5 20t-17.5 51q3 54 72 106v1q-116 3 -165 82t-33 214l52 419h56l-52 -420q-14 -112 23.5 -176.5t128.5 -64.5
q93 0 150.5 58t72.5 177z" />
    <glyph glyph-name="uogonek" unicode="&#x173;" horiz-adv-x="524" 
d="M372 -144q27 0 49 11l2 -38q-25 -12 -61 -12q-38 0 -58 18.5t-19 52.5q3 63 83 120l16 122h-2q-33 -62 -83 -98.5t-106 -36.5q-156 0 -129 196l40 294h52l-39 -290q-12 -84 11.5 -117.5t76.5 -33.5q62 0 122.5 66.5t73.5 157.5l26 217h52l-59 -485h-2q-85 -48 -87 -104
q-1 -18 9.5 -29t31.5 -11z" />
    <glyph glyph-name="Wcircumflex" unicode="&#x174;" horiz-adv-x="919" 
d="M391 788l126 118h52l90 -118h-54l-65 83h-3l-91 -83h-55zM211 0l-119 710h58l100 -617h2l232 617h64l84 -612h3l246 612h61l-292 -710h-58l-87 618h-2l-234 -618h-58z" />
    <glyph glyph-name="wcircumflex" unicode="&#x175;" horiz-adv-x="772" 
d="M299 558l123 140h51l93 -140h-55l-64 104h-1l-91 -104h-56zM185 -5q-148 0 -121 200l38 290h52l-37 -286q-20 -155 81 -155q50 0 105 64.5t67 163.5l26 213h52l-34 -283q-11 -89 9 -123.5t64 -34.5q55 0 110.5 60t77.5 158q24 108 4 223h55q20 -126 -8 -238
q-30 -124 -100 -188t-143 -64q-58 0 -89.5 34.5t-32.5 101.5h-2q-30 -60 -80.5 -98t-93.5 -38z" />
    <glyph glyph-name="Ycircumflex" unicode="&#x176;" horiz-adv-x="532" 
d="M195 788l126 118h52l90 -118h-54l-65 83h-3l-91 -83h-55zM208 0l39 320l-171 390h61l143 -333h2l226 333h65l-270 -390l-39 -320h-56z" />
    <glyph glyph-name="ycircumflex" unicode="&#x177;" horiz-adv-x="521" 
d="M310 662l-91 -104h-56l123 140h51l93 -140h-55l-64 104h-1zM426 485h52l-52 -421q-18 -150 -83 -208t-164 -58q-84 0 -155 40l17 48q68 -40 139 -40q79 0 129.5 47.5t65.5 174.5l7 62l-2 1q-32 -62 -82.5 -99t-107.5 -37q-156 0 -129 196l40 294h52l-39 -290
q-11 -84 12.5 -117t75.5 -34q65 0 126 69.5t72 163.5z" />
    <glyph glyph-name="Ydieresis" unicode="&#x178;" horiz-adv-x="532" 
d="M261 810q-18 0 -29.5 12t-11.5 30q0 19 12 31t30 12q19 0 31 -11.5t12 -29.5q0 -19 -12.5 -31.5t-31.5 -12.5zM413 810q-18 0 -29.5 12t-11.5 30q0 19 12 31t31 12q18 0 30 -11.5t12 -29.5q0 -19 -12.5 -31.5t-31.5 -12.5zM208 0l39 320l-171 390h61l143 -333h2l226 333
h65l-270 -390l-39 -320h-56z" />
    <glyph glyph-name="Zacute" unicode="&#x179;" horiz-adv-x="562" 
d="M273 788l123 127l61 1l-128 -128h-56zM29 0l6 46l437 610v2h-342l7 52h414l-6 -46l-439 -609l1 -3h366l-6 -52h-438z" />
    <glyph glyph-name="zacute" unicode="&#x17a;" horiz-adv-x="427" 
d="M198 560l125 138h62l-129 -138h-58zM353 -24q-54 16 -125 20t-223 4l5 41l326 397v1h-265l6 46h335l-4 -39l-327 -398v-2q210 0 287 -24z" />
    <glyph glyph-name="Zdotaccent" unicode="&#x17b;" horiz-adv-x="562" 
d="M355 810q-18 0 -29 12t-11 30q0 19 12 31t30 12t30 -11.5t12 -29.5q0 -19 -12.5 -31.5t-31.5 -12.5zM29 0l6 46l437 610v2h-342l7 52h414l-6 -46l-439 -609l1 -3h366l-6 -52h-438z" />
    <glyph glyph-name="zdotaccent" unicode="&#x17c;" horiz-adv-x="427" 
d="M260 591q-18 0 -29 12t-11 30q0 19 12 31t30 12t30 -11.5t12 -29.5q0 -19 -12.5 -31.5t-31.5 -12.5zM353 -24q-54 16 -125 20t-223 4l5 41l326 397v1h-265l6 46h335l-4 -39l-327 -398v-2q210 0 287 -24z" />
    <glyph glyph-name="Zcaron" unicode="&#x17d;" horiz-adv-x="562" 
d="M322 788l-91 118h54l66 -83h2l91 83h55l-126 -118h-51zM29 0l6 46l437 610v2h-342l7 52h414l-6 -46l-439 -609l1 -3h366l-6 -52h-438z" />
    <glyph glyph-name="zcaron" unicode="&#x17e;" horiz-adv-x="427" 
d="M223 559l-88 134h52l65 -98h2l92 98h54l-126 -134h-51zM353 -24q-54 16 -125 20t-223 4l5 41l326 397v1h-265l6 46h335l-4 -39l-327 -398v-2q210 0 287 -24z" />
    <glyph glyph-name="longs" unicode="&#x17f;" horiz-adv-x="271" 
d="M60 0l53 439h-56l5 46h57l13 109q19 147 130 147q56 0 94 -27l-14 -46q-32 24 -74 24q-72 0 -85 -109l-71 -583h-52z" />
    <glyph glyph-name="uni018F" unicode="&#x18f;" horiz-adv-x="716" 
d="M395 715q127 0 202 -78t75 -218q0 -114 -42 -210t-123.5 -155t-187.5 -59q-120 0 -194 78.5t-74 215.5q0 35 6 63h554q4 44 4 66q0 117 -60.5 180.5t-164.5 63.5q-117 0 -202 -73l-34 41q101 85 241 85zM323 48q102 0 176 71t102 183h-495v-12q0 -114 59.5 -178
t157.5 -64z" />
    <glyph glyph-name="florin" unicode="&#x192;" horiz-adv-x="467" 
d="M37 -109q-71 0 -108 41l26 37q29 -28 76 -28q80 0 108 112l87 367h-70l12 47h71l31 125q36 149 148 149q70 0 108 -40l-27 -37q-31 28 -76 28q-77 0 -103 -113l-26 -112h141l-13 -47h-141l-92 -379q-35 -150 -152 -150z" />
    <glyph glyph-name="uni019D" unicode="&#x19d;" horiz-adv-x="693" 
d="M-13 -202q-36 0 -60 9l8 47q19 -7 48 -7q33 0 51 25t25 85l92 753h54l317 -614l2 1l76 613h56l-89 -710h-55l-315 609h-3l-81 -662q-9 -77 -39 -113t-87 -36z" />
    <glyph glyph-name="Ohorn" unicode="&#x1a0;" horiz-adv-x="807" 
d="M770 774h51l-13 -99q-18 -140 -111 -143q16 -48 16 -113q0 -176 -100.5 -300t-263.5 -124q-127 0 -203 79t-76 218q0 112 44.5 208t129 155.5t190.5 59.5q87 0 151.5 -37.5t97.5 -107.5q3 -1 8 -1q28 0 44 27t24 86zM352 48q134 0 218 109t84 261q0 118 -59.5 181.5
t-165.5 63.5q-131 0 -216 -111t-85 -259q0 -116 60 -180.5t164 -64.5z" />
    <glyph glyph-name="ohorn" unicode="&#x1a1;" horiz-adv-x="614" 
d="M576 565h51l-13 -99q-18 -143 -116 -143h-5q2 -20 2 -31q0 -128 -68.5 -212.5t-184.5 -84.5q-90 0 -144 54t-54 149q0 121 70.5 206.5t184.5 85.5q71 0 120 -33.5t67 -95.5q4 -1 11 -1q28 0 44 27t24 86zM243 44q88 0 143.5 68.5t55.5 176.5q0 75 -40 114t-106 39
q-86 0 -142.5 -69.5t-56.5 -170.5q0 -73 39.5 -115.5t106.5 -42.5z" />
    <glyph glyph-name="Uhorn" unicode="&#x1af;" horiz-adv-x="716" 
d="M710 774h51l-13 -99q-18 -143 -116 -143q-14 0 -26 3l-31 -251q-35 -289 -280 -289q-121 0 -171.5 79t-34.5 217l52 419h56l-52 -420q-14 -112 23.5 -176.5t128.5 -64.5q93 0 150.5 58t72.5 177l51 426h56l-17 -138q12 -3 21 -3q28 0 44 27t24 86z" />
    <glyph glyph-name="uhorn" unicode="&#x1b0;" horiz-adv-x="592" 
d="M562 565h51l-13 -99q-18 -143 -116 -143q-12 0 -24 3l-40 -326h-53l17 130h-2q-33 -62 -83 -98.5t-106 -36.5q-156 0 -129 196l40 294h52l-39 -290q-12 -84 11.5 -117.5t76.5 -33.5q62 0 122.5 66.5t73.5 157.5l26 217h52l-15 -123q14 -2 19 -2q28 0 44 27t24 86z" />
    <glyph glyph-name="uni01CD" unicode="&#x1cd;" horiz-adv-x="606" 
d="M345 788l-91 118h54l66 -83h2l91 83h55l-126 -118h-51zM-1 0l330 710h60l159 -710h-58l-41 191h-304l-88 -191h-58zM167 242h272l-87 397h-2z" />
    <glyph glyph-name="uni01CE" unicode="&#x1ce;" horiz-adv-x="542" 
d="M308 559l-88 134h52l65 -98h2l92 98h54l-126 -134h-51zM212 -5q-79 0 -123 55t-44 139q0 124 69 212.5t179 88.5q97 0 145 -56l3 1l6 50h52l-59 -485h-52l16 132h-2q-35 -63 -83.5 -100t-106.5 -37zM219 43q76 0 134 76.5t72 183.5l10 77q-24 32 -64.5 47t-76.5 15
q-87 0 -141.5 -75.5t-54.5 -178.5q0 -65 31.5 -105t89.5 -40z" />
    <glyph glyph-name="uni01CF" unicode="&#x1cf;" horiz-adv-x="255" 
d="M168 788l-91 118h54l66 -83h2l91 83h55l-126 -118h-51zM70 0l87 710h56l-87 -710h-56z" />
    <glyph glyph-name="uni01D0" unicode="&#x1d0;" horiz-adv-x="223" 
d="M123 559l-88 134h52l65 -98h2l92 98h54l-126 -134h-51zM56 0l59 485h52l-60 -485h-51z" />
    <glyph glyph-name="uni01D1" unicode="&#x1d1;" horiz-adv-x="755" 
d="M437 788l-91 118h54l66 -83h2l91 83h55l-126 -118h-51zM349 -5q-127 0 -203 79t-76 218q0 112 44.5 208t129 155.5t190.5 59.5q127 0 203 -78t76 -218q0 -176 -100.5 -300t-263.5 -124zM352 48q134 0 218 109t84 261q0 118 -59.5 181.5t-165.5 63.5q-131 0 -216 -111
t-85 -259q0 -116 60 -180.5t164 -64.5z" />
    <glyph glyph-name="uni01D2" unicode="&#x1d2;" horiz-adv-x="539" 
d="M288 559l-88 134h52l65 -98h2l92 98h54l-126 -134h-51zM242 -5q-90 0 -144 54t-54 149q0 121 70.5 206.5t184.5 85.5q90 0 143 -52t53 -146q0 -128 -68.5 -212.5t-184.5 -84.5zM243 44q88 0 143.5 68.5t55.5 176.5q0 75 -40 114t-106 39q-86 0 -142.5 -69.5t-56.5 -170.5
q0 -73 39.5 -115.5t106.5 -42.5z" />
    <glyph glyph-name="uni01D3" unicode="&#x1d3;" horiz-adv-x="653" 
d="M369 788l-91 118h54l66 -83h2l91 83h55l-126 -118h-51zM295 -5q-121 0 -171.5 79t-34.5 217l52 419h56l-52 -420q-14 -112 23.5 -176.5t128.5 -64.5q93 0 150.5 58t72.5 177l51 426h56l-52 -426q-35 -289 -280 -289z" />
    <glyph glyph-name="uni01D4" unicode="&#x1d4;" horiz-adv-x="524" 
d="M269 559l-88 134h52l65 -98h2l92 98h54l-126 -134h-51zM193 -5q-156 0 -129 196l40 294h52l-39 -290q-12 -84 11.5 -117.5t76.5 -33.5q62 0 122.5 66.5t73.5 157.5l26 217h52l-59 -485h-53l17 130h-2q-33 -62 -83 -98.5t-106 -36.5z" />
    <glyph glyph-name="uni01D5" unicode="&#x1d5;" horiz-adv-x="653" 
d="M284 949l5 42h251l-5 -42h-251zM314 800q-17 0 -27.5 11.5t-10.5 28.5q0 18 11.5 29.5t28.5 11.5q18 0 29.5 -11t11.5 -28q0 -18 -12 -30t-31 -12zM473 800q-17 0 -27.5 11.5t-10.5 28.5q0 18 11.5 29.5t28.5 11.5q18 0 29.5 -11t11.5 -28q0 -18 -12 -30t-31 -12zM295 -5
q-121 0 -171.5 79t-34.5 217l52 419h56l-52 -420q-14 -112 23.5 -176.5t128.5 -64.5q93 0 150.5 58t72.5 177l51 426h56l-52 -426q-35 -289 -280 -289z" />
    <glyph glyph-name="uni01D6" unicode="&#x1d6;" horiz-adv-x="524" 
d="M198 758l5 44h251l-5 -44h-251zM229 592q-17 0 -28.5 11.5t-11.5 29.5t12 30.5t30 12.5t30 -12t12 -29q0 -19 -12.5 -31t-31.5 -12zM381 592q-18 0 -29.5 11.5t-11.5 29.5t12 30.5t30 12.5t29.5 -12t11.5 -29q0 -19 -12 -31t-30 -12zM193 -5q-156 0 -129 196l40 294h52
l-39 -290q-12 -84 11.5 -117.5t76.5 -33.5q62 0 122.5 66.5t73.5 157.5l26 217h52l-59 -485h-53l17 130h-2q-33 -62 -83 -98.5t-106 -36.5z" />
    <glyph glyph-name="uni01D7" unicode="&#x1d7;" horiz-adv-x="653" 
d="M379 901l121 127h60l-136 -127h-45zM314 800q-17 0 -27.5 11.5t-10.5 28.5q0 18 11.5 29.5t28.5 11.5q18 0 29.5 -11t11.5 -28q0 -18 -12 -30t-31 -12zM473 800q-17 0 -27.5 11.5t-10.5 28.5q0 18 11.5 29.5t28.5 11.5q18 0 29.5 -11t11.5 -28q0 -18 -12 -30t-31 -12z
M295 -5q-121 0 -171.5 79t-34.5 217l52 419h56l-52 -420q-14 -112 23.5 -176.5t128.5 -64.5q93 0 150.5 58t72.5 177l51 426h56l-52 -426q-35 -289 -280 -289z" />
    <glyph glyph-name="uni01D8" unicode="&#x1d8;" horiz-adv-x="524" 
d="M290 703l120 138h61l-135 -138h-46zM229 592q-17 0 -28.5 11.5t-11.5 29.5t12 30.5t30 12.5t30 -12t12 -29q0 -19 -12.5 -31t-31.5 -12zM381 592q-18 0 -29.5 11.5t-11.5 29.5t12 30.5t30 12.5t29.5 -12t11.5 -29q0 -19 -12 -31t-30 -12zM193 -5q-156 0 -129 196l40 294
h52l-39 -290q-12 -84 11.5 -117.5t76.5 -33.5q62 0 122.5 66.5t73.5 157.5l26 217h52l-59 -485h-53l17 130h-2q-33 -62 -83 -98.5t-106 -36.5z" />
    <glyph glyph-name="uni01D9" unicode="&#x1d9;" horiz-adv-x="653" 
d="M377 917l-91 107h54l66 -75h2l91 75h55l-126 -107h-51zM314 800q-17 0 -27.5 11.5t-10.5 28.5q0 18 11.5 29.5t28.5 11.5q18 0 29.5 -11t11.5 -28q0 -18 -12 -30t-31 -12zM473 800q-17 0 -27.5 11.5t-10.5 28.5q0 18 11.5 29.5t28.5 11.5q18 0 29.5 -11t11.5 -28
q0 -18 -12 -30t-31 -12zM295 -5q-121 0 -171.5 79t-34.5 217l52 419h56l-52 -420q-14 -112 23.5 -176.5t128.5 -64.5q93 0 150.5 58t72.5 177l51 426h56l-52 -426q-35 -289 -280 -289z" />
    <glyph glyph-name="uni01DA" unicode="&#x1da;" horiz-adv-x="524" 
d="M292 712l-88 134h52l65 -98h2l92 98h54l-126 -134h-51zM229 592q-17 0 -28.5 11.5t-11.5 29.5t12 30.5t30 12.5t30 -12t12 -29q0 -19 -12.5 -31t-31.5 -12zM381 592q-18 0 -29.5 11.5t-11.5 29.5t12 30.5t30 12.5t29.5 -12t11.5 -29q0 -19 -12 -31t-30 -12zM193 -5
q-156 0 -129 196l40 294h52l-39 -290q-12 -84 11.5 -117.5t76.5 -33.5q62 0 122.5 66.5t73.5 157.5l26 217h52l-59 -485h-53l17 130h-2q-33 -62 -83 -98.5t-106 -36.5z" />
    <glyph glyph-name="uni01DB" unicode="&#x1db;" horiz-adv-x="653" 
d="M389 901l-98 126h56l86 -126h-44zM314 800q-17 0 -27.5 11.5t-10.5 28.5q0 18 11.5 29.5t28.5 11.5q18 0 29.5 -11t11.5 -28q0 -18 -12 -30t-31 -12zM473 800q-17 0 -27.5 11.5t-10.5 28.5q0 18 11.5 29.5t28.5 11.5q18 0 29.5 -11t11.5 -28q0 -18 -12 -30t-31 -12z
M295 -5q-121 0 -171.5 79t-34.5 217l52 419h56l-52 -420q-14 -112 23.5 -176.5t128.5 -64.5q93 0 150.5 58t72.5 177l51 426h56l-52 -426q-35 -289 -280 -289z" />
    <glyph glyph-name="uni01DC" unicode="&#x1dc;" horiz-adv-x="524" 
d="M289 703l-107 138h60l93 -138h-46zM229 592q-17 0 -28.5 11.5t-11.5 29.5t12 30.5t30 12.5t30 -12t12 -29q0 -19 -12.5 -31t-31.5 -12zM381 592q-18 0 -29.5 11.5t-11.5 29.5t12 30.5t30 12.5t29.5 -12t11.5 -29q0 -19 -12 -31t-30 -12zM193 -5q-156 0 -129 196l40 294
h52l-39 -290q-12 -84 11.5 -117.5t76.5 -33.5q62 0 122.5 66.5t73.5 157.5l26 217h52l-59 -485h-53l17 130h-2q-33 -62 -83 -98.5t-106 -36.5z" />
    <glyph glyph-name="Gcaron" unicode="&#x1e6;" horiz-adv-x="706" 
d="M420 788l-91 118h54l66 -83h2l91 83h55l-126 -118h-51zM352 -5q-129 0 -204.5 79t-75.5 219q0 172 102.5 297t257.5 125q143 0 231 -113l-45 -36q-75 96 -189 96q-85 0 -154.5 -51.5t-106.5 -135.5t-37 -181q0 -115 58.5 -180.5t164.5 -65.5q116 0 202 69l23 185h-208
l6 52h264l-33 -267q-49 -45 -117.5 -68.5t-138.5 -23.5z" />
    <glyph glyph-name="gcaron" unicode="&#x1e7;" horiz-adv-x="544" 
d="M296 559l-88 134h52l65 -98h2l92 98h54l-126 -134h-51zM184 -202q-89 0 -160 40l17 49q69 -40 146 -40q89 0 141 46.5t68 175.5l10 79h-2q-34 -62 -84 -100t-109 -38q-79 0 -122.5 55t-43.5 140q0 113 69.5 199t177.5 86q98 0 147 -55l2 1l6 49h52l-51 -420
q-10 -79 -33.5 -133.5t-60 -82.5t-77 -39.5t-93.5 -11.5zM219 58q73 0 132.5 71.5t71.5 164.5l11 86q-24 32 -64 46.5t-76 14.5q-86 0 -141 -72.5t-55 -165.5q0 -65 31.5 -105t89.5 -40z" />
    <glyph glyph-name="uni01EA" unicode="&#x1ea;" horiz-adv-x="755" 
d="M385 -3q-80 -49 -81 -101q-1 -18 9.5 -29t31.5 -11q27 0 49 11l2 -38q-25 -12 -61 -12q-38 0 -58 18.5t-19 52.5q3 54 67 108q-117 8 -186 86t-69 210q0 112 44.5 208t129 155.5t190.5 59.5q127 0 203 -78t76 -218q0 -165 -90 -286t-238 -136zM128 293q0 -116 60 -180.5
t164 -64.5q134 0 218 109t84 261q0 118 -59.5 181.5t-165.5 63.5q-131 0 -216 -111t-85 -259z" />
    <glyph glyph-name="uni01EB" unicode="&#x1eb;" horiz-adv-x="539" 
d="M266 -4q-78 -46 -80 -100q-1 -18 9.5 -29t31.5 -11q27 0 49 11l2 -38q-26 -12 -61 -12q-38 0 -58 18.5t-19 52.5q3 56 68 109q-76 10 -120 62.5t-44 138.5q0 121 70.5 206.5t184.5 85.5q90 0 143 -52t53 -146q0 -120 -61.5 -203t-167.5 -93zM97 202q0 -73 39.5 -115.5
t106.5 -42.5q88 0 143.5 68.5t55.5 176.5q0 75 -40 114t-106 39q-86 0 -142.5 -69.5t-56.5 -170.5z" />
    <glyph glyph-name="Aringacute" unicode="&#x1fa;" horiz-adv-x="606" 
d="M377 779q-35 0 -58.5 23.5t-23.5 58.5q0 37 24 60.5t61 23.5q42 0 66 -30l75 52h67l-126 -88q1 -5 1 -15q0 -37 -24.5 -61t-61.5 -24zM380 909q-20 0 -33.5 -13.5t-13.5 -33.5t12.5 -33t32.5 -13q21 0 34.5 13.5t13.5 33.5t-13 33t-33 13zM329 710h60l159 -710h-58
l-41 191h-304l-88 -191h-58zM167 242h272l-87 397h-2z" />
    <glyph glyph-name="aringacute" unicode="&#x1fb;" horiz-adv-x="542" 
d="M342 553q-35 0 -58.5 23.5t-23.5 58.5q0 37 24 60.5t61 23.5q42 0 66 -30l73 49h67l-124 -85q1 -5 1 -15q0 -37 -24.5 -61t-61.5 -24zM345 683q-20 0 -33.5 -13.5t-13.5 -33.5t12.5 -33t32.5 -13q21 0 34.5 13.5t13.5 33.5t-13 33t-33 13zM441 435l6 50h52l-59 -485h-52
l16 132h-2q-35 -63 -83.5 -100t-106.5 -37q-79 0 -123 55t-44 139q0 124 69 212.5t179 88.5q97 0 145 -56zM425 303l10 77q-24 32 -64.5 47t-76.5 15q-87 0 -141.5 -75.5t-54.5 -178.5q0 -65 31.5 -105t89.5 -40q76 0 134 76.5t72 183.5z" />
    <glyph glyph-name="AEacute" unicode="&#x1fc;" horiz-adv-x="842" 
d="M460 788l123 127l61 1l-128 -128h-56zM-24 0l441 710h415l-6 -52h-331l-33 -278h277l-6 -52h-278l-33 -276h348l-6 -52h-403l23 191h-227l-118 -191h-63zM186 241h205l49 408h-1z" />
    <glyph glyph-name="aeacute" unicode="&#x1fd;" horiz-adv-x="689" 
d="M575 698l-129 -138h-58l125 138h62zM486 45q72 0 126 68l41 -30q-32 -41 -77 -64t-91 -23q-72 0 -116.5 35.5t-57.5 101.5q-24 -64 -64.5 -101t-89.5 -37q-59 0 -95.5 49t-35.5 130q1 124 73 218t189 94q76 0 126 -37q57 41 134 41q59 0 94.5 -30.5t35.5 -80.5
q0 -81 -94 -130.5t-236 -59.5q1 -68 38 -106t100 -38zM626 378q0 33 -24.5 48t-57.5 15q-78 0 -131 -58.5t-63 -150.5q119 10 197.5 48.5t78.5 97.5zM162 42q45 0 80.5 51.5t55.5 124.5q11 125 79 199q-35 20 -86 20q-66 0 -116 -42t-73 -102t-23 -125q0 -58 23.5 -92
t59.5 -34z" />
    <glyph glyph-name="Oslashacute" unicode="&#x1fe;" horiz-adv-x="761" 
d="M606 916l-128 -128h-56l123 127zM735 692l-75 -82q54 -74 54 -191q0 -176 -100.5 -300t-263.5 -124q-115 0 -189 66l-70 -77l-30 31l70 77q-60 79 -60 200q0 112 44.5 208t129 155.5t190.5 59.5q123 0 198 -73l71 79zM129 293q0 -96 42 -158l423 466q-59 62 -164 62
q-131 0 -216 -111t-85 -259zM655 418q0 89 -35 148l-421 -464q59 -54 154 -54q134 0 218 109t84 261z" />
    <glyph glyph-name="oslashacute" unicode="&#x1ff;" horiz-adv-x="542" 
d="M476 698l-129 -138h-58l125 138h62zM520 471l-56 -58q32 -50 32 -121q0 -128 -68.5 -212.5t-184.5 -84.5q-85 0 -138 48l-57 -58l-28 25l60 62q-35 52 -35 126q0 121 70.5 206.5t184.5 85.5q87 0 138 -48l54 56zM98 202q0 -52 21 -90l283 292q-38 38 -105 38
q-86 0 -142.5 -69.5t-56.5 -170.5zM443 289q0 48 -18 84l-283 -291q40 -38 102 -38q88 0 143.5 68.5t55.5 176.5z" />
    <glyph glyph-name="Scommaaccent" unicode="&#x218;" horiz-adv-x="538" 
d="M255 -5q-67 0 -128 30t-98 86l42 37q64 -100 181 -100q74 0 120.5 39.5t46.5 103.5q0 10 -2.5 20t-5 17.5t-10 16.5t-12 14.5t-16 14t-17 13t-20.5 13.5t-21 12.5t-23.5 13.5t-23.5 13q-35 19 -50.5 28t-44 29.5t-41.5 37t-24 42t-11 54.5q0 83 59.5 134t152.5 51
q55 0 106 -23t86 -64l-40 -37q-60 72 -156 72q-65 0 -107.5 -35.5t-42.5 -91.5q0 -20 9 -38.5t17.5 -30t32.5 -28t35 -23t44 -25.5q4 -2 30 -16.5t31.5 -18t27 -17t27.5 -19.5t21.5 -19t20.5 -22.5t13.5 -23t11 -28t2.5 -30.5q0 -93 -62.5 -147.5t-160.5 -54.5zM156 -206
l-9 34q36 6 52 28.5t16 69.5q0 12 -1 20h47q0 -1 0.5 -7.5t0.5 -14.5q0 -121 -106 -130z" />
    <glyph glyph-name="scommaaccent" unicode="&#x219;" horiz-adv-x="403" 
d="M179 -5q-104 0 -165 73l34 36q54 -61 131 -61q51 0 84 23t33 63q0 9 -1.5 16.5t-6.5 15t-8.5 12.5t-12 11t-13.5 9.5t-17 9.5l-17 8.5t-20 9t-19 8.5q-55 23 -86 52t-31 77q0 60 45 96t109 36q89 0 145 -61l-35 -36q-46 51 -113 51q-42 0 -70 -23t-28 -61q0 -29 24.5 -49
t69.5 -40q2 -1 19 -8.5t20 -9t18 -9.5t19 -11t16 -11t16 -13.5t11.5 -14.5t10.5 -17.5t5.5 -19t2.5 -22.5q1 -66 -48 -103t-122 -37zM79 -206l-9 34q36 6 52 28.5t16 69.5q0 12 -1 20h47q0 -1 0.5 -7.5t0.5 -14.5q0 -121 -106 -130z" />
    <glyph glyph-name="uni021A" unicode="&#x21a;" horiz-adv-x="513" 
d="M198 0l81 658h-198l6 52h455l-7 -52h-200l-81 -658h-56zM139 -206l-9 34q36 6 52 28.5t16 69.5q0 12 -1 20h47q0 -1 0.5 -7.5t0.5 -14.5q0 -121 -106 -130z" />
    <glyph glyph-name="uni021B" unicode="&#x21b;" horiz-adv-x="332" 
d="M159 -5q-104 0 -87 135l38 309h-58l6 46h57l21 167l53 10l-22 -177h155l-6 -46h-154l-37 -302q-12 -91 48 -91q42 0 88 33l7 -50q-49 -34 -109 -34zM58 -206l-9 34q36 6 52 28.5t16 69.5q0 12 -1 20h47q0 -1 0.5 -7.5t0.5 -14.5q0 -121 -106 -130z" />
    <glyph glyph-name="uni0232" unicode="&#x232;" horiz-adv-x="532" 
d="M212 822l6 45h251l-6 -45h-251zM208 0l39 320l-171 390h61l143 -333h2l226 333h65l-270 -390l-39 -320h-56z" />
    <glyph glyph-name="uni0233" unicode="&#x233;" horiz-adv-x="521" 
d="M434 654l-6 -46h-251l6 46h251zM426 485h52l-52 -421q-18 -150 -83 -208t-164 -58q-84 0 -155 40l17 48q68 -40 139 -40q79 0 129.5 47.5t65.5 174.5l7 62l-2 1q-32 -62 -82.5 -99t-107.5 -37q-156 0 -129 196l40 294h52l-39 -290q-11 -84 12.5 -117t75.5 -34
q65 0 126 69.5t72 163.5z" />
    <glyph glyph-name="uni0237" unicode="&#x237;" horiz-adv-x="188" 
d="M-45 -202q-38 0 -66 17l13 45q22 -16 49 -16q30 0 49.5 23t26.5 83l66 535h52l-67 -541q-16 -146 -123 -146z" />
    <glyph glyph-name="uni0251" unicode="&#x251;" horiz-adv-x="542" 
d="M212 -5q-79 0 -123 55t-44 139q0 124 69 212.5t179 88.5q97 0 145 -56l3 1l6 50h52l-59 -485h-52l16 132h-2q-35 -63 -83.5 -100t-106.5 -37zM219 43q76 0 134 76.5t72 183.5l10 77q-24 32 -64.5 47t-76.5 15q-87 0 -141.5 -75.5t-54.5 -178.5q0 -65 31.5 -105t89.5 -40z
" />
    <glyph glyph-name="uni0259" unicode="&#x259;" horiz-adv-x="455" 
d="M230 490q84 0 136 -55.5t52 -149.5q0 -126 -70 -207.5t-189 -81.5q-62 0 -100.5 33.5t-38.5 85.5q0 50 31.5 87.5t85 59t109.5 33t119 15.5q-5 61 -41.5 96.5t-94.5 35.5q-73 0 -128 -49l-31 37q29 26 72 43t88 17zM163 45q88 0 141.5 60.5t60.5 157.5
q-128 -9 -210 -44.5t-82 -100.5q0 -33 24.5 -53t65.5 -20z" />
    <glyph glyph-name="uni0261" unicode="&#x261;" horiz-adv-x="544" 
d="M184 -202q-89 0 -160 40l17 49q69 -40 146 -40q89 0 141 46.5t68 175.5l10 79h-2q-34 -62 -84 -100t-109 -38q-79 0 -122.5 55t-43.5 140q0 113 69.5 199t177.5 86q98 0 147 -55l2 1l6 49h52l-51 -420q-10 -79 -33.5 -133.5t-60 -82.5t-77 -39.5t-93.5 -11.5zM219 58
q73 0 132.5 71.5t71.5 164.5l11 86q-24 32 -64 46.5t-76 14.5q-86 0 -141 -72.5t-55 -165.5q0 -65 31.5 -105t89.5 -40z" />
    <glyph glyph-name="uni0272" unicode="&#x272;" horiz-adv-x="540" 
d="M355 490q147 0 121 -198l-39 -292h-52l38 289q20 152 -81 152q-69 0 -135.5 -70.5t-78.5 -169.5l-24 -201h-1q-13 -107 -44.5 -154.5t-102.5 -47.5q-26 0 -49 8l9 43q17 -6 37 -6q45 0 66 33.5t32 123.5l7 58l53 427h53l-17 -132h2q37 63 92.5 100t113.5 37z" />
    <glyph glyph-name="uni02BB" unicode="&#x2bb;" horiz-adv-x="167" 
d="M85 432l36 229h41l-22 -229h-55z" />
    <glyph glyph-name="uni02BC" unicode="&#x2bc;" horiz-adv-x="140" 
d="M64 528l45 182h55l-59 -182h-41z" />
    <glyph glyph-name="uni02BE" unicode="&#x2be;" horiz-adv-x="213" 
d="M104 735q56 -2 88 -35.5t32 -83.5q0 -60 -41 -103t-108 -46l-2 41q46 2 76.5 31.5t30.5 74.5q0 35 -22.5 56.5t-62.5 23.5z" />
    <glyph glyph-name="uni02BF" unicode="&#x2bf;" horiz-adv-x="216" 
d="M200 467q-56 2 -88 35.5t-32 83.5q0 60 41 103t108 46l2 -41q-46 -2 -76.5 -31.5t-30.5 -74.5q0 -35 22.5 -56.5t62.5 -23.5z" />
    <glyph glyph-name="circumflex" unicode="&#x2c6;" horiz-adv-x="466" 
d="M136 543l123 140h51l93 -140h-55l-64 104h-1l-91 -104h-56z" />
    <glyph glyph-name="caron" unicode="&#x2c7;" horiz-adv-x="466" 
d="M242 544l-88 134h52l65 -98h2l92 98h54l-126 -134h-51z" />
    <glyph glyph-name="uni02C8" unicode="&#x2c8;" horiz-adv-x="165" 
d="M77 387l28 251h46l-29 -250z" />
    <glyph glyph-name="uni02C9" unicode="&#x2c9;" horiz-adv-x="354" 
d="M96 608l6 46h251l-6 -46h-251z" />
    <glyph glyph-name="uni02CA" unicode="&#x2ca;" horiz-adv-x="277" 
d="M113 560l125 138h62l-129 -138h-58z" />
    <glyph glyph-name="uni02CB" unicode="&#x2cb;" horiz-adv-x="280" 
d="M194 560l-96 138h61l91 -138h-56z" />
    <glyph glyph-name="uni02CC" unicode="&#x2cc;" horiz-adv-x="165" 
d="M14 -162l28 251h46l-29 -250z" />
    <glyph glyph-name="breve" unicode="&#x2d8;" horiz-adv-x="431" 
d="M251 542q-55 0 -82 35t-23 99h43q-7 -90 64 -90q38 0 63.5 25t31.5 65h43q-11 -63 -49 -98.5t-91 -35.5z" />
    <glyph glyph-name="dotaccent" unicode="&#x2d9;" horiz-adv-x="458" 
d="M274 576q-18 0 -29 12t-11 30q0 19 12 31t30 12t30 -11.5t12 -29.5q0 -19 -12.5 -31.5t-31.5 -12.5z" />
    <glyph glyph-name="ring" unicode="&#x2da;" horiz-adv-x="425" 
d="M256 533q-35 0 -58.5 23.5t-23.5 58.5q0 37 24 60.5t61 23.5q36 0 59.5 -23t23.5 -58q0 -37 -24.5 -61t-61.5 -24zM257 570q21 0 34.5 13.5t13.5 33.5t-13 33t-33 13t-33.5 -13.5t-13.5 -33.5t12.5 -33t32.5 -13z" />
    <glyph glyph-name="ogonek" unicode="&#x2db;" horiz-adv-x="435" 
d="M200 -183q-38 0 -58 18.5t-19 52.5t27 67t65 59l41 -14q-85 -48 -87 -104q-1 -18 9.5 -29t31.5 -11q27 0 49 11l2 -38q-26 -12 -61 -12z" />
    <glyph glyph-name="tilde" unicode="&#x2dc;" horiz-adv-x="471" 
d="M347 557q-31 0 -75 39q-33 25 -50 25q-38 0 -64 -59l-36 17q36 87 96 87q30 0 68 -32t57 -32q38 0 62 60l35 -15q-17 -44 -42 -67t-51 -23z" />
    <glyph glyph-name="hungarumlaut" unicode="&#x2dd;" horiz-adv-x="474" 
d="M124 545l124 138h59l-129 -138h-54zM261 545l123 138h59l-129 -138h-53z" />
    <glyph glyph-name="gravecomb" unicode="&#x300;" 
d="M-445 545l-96 138h61l91 -138h-56z" />
    <glyph glyph-name="acutecomb" unicode="&#x301;" 
d="M-541 545l125 138h62l-129 -138h-58z" />
    <glyph glyph-name="uni0302" unicode="&#x302;" 
d="M-597 543l123 140h51l93 -140h-55l-64 104h-1l-91 -104h-56z" />
    <glyph glyph-name="tildecomb" unicode="&#x303;" 
d="M-389 557q-31 0 -75 39q-33 25 -50 25q-38 0 -64 -59l-36 17q36 87 96 87q30 0 68 -32t57 -32q38 0 62 60l35 -15q-17 -44 -42 -67t-51 -23z" />
    <glyph glyph-name="uni0304" unicode="&#x304;" 
d="M-582 593l6 46h251l-6 -46h-251z" />
    <glyph glyph-name="uni0306" unicode="&#x306;" 
d="M-466 542q-55 0 -82 35t-23 99h43q-7 -90 64 -90q38 0 63.5 25t31.5 65h43q-11 -63 -49 -98.5t-91 -35.5z" />
    <glyph glyph-name="uni0307" unicode="&#x307;" 
d="M-455 576q-18 0 -29 12t-11 30q0 19 12 31t30 12t30 -11.5t12 -29.5q0 -19 -12.5 -31.5t-31.5 -12.5z" />
    <glyph glyph-name="uni0308" unicode="&#x308;" 
d="M-532 576q-18 0 -29.5 12t-11.5 30q0 19 12 31t30 12q19 0 31 -11.5t12 -29.5q0 -19 -12.5 -31.5t-31.5 -12.5zM-380 576q-18 0 -29.5 12t-11.5 30q0 19 12 31t31 12q18 0 30 -11.5t12 -29.5q0 -19 -12.5 -31.5t-31.5 -12.5z" />
    <glyph glyph-name="hookabovecomb" unicode="&#x309;" 
d="M-450 539l-43 1q93 70 93 107q0 30 -39 30q-47 0 -85 -33l-8 35q51 37 106 37q70 0 70 -59q0 -57 -94 -118z" />
    <glyph glyph-name="uni030A" unicode="&#x30a;" 
d="M-457 538q-35 0 -58.5 23.5t-23.5 58.5q0 37 24 60.5t61 23.5q36 0 59.5 -23t23.5 -58q0 -37 -24.5 -61t-61.5 -24zM-456 575q21 0 34.5 13.5t13.5 33.5t-13 33t-33 13t-33.5 -13.5t-13.5 -33.5t12.5 -33t32.5 -13z" />
    <glyph glyph-name="uni030B" unicode="&#x30b;" 
d="M-558 545l124 138h59l-129 -138h-54zM-421 545l123 138h59l-129 -138h-53z" />
    <glyph glyph-name="uni030C" unicode="&#x30c;" 
d="M-491 544l-88 134h52l65 -98h2l92 98h54l-126 -134h-51z" />
    <glyph glyph-name="uni0312" unicode="&#x312;" 
d="M-475 540v22q0 122 105 129l9 -33q-36 -6 -52 -29t-16 -69q0 -13 1 -20h-47z" />
    <glyph glyph-name="uni0313" unicode="&#x313;" 
d="M-506 688v-22q0 -122 -105 -129l-9 33q36 6 52 29t16 69q0 13 -1 20h47z" />
    <glyph glyph-name="uni031B" unicode="&#x31b;" 
d="M-444 468q-17 0 -39 6l9 36q18 -5 29 -5q28 0 44 27t24 86l11 92h51l-13 -99q-18 -143 -116 -143z" />
    <glyph glyph-name="dotbelowcomb" unicode="&#x323;" 
d="M-548 -109q18 0 29 -12t11 -30q0 -19 -12 -31t-30 -12t-30 11.5t-12 29.5q0 19 12.5 31.5t31.5 12.5z" />
    <glyph glyph-name="uni0324" unicode="&#x324;" 
d="M-623 -109q18 0 29.5 -12t11.5 -30q0 -19 -12 -31t-31 -12q-18 0 -30 11.5t-12 29.5q0 19 12.5 31.5t31.5 12.5zM-471 -109q18 0 29.5 -12t11.5 -30q0 -19 -12 -31t-30 -12q-19 0 -31 11.5t-12 29.5q0 19 12.5 31.5t31.5 12.5z" />
    <glyph glyph-name="uni0326" unicode="&#x326;" 
d="M-627 -206l-9 34q36 6 52 28.5t16 69.5q0 12 -1 20h47q0 -1 0.5 -7.5t0.5 -14.5q0 -121 -106 -130z" />
    <glyph glyph-name="uni0327" unicode="&#x327;" 
d="M-578 -184q-23 0 -42 4l3 34q15 -5 36 -5q30 0 48.5 13.5t18.5 39.5q0 35 -70 36l4 27l22 41h37l-24 -41l1 -1q70 -5 70 -61q0 -41 -29 -64t-75 -23z" />
    <glyph glyph-name="uni0328" unicode="&#x328;" 
d="M-588 -183q-38 0 -58 18.5t-19 52.5t27 67t65 59l41 -14q-85 -48 -87 -104q-1 -18 9.5 -29t31.5 -11q27 0 49 11l2 -38q-25 -12 -61 -12z" />
    <glyph glyph-name="uni032E" unicode="&#x32e;" 
d="M-555 -213q-55 0 -82 35t-23 99h43q-7 -90 64 -90q38 0 63.5 25t31.5 65h43q-11 -63 -49 -98.5t-91 -35.5z" />
    <glyph glyph-name="uni0331" unicode="&#x331;" 
d="M-676 -182l6 46h251l-6 -46h-251z" />
    <glyph glyph-name="uni0335" unicode="&#x335;" 
d="M-612 259l5 41h234l-5 -41h-234z" />
    <glyph glyph-name="uni0374" unicode="&#x374;" horiz-adv-x="226" 
d="M74 486l71 237h56l-79 -237h-48z" />
    <glyph glyph-name="uni0375" unicode="&#x375;" horiz-adv-x="226" 
d="M38 -141l71 238h56l-79 -238h-48z" />
    <glyph glyph-name="uni037E" unicode="&#x37e;" horiz-adv-x="201" 
d="M130 405q-19 0 -30.5 12t-11.5 30t12 30.5t31 12.5q18 0 30 -12t12 -30t-12.5 -30.5t-30.5 -12.5zM-1 -129l58 229h58l-76 -229h-40z" />
    <glyph glyph-name="tonos" unicode="&#x384;" horiz-adv-x="428" 
d="M202 545l79 158h62l-87 -158h-54z" />
    <glyph glyph-name="dieresistonos" unicode="&#x385;" horiz-adv-x="534" 
d="M267 545l69 158h52l-77 -158h-44zM179 576q-18 0 -29.5 12t-11.5 30q0 19 12 31t31 12q18 0 30 -11.5t12 -29.5q0 -19 -12.5 -31.5t-31.5 -12.5zM437 576q-18 0 -29.5 12t-11.5 30q0 19 12 31t30 12t30 -11.5t12 -29.5q0 -19 -12 -31.5t-31 -12.5z" />
    <glyph glyph-name="Alphatonos" unicode="&#x386;" horiz-adv-x="606" 
d="M-1 0l330 710h60l159 -710h-58l-41 191h-304l-88 -191h-58zM36 552l88 158h61l-96 -158h-53zM167 242h272l-87 397h-2z" />
    <glyph glyph-name="anoteleia" unicode="&#x387;" horiz-adv-x="210" 
d="M135 405q-19 0 -30.5 12t-11.5 30t12 30.5t31 12.5q18 0 30 -12t12 -30t-12.5 -30.5t-30.5 -12.5z" />
    <glyph glyph-name="Epsilontonos" unicode="&#x388;" horiz-adv-x="546" 
d="M-75 552l88 158h61l-96 -158h-53zM64 0l87 710h384l-6 -52h-329l-34 -278h272l-5 -52h-273l-34 -276h347l-6 -52h-403z" />
    <glyph glyph-name="Etatonos" unicode="&#x389;" horiz-adv-x="668" 
d="M-75 552l88 158h61l-96 -158h-53zM64 0l87 710h56l-43 -348h370l42 348h56l-87 -710h-56l38 310h-369l-38 -310h-56z" />
    <glyph glyph-name="Iotatonos" unicode="&#x38a;" horiz-adv-x="255" 
d="M-70 552l88 158h61l-96 -158h-53zM70 0l87 710h56l-87 -710h-56z" />
    <glyph glyph-name="Omicrontonos" unicode="&#x38c;" horiz-adv-x="755" 
d="M349 -5q-127 0 -203 79t-76 218q0 112 44.5 208t129 155.5t190.5 59.5q127 0 203 -78t76 -218q0 -176 -100.5 -300t-263.5 -124zM-27 552l88 158h61l-96 -158h-53zM352 48q134 0 218 109t84 261q0 118 -59.5 181.5t-165.5 63.5q-131 0 -216 -111t-85 -259
q0 -116 60 -180.5t164 -64.5z" />
    <glyph glyph-name="Upsilontonos" unicode="&#x38e;" horiz-adv-x="532" 
d="M-129 552l88 158h61l-96 -158h-53zM208 0l39 320l-171 390h61l143 -333h2l226 333h65l-270 -390l-39 -320h-56z" />
    <glyph glyph-name="Omegatonos" unicode="&#x38f;" horiz-adv-x="719" 
d="M41 0l6 52h161v1q-62 45 -96.5 118.5t-34.5 159.5q0 160 93 272t242 112q119 0 192.5 -80.5t73.5 -207.5q0 -120 -56 -217.5t-153 -156.5v-1h155l-6 -52h-236l7 52q108 57 169.5 153t61.5 221q0 106 -57.5 170.5t-152.5 64.5q-124 0 -199.5 -98t-75.5 -233
q0 -89 39.5 -163t108.5 -115l-7 -52h-235zM-29 552l88 158h61l-96 -158h-53z" />
    <glyph glyph-name="iotadieresistonos" unicode="&#x390;" horiz-adv-x="261" 
d="M129 560l69 158h52l-77 -158h-44zM41 591q-18 0 -29.5 12t-11.5 30q0 19 12 31t31 12q18 0 30 -11.5t12 -29.5q0 -19 -12.5 -31.5t-31.5 -12.5zM299 591q-18 0 -29.5 12t-11.5 30q0 19 12 31t30 12t30 -11.5t12 -29.5q0 -19 -12 -31.5t-31 -12.5zM154 -5q-58 0 -75 34
t-9 98l44 358h52l-42 -346q-6 -50 2.5 -72.5t43.5 -22.5q23 0 47 11l9 -43q-36 -17 -72 -17z" />
    <glyph glyph-name="Alpha" unicode="&#x391;" horiz-adv-x="606" 
d="M-1 0l330 710h60l159 -710h-58l-41 191h-304l-88 -191h-58zM167 242h272l-87 397h-2z" />
    <glyph glyph-name="Beta" unicode="&#x392;" horiz-adv-x="587" 
d="M64 0l87 710h211q78 0 125 -34t47 -108q0 -61 -33.5 -115t-93.5 -75v-2q119 -28 119 -147q0 -110 -70 -169.5t-194 -59.5h-198zM168 395h150q70 0 114.5 47t44.5 119q0 97 -128 97h-149zM126 52h138q94 0 149 45.5t55 131.5q0 116 -151 116h-155z" />
    <glyph glyph-name="Gamma" unicode="&#x393;" horiz-adv-x="513" 
d="M63 0l88 710h394l-6 -52h-339l-81 -658h-56z" />
    <glyph glyph-name="uni0394" unicode="&#x394;" horiz-adv-x="586" 
d="M3 0l6 45l311 665h60l149 -665l-6 -45h-520zM70 52h400l-127 589h-1z" />
    <glyph glyph-name="Epsilon" unicode="&#x395;" horiz-adv-x="546" 
d="M64 0l87 710h384l-6 -52h-329l-34 -278h272l-5 -52h-273l-34 -276h347l-6 -52h-403z" />
    <glyph glyph-name="Zeta" unicode="&#x396;" horiz-adv-x="562" 
d="M29 0l6 46l437 610v2h-342l7 52h414l-6 -46l-439 -609l1 -3h366l-6 -52h-438z" />
    <glyph glyph-name="Eta" unicode="&#x397;" horiz-adv-x="668" 
d="M64 0l87 710h56l-43 -348h370l42 348h56l-87 -710h-56l38 310h-369l-38 -310h-56z" />
    <glyph glyph-name="Theta" unicode="&#x398;" horiz-adv-x="759" 
d="M352 -5q-127 0 -203 79t-76 218q0 112 44.5 208t129 155.5t190.5 59.5q127 0 203 -78t76 -218q0 -176 -100.5 -300t-263.5 -124zM355 48q134 0 218 109t84 261q0 118 -59.5 181.5t-165.5 63.5q-131 0 -216 -111t-85 -259q0 -116 60 -180.5t164 -64.5zM220 326l6 51h336
l-5 -51h-337z" />
    <glyph glyph-name="Iota" unicode="&#x399;" horiz-adv-x="255" 
d="M70 0l87 710h56l-87 -710h-56z" />
    <glyph glyph-name="Kappa" unicode="&#x39a;" horiz-adv-x="588" 
d="M607 710l-287 -324l205 -386h-65l-181 345l-136 -152l-23 -193h-56l87 710h56l-53 -430l2 -1l380 431h71z" />
    <glyph glyph-name="Lambda" unicode="&#x39b;" horiz-adv-x="605" 
d="M0 0l328 710h61l156 -710h-59l-134 638h-3l-290 -638h-59z" />
    <glyph glyph-name="Mu" unicode="&#x39c;" horiz-adv-x="808" 
d="M64 0l87 710h56l194 -489h3l312 489h55l-86 -710h-56l72 591h-3l-284 -442h-41l-179 449h-2l-72 -598h-56z" />
    <glyph glyph-name="Nu" unicode="&#x39d;" horiz-adv-x="697" 
d="M64 0l87 710h54l323 -614l2 1l75 613h55l-87 -710h-56l-320 609h-3l-74 -609h-56z" />
    <glyph glyph-name="Xi" unicode="&#x39e;" horiz-adv-x="572" 
d="M123 658l7 52h427l-7 -52h-427zM121 326l6 52h350l-6 -52h-350zM36 0l7 53h440l-7 -53h-440z" />
    <glyph glyph-name="Omicron" unicode="&#x39f;" horiz-adv-x="755" 
d="M349 -5q-127 0 -203 79t-76 218q0 112 44.5 208t129 155.5t190.5 59.5q127 0 203 -78t76 -218q0 -176 -100.5 -300t-263.5 -124zM352 48q134 0 218 109t84 261q0 118 -59.5 181.5t-165.5 63.5q-131 0 -216 -111t-85 -259q0 -116 60 -180.5t164 -64.5z" />
    <glyph glyph-name="Pi" unicode="&#x3a0;" horiz-adv-x="646" 
d="M63 0l88 710h460l-88 -710h-56l82 658h-349l-81 -658h-56z" />
    <glyph glyph-name="Rho" unicode="&#x3a1;" horiz-adv-x="563" 
d="M64 0l87 710h220q90 0 135.5 -45.5t45.5 -128.5q0 -113 -66.5 -180.5t-184.5 -67.5h-146l-35 -288h-56zM161 339h146q88 0 137.5 53.5t49.5 143.5q0 61 -36.5 91.5t-97.5 30.5h-160z" />
    <glyph glyph-name="Sigma" unicode="&#x3a3;" horiz-adv-x="528" 
d="M28 0l5 42l225 315l-148 310l5 43h422l-5 -52h-352l-1 -2l144 -299l-219 -304l-1 -1h354l-7 -52h-422z" />
    <glyph glyph-name="Tau" unicode="&#x3a4;" horiz-adv-x="513" 
d="M198 0l81 658h-198l6 52h455l-7 -52h-200l-81 -658h-56z" />
    <glyph glyph-name="Upsilon" unicode="&#x3a5;" horiz-adv-x="532" 
d="M208 0l39 320l-171 390h61l143 -333h2l226 333h65l-270 -390l-39 -320h-56z" />
    <glyph glyph-name="Phi" unicode="&#x3a6;" horiz-adv-x="781" 
d="M741 402q0 -139 -92 -234t-253 -99l-9 -69h-55l9 69q-124 5 -198 73t-74 183q0 139 94 237.5t251 102.5l7 57h55l-7 -57q124 -6 198 -75t74 -188zM127 327q0 -94 58 -148t162 -59l62 495q-127 -5 -204.5 -86.5t-77.5 -201.5zM401 120q130 4 206 83t76 196
q0 100 -57 155.5t-164 60.5z" />
    <glyph glyph-name="Chi" unicode="&#x3a7;" horiz-adv-x="578" 
d="M0 0l266 355l-177 355h63l154 -311h3l228 311h69l-266 -356l179 -354h-66l-154 308h-3l-230 -308h-66z" />
    <glyph glyph-name="Psi" unicode="&#x3a8;" horiz-adv-x="724" 
d="M649 710h56l-31 -254q-18 -142 -87.5 -211.5t-205.5 -69.5h-1l-21 -175h-55l21 175q-258 1 -222 283l32 252h56l-32 -250q-15 -117 24 -175t149 -59l59 484h55l-59 -484q106 1 161 56.5t71 179.5z" />
    <glyph glyph-name="uni03A9" unicode="&#x3a9;" horiz-adv-x="719" 
d="M41 0l6 52h161v1q-62 45 -96.5 118.5t-34.5 159.5q0 160 93 272t242 112q119 0 192.5 -80.5t73.5 -207.5q0 -120 -56 -217.5t-153 -156.5v-1h155l-6 -52h-236l7 52q108 57 169.5 153t61.5 221q0 106 -57.5 170.5t-152.5 64.5q-124 0 -199.5 -98t-75.5 -233
q0 -89 39.5 -163t108.5 -115l-7 -52h-235z" />
    <glyph glyph-name="Iotadieresis" unicode="&#x3aa;" horiz-adv-x="255" 
d="M98 810q-18 0 -29.5 12t-11.5 30q0 19 12 31t31 12q18 0 30 -11.5t12 -29.5q0 -19 -12.5 -31.5t-31.5 -12.5zM307 810q-18 0 -30 12t-12 30q0 19 12.5 31t31.5 12q18 0 29.5 -11.5t11.5 -29.5q0 -19 -12 -31.5t-31 -12.5zM70 0l87 710h56l-87 -710h-56z" />
    <glyph glyph-name="Upsilondieresis" unicode="&#x3ab;" horiz-adv-x="532" 
d="M232 810q-18 0 -29.5 12t-11.5 30q0 19 12 31t31 12q18 0 30 -11.5t12 -29.5q0 -19 -12.5 -31.5t-31.5 -12.5zM441 810q-18 0 -30 12t-12 30q0 19 12.5 31t31.5 12q18 0 29.5 -11.5t11.5 -29.5q0 -19 -12 -31.5t-31 -12.5zM208 0l39 320l-171 390h61l143 -333h2l226 333
h65l-270 -390l-39 -320h-56z" />
    <glyph glyph-name="alphatonos" unicode="&#x3ac;" horiz-adv-x="567" 
d="M436 719l-87 -158h-54l79 158h62zM481 43q16 0 41 9l10 -41q-26 -14 -66 -16q-43 0 -62.5 33.5t-17.5 106.5l11 14h-12q-76 -154 -195 -154q-64 0 -106.5 52.5t-42.5 141.5q0 117 64 209t163 92q128 0 150 -175h1l68 177l48 -19l-102 -243l1 -86q1 -54 10.5 -77.5
t36.5 -23.5zM197 45q59 0 106.5 52t80.5 139q0 94 -29 149.5t-84 55.5q-79 0 -128 -77.5t-49 -169.5q0 -67 27.5 -108t75.5 -41z" />
    <glyph glyph-name="epsilontonos" unicode="&#x3ad;" horiz-adv-x="441" 
d="M237 561l79 158h62l-87 -158h-54zM188 -5q-74 0 -114.5 31t-40.5 86q0 48 27.5 85t76.5 55v1q-68 30 -68 98q0 61 53 100t130 39q101 0 170 -56l-22 -40q-63 48 -142 48q-58 1 -97 -26t-39 -70q0 -31 25.5 -53.5t75.5 -22.5h77l-5 -43h-89q-51 0 -86 -31t-35 -73
q0 -37 28.5 -58t81.5 -21q98 0 180 60l18 -43q-93 -66 -205 -66z" />
    <glyph glyph-name="etatonos" unicode="&#x3ae;" horiz-adv-x="544" 
d="M424 719l-87 -158h-54l79 158h62zM355 490q150 0 123 -198l-64 -490h-52l64 487q21 152 -80 152q-62 0 -126 -71t-76 -168l-24 -202h-52l43 353q6 53 0 72.5t-25 19.5q-6 0 -22 -4l-1 42q18 7 37 7q37 0 52 -28.5t10 -92.5l-1 -17h1q34 63 86.5 100.5t106.5 37.5z" />
    <glyph glyph-name="iotatonos" unicode="&#x3af;" horiz-adv-x="261" 
d="M125 560l79 158h62l-87 -158h-54zM154 -5q-58 0 -75 34t-9 98l44 358h52l-42 -346q-6 -50 2.5 -72.5t43.5 -22.5q23 0 47 11l9 -43q-36 -17 -72 -17z" />
    <glyph glyph-name="upsilondieresistonos" unicode="&#x3b0;" horiz-adv-x="513" 
d="M276 561l69 158h52l-77 -158h-44zM188 592q-18 0 -29.5 12t-11.5 30q0 19 12 31t31 12q18 0 30 -11.5t12 -29.5q0 -19 -12.5 -31.5t-31.5 -12.5zM446 592q-18 0 -29.5 12t-11.5 30q0 19 12 31t30 12t30 -11.5t12 -29.5q0 -19 -12 -31.5t-31 -12.5zM213 -5
q-70 0 -110 45.5t-35 123.5q4 56 20 135t17 107q1 23 -7.5 30t-22.5 7q-11 0 -21 -3l-1 42q22 8 43 8q33 0 48 -15.5t14 -58.5q-1 -35 -17.5 -116t-20.5 -130q-4 -57 22 -91.5t74 -34.5q90 0 145 95.5t55 233.5q0 58 -8 110l50 9q12 -62 12 -122q0 -100 -27.5 -183
t-87.5 -137.5t-142 -54.5z" />
    <glyph glyph-name="alpha" unicode="&#x3b1;" horiz-adv-x="567" 
d="M481 43q16 0 41 9l10 -41q-26 -14 -66 -16q-43 0 -62.5 33.5t-17.5 106.5l11 14h-12q-76 -154 -195 -154q-64 0 -106.5 52.5t-42.5 141.5q0 117 64 209t163 92q128 0 150 -175h1l68 177l48 -19l-102 -243l1 -86q1 -54 10.5 -77.5t36.5 -23.5zM197 45q59 0 106.5 52
t80.5 139q0 94 -29 149.5t-84 55.5q-79 0 -128 -77.5t-49 -169.5q0 -67 27.5 -108t75.5 -41z" />
    <glyph glyph-name="beta" unicode="&#x3b2;" horiz-adv-x="535" 
d="M384 394q46 -21 73.5 -68t27.5 -105q0 -96 -61 -161t-158 -65q-96 0 -151 64t-55 182q0 132 38.5 246t110.5 184t161 70q73 0 111.5 -40t38.5 -102q0 -63 -38.5 -116t-96.5 -86zM367 693q-89 0 -156.5 -99t-90.5 -251q156 28 251 97t96 154q0 45 -25.5 72t-74.5 27z
M268 44q72 0 118 52.5t46 125.5q0 50 -26 88.5t-68 53.5q-94 -45 -222 -67q-3 -30 -3 -53q0 -93 41 -146.5t114 -53.5z" />
    <glyph glyph-name="gamma" unicode="&#x3b3;" horiz-adv-x="482" 
d="M149 -198q23 178 0 351q-19 159 -40.5 225t-53.5 66q-10 0 -19 -3l-2 42q15 7 34 7q49 0 76 -61t45 -196q15 -97 20 -173h2q157 220 201 425h55q-29 -141 -93 -259.5t-158 -241.5q0 -72 -12 -182h-55z" />
    <glyph glyph-name="delta" unicode="&#x3b4;" horiz-adv-x="533" 
d="M345 485q145 -62 145 -205q0 -121 -68 -203t-177 -82q-96 0 -149.5 56t-53.5 144q0 93 50 168.5t136 115.5q-81 38 -81 119q0 62 51 102.5t133 40.5q105 0 175 -58l-27 -43q-70 53 -150 53q-56 0 -92.5 -25.5t-36.5 -68.5q0 -59 76 -88q8 -3 32 -11.5t37 -14.5zM246 44
q83 0 136.5 66t53.5 164q0 120 -123 169q-3 1 -33 14q-84 -33 -134.5 -103t-49.5 -157q1 -71 41.5 -112t108.5 -41z" />
    <glyph glyph-name="epsilon" unicode="&#x3b5;" horiz-adv-x="441" 
d="M188 -5q-74 0 -114.5 31t-40.5 86q0 48 27.5 85t76.5 55v1q-68 30 -68 98q0 61 53 100t130 39q101 0 170 -56l-22 -40q-63 48 -142 48q-58 1 -97 -26t-39 -70q0 -31 25.5 -53.5t75.5 -22.5h77l-5 -43h-89q-51 0 -86 -31t-35 -73q0 -37 28.5 -58t81.5 -21q98 0 180 60
l18 -43q-93 -66 -205 -66z" />
    <glyph glyph-name="zeta" unicode="&#x3b6;" horiz-adv-x="403" 
d="M279 -206l-43 27q34 40 51 67.5t17 54.5q0 23 -17 35t-69 33q-31 12 -46.5 19t-40 20t-37 25.5t-26.5 30t-19.5 40t-5.5 49.5q0 62 30.5 130.5t83.5 133.5t109 120t122 109v2h-266l5 46h341l-5 -42q-161 -123 -264 -258t-103 -239q0 -30 8.5 -50.5t30.5 -37t41 -26
t59 -26.5q8 -3 12 -5q63 -26 86.5 -47t23.5 -57q0 -60 -78 -154z" />
    <glyph glyph-name="eta" unicode="&#x3b7;" horiz-adv-x="544" 
d="M355 490q150 0 123 -198l-64 -490h-52l64 487q21 152 -80 152q-62 0 -126 -71t-76 -168l-24 -202h-52l43 353q6 53 0 72.5t-25 19.5q-6 0 -22 -4l-1 42q18 7 37 7q37 0 52 -28.5t10 -92.5l-1 -17h1q34 63 86.5 100.5t106.5 37.5z" />
    <glyph glyph-name="theta" unicode="&#x3b8;" horiz-adv-x="538" 
d="M326 741q182 0 182 -263q0 -92 -16 -175.5t-47 -154t-84 -112t-121 -41.5q-81 0 -130.5 62.5t-49.5 199.5q0 89 16.5 173t48.5 154.5t84 113.5t117 43zM325 692q-71 0 -125 -81.5t-76 -209.5h328q3 36 3 75q0 110 -31.5 163t-98.5 53zM240 44q79 0 134 86.5t73 223.5
h-329q-5 -52 -5 -94q0 -105 33 -160.5t94 -55.5z" />
    <glyph glyph-name="iota" unicode="&#x3b9;" horiz-adv-x="261" 
d="M154 -5q-58 0 -75 34t-9 98l44 358h52l-42 -346q-6 -50 2.5 -72.5t43.5 -22.5q23 0 47 11l9 -43q-36 -17 -72 -17z" />
    <glyph glyph-name="kappa" unicode="&#x3ba;" horiz-adv-x="520" 
d="M429 44q22 0 43 9l9 -42q-29 -16 -66 -16q-82 0 -106 123q-10 61 -17 159q-101 -104 -184 -207l-9 -70h-50l60 485h52l-38 -300q-2 -17 -6 -35l1 -1q137 177 336 351l39 -35q-77 -66 -158 -145q7 -108 21 -178q23 -98 73 -98z" />
    <glyph glyph-name="lambda" unicode="&#x3bb;" horiz-adv-x="474" 
d="M1 0l271 485l-26 113q-23 95 -82 95q-21 0 -45 -7l-3 45q26 10 60 10q50 0 78.5 -35t45.5 -104q66 -268 117 -602h-56q-33 224 -72 412h-1l-227 -412h-60z" />
    <glyph glyph-name="uni03BC" unicode="&#x3bc;" horiz-adv-x="542" 
d="M496 48l9 -41q-24 -12 -57 -12q-82 0 -75 107v5q-60 -112 -167 -112q-77 0 -101 70h-2q-1 -48 -8 -106l-19 -157h-52l84 683h52l-36 -293q-10 -77 17 -112.5t70 -35.5q64 0 115.5 54.5t63.5 152.5l29 234h52l-44 -358q-6 -44 1 -64t39 -20q9 0 29 5z" />
    <glyph glyph-name="nu" unicode="&#x3bd;" horiz-adv-x="482" 
d="M157 0l-100 485h56l84 -433h2q155 172 213 433h55q-32 -147 -96.5 -271.5t-153.5 -213.5h-60z" />
    <glyph glyph-name="xi" unicode="&#x3be;" horiz-adv-x="423" 
d="M283 -206l-42 27q69 82 69 120q0 23 -20.5 37t-92.5 44q-78 34 -116.5 75.5t-38.5 103.5q0 74 42 124t111 69v2q-67 31 -67 108q0 132 177 185v1h-173l6 46h329l-5 -46q-281 -38 -281 -182q0 -45 33.5 -70.5t100.5 -25.5h68l-4 -46h-79q-90 0 -147.5 -40.5t-57.5 -119.5
q0 -47 30 -79t97 -61q86 -37 114 -58t28 -62q0 -61 -81 -152z" />
    <glyph glyph-name="omicron" unicode="&#x3bf;" horiz-adv-x="530" 
d="M236 -5q-86 0 -139.5 53.5t-53.5 148.5q0 122 68.5 207.5t183.5 85.5q86 0 139 -52.5t53 -144.5q0 -128 -67.5 -213t-183.5 -85zM237 44q88 0 142.5 68.5t54.5 176.5q0 73 -40 112.5t-102 39.5q-84 0 -140 -70t-56 -169q0 -72 39.5 -115t101.5 -43z" />
    <glyph glyph-name="pi" unicode="&#x3c0;" horiz-adv-x="554" 
d="M452 439l-38 -310q-3 -27 -2.5 -46t10.5 -29.5t32 -10.5q12 0 32 6l8 -42q-26 -12 -56 -12q-91 0 -76 124l39 320h-219l-54 -439h-52l54 439h-86l5 41q36 5 93 5h419l-7 -46h-102z" />
    <glyph glyph-name="rho" unicode="&#x3c1;" horiz-adv-x="532" 
d="M11 -198l55 445q14 122 78.5 182.5t156.5 60.5q86 0 137.5 -53t51.5 -142q0 -129 -70 -214.5t-174 -85.5q-49 0 -89.5 22.5t-57.5 58.5h-2l-33 -274h-53zM243 44q82 0 138 72t56 175q0 67 -38 108.5t-101 41.5q-70 0 -119.5 -50.5t-60.5 -145.5l-12 -97q17 -55 56 -79.5
t81 -24.5z" />
    <glyph glyph-name="uni03C2" unicode="&#x3c2;" horiz-adv-x="448" 
d="M276 -206l-43 27q68 80 68 119q0 23 -19 37t-70 34q-30 13 -43.5 19t-38 19.5t-36.5 26t-26 31.5t-20 43.5t-6 54.5q0 117 69 201t175 84q45 0 88 -20t69 -58l-42 -32q-20 30 -52 45.5t-64 15.5q-82 0 -136 -68.5t-53 -166.5q0 -20 4.5 -37t8.5 -28.5t18 -23.5t20 -18
t29 -17t30.5 -14t37.5 -16q62 -25 86 -48t24 -59q0 -32 -19 -65.5t-59 -85.5z" />
    <glyph glyph-name="sigma" unicode="&#x3c3;" horiz-adv-x="533" 
d="M227 -4q-83 0 -133.5 53.5t-50.5 148.5q0 120 67 203.5t178 83.5h248l-6 -46h-126v-2q71 -53 71 -155q0 -118 -68.5 -202t-179.5 -84zM229 45q83 0 138.5 68t55.5 172q0 60 -26 99.5t-72 54.5h-37q-84 0 -138.5 -68t-54.5 -171q0 -71 36 -113t98 -42z" />
    <glyph glyph-name="tau" unicode="&#x3c4;" horiz-adv-x="415" 
d="M221 -5q-104 0 -86 140l37 304h-138l6 46h373l-5 -46h-184l-37 -302q-5 -47 5 -70t43 -23q45 0 88 31l8 -46q-51 -34 -110 -34z" />
    <glyph glyph-name="upsilon" unicode="&#x3c5;" horiz-adv-x="513" 
d="M213 -5q-70 0 -110 45.5t-35 123.5q4 56 20 135t17 107q1 23 -7.5 30t-22.5 7q-11 0 -21 -3l-1 42q22 8 43 8q33 0 48 -15.5t14 -58.5q-1 -35 -17.5 -116t-20.5 -130q-4 -57 22 -91.5t74 -34.5q90 0 145 95.5t55 233.5q0 58 -8 110l50 9q12 -62 12 -122
q0 -100 -27.5 -183t-87.5 -137.5t-142 -54.5z" />
    <glyph glyph-name="phi" unicode="&#x3c6;" horiz-adv-x="624" 
d="M584 299q-1 -139 -82 -220t-197 -83l-24 -194h-52l24 194q-90 2 -149.5 57.5t-59.5 156.5q0 165 129 287l41 -18q-117 -121 -117 -264q0 -80 44.5 -125t117.5 -45l34 274q11 91 52 131t94 39q60 0 102.5 -49t42.5 -141zM311 44q93 4 156.5 74t63.5 184q0 63 -26 101
t-69 38q-31 0 -57.5 -28.5t-34.5 -96.5z" />
    <glyph glyph-name="chi" unicode="&#x3c7;" horiz-adv-x="472" 
d="M378 -202q-38 0 -60 23.5t-43 93.5l-56 187h-2l-191 -300h-59l232 358l-65 208q-14 47 -28.5 61t-34.5 14q-5 0 -19 -2l-2 42q19 7 33 7q39 0 61 -23.5t42 -93.5l46 -157h2l174 269h60l-216 -328l75 -237q10 -33 21.5 -50.5t20 -21.5t21.5 -4q8 0 19 3l2 -42
q-17 -7 -33 -7z" />
    <glyph glyph-name="psi" unicode="&#x3c8;" horiz-adv-x="633" 
d="M577 493q13 -67 12 -126q0 -57 -9.5 -109.5t-30 -100.5t-51.5 -83.5t-77.5 -56.5t-103.5 -22l-24 -193h-52l24 193h-8q-88 0 -138.5 50.5t-46.5 141.5q2 49 17.5 120t15.5 99q1 23 -7.5 30t-22.5 7q-11 0 -21 -3l-1 42q22 8 46 8q30 0 45 -15.5t14 -58.5
q0 -34 -16 -107.5t-18 -118.5q-3 -70 34.5 -108t104.5 -38h8l73 591l52 5l-73 -596q71 1 120 47.5t71 117.5t23 162q0 53 -9 113z" />
    <glyph glyph-name="omega" unicode="&#x3c9;" horiz-adv-x="683" 
d="M177 -5q-63 0 -99.5 48t-36.5 135t34.5 172.5t95.5 146.5l44 -18q-58 -59 -89.5 -141t-31.5 -157q0 -66 24 -101.5t66 -35.5q50 0 84 53.5t47 149.5l14 117h52l-16 -130q-12 -88 6.5 -139t69.5 -51q67 0 105.5 71t38.5 167q0 105 -55 199l45 13q63 -96 63 -216
q0 -116 -53.5 -199.5t-142.5 -83.5q-100 0 -119 114h-2q-47 -114 -144 -114z" />
    <glyph glyph-name="iotadieresis" unicode="&#x3ca;" horiz-adv-x="261" 
d="M53 591q-18 0 -29.5 12t-11.5 30q0 19 12 31t30 12q19 0 31 -11.5t12 -29.5q0 -19 -12.5 -31.5t-31.5 -12.5zM262 591q-19 0 -30.5 12t-11.5 30q0 19 12 31t31 12q18 0 30 -11.5t12 -29.5q0 -19 -12.5 -31.5t-30.5 -12.5zM154 -5q-58 0 -75 34t-9 98l44 358h52l-42 -346
q-6 -50 2.5 -72.5t43.5 -22.5q23 0 47 11l9 -43q-36 -17 -72 -17z" />
    <glyph glyph-name="upsilondieresis" unicode="&#x3cb;" horiz-adv-x="513" 
d="M200 592q-18 0 -29.5 12t-11.5 30q0 19 12 31t30 12q19 0 31 -11.5t12 -29.5q0 -19 -12.5 -31.5t-31.5 -12.5zM409 592q-19 0 -30.5 12t-11.5 30q0 19 12 31t31 12q18 0 30 -11.5t12 -29.5q0 -19 -12.5 -31.5t-30.5 -12.5zM213 -5q-70 0 -110 45.5t-35 123.5q4 56 20 135
t17 107q1 23 -7.5 30t-22.5 7q-11 0 -21 -3l-1 42q22 8 43 8q33 0 48 -15.5t14 -58.5q-1 -35 -17.5 -116t-20.5 -130q-4 -57 22 -91.5t74 -34.5q90 0 145 95.5t55 233.5q0 58 -8 110l50 9q12 -62 12 -122q0 -100 -27.5 -183t-87.5 -137.5t-142 -54.5z" />
    <glyph glyph-name="omicrontonos" unicode="&#x3cc;" horiz-adv-x="530" 
d="M280 560l79 158h62l-87 -158h-54zM236 -5q-86 0 -139.5 53.5t-53.5 148.5q0 122 68.5 207.5t183.5 85.5q86 0 139 -52.5t53 -144.5q0 -128 -67.5 -213t-183.5 -85zM237 44q88 0 142.5 68.5t54.5 176.5q0 73 -40 112.5t-102 39.5q-84 0 -140 -70t-56 -169q0 -72 39.5 -115
t101.5 -43z" />
    <glyph glyph-name="upsilontonos" unicode="&#x3cd;" horiz-adv-x="513" 
d="M272 561l79 158h62l-87 -158h-54zM213 -5q-70 0 -110 45.5t-35 123.5q4 56 20 135t17 107q1 23 -7.5 30t-22.5 7q-11 0 -21 -3l-1 42q22 8 43 8q33 0 48 -15.5t14 -58.5q-1 -35 -17.5 -116t-20.5 -130q-4 -57 22 -91.5t74 -34.5q90 0 145 95.5t55 233.5q0 58 -8 110l50 9
q12 -62 12 -122q0 -100 -27.5 -183t-87.5 -137.5t-142 -54.5z" />
    <glyph glyph-name="omegatonos" unicode="&#x3ce;" horiz-adv-x="683" 
d="M355 561l79 158h62l-87 -158h-54zM177 -5q-63 0 -99.5 48t-36.5 135t34.5 172.5t95.5 146.5l44 -18q-58 -59 -89.5 -141t-31.5 -157q0 -66 24 -101.5t66 -35.5q50 0 84 53.5t47 149.5l14 117h52l-16 -130q-12 -88 6.5 -139t69.5 -51q67 0 105.5 71t38.5 167
q0 105 -55 199l45 13q63 -96 63 -216q0 -116 -53.5 -199.5t-142.5 -83.5q-100 0 -119 114h-2q-47 -114 -144 -114z" />
    <glyph glyph-name="uni03D7" unicode="&#x3d7;" horiz-adv-x="573" 
d="M406 50q25 -13 93 -15l-4 -29q-101 -117 -186 -169.5t-184 -52.5q-112 0 -184 64l27 36q68 -54 152 -54q153 0 298 164v2q-92 7 -115 125l-28 134q-70 -75 -165 -187l-8 -68h-50l59 485h52l-36 -300q0 -4 -2.5 -16.5t-3.5 -19.5h1q141 171 325 349l37 -33
q-97 -90 -171 -170l38 -157q17 -69 55 -88z" />
    <glyph glyph-name="uni1E0C" unicode="&#x1e0c;" horiz-adv-x="671" 
d="M64 0l87 710h189q138 0 212 -77t74 -213q0 -186 -104 -303t-274 -117h-184zM126 52h125q141 0 229 103.5t88 263.5q0 112 -60 175.5t-172 63.5h-135zM261 -109q18 0 29 -12t11 -30q0 -19 -12 -31t-30 -12t-30 11.5t-12 29.5q0 19 12.5 31.5t31.5 12.5z" />
    <glyph glyph-name="uni1E0D" unicode="&#x1e0d;" horiz-adv-x="553" 
d="M213 -5q-80 0 -124 54.5t-44 139.5q0 124 69.5 212.5t178.5 88.5q98 0 149 -57l2 1l37 302h52l-90 -736h-53l17 133l-2 1q-34 -64 -83.5 -101.5t-108.5 -37.5zM220 43q77 0 135.5 76.5t72.5 182.5l9 78q-23 33 -63.5 47.5t-78.5 14.5q-87 0 -141.5 -75.5t-54.5 -178.5
q0 -65 31.5 -105t89.5 -40zM231 -109q18 0 29 -12t11 -30q0 -19 -12 -31t-30 -12t-30 11.5t-12 29.5q0 19 12.5 31.5t31.5 12.5z" />
    <glyph glyph-name="uni1E0E" unicode="&#x1e0e;" horiz-adv-x="671" 
d="M64 0l87 710h189q138 0 212 -77t74 -213q0 -186 -104 -303t-274 -117h-184zM126 52h125q141 0 229 103.5t88 263.5q0 112 -60 175.5t-172 63.5h-135zM132 -182l6 46h251l-6 -46h-251z" />
    <glyph glyph-name="uni1E0F" unicode="&#x1e0f;" horiz-adv-x="553" 
d="M213 -5q-80 0 -124 54.5t-44 139.5q0 124 69.5 212.5t178.5 88.5q98 0 149 -57l2 1l37 302h52l-90 -736h-53l17 133l-2 1q-34 -64 -83.5 -101.5t-108.5 -37.5zM220 43q77 0 135.5 76.5t72.5 182.5l9 78q-23 33 -63.5 47.5t-78.5 14.5q-87 0 -141.5 -75.5t-54.5 -178.5
q0 -65 31.5 -105t89.5 -40zM102 -182l6 46h251l-6 -46h-251z" />
    <glyph glyph-name="uni1E20" unicode="&#x1e20;" horiz-adv-x="706" 
d="M328 822l6 45h251l-6 -45h-251zM352 -5q-129 0 -204.5 79t-75.5 219q0 172 102.5 297t257.5 125q143 0 231 -113l-45 -36q-75 96 -189 96q-85 0 -154.5 -51.5t-106.5 -135.5t-37 -181q0 -115 58.5 -180.5t164.5 -65.5q116 0 202 69l23 185h-208l6 52h264l-33 -267
q-49 -45 -117.5 -68.5t-138.5 -23.5z" />
    <glyph glyph-name="uni1E21" unicode="&#x1e21;" horiz-adv-x="544" 
d="M205 608l6 46h251l-6 -46h-251zM184 -202q-89 0 -160 40l17 49q69 -40 146 -40q89 0 141 46.5t68 175.5l10 79h-2q-34 -62 -84 -100t-109 -38q-79 0 -122.5 55t-43.5 140q0 113 69.5 199t177.5 86q98 0 147 -55l2 1l6 49h52l-51 -420q-10 -79 -33.5 -133.5t-60 -82.5
t-77 -39.5t-93.5 -11.5zM219 58q73 0 132.5 71.5t71.5 164.5l11 86q-24 32 -64 46.5t-76 14.5q-86 0 -141 -72.5t-55 -165.5q0 -65 31.5 -105t89.5 -40z" />
    <glyph glyph-name="uni1E24" unicode="&#x1e24;" horiz-adv-x="668" 
d="M64 0l87 710h56l-43 -348h370l42 348h56l-87 -710h-56l38 310h-369l-38 -310h-56zM289 -109q18 0 29 -12t11 -30q0 -19 -12 -31t-30 -12t-30 11.5t-12 29.5q0 19 12.5 31.5t31.5 12.5z" />
    <glyph glyph-name="uni1E25" unicode="&#x1e25;" horiz-adv-x="540" 
d="M51 0l91 736h52l-48 -386l2 -1q36 65 92 103t115 38q147 0 121 -198l-39 -292h-52l38 289q20 153 -81 153q-69 0 -135.5 -72t-78.5 -169l-24 -201h-53zM231 -109q18 0 29 -12t11 -30q0 -19 -12 -31t-30 -12t-30 11.5t-12 29.5q0 19 12.5 31.5t31.5 12.5z" />
    <glyph glyph-name="uni1E2A" unicode="&#x1e2a;" horiz-adv-x="668" 
d="M64 0l87 710h56l-43 -348h370l42 348h56l-87 -710h-56l38 310h-369l-38 -310h-56zM281 -213q-55 0 -82 35t-23 99h43q-7 -90 64 -90q38 0 63.5 25t31.5 65h43q-11 -63 -49 -98.5t-91 -35.5z" />
    <glyph glyph-name="uni1E2B" unicode="&#x1e2b;" horiz-adv-x="540" 
d="M51 0l91 736h52l-48 -386l2 -1q36 65 92 103t115 38q147 0 121 -198l-39 -292h-52l38 289q20 153 -81 153q-69 0 -135.5 -72t-78.5 -169l-24 -201h-53zM223 -213q-55 0 -82 35t-23 99h43q-7 -90 64 -90q38 0 63.5 25t31.5 65h43q-11 -63 -49 -98.5t-91 -35.5z" />
    <glyph glyph-name="uni1E30" unicode="&#x1e30;" horiz-adv-x="588" 
d="M480 916l-128 -128h-56l123 127zM607 710l-287 -324l205 -386h-65l-181 345l-136 -152l-23 -193h-56l87 710h56l-53 -430l2 -1l380 431h71z" />
    <glyph glyph-name="uni1E31" unicode="&#x1e31;" horiz-adv-x="481" 
d="M408 -4q-11 -2 -22 2q-21 4 -38.5 23.5t-26 37.5t-27.5 62l-35 81q-71 -58 -143 -93l-13 -109h-52l91 736h52l-70 -567l2 -1q100 56 176.5 143t104.5 174h53q-34 -127 -160 -248l43 -99q25 -58 40.5 -76.5t39.5 -22.5zM241 560l125 138h62l-129 -138h-58z" />
    <glyph glyph-name="uni1E36" unicode="&#x1e36;" horiz-adv-x="509" 
d="M64 0l87 710h56l-81 -658h332l-6 -52h-388zM243 -109q18 0 29 -12t11 -30q0 -19 -12 -31t-30 -12t-30 11.5t-12 29.5q0 19 12.5 31.5t31.5 12.5z" />
    <glyph glyph-name="uni1E37" unicode="&#x1e37;" horiz-adv-x="218" 
d="M56 0l90 736h53l-91 -736h-52zM68 -109q18 0 29 -12t11 -30q0 -19 -12 -31t-30 -12t-30 11.5t-12 29.5q0 19 12.5 31.5t31.5 12.5z" />
    <glyph glyph-name="uni1E38" unicode="&#x1e38;" horiz-adv-x="509" 
d="M205 822l6 45h251l-6 -45h-251zM64 0l87 710h56l-81 -658h332l-6 -52h-388zM243 -109q18 0 29 -12t11 -30q0 -19 -12 -31t-30 -12t-30 11.5t-12 29.5q0 19 12.5 31.5t31.5 12.5z" />
    <glyph glyph-name="uni1E39" unicode="&#x1e39;" horiz-adv-x="218" 
d="M61 835l6 45h251l-6 -45h-251zM56 0l90 736h53l-91 -736h-52zM64 -109q18 0 29 -12t11 -30q0 -19 -12 -31t-30 -12t-30 11.5t-12 29.5q0 19 12.5 31.5t31.5 12.5z" />
    <glyph glyph-name="uni1E3A" unicode="&#x1e3a;" horiz-adv-x="509" 
d="M64 0l87 710h56l-81 -658h332l-6 -52h-388zM114 -182l6 46h251l-6 -46h-251z" />
    <glyph glyph-name="uni1E3B" unicode="&#x1e3b;" horiz-adv-x="218" 
d="M56 0l90 736h53l-91 -736h-52zM-59 -182l6 46h251l-6 -46h-251z" />
    <glyph glyph-name="uni1E42" unicode="&#x1e42;" horiz-adv-x="808" 
d="M64 0l87 710h56l194 -489h3l312 489h55l-86 -710h-56l72 591h-3l-284 -442h-41l-179 449h-2l-72 -598h-56zM358 -109q18 0 29 -12t11 -30q0 -19 -12 -31t-30 -12t-30 11.5t-12 29.5q0 19 12.5 31.5t31.5 12.5z" />
    <glyph glyph-name="uni1E43" unicode="&#x1e43;" horiz-adv-x="820" 
d="M52 0l59 485h52l-16 -126l3 -1q34 61 84 96.5t101 35.5q114 0 118 -130l2 -1q34 61 83.5 96t102.5 35q144 0 118 -198l-40 -292h-52l39 289q20 153 -76 153q-60 0 -119 -69t-73 -172l-26 -201h-52l38 289q18 153 -75 153q-61 0 -122 -72t-73 -168l-24 -202h-52zM369 -109
q18 0 29 -12t11 -30q0 -19 -12 -31t-30 -12t-30 11.5t-12 29.5q0 19 12.5 31.5t31.5 12.5z" />
    <glyph glyph-name="uni1E44" unicode="&#x1e44;" horiz-adv-x="697" 
d="M429 828q-18 0 -29 12t-11 30q0 19 12 31t30 12t30 -11.5t12 -29.5q0 -19 -12.5 -31.5t-31.5 -12.5zM64 0l87 710h54l323 -614l2 1l75 613h55l-87 -710h-56l-320 609h-3l-74 -609h-56z" />
    <glyph glyph-name="uni1E45" unicode="&#x1e45;" horiz-adv-x="540" 
d="M335 591q-18 0 -29 12t-11 30q0 19 12 31t30 12t30 -11.5t12 -29.5q0 -19 -12.5 -31.5t-31.5 -12.5zM51 0l61 485h52l-17 -132h2q37 63 92.5 100t113.5 37q147 0 121 -198l-39 -292h-52l38 289q20 152 -81 152q-69 0 -135.5 -70.5t-78.5 -169.5l-24 -201h-53z" />
    <glyph glyph-name="uni1E46" unicode="&#x1e46;" horiz-adv-x="697" 
d="M64 0l87 710h54l323 -614l2 1l75 613h55l-87 -710h-56l-320 609h-3l-74 -609h-56zM306 -109q18 0 29 -12t11 -30q0 -19 -12 -31t-30 -12t-30 11.5t-12 29.5q0 19 12.5 31.5t31.5 12.5z" />
    <glyph glyph-name="uni1E47" unicode="&#x1e47;" horiz-adv-x="540" 
d="M51 0l61 485h52l-17 -132h2q37 63 92.5 100t113.5 37q147 0 121 -198l-39 -292h-52l38 289q20 152 -81 152q-69 0 -135.5 -70.5t-78.5 -169.5l-24 -201h-53zM231 -109q18 0 29 -12t11 -30q0 -19 -12 -31t-30 -12t-30 11.5t-12 29.5q0 19 12.5 31.5t31.5 12.5z" />
    <glyph glyph-name="uni1E48" unicode="&#x1e48;" horiz-adv-x="697" 
d="M64 0l87 710h54l323 -614l2 1l75 613h55l-87 -710h-56l-320 609h-3l-74 -609h-56zM177 -182l6 46h251l-6 -46h-251z" />
    <glyph glyph-name="uni1E49" unicode="&#x1e49;" horiz-adv-x="540" 
d="M51 0l61 485h52l-17 -132h2q37 63 92.5 100t113.5 37q147 0 121 -198l-39 -292h-52l38 289q20 152 -81 152q-69 0 -135.5 -70.5t-78.5 -169.5l-24 -201h-53zM102 -182l6 46h251l-6 -46h-251z" />
    <glyph glyph-name="uni1E5A" unicode="&#x1e5a;" horiz-adv-x="593" 
d="M64 0l87 710h222q90 0 135.5 -45.5t45.5 -128.5q0 -97 -51 -162t-143 -80l145 -294h-63l-140 288h-147l-35 -288h-56zM161 339h148q87 0 136.5 53.5t49.5 143.5q0 61 -36 91.5t-97 30.5h-162zM249 -109q18 0 29 -12t11 -30q0 -19 -12 -31t-30 -12t-30 11.5t-12 29.5
q0 19 12.5 31.5t31.5 12.5z" />
    <glyph glyph-name="uni1E5B" unicode="&#x1e5b;" horiz-adv-x="301" 
d="M52 0l59 485h52l-15 -126h2q59 111 168 131l-7 -62q-73 -7 -122 -69t-61 -157l-24 -202h-52zM68 -109q18 0 29 -12t11 -30q0 -19 -12 -31t-30 -12t-30 11.5t-12 29.5q0 19 12.5 31.5t31.5 12.5z" />
    <glyph glyph-name="uni1E5C" unicode="&#x1e5c;" horiz-adv-x="593" 
d="M240 822l6 45h251l-6 -45h-251zM64 0l87 710h222q90 0 135.5 -45.5t45.5 -128.5q0 -97 -51 -162t-143 -80l145 -294h-63l-140 288h-147l-35 -288h-56zM161 339h148q87 0 136.5 53.5t49.5 143.5q0 61 -36 91.5t-97 30.5h-162zM249 -109q18 0 29 -12t11 -30q0 -19 -12 -31
t-30 -12t-30 11.5t-12 29.5q0 19 12.5 31.5t31.5 12.5z" />
    <glyph glyph-name="uni1E5D" unicode="&#x1e5d;" horiz-adv-x="301" 
d="M112 608l6 46h251l-6 -46h-251zM52 0l59 485h52l-15 -126h2q59 111 168 131l-7 -62q-73 -7 -122 -69t-61 -157l-24 -202h-52zM68 -109q18 0 29 -12t11 -30q0 -19 -12 -31t-30 -12t-30 11.5t-12 29.5q0 19 12.5 31.5t31.5 12.5z" />
    <glyph glyph-name="uni1E5E" unicode="&#x1e5e;" horiz-adv-x="593" 
d="M64 0l87 710h222q90 0 135.5 -45.5t45.5 -128.5q0 -97 -51 -162t-143 -80l145 -294h-63l-140 288h-147l-35 -288h-56zM161 339h148q87 0 136.5 53.5t49.5 143.5q0 61 -36 91.5t-97 30.5h-162zM120 -182l6 46h251l-6 -46h-251z" />
    <glyph glyph-name="uni1E5F" unicode="&#x1e5f;" horiz-adv-x="301" 
d="M52 0l59 485h52l-15 -126h2q59 111 168 131l-7 -62q-73 -7 -122 -69t-61 -157l-24 -202h-52zM-61 -182l6 46h251l-6 -46h-251z" />
    <glyph glyph-name="uni1E60" unicode="&#x1e60;" horiz-adv-x="538" 
d="M336 828q-18 0 -29 12t-11 30q0 19 12 31t30 12t30 -11.5t12 -29.5q0 -19 -12.5 -31.5t-31.5 -12.5zM255 -5q-67 0 -128 30t-98 86l42 37q64 -100 181 -100q74 0 120.5 39.5t46.5 103.5q0 10 -2.5 20t-5 17.5t-10 16.5t-12 14.5t-16 14t-17 13t-20.5 13.5t-21 12.5
t-23.5 13.5t-23.5 13q-35 19 -50.5 28t-44 29.5t-41.5 37t-24 42t-11 54.5q0 83 59.5 134t152.5 51q55 0 106 -23t86 -64l-40 -37q-60 72 -156 72q-65 0 -107.5 -35.5t-42.5 -91.5q0 -20 9 -38.5t17.5 -30t32.5 -28t35 -23t44 -25.5q4 -2 30 -16.5t31.5 -18t27 -17
t27.5 -19.5t21.5 -19t20.5 -22.5t13.5 -23t11 -28t2.5 -30.5q0 -93 -62.5 -147.5t-160.5 -54.5z" />
    <glyph glyph-name="uni1E61" unicode="&#x1e61;" horiz-adv-x="403" 
d="M250 591q-18 0 -29 12t-11 30q0 19 12 31t30 12t30 -11.5t12 -29.5q0 -19 -12.5 -31.5t-31.5 -12.5zM179 -5q-104 0 -165 73l34 36q54 -61 131 -61q51 0 84 23t33 63q0 9 -1.5 16.5t-6.5 15t-8.5 12.5t-12 11t-13.5 9.5t-17 9.5l-17 8.5t-20 9t-19 8.5q-55 23 -86 52
t-31 77q0 60 45 96t109 36q89 0 145 -61l-35 -36q-46 51 -113 51q-42 0 -70 -23t-28 -61q0 -29 24.5 -49t69.5 -40q2 -1 19 -8.5t20 -9t18 -9.5t19 -11t16 -11t16 -13.5t11.5 -14.5t10.5 -17.5t5.5 -19t2.5 -22.5q1 -66 -48 -103t-122 -37z" />
    <glyph glyph-name="uni1E62" unicode="&#x1e62;" horiz-adv-x="538" 
d="M255 -5q-67 0 -128 30t-98 86l42 37q64 -100 181 -100q74 0 120.5 39.5t46.5 103.5q0 10 -2.5 20t-5 17.5t-10 16.5t-12 14.5t-16 14t-17 13t-20.5 13.5t-21 12.5t-23.5 13.5t-23.5 13q-35 19 -50.5 28t-44 29.5t-41.5 37t-24 42t-11 54.5q0 83 59.5 134t152.5 51
q55 0 106 -23t86 -64l-40 -37q-60 72 -156 72q-65 0 -107.5 -35.5t-42.5 -91.5q0 -20 9 -38.5t17.5 -30t32.5 -28t35 -23t44 -25.5q4 -2 30 -16.5t31.5 -18t27 -17t27.5 -19.5t21.5 -19t20.5 -22.5t13.5 -23t11 -28t2.5 -30.5q0 -93 -62.5 -147.5t-160.5 -54.5zM235 -109
q18 0 29 -12t11 -30q0 -19 -12 -31t-30 -12t-30 11.5t-12 29.5q0 19 12.5 31.5t31.5 12.5z" />
    <glyph glyph-name="uni1E63" unicode="&#x1e63;" horiz-adv-x="403" 
d="M179 -5q-104 0 -165 73l34 36q54 -61 131 -61q51 0 84 23t33 63q0 9 -1.5 16.5t-6.5 15t-8.5 12.5t-12 11t-13.5 9.5t-17 9.5l-17 8.5t-20 9t-19 8.5q-55 23 -86 52t-31 77q0 60 45 96t109 36q89 0 145 -61l-35 -36q-46 51 -113 51q-42 0 -70 -23t-28 -61q0 -29 24.5 -49
t69.5 -40q2 -1 19 -8.5t20 -9t18 -9.5t19 -11t16 -11t16 -13.5t11.5 -14.5t10.5 -17.5t5.5 -19t2.5 -22.5q1 -66 -48 -103t-122 -37zM158 -109q18 0 29 -12t11 -30q0 -19 -12 -31t-30 -12t-30 11.5t-12 29.5q0 19 12.5 31.5t31.5 12.5z" />
    <glyph glyph-name="uni1E6C" unicode="&#x1e6c;" horiz-adv-x="513" 
d="M198 0l81 658h-198l6 52h455l-7 -52h-200l-81 -658h-56zM210 -109q18 0 29 -12t11 -30q0 -19 -12 -31t-30 -12t-30 11.5t-12 29.5q0 19 12.5 31.5t31.5 12.5z" />
    <glyph glyph-name="uni1E6D" unicode="&#x1e6d;" horiz-adv-x="332" 
d="M159 -5q-104 0 -87 135l38 309h-58l6 46h57l21 167l53 10l-22 -177h155l-6 -46h-154l-37 -302q-12 -91 48 -91q42 0 88 33l7 -50q-49 -34 -109 -34zM137 -109q18 0 29 -12t11 -30q0 -19 -12 -31t-30 -12t-30 11.5t-12 29.5q0 19 12.5 31.5t31.5 12.5z" />
    <glyph glyph-name="uni1E6E" unicode="&#x1e6e;" horiz-adv-x="513" 
d="M198 0l81 658h-198l6 52h455l-7 -52h-200l-81 -658h-56zM80 -182l6 46h251l-6 -46h-251z" />
    <glyph glyph-name="uni1E6F" unicode="&#x1e6f;" horiz-adv-x="332" 
d="M159 -5q-104 0 -87 135l38 309h-58l6 46h57l21 167l53 10l-22 -177h155l-6 -46h-154l-37 -302q-12 -91 48 -91q42 0 88 33l7 -50q-49 -34 -109 -34zM8 -182l6 46h251l-6 -46h-251z" />
    <glyph glyph-name="Wgrave" unicode="&#x1e80;" horiz-adv-x="919" 
d="M491 785l-98 128l62 -1l92 -127h-56zM211 0l-119 710h58l100 -617h2l232 617h64l84 -612h3l246 612h61l-292 -710h-58l-87 618h-2l-234 -618h-58z" />
    <glyph glyph-name="wgrave" unicode="&#x1e81;" horiz-adv-x="772" 
d="M402 560l-96 138h61l91 -138h-56zM185 -5q-148 0 -121 200l38 290h52l-37 -286q-20 -155 81 -155q50 0 105 64.5t67 163.5l26 213h52l-34 -283q-11 -89 9 -123.5t64 -34.5q55 0 110.5 60t77.5 158q24 108 4 223h55q20 -126 -8 -238q-30 -124 -100 -188t-143 -64
q-58 0 -89.5 34.5t-32.5 101.5h-2q-30 -60 -80.5 -98t-93.5 -38z" />
    <glyph glyph-name="Wacute" unicode="&#x1e82;" horiz-adv-x="919" 
d="M502 788l123 127l61 1l-128 -128h-56zM211 0l-119 710h58l100 -617h2l232 617h64l84 -612h3l246 612h61l-292 -710h-58l-87 618h-2l-234 -618h-58z" />
    <glyph glyph-name="wacute" unicode="&#x1e83;" horiz-adv-x="772" 
d="M402 560l125 138h62l-129 -138h-58zM185 -5q-148 0 -121 200l38 290h52l-37 -286q-20 -155 81 -155q50 0 105 64.5t67 163.5l26 213h52l-34 -283q-11 -89 9 -123.5t64 -34.5q55 0 110.5 60t77.5 158q24 108 4 223h55q20 -126 -8 -238q-30 -124 -100 -188t-143 -64
q-58 0 -89.5 34.5t-32.5 101.5h-2q-30 -60 -80.5 -98t-93.5 -38z" />
    <glyph glyph-name="Wdieresis" unicode="&#x1e84;" horiz-adv-x="919" 
d="M457 810q-18 0 -29.5 12t-11.5 30q0 19 12 31t30 12q19 0 31 -11.5t12 -29.5q0 -19 -12.5 -31.5t-31.5 -12.5zM609 810q-18 0 -29.5 12t-11.5 30q0 19 12 31t31 12q18 0 30 -11.5t12 -29.5q0 -19 -12.5 -31.5t-31.5 -12.5zM211 0l-119 710h58l100 -617h2l232 617h64
l84 -612h3l246 612h61l-292 -710h-58l-87 618h-2l-234 -618h-58z" />
    <glyph glyph-name="wdieresis" unicode="&#x1e85;" horiz-adv-x="772" 
d="M364 591q-18 0 -29.5 12t-11.5 30q0 19 12 31t30 12q19 0 31 -11.5t12 -29.5q0 -19 -12.5 -31.5t-31.5 -12.5zM516 591q-18 0 -29.5 12t-11.5 30q0 19 12 31t31 12q18 0 30 -11.5t12 -29.5q0 -19 -12.5 -31.5t-31.5 -12.5zM185 -5q-148 0 -121 200l38 290h52l-37 -286
q-20 -155 81 -155q50 0 105 64.5t67 163.5l26 213h52l-34 -283q-11 -89 9 -123.5t64 -34.5q55 0 110.5 60t77.5 158q24 108 4 223h55q20 -126 -8 -238q-30 -124 -100 -188t-143 -64q-58 0 -89.5 34.5t-32.5 101.5h-2q-30 -60 -80.5 -98t-93.5 -38z" />
    <glyph glyph-name="uni1E8E" unicode="&#x1e8e;" horiz-adv-x="532" 
d="M341 828q-18 0 -29 12t-11 30q0 19 12 31t30 12t30 -11.5t12 -29.5q0 -19 -12.5 -31.5t-31.5 -12.5zM208 0l39 320l-171 390h61l143 -333h2l226 333h65l-270 -390l-39 -320h-56z" />
    <glyph glyph-name="uni1E8F" unicode="&#x1e8f;" horiz-adv-x="521" 
d="M305 591q-18 0 -29 12t-11 30q0 19 12 31t30 12t30 -11.5t12 -29.5q0 -19 -12.5 -31.5t-31.5 -12.5zM426 485h52l-52 -421q-18 -150 -83 -208t-164 -58q-84 0 -155 40l17 48q68 -40 139 -40q79 0 129.5 47.5t65.5 174.5l7 62l-2 1q-32 -62 -82.5 -99t-107.5 -37
q-156 0 -129 196l40 294h52l-39 -290q-11 -84 12.5 -117t75.5 -34q65 0 126 69.5t72 163.5z" />
    <glyph glyph-name="uni1E92" unicode="&#x1e92;" horiz-adv-x="562" 
d="M29 0l6 46l437 610v2h-342l7 52h414l-6 -46l-439 -609l1 -3h366l-6 -52h-438zM252 -109q18 0 29 -12t11 -30q0 -19 -12 -31t-30 -12t-30 11.5t-12 29.5q0 19 12.5 31.5t31.5 12.5z" />
    <glyph glyph-name="uni1E93" unicode="&#x1e93;" horiz-adv-x="427" 
d="M353 -24q-54 16 -125 20t-223 4l5 41l326 397v1h-265l6 46h335l-4 -39l-327 -398v-2q210 0 287 -24zM170 -109q18 0 29 -12t11 -30q0 -19 -12 -31t-30 -12t-30 11.5t-12 29.5q0 19 12.5 31.5t31.5 12.5z" />
    <glyph glyph-name="uni1E97" unicode="&#x1e97;" horiz-adv-x="332" 
d="M130 735q-18 0 -29.5 12t-11.5 30q0 19 12 31t30 12q19 0 31 -11.5t12 -29.5q0 -19 -12.5 -31.5t-31.5 -12.5zM282 735q-18 0 -29.5 12t-11.5 30q0 19 12 31t31 12q18 0 30 -11.5t12 -29.5q0 -19 -12.5 -31.5t-31.5 -12.5zM159 -5q-104 0 -87 135l38 309h-58l6 46h57
l21 167l53 10l-22 -177h155l-6 -46h-154l-37 -302q-12 -91 48 -91q42 0 88 33l7 -50q-49 -34 -109 -34z" />
    <glyph glyph-name="uni1E9E" unicode="&#x1e9e;" horiz-adv-x="701" 
d="M496 387q94 -54 121 -75q60 -52 61 -116q0 -92 -61 -146.5t-153 -54.5q-56 0 -111 24t-93 68l32 50q31 -45 76 -67.5t94 -22.5q68 0 113 40t45 104q0 20 -9 38.5t-19.5 31.5t-34 28.5t-37.5 23.5t-44 24q-46 24 -84 49l167 254l-1 4q-100 19 -182 19q-95 0 -144.5 -39
t-59.5 -124l-61 -500h-55l60 504q26 211 261 211q122 0 267 -37l-181 -273q3 -1 14 -7t19 -11z" />
    <glyph glyph-name="uni1EA0" unicode="&#x1ea0;" horiz-adv-x="606" 
d="M-1 0l330 710h60l159 -710h-58l-41 191h-304l-88 -191h-58zM167 242h272l-87 397h-2zM262 -109q18 0 29 -12t11 -30q0 -19 -12 -31t-30 -12t-30 11.5t-12 29.5q0 19 12.5 31.5t31.5 12.5z" />
    <glyph glyph-name="uni1EA1" unicode="&#x1ea1;" horiz-adv-x="542" 
d="M212 -5q-79 0 -123 55t-44 139q0 124 69 212.5t179 88.5q97 0 145 -56l3 1l6 50h52l-59 -485h-52l16 132h-2q-35 -63 -83.5 -100t-106.5 -37zM219 43q76 0 134 76.5t72 183.5l10 77q-24 32 -64.5 47t-76.5 15q-87 0 -141.5 -75.5t-54.5 -178.5q0 -65 31.5 -105t89.5 -40z
M231 -109q18 0 29 -12t11 -30q0 -19 -12 -31t-30 -12t-30 11.5t-12 29.5q0 19 12.5 31.5t31.5 12.5z" />
    <glyph glyph-name="uni1EA2" unicode="&#x1ea2;" horiz-adv-x="606" 
d="M387 791l-43 1q93 70 93 107q0 30 -39 30q-47 0 -85 -33l-8 35q51 37 106 37q70 0 70 -59q0 -57 -94 -118zM-1 0l330 710h60l159 -710h-58l-41 191h-304l-88 -191h-58zM167 242h272l-87 397h-2z" />
    <glyph glyph-name="uni1EA3" unicode="&#x1ea3;" horiz-adv-x="542" 
d="M350 554l-43 1q93 70 93 107q0 30 -39 30q-47 0 -85 -33l-8 35q51 37 106 37q70 0 70 -59q0 -57 -94 -118zM212 -5q-79 0 -123 55t-44 139q0 124 69 212.5t179 88.5q97 0 145 -56l3 1l6 50h52l-59 -485h-52l16 132h-2q-35 -63 -83.5 -100t-106.5 -37zM219 43
q76 0 134 76.5t72 183.5l10 77q-24 32 -64.5 47t-76.5 15q-87 0 -141.5 -75.5t-54.5 -178.5q0 -65 31.5 -105t89.5 -40z" />
    <glyph glyph-name="uni1EA4" unicode="&#x1ea4;" horiz-adv-x="606" 
d="M496 848l121 135h61l-136 -135h-46zM236 788l126 118h52l90 -118h-54l-65 83h-3l-91 -83h-55zM-1 0l330 710h60l159 -710h-58l-41 191h-304l-88 -191h-58zM167 242h272l-87 397h-2z" />
    <glyph glyph-name="uni1EA5" unicode="&#x1ea5;" horiz-adv-x="542" 
d="M440 642l120 138h61l-135 -138h-46zM204 558l123 140h51l93 -140h-55l-64 104h-1l-91 -104h-56zM212 -5q-79 0 -123 55t-44 139q0 124 69 212.5t179 88.5q97 0 145 -56l3 1l6 50h52l-59 -485h-52l16 132h-2q-35 -63 -83.5 -100t-106.5 -37zM219 43q76 0 134 76.5
t72 183.5l10 77q-24 32 -64.5 47t-76.5 15q-87 0 -141.5 -75.5t-54.5 -178.5q0 -65 31.5 -105t89.5 -40z" />
    <glyph glyph-name="uni1EA6" unicode="&#x1ea6;" horiz-adv-x="606" 
d="M531 847l-96 134h57l82 -134h-43zM236 788l126 118h52l90 -118h-54l-65 83h-3l-91 -83h-55zM-1 0l330 710h60l159 -710h-58l-41 191h-304l-88 -191h-58zM167 242h272l-87 397h-2z" />
    <glyph glyph-name="uni1EA7" unicode="&#x1ea7;" horiz-adv-x="542" 
d="M481 643l-96 138h57l83 -138h-44zM202 558l123 140h51l93 -140h-55l-64 104h-1l-91 -104h-56zM212 -5q-79 0 -123 55t-44 139q0 124 69 212.5t179 88.5q97 0 145 -56l3 1l6 50h52l-59 -485h-52l16 132h-2q-35 -63 -83.5 -100t-106.5 -37zM219 43q76 0 134 76.5t72 183.5
l10 77q-24 32 -64.5 47t-76.5 15q-87 0 -141.5 -75.5t-54.5 -178.5q0 -65 31.5 -105t89.5 -40z" />
    <glyph glyph-name="uni1EA8" unicode="&#x1ea8;" horiz-adv-x="606" 
d="M539 851l-40 1q4 3 20.5 14.5t23.5 17t18.5 16t16 19.5t4.5 18q0 27 -37 27q-44 0 -80 -28l-8 31q54 33 101 33q29 0 47.5 -13.5t18.5 -40.5q0 -48 -85 -95zM236 788l126 118h52l90 -118h-54l-65 83h-3l-91 -83h-55zM-1 0l330 710h60l159 -710h-58l-41 191h-304l-88 -191
h-58zM167 242h272l-87 397h-2z" />
    <glyph glyph-name="uni1EA9" unicode="&#x1ea9;" horiz-adv-x="542" 
d="M502 641l-41 1q89 65 89 102q0 29 -38 29q-44 0 -81 -32l-8 33q47 36 102 36q67 0 67 -57q0 -53 -90 -112zM203 558l123 140h51l93 -140h-55l-64 104h-1l-91 -104h-56zM212 -5q-79 0 -123 55t-44 139q0 124 69 212.5t179 88.5q97 0 145 -56l3 1l6 50h52l-59 -485h-52
l16 132h-2q-35 -63 -83.5 -100t-106.5 -37zM219 43q76 0 134 76.5t72 183.5l10 77q-24 32 -64.5 47t-76.5 15q-87 0 -141.5 -75.5t-54.5 -178.5q0 -65 31.5 -105t89.5 -40z" />
    <glyph glyph-name="uni1EAA" unicode="&#x1eaa;" horiz-adv-x="606" 
d="M466 924q-8 0 -16 2t-13 4t-13.5 7.5t-11 7t-11.5 9.5l-9 7q-32 26 -50 26q-37 0 -61 -58l-36 17q38 82 93 82q32 0 68 -32q4 -3 11 -8.5t11.5 -8.5l10.5 -7t11.5 -5.5t11.5 -1.5q37 0 61 59l34 -15q-17 -41 -41.5 -63t-49.5 -22zM236 788l126 118h52l90 -118h-54l-65 83
h-3l-91 -83h-55zM-1 0l330 710h60l159 -710h-58l-41 191h-304l-88 -191h-58zM167 242h272l-87 397h-2z" />
    <glyph glyph-name="uni1EAB" unicode="&#x1eab;" horiz-adv-x="542" 
d="M432 742q-29 0 -71 38q-29 25 -50 25q-37 0 -62 -58l-34 17q36 84 93 84q29 0 68 -31q2 -2 10 -9t11.5 -9.5t10 -7t12 -6t11.5 -1.5q35 0 60 60l33 -15q-17 -42 -41.5 -64.5t-50.5 -22.5zM205 558l123 140h51l93 -140h-55l-64 104h-1l-91 -104h-56zM212 -5q-79 0 -123 55
t-44 139q0 124 69 212.5t179 88.5q97 0 145 -56l3 1l6 50h52l-59 -485h-52l16 132h-2q-35 -63 -83.5 -100t-106.5 -37zM219 43q76 0 134 76.5t72 183.5l10 77q-24 32 -64.5 47t-76.5 15q-87 0 -141.5 -75.5t-54.5 -178.5q0 -65 31.5 -105t89.5 -40z" />
    <glyph glyph-name="uni1EAC" unicode="&#x1eac;" horiz-adv-x="606" 
d="M236 788l126 118h52l90 -118h-54l-65 83h-3l-91 -83h-55zM-1 0l330 710h60l159 -710h-58l-41 191h-304l-88 -191h-58zM167 242h272l-87 397h-2zM262 -109q18 0 29 -12t11 -30q0 -19 -12 -31t-30 -12t-30 11.5t-12 29.5q0 19 12.5 31.5t31.5 12.5z" />
    <glyph glyph-name="uni1EAD" unicode="&#x1ead;" horiz-adv-x="542" 
d="M203 558l123 140h51l93 -140h-55l-64 104h-1l-91 -104h-56zM212 -5q-79 0 -123 55t-44 139q0 124 69 212.5t179 88.5q97 0 145 -56l3 1l6 50h52l-59 -485h-52l16 132h-2q-35 -63 -83.5 -100t-106.5 -37zM219 43q76 0 134 76.5t72 183.5l10 77q-24 32 -64.5 47t-76.5 15
q-87 0 -141.5 -75.5t-54.5 -178.5q0 -65 31.5 -105t89.5 -40zM231 -109q18 0 29 -12t11 -30q0 -19 -12 -31t-30 -12t-30 11.5t-12 29.5q0 19 12.5 31.5t31.5 12.5z" />
    <glyph glyph-name="uni1EAE" unicode="&#x1eae;" horiz-adv-x="606" 
d="M364 890l121 134l60 1l-136 -135h-45zM373 780q-58 0 -87 30t-24 82l45 -1q-3 -31 13 -51.5t54 -20.5q39 0 66.5 21.5t35.5 51.5l45 -1q-11 -50 -52.5 -80.5t-95.5 -30.5zM-1 0l330 710h60l159 -710h-58l-41 191h-304l-88 -191h-58zM167 242h272l-87 397h-2z" />
    <glyph glyph-name="uni1EAF" unicode="&#x1eaf;" horiz-adv-x="542" 
d="M326 698l120 138h61l-135 -138h-46zM333 557q-55 0 -82 35t-23 99h43q-7 -90 64 -90q38 0 63.5 25t31.5 65h43q-11 -63 -49 -98.5t-91 -35.5zM212 -5q-79 0 -123 55t-44 139q0 124 69 212.5t179 88.5q97 0 145 -56l3 1l6 50h52l-59 -485h-52l16 132h-2
q-35 -63 -83.5 -100t-106.5 -37zM219 43q76 0 134 76.5t72 183.5l10 77q-24 32 -64.5 47t-76.5 15q-87 0 -141.5 -75.5t-54.5 -178.5q0 -65 31.5 -105t89.5 -40z" />
    <glyph glyph-name="uni1EB0" unicode="&#x1eb0;" horiz-adv-x="606" 
d="M368 890l-96 134h57l83 -134h-44zM373 780q-58 0 -87 30t-24 82l45 -1q-3 -31 13 -51.5t54 -20.5q39 0 66.5 21.5t35.5 51.5l45 -1q-11 -50 -52.5 -80.5t-95.5 -30.5zM-1 0l330 710h60l159 -710h-58l-41 191h-304l-88 -191h-58zM167 242h272l-87 397h-2z" />
    <glyph glyph-name="uni1EB1" unicode="&#x1eb1;" horiz-adv-x="542" 
d="M335 698l-96 138h57l83 -138h-44zM334 557q-55 0 -82 35t-23 99h43q-7 -90 64 -90q38 0 63.5 25t31.5 65h43q-11 -63 -49 -98.5t-91 -35.5zM212 -5q-79 0 -123 55t-44 139q0 124 69 212.5t179 88.5q97 0 145 -56l3 1l6 50h52l-59 -485h-52l16 132h-2q-35 -63 -83.5 -100
t-106.5 -37zM219 43q76 0 134 76.5t72 183.5l10 77q-24 32 -64.5 47t-76.5 15q-87 0 -141.5 -75.5t-54.5 -178.5q0 -65 31.5 -105t89.5 -40z" />
    <glyph glyph-name="uni1EB2" unicode="&#x1eb2;" horiz-adv-x="606" 
d="M399 890l-39 1q3 2 14.5 10t16 11.5t14.5 10.5t14.5 12t10 12t8 13.5t2.5 13.5q0 26 -36 26q-39 0 -76 -27l-7 30q48 32 96 32q63 0 63 -52q0 -50 -81 -93zM373 780q-58 0 -87 30t-24 82l45 -1q-3 -31 13 -51.5t54 -20.5q39 0 66.5 21.5t35.5 51.5l45 -1
q-11 -50 -52.5 -80.5t-95.5 -30.5zM-1 0l330 710h60l159 -710h-58l-41 191h-304l-88 -191h-58zM167 242h272l-87 397h-2z" />
    <glyph glyph-name="uni1EB3" unicode="&#x1eb3;" horiz-adv-x="542" 
d="M361 682l-41 1q89 65 89 102q0 29 -38 29q-44 0 -81 -32l-8 33q47 36 102 36q67 0 67 -57q0 -53 -90 -112zM334 546q-55 0 -83 34t-23 97h44q-7 -88 64 -88q39 0 65 24.5t32 63.5h43q-11 -61 -50 -96t-92 -35zM212 -5q-79 0 -123 55t-44 139q0 124 69 212.5t179 88.5
q97 0 145 -56l3 1l6 50h52l-59 -485h-52l16 132h-2q-35 -63 -83.5 -100t-106.5 -37zM219 43q76 0 134 76.5t72 183.5l10 77q-24 32 -64.5 47t-76.5 15q-87 0 -141.5 -75.5t-54.5 -178.5q0 -65 31.5 -105t89.5 -40z" />
    <glyph glyph-name="uni1EB4" unicode="&#x1eb4;" horiz-adv-x="606" 
d="M466 913q-8 0 -16 2t-13 4t-13.5 7.5t-11 7t-11.5 8.5l-9 8q-32 26 -50 26q-37 0 -61 -58l-36 17q38 82 93 82q32 0 68 -32q4 -3 11 -8.5t11.5 -8.5l10.5 -7t11.5 -5.5t11.5 -1.5q37 0 61 59l34 -15q-17 -41 -41.5 -63t-49.5 -22zM373 780q-58 0 -87 30t-24 82l45 -1
q-3 -31 13 -51.5t54 -20.5q39 0 66.5 21.5t35.5 51.5l45 -1q-11 -50 -52.5 -80.5t-95.5 -30.5zM-1 0l330 710h60l159 -710h-58l-41 191h-304l-88 -191h-58zM167 242h272l-87 397h-2z" />
    <glyph glyph-name="uni1EB5" unicode="&#x1eb5;" horiz-adv-x="542" 
d="M432 746q-29 0 -71 38q-29 25 -50 25q-37 0 -62 -58l-34 17q36 84 93 84q29 0 68 -31q2 -2 10 -9t11.5 -9.5t10 -7t12 -6t11.5 -1.5q35 0 60 60l33 -15q-17 -42 -41.5 -64.5t-50.5 -22.5zM334 557q-55 0 -82 35t-23 99h43q-7 -90 64 -90q38 0 63.5 25t31.5 65h43
q-11 -63 -49 -98.5t-91 -35.5zM212 -5q-79 0 -123 55t-44 139q0 124 69 212.5t179 88.5q97 0 145 -56l3 1l6 50h52l-59 -485h-52l16 132h-2q-35 -63 -83.5 -100t-106.5 -37zM219 43q76 0 134 76.5t72 183.5l10 77q-24 32 -64.5 47t-76.5 15q-87 0 -141.5 -75.5t-54.5 -178.5
q0 -65 31.5 -105t89.5 -40z" />
    <glyph glyph-name="uni1EB6" unicode="&#x1eb6;" horiz-adv-x="606" 
d="M371 783q-55 0 -82.5 33t-22.5 91l43 -1q-3 -34 12 -56.5t51 -22.5q37 0 63 23.5t33 56.5l43 -1q-11 -55 -50 -89t-90 -34zM-1 0l330 710h60l159 -710h-58l-41 191h-304l-88 -191h-58zM167 242h272l-87 397h-2zM262 -109q18 0 29 -12t11 -30q0 -19 -12 -31t-30 -12
t-30 11.5t-12 29.5q0 19 12.5 31.5t31.5 12.5z" />
    <glyph glyph-name="uni1EB7" unicode="&#x1eb7;" horiz-adv-x="542" 
d="M334 557q-55 0 -82 35t-23 99h43q-7 -90 64 -90q38 0 63.5 25t31.5 65h43q-11 -63 -49 -98.5t-91 -35.5zM212 -5q-79 0 -123 55t-44 139q0 124 69 212.5t179 88.5q97 0 145 -56l3 1l6 50h52l-59 -485h-52l16 132h-2q-35 -63 -83.5 -100t-106.5 -37zM219 43q76 0 134 76.5
t72 183.5l10 77q-24 32 -64.5 47t-76.5 15q-87 0 -141.5 -75.5t-54.5 -178.5q0 -65 31.5 -105t89.5 -40zM231 -109q18 0 29 -12t11 -30q0 -19 -12 -31t-30 -12t-30 11.5t-12 29.5q0 19 12.5 31.5t31.5 12.5z" />
    <glyph glyph-name="uni1EB8" unicode="&#x1eb8;" horiz-adv-x="546" 
d="M64 0l87 710h384l-6 -52h-329l-34 -278h272l-5 -52h-273l-34 -276h347l-6 -52h-403zM257 -109q18 0 29 -12t11 -30q0 -19 -12 -31t-30 -12t-30 11.5t-12 29.5q0 19 12.5 31.5t31.5 12.5z" />
    <glyph glyph-name="uni1EB9" unicode="&#x1eb9;" horiz-adv-x="466" 
d="M236 45q80 0 140 68l40 -30q-75 -87 -181 -87q-86 0 -138 54t-52 147q0 122 70 207.5t181 85.5q53 0 99 -29.5t46 -91.5q0 -151 -344 -179q2 -68 40.5 -106.5t98.5 -38.5zM295 442q-74 0 -130 -58t-66 -150q289 23 289 132q0 41 -28.5 58.5t-64.5 17.5zM219 -109
q18 0 29 -12t11 -30q0 -19 -12 -31t-30 -12t-30 11.5t-12 29.5q0 19 12.5 31.5t31.5 12.5z" />
    <glyph glyph-name="uni1EBA" unicode="&#x1eba;" horiz-adv-x="546" 
d="M376 783l-43 1q3 2 22 15.5t25.5 19t19.5 17t17.5 21t4.5 19.5q0 29 -40 29q-46 0 -85 -30l-8 33q54 36 107 36q31 0 50.5 -14.5t19.5 -43.5q0 -54 -90 -103zM64 0l87 710h384l-6 -52h-329l-34 -278h272l-5 -52h-273l-34 -276h347l-6 -52h-403z" />
    <glyph glyph-name="uni1EBB" unicode="&#x1ebb;" horiz-adv-x="466" 
d="M318 692q-47 0 -85 -33l-8 35q51 37 106 37q70 0 70 -59q0 -57 -94 -118l-43 1q93 70 93 107q0 30 -39 30zM236 45q80 0 140 68l40 -30q-75 -87 -181 -87q-86 0 -138 54t-52 147q0 122 70 207.5t181 85.5q53 0 99 -29.5t46 -91.5q0 -151 -344 -179q2 -68 40.5 -106.5
t98.5 -38.5zM295 442q-74 0 -130 -58t-66 -150q289 23 289 132q0 41 -28.5 58.5t-64.5 17.5z" />
    <glyph glyph-name="uni1EBC" unicode="&#x1ebc;" horiz-adv-x="546" 
d="M438 790q-30 0 -75 38q-33 26 -51 26q-37 0 -63 -59l-36 17q37 84 95 84q33 0 69 -32q2 -2 9 -7.5t10 -7.5t9 -6.5t10 -6t9 -3t10 -1.5q38 0 62 60l35 -15q-17 -42 -42 -64.5t-51 -22.5zM64 0l87 710h384l-6 -52h-329l-34 -278h272l-5 -52h-273l-34 -276h347l-6 -52h-403
z" />
    <glyph glyph-name="uni1EBD" unicode="&#x1ebd;" horiz-adv-x="466" 
d="M243 636q-38 0 -64 -59l-36 17q36 87 96 87q30 0 68 -32t57 -32q38 0 62 60l35 -15q-17 -44 -42 -67t-51 -23q-31 0 -75 39q-33 25 -50 25zM441 369q0 -151 -344 -179q2 -68 40.5 -106.5t98.5 -38.5q80 0 140 68l40 -30q-75 -87 -181 -87q-86 0 -138 54t-52 147
q0 122 70 207.5t181 85.5q53 0 99 -29.5t46 -91.5zM99 234q289 23 289 132q0 41 -28.5 58.5t-64.5 17.5q-74 0 -130 -58t-66 -150z" />
    <glyph glyph-name="uni1EBE" unicode="&#x1ebe;" horiz-adv-x="546" 
d="M486 850l121 135h61l-136 -135h-46zM226 790l126 118h52l90 -118h-54l-65 83h-3l-91 -83h-55zM64 0l87 710h384l-6 -52h-329l-34 -278h272l-5 -52h-273l-34 -276h347l-6 -52h-403z" />
    <glyph glyph-name="uni1EBF" unicode="&#x1ebf;" horiz-adv-x="466" 
d="M517 780h61l-135 -138h-46zM308 662l-91 -104h-56l123 140h51l93 -140h-55l-64 104h-1zM441 369q0 -151 -344 -179q2 -68 40.5 -106.5t98.5 -38.5q80 0 140 68l40 -30q-75 -87 -181 -87q-86 0 -138 54t-52 147q0 122 70 207.5t181 85.5q53 0 99 -29.5t46 -91.5zM99 234
q289 23 289 132q0 41 -28.5 58.5t-64.5 17.5q-74 0 -130 -58t-66 -150z" />
    <glyph glyph-name="uni1EC0" unicode="&#x1ec0;" horiz-adv-x="546" 
d="M521 849l-96 134h57l82 -134h-43zM226 790l126 118h52l90 -118h-54l-65 83h-3l-91 -83h-55zM64 0l87 710h384l-6 -52h-329l-34 -278h272l-5 -52h-273l-34 -276h347l-6 -52h-403z" />
    <glyph glyph-name="uni1EC1" unicode="&#x1ec1;" horiz-adv-x="466" 
d="M482 643h-44l-96 138h57zM306 662l-91 -104h-56l123 140h51l93 -140h-55l-64 104h-1zM441 369q0 -151 -344 -179q2 -68 40.5 -106.5t98.5 -38.5q80 0 140 68l40 -30q-75 -87 -181 -87q-86 0 -138 54t-52 147q0 122 70 207.5t181 85.5q53 0 99 -29.5t46 -91.5zM99 234
q289 23 289 132q0 41 -28.5 58.5t-64.5 17.5q-74 0 -130 -58t-66 -150z" />
    <glyph glyph-name="uni1EC2" unicode="&#x1ec2;" horiz-adv-x="546" 
d="M529 853l-40 1q4 3 20.5 14.5t23.5 17t18.5 16t16 19.5t4.5 18q0 27 -37 27q-44 0 -80 -28l-8 31q54 33 101 33q29 0 47.5 -13.5t18.5 -40.5q0 -48 -85 -95zM226 790l126 118h52l90 -118h-54l-65 83h-3l-91 -83h-55zM64 0l87 710h384l-6 -52h-329l-34 -278h272l-5 -52
h-273l-34 -276h347l-6 -52h-403z" />
    <glyph glyph-name="uni1EC3" unicode="&#x1ec3;" horiz-adv-x="466" 
d="M482 810q67 0 67 -57q0 -53 -90 -112l-41 1q89 65 89 102q0 29 -38 29q-44 0 -81 -32l-8 33q47 36 102 36zM307 662l-91 -104h-56l123 140h51l93 -140h-55l-64 104h-1zM441 369q0 -151 -344 -179q2 -68 40.5 -106.5t98.5 -38.5q80 0 140 68l40 -30q-75 -87 -181 -87
q-86 0 -138 54t-52 147q0 122 70 207.5t181 85.5q53 0 99 -29.5t46 -91.5zM99 234q289 23 289 132q0 41 -28.5 58.5t-64.5 17.5q-74 0 -130 -58t-66 -150z" />
    <glyph glyph-name="uni1EC4" unicode="&#x1ec4;" horiz-adv-x="546" 
d="M456 926q-8 0 -16 2t-13 4t-13.5 7.5t-11 7t-11.5 9.5l-9 7q-32 26 -50 26q-37 0 -61 -58l-36 17q38 82 93 82q32 0 68 -32q4 -3 11 -8.5t11.5 -8.5l10.5 -7t11.5 -5.5t11.5 -1.5q37 0 61 59l34 -15q-17 -41 -41.5 -63t-49.5 -22zM226 790l126 118h52l90 -118h-54l-65 83
h-3l-91 -83h-55zM64 0l87 710h384l-6 -52h-329l-34 -278h272l-5 -52h-273l-34 -276h347l-6 -52h-403z" />
    <glyph glyph-name="uni1EC5" unicode="&#x1ec5;" horiz-adv-x="466" 
d="M448 844l33 -15q-17 -42 -41.5 -64.5t-50.5 -22.5q-29 0 -71 38q-29 25 -50 25q-37 0 -62 -58l-34 17q36 84 93 84q29 0 68 -31q2 -2 10 -9t11.5 -9.5t10 -7t12 -6t11.5 -1.5q35 0 60 60zM310 662h-1l-91 -104h-56l123 140h51l93 -140h-55zM441 369q0 -151 -344 -179
q2 -68 40.5 -106.5t98.5 -38.5q80 0 140 68l40 -30q-75 -87 -181 -87q-86 0 -138 54t-52 147q0 122 70 207.5t181 85.5q53 0 99 -29.5t46 -91.5zM99 234q289 23 289 132q0 41 -28.5 58.5t-64.5 17.5q-74 0 -130 -58t-66 -150z" />
    <glyph glyph-name="uni1EC6" unicode="&#x1ec6;" horiz-adv-x="546" 
d="M226 790l126 118h52l90 -118h-54l-65 83h-3l-91 -83h-55zM64 0l87 710h384l-6 -52h-329l-34 -278h272l-5 -52h-273l-34 -276h347l-6 -52h-403zM257 -109q18 0 29 -12t11 -30q0 -19 -12 -31t-30 -12t-30 11.5t-12 29.5q0 19 12.5 31.5t31.5 12.5z" />
    <glyph glyph-name="uni1EC7" unicode="&#x1ec7;" horiz-adv-x="466" 
d="M307 662l-91 -104h-56l123 140h51l93 -140h-55l-64 104h-1zM236 45q80 0 140 68l40 -30q-75 -87 -181 -87q-86 0 -138 54t-52 147q0 122 70 207.5t181 85.5q53 0 99 -29.5t46 -91.5q0 -151 -344 -179q2 -68 40.5 -106.5t98.5 -38.5zM295 442q-74 0 -130 -58t-66 -150
q289 23 289 132q0 41 -28.5 58.5t-64.5 17.5zM219 -109q18 0 29 -12t11 -30q0 -19 -12 -31t-30 -12t-30 11.5t-12 29.5q0 19 12.5 31.5t31.5 12.5z" />
    <glyph glyph-name="uni1EC8" unicode="&#x1ec8;" horiz-adv-x="255" 
d="M209 781l-43 1q3 2 22 15.5t25.5 19t19.5 17t17.5 21t4.5 19.5q0 29 -40 29q-46 0 -85 -30l-8 33q54 36 107 36q31 0 50.5 -14.5t19.5 -43.5q0 -54 -90 -103zM70 0l87 710h56l-87 -710h-56z" />
    <glyph glyph-name="uni1EC9" unicode="&#x1ec9;" horiz-adv-x="223" 
d="M165 554l-43 1q93 70 93 107q0 30 -39 30q-47 0 -85 -33l-8 35q51 37 106 37q70 0 70 -59q0 -57 -94 -118zM56 0l59 485h52l-60 -485h-51z" />
    <glyph glyph-name="uni1ECA" unicode="&#x1eca;" horiz-adv-x="255" 
d="M70 0l87 710h56l-87 -710h-56zM81 -109q18 0 29 -12t11 -30q0 -19 -12 -31t-30 -12t-30 11.5t-12 29.5q0 19 12.5 31.5t31.5 12.5z" />
    <glyph glyph-name="uni1ECB" unicode="&#x1ecb;" horiz-adv-x="223" 
d="M160 591q-18 0 -29 12t-11 30q0 19 12 31t30 12t30 -11.5t12 -29.5q0 -19 -12.5 -31.5t-31.5 -12.5zM56 0l59 485h52l-60 -485h-51zM65 -109q18 0 29 -12t11 -30q0 -19 -12 -31t-30 -12t-30 11.5t-12 29.5q0 19 12.5 31.5t31.5 12.5z" />
    <glyph glyph-name="uni1ECC" unicode="&#x1ecc;" horiz-adv-x="755" 
d="M349 -5q-127 0 -203 79t-76 218q0 112 44.5 208t129 155.5t190.5 59.5q127 0 203 -78t76 -218q0 -176 -100.5 -300t-263.5 -124zM352 48q134 0 218 109t84 261q0 118 -59.5 181.5t-165.5 63.5q-131 0 -216 -111t-85 -259q0 -116 60 -180.5t164 -64.5zM332 -109
q18 0 29 -12t11 -30q0 -19 -12 -31t-30 -12t-30 11.5t-12 29.5q0 19 12.5 31.5t31.5 12.5z" />
    <glyph glyph-name="uni1ECD" unicode="&#x1ecd;" horiz-adv-x="539" 
d="M242 -5q-90 0 -144 54t-54 149q0 121 70.5 206.5t184.5 85.5q90 0 143 -52t53 -146q0 -128 -68.5 -212.5t-184.5 -84.5zM243 44q88 0 143.5 68.5t55.5 176.5q0 75 -40 114t-106 39q-86 0 -142.5 -69.5t-56.5 -170.5q0 -73 39.5 -115.5t106.5 -42.5zM224 -109q18 0 29 -12
t11 -30q0 -19 -12 -31t-30 -12t-30 11.5t-12 29.5q0 19 12.5 31.5t31.5 12.5z" />
    <glyph glyph-name="uni1ECE" unicode="&#x1ece;" horiz-adv-x="755" 
d="M478 781l-43 1q3 2 22 15.5t25.5 19t19.5 17t17.5 21t4.5 19.5q0 29 -40 29q-46 0 -85 -30l-8 33q54 36 107 36q31 0 50.5 -14.5t19.5 -43.5q0 -54 -90 -103zM349 -5q-127 0 -203 79t-76 218q0 112 44.5 208t129 155.5t190.5 59.5q127 0 203 -78t76 -218
q0 -176 -100.5 -300t-263.5 -124zM352 48q134 0 218 109t84 261q0 118 -59.5 181.5t-165.5 63.5q-131 0 -216 -111t-85 -259q0 -116 60 -180.5t164 -64.5z" />
    <glyph glyph-name="uni1ECF" unicode="&#x1ecf;" horiz-adv-x="539" 
d="M330 554l-43 1q93 70 93 107q0 30 -39 30q-47 0 -85 -33l-8 35q51 37 106 37q70 0 70 -59q0 -57 -94 -118zM242 -5q-90 0 -144 54t-54 149q0 121 70.5 206.5t184.5 85.5q90 0 143 -52t53 -146q0 -128 -68.5 -212.5t-184.5 -84.5zM243 44q88 0 143.5 68.5t55.5 176.5
q0 75 -40 114t-106 39q-86 0 -142.5 -69.5t-56.5 -170.5q0 -73 39.5 -115.5t106.5 -42.5z" />
    <glyph glyph-name="uni1ED0" unicode="&#x1ed0;" horiz-adv-x="755" 
d="M588 848l121 135h61l-136 -135h-46zM328 788l126 118h52l90 -118h-54l-65 83h-3l-91 -83h-55zM349 -5q-127 0 -203 79t-76 218q0 112 44.5 208t129 155.5t190.5 59.5q127 0 203 -78t76 -218q0 -176 -100.5 -300t-263.5 -124zM352 48q134 0 218 109t84 261
q0 118 -59.5 181.5t-165.5 63.5q-131 0 -216 -111t-85 -259q0 -116 60 -180.5t164 -64.5z" />
    <glyph glyph-name="uni1ED1" unicode="&#x1ed1;" horiz-adv-x="539" 
d="M420 642l120 138h61l-135 -138h-46zM184 558l123 140h51l93 -140h-55l-64 104h-1l-91 -104h-56zM242 -5q-90 0 -144 54t-54 149q0 121 70.5 206.5t184.5 85.5q90 0 143 -52t53 -146q0 -128 -68.5 -212.5t-184.5 -84.5zM243 44q88 0 143.5 68.5t55.5 176.5q0 75 -40 114
t-106 39q-86 0 -142.5 -69.5t-56.5 -170.5q0 -73 39.5 -115.5t106.5 -42.5z" />
    <glyph glyph-name="uni1ED2" unicode="&#x1ed2;" horiz-adv-x="755" 
d="M623 847l-96 134h57l82 -134h-43zM328 788l126 118h52l90 -118h-54l-65 83h-3l-91 -83h-55zM349 -5q-127 0 -203 79t-76 218q0 112 44.5 208t129 155.5t190.5 59.5q127 0 203 -78t76 -218q0 -176 -100.5 -300t-263.5 -124zM352 48q134 0 218 109t84 261
q0 118 -59.5 181.5t-165.5 63.5q-131 0 -216 -111t-85 -259q0 -116 60 -180.5t164 -64.5z" />
    <glyph glyph-name="uni1ED3" unicode="&#x1ed3;" horiz-adv-x="539" 
d="M461 643l-96 138h57l83 -138h-44zM182 558l123 140h51l93 -140h-55l-64 104h-1l-91 -104h-56zM242 -5q-90 0 -144 54t-54 149q0 121 70.5 206.5t184.5 85.5q90 0 143 -52t53 -146q0 -128 -68.5 -212.5t-184.5 -84.5zM243 44q88 0 143.5 68.5t55.5 176.5q0 75 -40 114
t-106 39q-86 0 -142.5 -69.5t-56.5 -170.5q0 -73 39.5 -115.5t106.5 -42.5z" />
    <glyph glyph-name="uni1ED4" unicode="&#x1ed4;" horiz-adv-x="755" 
d="M631 851l-40 1q4 3 20.5 14.5t23.5 17t18.5 16t16 19.5t4.5 18q0 27 -37 27q-44 0 -80 -28l-8 31q54 33 101 33q29 0 47.5 -13.5t18.5 -40.5q0 -48 -85 -95zM328 788l126 118h52l90 -118h-54l-65 83h-3l-91 -83h-55zM349 -5q-127 0 -203 79t-76 218q0 112 44.5 208
t129 155.5t190.5 59.5q127 0 203 -78t76 -218q0 -176 -100.5 -300t-263.5 -124zM352 48q134 0 218 109t84 261q0 118 -59.5 181.5t-165.5 63.5q-131 0 -216 -111t-85 -259q0 -116 60 -180.5t164 -64.5z" />
    <glyph glyph-name="uni1ED5" unicode="&#x1ed5;" horiz-adv-x="539" 
d="M482 641l-41 1q89 65 89 102q0 29 -38 29q-44 0 -81 -32l-8 33q47 36 102 36q67 0 67 -57q0 -53 -90 -112zM183 558l123 140h51l93 -140h-55l-64 104h-1l-91 -104h-56zM242 -5q-90 0 -144 54t-54 149q0 121 70.5 206.5t184.5 85.5q90 0 143 -52t53 -146
q0 -128 -68.5 -212.5t-184.5 -84.5zM243 44q88 0 143.5 68.5t55.5 176.5q0 75 -40 114t-106 39q-86 0 -142.5 -69.5t-56.5 -170.5q0 -73 39.5 -115.5t106.5 -42.5z" />
    <glyph glyph-name="uni1ED6" unicode="&#x1ed6;" horiz-adv-x="755" 
d="M558 924q-8 0 -16 2t-13 4t-13.5 7.5t-11 7t-11.5 9.5l-9 7q-32 26 -50 26q-37 0 -61 -58l-36 17q38 82 93 82q32 0 68 -32q4 -3 11 -8.5t11.5 -8.5l10.5 -7t11.5 -5.5t11.5 -1.5q37 0 61 59l34 -15q-17 -41 -41.5 -63t-49.5 -22zM328 788l126 118h52l90 -118h-54l-65 83
h-3l-91 -83h-55zM349 -5q-127 0 -203 79t-76 218q0 112 44.5 208t129 155.5t190.5 59.5q127 0 203 -78t76 -218q0 -176 -100.5 -300t-263.5 -124zM352 48q134 0 218 109t84 261q0 118 -59.5 181.5t-165.5 63.5q-131 0 -216 -111t-85 -259q0 -116 60 -180.5t164 -64.5z" />
    <glyph glyph-name="uni1ED7" unicode="&#x1ed7;" horiz-adv-x="539" 
d="M412 742q-29 0 -71 38q-29 25 -50 25q-37 0 -62 -58l-34 17q36 84 93 84q29 0 68 -31q2 -2 10 -9t11.5 -9.5t10 -7t12 -6t11.5 -1.5q35 0 60 60l33 -15q-17 -42 -41.5 -64.5t-50.5 -22.5zM185 558l123 140h51l93 -140h-55l-64 104h-1l-91 -104h-56zM242 -5q-90 0 -144 54
t-54 149q0 121 70.5 206.5t184.5 85.5q90 0 143 -52t53 -146q0 -128 -68.5 -212.5t-184.5 -84.5zM243 44q88 0 143.5 68.5t55.5 176.5q0 75 -40 114t-106 39q-86 0 -142.5 -69.5t-56.5 -170.5q0 -73 39.5 -115.5t106.5 -42.5z" />
    <glyph glyph-name="uni1ED8" unicode="&#x1ed8;" horiz-adv-x="755" 
d="M328 788l126 118h52l90 -118h-54l-65 83h-3l-91 -83h-55zM349 -5q-127 0 -203 79t-76 218q0 112 44.5 208t129 155.5t190.5 59.5q127 0 203 -78t76 -218q0 -176 -100.5 -300t-263.5 -124zM352 48q134 0 218 109t84 261q0 118 -59.5 181.5t-165.5 63.5q-131 0 -216 -111
t-85 -259q0 -116 60 -180.5t164 -64.5zM332 -109q18 0 29 -12t11 -30q0 -19 -12 -31t-30 -12t-30 11.5t-12 29.5q0 19 12.5 31.5t31.5 12.5z" />
    <glyph glyph-name="uni1ED9" unicode="&#x1ed9;" horiz-adv-x="539" 
d="M183 558l123 140h51l93 -140h-55l-64 104h-1l-91 -104h-56zM242 -5q-90 0 -144 54t-54 149q0 121 70.5 206.5t184.5 85.5q90 0 143 -52t53 -146q0 -128 -68.5 -212.5t-184.5 -84.5zM243 44q88 0 143.5 68.5t55.5 176.5q0 75 -40 114t-106 39q-86 0 -142.5 -69.5
t-56.5 -170.5q0 -73 39.5 -115.5t106.5 -42.5zM224 -109q18 0 29 -12t11 -30q0 -19 -12 -31t-30 -12t-30 11.5t-12 29.5q0 19 12.5 31.5t31.5 12.5z" />
    <glyph glyph-name="uni1EDA" unicode="&#x1eda;" horiz-adv-x="807" 
d="M615 916l-128 -128h-56l123 127zM770 774h51l-13 -99q-18 -140 -111 -143q16 -48 16 -113q0 -176 -100.5 -300t-263.5 -124q-127 0 -203 79t-76 218q0 112 44.5 208t129 155.5t190.5 59.5q87 0 151.5 -37.5t97.5 -107.5q3 -1 8 -1q28 0 44 27t24 86zM352 48
q134 0 218 109t84 261q0 118 -59.5 181.5t-165.5 63.5q-131 0 -216 -111t-85 -259q0 -116 60 -180.5t164 -64.5z" />
    <glyph glyph-name="uni1EDB" unicode="&#x1edb;" horiz-adv-x="614" 
d="M476 698l-129 -138h-58l125 138h62zM576 565h51l-13 -99q-18 -143 -116 -143h-5q2 -20 2 -31q0 -128 -68.5 -212.5t-184.5 -84.5q-90 0 -144 54t-54 149q0 121 70.5 206.5t184.5 85.5q71 0 120 -33.5t67 -95.5q4 -1 11 -1q28 0 44 27t24 86zM243 44q88 0 143.5 68.5
t55.5 176.5q0 75 -40 114t-106 39q-86 0 -142.5 -69.5t-56.5 -170.5q0 -73 39.5 -115.5t106.5 -42.5z" />
    <glyph glyph-name="uni1EDC" unicode="&#x1edc;" horiz-adv-x="807" 
d="M499 788h-56l-98 128l62 -1zM770 774h51l-13 -99q-18 -140 -111 -143q16 -48 16 -113q0 -176 -100.5 -300t-263.5 -124q-127 0 -203 79t-76 218q0 112 44.5 208t129 155.5t190.5 59.5q87 0 151.5 -37.5t97.5 -107.5q3 -1 8 -1q28 0 44 27t24 86zM352 48q134 0 218 109
t84 261q0 118 -59.5 181.5t-165.5 63.5q-131 0 -216 -111t-85 -259q0 -116 60 -180.5t164 -64.5z" />
    <glyph glyph-name="uni1EDD" unicode="&#x1edd;" horiz-adv-x="614" 
d="M360 560h-56l-96 138h61zM576 565h51l-13 -99q-18 -143 -116 -143h-5q2 -20 2 -31q0 -128 -68.5 -212.5t-184.5 -84.5q-90 0 -144 54t-54 149q0 121 70.5 206.5t184.5 85.5q71 0 120 -33.5t67 -95.5q4 -1 11 -1q28 0 44 27t24 86zM243 44q88 0 143.5 68.5t55.5 176.5
q0 75 -40 114t-106 39q-86 0 -142.5 -69.5t-56.5 -170.5q0 -73 39.5 -115.5t106.5 -42.5z" />
    <glyph glyph-name="uni1EDE" unicode="&#x1ede;" horiz-adv-x="807" 
d="M484 903q-46 0 -85 -30l-8 33q54 36 107 36q31 0 50.5 -14.5t19.5 -43.5q0 -54 -90 -103l-43 1q3 2 22 15.5t25.5 19t19.5 17t17.5 21t4.5 19.5q0 29 -40 29zM770 774h51l-13 -99q-18 -140 -111 -143q16 -48 16 -113q0 -176 -100.5 -300t-263.5 -124q-127 0 -203 79
t-76 218q0 112 44.5 208t129 155.5t190.5 59.5q87 0 151.5 -37.5t97.5 -107.5q3 -1 8 -1q28 0 44 27t24 86zM352 48q134 0 218 109t84 261q0 118 -59.5 181.5t-165.5 63.5q-131 0 -216 -111t-85 -259q0 -116 60 -180.5t164 -64.5z" />
    <glyph glyph-name="uni1EDF" unicode="&#x1edf;" horiz-adv-x="614" 
d="M341 692q-47 0 -85 -33l-8 35q51 37 106 37q70 0 70 -59q0 -57 -94 -118l-43 1q93 70 93 107q0 30 -39 30zM576 565h51l-13 -99q-18 -143 -116 -143h-5q2 -20 2 -31q0 -128 -68.5 -212.5t-184.5 -84.5q-90 0 -144 54t-54 149q0 121 70.5 206.5t184.5 85.5q71 0 120 -33.5
t67 -95.5q4 -1 11 -1q28 0 44 27t24 86zM243 44q88 0 143.5 68.5t55.5 176.5q0 75 -40 114t-106 39q-86 0 -142.5 -69.5t-56.5 -170.5q0 -73 39.5 -115.5t106.5 -42.5z" />
    <glyph glyph-name="uni1EE0" unicode="&#x1ee0;" horiz-adv-x="807" 
d="M414 852q-37 0 -63 -59l-36 17q37 84 95 84q33 0 69 -32q2 -2 9 -7.5t10 -7.5t9 -6.5t10 -6t9 -3t10 -1.5q38 0 62 60l35 -15q-17 -42 -42 -64.5t-51 -22.5q-30 0 -75 38q-33 26 -51 26zM770 774h51l-13 -99q-18 -140 -111 -143q16 -48 16 -113q0 -176 -100.5 -300
t-263.5 -124q-127 0 -203 79t-76 218q0 112 44.5 208t129 155.5t190.5 59.5q87 0 151.5 -37.5t97.5 -107.5q3 -1 8 -1q28 0 44 27t24 86zM352 48q134 0 218 109t84 261q0 118 -59.5 181.5t-165.5 63.5q-131 0 -216 -111t-85 -259q0 -116 60 -180.5t164 -64.5z" />
    <glyph glyph-name="uni1EE1" unicode="&#x1ee1;" horiz-adv-x="614" 
d="M266 636q-38 0 -64 -59l-36 17q36 87 96 87q30 0 68 -32t57 -32q38 0 62 60l35 -15q-17 -44 -42 -67t-51 -23q-31 0 -75 39q-33 25 -50 25zM576 565h51l-13 -99q-18 -143 -116 -143h-5q2 -20 2 -31q0 -128 -68.5 -212.5t-184.5 -84.5q-90 0 -144 54t-54 149
q0 121 70.5 206.5t184.5 85.5q71 0 120 -33.5t67 -95.5q4 -1 11 -1q28 0 44 27t24 86zM243 44q88 0 143.5 68.5t55.5 176.5q0 75 -40 114t-106 39q-86 0 -142.5 -69.5t-56.5 -170.5q0 -73 39.5 -115.5t106.5 -42.5z" />
    <glyph glyph-name="uni1EE2" unicode="&#x1ee2;" horiz-adv-x="807" 
d="M770 774h51l-13 -99q-18 -140 -111 -143q16 -48 16 -113q0 -176 -100.5 -300t-263.5 -124q-127 0 -203 79t-76 218q0 112 44.5 208t129 155.5t190.5 59.5q87 0 151.5 -37.5t97.5 -107.5q3 -1 8 -1q28 0 44 27t24 86zM352 48q134 0 218 109t84 261q0 118 -59.5 181.5
t-165.5 63.5q-131 0 -216 -111t-85 -259q0 -116 60 -180.5t164 -64.5zM332 -109q18 0 29 -12t11 -30q0 -19 -12 -31t-30 -12t-30 11.5t-12 29.5q0 19 12.5 31.5t31.5 12.5z" />
    <glyph glyph-name="uni1EE3" unicode="&#x1ee3;" horiz-adv-x="614" 
d="M576 565h51l-13 -99q-18 -143 -116 -143h-5q2 -20 2 -31q0 -128 -68.5 -212.5t-184.5 -84.5q-90 0 -144 54t-54 149q0 121 70.5 206.5t184.5 85.5q71 0 120 -33.5t67 -95.5q4 -1 11 -1q28 0 44 27t24 86zM243 44q88 0 143.5 68.5t55.5 176.5q0 75 -40 114t-106 39
q-86 0 -142.5 -69.5t-56.5 -170.5q0 -73 39.5 -115.5t106.5 -42.5zM224 -109q18 0 29 -12t11 -30q0 -19 -12 -31t-30 -12t-30 11.5t-12 29.5q0 19 12.5 31.5t31.5 12.5z" />
    <glyph glyph-name="uni1EE4" unicode="&#x1ee4;" horiz-adv-x="653" 
d="M295 -5q-121 0 -171.5 79t-34.5 217l52 419h56l-52 -420q-14 -112 23.5 -176.5t128.5 -64.5q93 0 150.5 58t72.5 177l51 426h56l-52 -426q-35 -289 -280 -289zM278 -109q18 0 29 -12t11 -30q0 -19 -12 -31t-30 -12t-30 11.5t-12 29.5q0 19 12.5 31.5t31.5 12.5z" />
    <glyph glyph-name="uni1EE5" unicode="&#x1ee5;" horiz-adv-x="524" 
d="M193 -5q-156 0 -129 196l40 294h52l-39 -290q-12 -84 11.5 -117.5t76.5 -33.5q62 0 122.5 66.5t73.5 157.5l26 217h52l-59 -485h-53l17 130h-2q-33 -62 -83 -98.5t-106 -36.5zM223 -109q18 0 29 -12t11 -30q0 -19 -12 -31t-30 -12t-30 11.5t-12 29.5q0 19 12.5 31.5
t31.5 12.5z" />
    <glyph glyph-name="uni1EE6" unicode="&#x1ee6;" horiz-adv-x="653" 
d="M410 781l-43 1q3 2 22 15.5t25.5 19t19.5 17t17.5 21t4.5 19.5q0 29 -40 29q-46 0 -85 -30l-8 33q54 36 107 36q31 0 50.5 -14.5t19.5 -43.5q0 -54 -90 -103zM295 -5q-121 0 -171.5 79t-34.5 217l52 419h56l-52 -420q-14 -112 23.5 -176.5t128.5 -64.5q93 0 150.5 58
t72.5 177l51 426h56l-52 -426q-35 -289 -280 -289z" />
    <glyph glyph-name="uni1EE7" unicode="&#x1ee7;" horiz-adv-x="524" 
d="M311 554l-43 1q93 70 93 107q0 30 -39 30q-47 0 -85 -33l-8 35q51 37 106 37q70 0 70 -59q0 -57 -94 -118zM193 -5q-156 0 -129 196l40 294h52l-39 -290q-12 -84 11.5 -117.5t76.5 -33.5q62 0 122.5 66.5t73.5 157.5l26 217h52l-59 -485h-53l17 130h-2q-33 -62 -83 -98.5
t-106 -36.5z" />
    <glyph glyph-name="uni1EE8" unicode="&#x1ee8;" horiz-adv-x="716" 
d="M537 916l-128 -128h-56l123 127zM710 774h51l-13 -99q-18 -143 -116 -143q-14 0 -26 3l-31 -251q-35 -289 -280 -289q-121 0 -171.5 79t-34.5 217l52 419h56l-52 -420q-14 -112 23.5 -176.5t128.5 -64.5q93 0 150.5 58t72.5 177l51 426h56l-17 -138q12 -3 21 -3
q28 0 44 27t24 86z" />
    <glyph glyph-name="uni1EE9" unicode="&#x1ee9;" horiz-adv-x="592" 
d="M450 698l-129 -138h-58l125 138h62zM562 565h51l-13 -99q-18 -143 -116 -143q-12 0 -24 3l-40 -326h-53l17 130h-2q-33 -62 -83 -98.5t-106 -36.5q-156 0 -129 196l40 294h52l-39 -290q-12 -84 11.5 -117.5t76.5 -33.5q62 0 122.5 66.5t73.5 157.5l26 217h52l-15 -123
q14 -2 19 -2q28 0 44 27t24 86z" />
    <glyph glyph-name="uni1EEA" unicode="&#x1eea;" horiz-adv-x="716" 
d="M431 785h-56l-98 128l62 -1zM710 774h51l-13 -99q-18 -143 -116 -143q-14 0 -26 3l-31 -251q-35 -289 -280 -289q-121 0 -171.5 79t-34.5 217l52 419h56l-52 -420q-14 -112 23.5 -176.5t128.5 -64.5q93 0 150.5 58t72.5 177l51 426h56l-17 -138q12 -3 21 -3q28 0 44 27
t24 86z" />
    <glyph glyph-name="uni1EEB" unicode="&#x1eeb;" horiz-adv-x="592" 
d="M339 560h-56l-96 138h61zM562 565h51l-13 -99q-18 -143 -116 -143q-12 0 -24 3l-40 -326h-53l17 130h-2q-33 -62 -83 -98.5t-106 -36.5q-156 0 -129 196l40 294h52l-39 -290q-12 -84 11.5 -117.5t76.5 -33.5q62 0 122.5 66.5t73.5 157.5l26 217h52l-15 -123q14 -2 19 -2
q28 0 44 27t24 86z" />
    <glyph glyph-name="uni1EEC" unicode="&#x1eec;" horiz-adv-x="716" 
d="M416 903q-46 0 -85 -30l-8 33q54 36 107 36q31 0 50.5 -14.5t19.5 -43.5q0 -54 -90 -103l-43 1q3 2 22 15.5t25.5 19t19.5 17t17.5 21t4.5 19.5q0 29 -40 29zM710 774h51l-13 -99q-18 -143 -116 -143q-14 0 -26 3l-31 -251q-35 -289 -280 -289q-121 0 -171.5 79
t-34.5 217l52 419h56l-52 -420q-14 -112 23.5 -176.5t128.5 -64.5q93 0 150.5 58t72.5 177l51 426h56l-17 -138q12 -3 21 -3q28 0 44 27t24 86z" />
    <glyph glyph-name="uni1EED" unicode="&#x1eed;" horiz-adv-x="592" 
d="M322 692q-47 0 -85 -33l-8 35q51 37 106 37q70 0 70 -59q0 -57 -94 -118l-43 1q93 70 93 107q0 30 -39 30zM562 565h51l-13 -99q-18 -143 -116 -143q-12 0 -24 3l-40 -326h-53l17 130h-2q-33 -62 -83 -98.5t-106 -36.5q-156 0 -129 196l40 294h52l-39 -290
q-12 -84 11.5 -117.5t76.5 -33.5q62 0 122.5 66.5t73.5 157.5l26 217h52l-15 -123q14 -2 19 -2q28 0 44 27t24 86z" />
    <glyph glyph-name="uni1EEE" unicode="&#x1eee;" horiz-adv-x="716" 
d="M346 852q-37 0 -63 -59l-36 17q37 84 95 84q33 0 69 -32q2 -2 9 -7.5t10 -7.5t9 -6.5t10 -6t9 -3t10 -1.5q38 0 62 60l35 -15q-17 -42 -42 -64.5t-51 -22.5q-30 0 -75 38q-33 26 -51 26zM710 774h51l-13 -99q-18 -143 -116 -143q-14 0 -26 3l-31 -251q-35 -289 -280 -289
q-121 0 -171.5 79t-34.5 217l52 419h56l-52 -420q-14 -112 23.5 -176.5t128.5 -64.5q93 0 150.5 58t72.5 177l51 426h56l-17 -138q12 -3 21 -3q28 0 44 27t24 86z" />
    <glyph glyph-name="uni1EEF" unicode="&#x1eef;" horiz-adv-x="592" 
d="M247 636q-38 0 -64 -59l-36 17q36 87 96 87q30 0 68 -32t57 -32q38 0 62 60l35 -15q-17 -44 -42 -67t-51 -23q-31 0 -75 39q-33 25 -50 25zM562 565h51l-13 -99q-18 -143 -116 -143q-12 0 -24 3l-40 -326h-53l17 130h-2q-33 -62 -83 -98.5t-106 -36.5q-156 0 -129 196
l40 294h52l-39 -290q-12 -84 11.5 -117.5t76.5 -33.5q62 0 122.5 66.5t73.5 157.5l26 217h52l-15 -123q14 -2 19 -2q28 0 44 27t24 86z" />
    <glyph glyph-name="uni1EF0" unicode="&#x1ef0;" horiz-adv-x="716" 
d="M710 774h51l-13 -99q-18 -143 -116 -143q-14 0 -26 3l-31 -251q-35 -289 -280 -289q-121 0 -171.5 79t-34.5 217l52 419h56l-52 -420q-14 -112 23.5 -176.5t128.5 -64.5q93 0 150.5 58t72.5 177l51 426h56l-17 -138q12 -3 21 -3q28 0 44 27t24 86zM278 -109q18 0 29 -12
t11 -30q0 -19 -12 -31t-30 -12t-30 11.5t-12 29.5q0 19 12.5 31.5t31.5 12.5z" />
    <glyph glyph-name="uni1EF1" unicode="&#x1ef1;" horiz-adv-x="592" 
d="M562 565h51l-13 -99q-18 -143 -116 -143q-12 0 -24 3l-40 -326h-53l17 130h-2q-33 -62 -83 -98.5t-106 -36.5q-156 0 -129 196l40 294h52l-39 -290q-12 -84 11.5 -117.5t76.5 -33.5q62 0 122.5 66.5t73.5 157.5l26 217h52l-15 -123q14 -2 19 -2q28 0 44 27t24 86z
M223 -109q18 0 29 -12t11 -30q0 -19 -12 -31t-30 -12t-30 11.5t-12 29.5q0 19 12.5 31.5t31.5 12.5z" />
    <glyph glyph-name="Ygrave" unicode="&#x1ef2;" horiz-adv-x="532" 
d="M320 785l-98 128l62 -1l92 -127h-56zM208 0l39 320l-171 390h61l143 -333h2l226 333h65l-270 -390l-39 -320h-56z" />
    <glyph glyph-name="ygrave" unicode="&#x1ef3;" horiz-adv-x="521" 
d="M335 560h-56l-96 138h61zM426 485h52l-52 -421q-18 -150 -83 -208t-164 -58q-84 0 -155 40l17 48q68 -40 139 -40q79 0 129.5 47.5t65.5 174.5l7 62l-2 1q-32 -62 -82.5 -99t-107.5 -37q-156 0 -129 196l40 294h52l-39 -290q-11 -84 12.5 -117t75.5 -34q65 0 126 69.5
t72 163.5z" />
    <glyph glyph-name="uni1EF4" unicode="&#x1ef4;" horiz-adv-x="532" 
d="M208 0l39 320l-171 390h61l143 -333h2l226 333h65l-270 -390l-39 -320h-56zM220 -109q18 0 29 -12t11 -30q0 -19 -12 -31t-30 -12t-30 11.5t-12 29.5q0 19 12.5 31.5t31.5 12.5z" />
    <glyph glyph-name="uni1EF5" unicode="&#x1ef5;" horiz-adv-x="521" 
d="M426 485h52l-52 -421q-18 -150 -83 -208t-164 -58q-84 0 -155 40l17 48q68 -40 139 -40q79 0 129.5 47.5t65.5 174.5l7 62l-2 1q-32 -62 -82.5 -99t-107.5 -37q-156 0 -129 196l40 294h52l-39 -290q-11 -84 12.5 -117t75.5 -34q65 0 126 69.5t72 163.5zM197 -244
q18 0 29 -12t11 -30q0 -19 -12 -31t-30 -12t-30 11.5t-12 29.5q0 19 12.5 31.5t31.5 12.5z" />
    <glyph glyph-name="uni1EF6" unicode="&#x1ef6;" horiz-adv-x="532" 
d="M345 781l-43 1q3 2 22 15.5t25.5 19t19.5 17t17.5 21t4.5 19.5q0 29 -40 29q-46 0 -85 -30l-8 33q54 36 107 36q31 0 50.5 -14.5t19.5 -43.5q0 -54 -90 -103zM208 0l39 320l-171 390h61l143 -333h2l226 333h65l-270 -390l-39 -320h-56z" />
    <glyph glyph-name="uni1EF7" unicode="&#x1ef7;" horiz-adv-x="521" 
d="M321 692q-47 0 -85 -33l-8 35q51 37 106 37q70 0 70 -59q0 -57 -94 -118l-43 1q93 70 93 107q0 30 -39 30zM426 485h52l-52 -421q-18 -150 -83 -208t-164 -58q-84 0 -155 40l17 48q68 -40 139 -40q79 0 129.5 47.5t65.5 174.5l7 62l-2 1q-32 -62 -82.5 -99t-107.5 -37
q-156 0 -129 196l40 294h52l-39 -290q-11 -84 12.5 -117t75.5 -34q65 0 126 69.5t72 163.5z" />
    <glyph glyph-name="uni1EF8" unicode="&#x1ef8;" horiz-adv-x="532" 
d="M407 788q-30 0 -75 38q-33 26 -51 26q-37 0 -63 -59l-36 17q37 84 95 84q33 0 69 -32q2 -2 9 -7.5t10 -7.5t9 -6.5t10 -6t9 -3t10 -1.5q38 0 62 60l35 -15q-17 -42 -42 -64.5t-51 -22.5zM208 0l39 320l-171 390h61l143 -333h2l226 333h65l-270 -390l-39 -320h-56z" />
    <glyph glyph-name="uni1EF9" unicode="&#x1ef9;" horiz-adv-x="521" 
d="M246 636q-38 0 -64 -59l-36 17q36 87 96 87q30 0 68 -32t57 -32q38 0 62 60l35 -15q-17 -44 -42 -67t-51 -23q-31 0 -75 39q-33 25 -50 25zM426 485h52l-52 -421q-18 -150 -83 -208t-164 -58q-84 0 -155 40l17 48q68 -40 139 -40q79 0 129.5 47.5t65.5 174.5l7 62l-2 1
q-32 -62 -82.5 -99t-107.5 -37q-156 0 -129 196l40 294h52l-39 -290q-11 -84 12.5 -117t75.5 -34q65 0 126 69.5t72 163.5z" />
    <glyph glyph-name="uni2002" unicode="&#x2002;" horiz-adv-x="467" 
 />
    <glyph glyph-name="uni2003" unicode="&#x2003;" horiz-adv-x="934" 
 />
    <glyph glyph-name="uni2007" unicode="&#x2007;" horiz-adv-x="586" 
 />
    <glyph glyph-name="uni2009" unicode="&#x2009;" horiz-adv-x="22" 
 />
    <glyph glyph-name="uni2010" unicode="&#x2010;" horiz-adv-x="381" 
d="M64 282l6 52h264l-6 -52h-264z" />
    <glyph glyph-name="figuredash" unicode="&#x2012;" horiz-adv-x="586" 
d="M63 273l5 48h468l-5 -48h-468z" />
    <glyph glyph-name="endash" unicode="&#x2013;" horiz-adv-x="585" 
d="M63 273l5 48h468l-6 -48h-467z" />
    <glyph glyph-name="emdash" unicode="&#x2014;" horiz-adv-x="1052" 
d="M63 273l5 48h934l-5 -48h-934z" />
    <glyph glyph-name="uni2015" unicode="&#x2015;" horiz-adv-x="1198" 
d="M63 273l5 48h1081l-6 -48h-1080z" />
    <glyph glyph-name="quoteleft" unicode="&#x2018;" horiz-adv-x="182" 
d="M198 710l-59 -229h-58l73 229h44z" />
    <glyph glyph-name="quoteright" unicode="&#x2019;" horiz-adv-x="180" 
d="M75 481l59 229h58l-73 -229h-44z" />
    <glyph glyph-name="quotesinglbase" unicode="&#x201a;" horiz-adv-x="186" 
d="M-10 -129l58 229h58l-76 -229h-40z" />
    <glyph glyph-name="quotedblleft" unicode="&#x201c;" horiz-adv-x="290" 
d="M197 710l-58 -229h-58l72 229h44zM305 710l-59 -229h-58l73 229h44z" />
    <glyph glyph-name="quotedblright" unicode="&#x201d;" horiz-adv-x="286" 
d="M75 481l59 229h58l-73 -229h-44zM183 481l58 229h58l-72 -229h-44z" />
    <glyph glyph-name="quotedblbase" unicode="&#x201e;" horiz-adv-x="291" 
d="M-4 -75l59 229h58l-73 -229h-44zM104 -75l58 229h58l-72 -229h-44z" />
    <glyph glyph-name="dagger" unicode="&#x2020;" horiz-adv-x="373" 
d="M191 261l-16 38l20 138l13 112h-18l-93 -3l5 40l92 -2h17l12 101h39l-15 -101h16l93 2l-5 -40l-92 3h-17l-14 -112l-13 -138z" />
    <glyph glyph-name="daggerdbl" unicode="&#x2021;" horiz-adv-x="373" 
d="M146 60l14 100h-19l-92 -2l5 40l91 -2h20l13 110l6 73l12 72l12 98h-18l-93 -3l5 40l92 -3h17l11 102h40l-16 -102h17l93 2l-5 -39l-92 3h-17l-12 -98l-5 -72l-14 -73l-13 -110h18l93 3l-6 -40l-92 1h-16l-9 -100h-40z" />
    <glyph glyph-name="bullet" unicode="&#x2022;" horiz-adv-x="400" 
d="M207 222q-40 0 -66 26.5t-26 66.5t27.5 67t68.5 27q39 0 65.5 -26t26.5 -66t-27.5 -67.5t-68.5 -27.5z" />
    <glyph glyph-name="ellipsis" unicode="&#x2026;" horiz-adv-x="1000" 
d="M140 -5q-19 0 -30.5 12t-11.5 30t12 30.5t31 12.5q18 0 30 -12t12 -30t-12.5 -30.5t-30.5 -12.5zM473 -5q-19 0 -30.5 12t-11.5 30t12 30.5t31 12.5q18 0 30 -12t12 -30t-12.5 -30.5t-30.5 -12.5zM807 -5q-19 0 -30.5 12t-11.5 30t12 30.5t31 12.5q18 0 30 -12t12 -30
t-12.5 -30.5t-30.5 -12.5z" />
    <glyph glyph-name="perthousand" unicode="&#x2030;" horiz-adv-x="1375" 
d="M322 -12l-43 19l365 714l43 -20zM255 326q-77 0 -127.5 50.5t-50.5 129.5q0 87 58 147.5t141 60.5q79 0 130.5 -49.5t51.5 -128.5q0 -90 -59 -150t-144 -60zM256 370q65 0 109.5 47t44.5 118q0 60 -37.5 97.5t-97.5 37.5q-63 0 -107 -47.5t-44 -116.5q0 -60 37.5 -98
t94.5 -38zM685 -5q-77 0 -127.5 50.5t-50.5 129.5q0 87 58 147.5t142 60.5q79 0 130 -49.5t51 -128.5q0 -91 -59 -150.5t-144 -59.5zM1118 -5q-77 0 -127.5 50.5t-50.5 129.5q0 87 58 147.5t141 60.5q79 0 130.5 -49.5t51.5 -128.5q0 -91 -59 -150.5t-144 -59.5zM686 39
q65 0 110 46.5t45 118.5q0 60 -38 97.5t-97 37.5q-63 0 -107.5 -47.5t-44.5 -115.5q0 -60 37.5 -98.5t94.5 -38.5zM1119 39q65 0 110 46.5t45 118.5q0 60 -38 97.5t-98 37.5q-63 0 -107 -47.5t-44 -115.5q0 -60 37.5 -98.5t94.5 -38.5z" />
    <glyph glyph-name="minute" unicode="&#x2032;" horiz-adv-x="220" 
d="M68 481l99 229h58l-113 -229h-44z" />
    <glyph glyph-name="second" unicode="&#x2033;" horiz-adv-x="337" 
d="M68 481l99 229h58l-113 -229h-44zM185 481l99 229h58l-113 -229h-44z" />
    <glyph glyph-name="guilsinglleft" unicode="&#x2039;" horiz-adv-x="256" 
d="M131 20l-89 225l144 225h51l-143 -225l87 -225h-50z" />
    <glyph glyph-name="guilsinglright" unicode="&#x203a;" horiz-adv-x="254" 
d="M20 20l142 225l-87 225h51l89 -225l-144 -225h-51z" />
    <glyph glyph-name="uni203D" unicode="&#x203d;" horiz-adv-x="404" 
d="M257 741q66 0 108 -42t42 -110q0 -63 -27.5 -111t-81.5 -99l-17 -17t-16.5 -17t-14 -15t-14 -16.5t-10.5 -15t-10 -16.5t-6.5 -16t-4.5 -18l-9 -56h-46l42 411h60l-36 -245l38 40q52 53 74 90t22 91q0 53 -28.5 81t-77.5 28q-37 0 -72.5 -19.5t-60.5 -57.5l-35 36
q33 45 81 69.5t100 24.5zM161 80q18 0 30 -12t12 -30t-12.5 -30.5t-30.5 -12.5q-19 0 -30.5 12t-11.5 30t12 30.5t31 12.5z" />
    <glyph glyph-name="uni2042" unicode="&#x2042;" horiz-adv-x="772" 
d="M375 399l19 129l-103 -68l-16 34l108 61l-94 60l23 35l89 -68l13 128h38l-20 -128l104 68l16 -35l-108 -60l94 -61l-23 -33l-89 67l-13 -129h-38zM151 64l19 129l-103 -68l-16 34l108 61l-94 60l23 35l89 -68l13 128h38l-20 -128l104 68l16 -35l-108 -60l94 -61l-23 -33
l-89 67l-13 -129h-38zM539 64l19 129l-103 -68l-16 34l108 61l-94 60l23 35l89 -68l13 128h38l-20 -128l104 68l16 -35l-108 -60l94 -61l-23 -33l-89 67l-13 -129h-38z" />
    <glyph glyph-name="fraction" unicode="&#x2044;" horiz-adv-x="192" 
d="M-46 -12l-42 19l365 714l43 -20z" />
    <glyph glyph-name="uni2051" unicode="&#x2051;" horiz-adv-x="384" 
d="M192 399l19 129l-103 -68l-15 34l107 61l-94 60l23 35l89 -68l13 128h38l-20 -128l104 68l16 -35l-108 -60l94 -61l-23 -33l-88 67l-13 -129h-39zM150 50l19 129l-104 -68l-16 34l108 60l-94 61l23 34l89 -67l13 129h38l-19 -129l104 68l15 -35l-108 -60l94 -61l-23 -33
l-89 67l-12 -129h-38z" />
    <glyph glyph-name="uni2070" unicode="&#x2070;" horiz-adv-x="361" 
d="M206 431q-61 0 -95.5 43.5t-34.5 122.5q0 103 48 179.5t129 76.5q61 0 96 -44t35 -123q0 -103 -48 -179t-130 -76zM208 476q61 0 95.5 64t34.5 147q0 59 -23 90.5t-62 31.5q-62 0 -96.5 -64.5t-34.5 -148.5q0 -59 23 -89.5t63 -30.5z" />
    <glyph glyph-name="colonmonetary" unicode="&#x20a1;" horiz-adv-x="567" 
d="M530 640q18 -15 33 -36l-40 -37q-5 8 -19 24l-280 -525q37 -19 81 -19q97 0 164 70l33 -40q-84 -81 -200 -81q-54 0 -103 23l-41 -77l-30 14l43 80q-25 19 -43 41l-72 -135l-30 14l81 152q-40 70 -40 171q0 177 88 294t227 117q11 0 35 -2l27 51l29 -14l-23 -44
q30 -8 53 -22l43 80l29 -14zM123 279q0 -63 17 -109l251 469h-10q-115 0 -186.5 -103.5t-71.5 -256.5zM157 132q16 -28 40 -47l281 527q-23 16 -53 22z" />
    <glyph glyph-name="lira" unicode="&#x20a4;" horiz-adv-x="508" 
d="M351 637q-124 0 -146 -179l-5 -39h153l-5 -41h-153l-10 -84h153l-5 -40h-153l-24 -202h302l-6 -52h-434l6 52h76l25 202h-59l5 40h59l10 84h-59l5 41h59l6 47q14 119 67.5 172t127.5 53q107 0 153 -100l-36 -35q-35 81 -112 81z" />
    <glyph glyph-name="uni20A6" unicode="&#x20a6;" horiz-adv-x="596" 
d="M583 376h-50l-10 -84h50l-5 -41h-50l-31 -251h-57l-107 251h-192l-30 -251h-51l31 251h-50l5 41h50l10 84h-50l5 41h50l33 269h56l114 -269h183l33 269h51l-33 -269h50zM175 609l-23 -192h100l-75 192h-2zM136 292h169l-36 84h-122zM472 292l10 84h-160l35 -84h115z
M446 76l21 175h-93l71 -175h1z" />
    <glyph glyph-name="peseta" unicode="&#x20a7;" horiz-adv-x="593" 
d="M599 501l-5 -41h-73q-15 -87 -77 -135.5t-161 -48.5h-122l-34 -276h-54l56 460h-78l5 41h78l23 186h184q92 0 138 -44.5t46 -127.5v-14h74zM206 636l-17 -135h279v12q0 62 -35 92.5t-93 30.5h-134zM284 326q74 0 120 35t59 99h-279l-17 -134h117z" />
    <glyph glyph-name="dong" unicode="&#x20ab;" horiz-adv-x="542" 
d="M575 619l-5 -40h-56l-71 -579h-53l17 133l-2 1q-34 -64 -83.5 -101.5t-108.5 -37.5q-80 0 -124 54.5t-44 139.5q0 124 69.5 212.5t178.5 88.5q98 0 149 -57l2 1l18 145h-202l5 40h202l14 117h52l-14 -117h56zM428 302l9 78q-23 33 -63.5 47.5t-78.5 14.5
q-87 0 -141.5 -75.5t-54.5 -178.5q0 -65 31.5 -105t89.5 -40q77 0 135.5 76.5t72.5 182.5zM12 -134l6 49h419l-6 -49h-419z" />
    <glyph glyph-name="Euro" unicode="&#x20ac;" horiz-adv-x="538" 
d="M387 639q-86 0 -149 -59t-91 -157h277l-5 -41h-282q-6 -34 -8 -84h280l-5 -40h-274q6 -104 56 -157.5t124 -53.5q82 0 149 51l28 -44q-81 -58 -180 -58q-95 0 -161 67t-73 195h-58l5 40h52q2 50 8 84h-50l5 41h54q31 120 110.5 193.5t187.5 73.5q97 0 164 -58l-37 -40
q-51 47 -127 47z" />
    <glyph glyph-name="uni20AE" unicode="&#x20ae;" horiz-adv-x="490" 
d="M505 635h-190l-29 -243l134 57l13 -36l-153 -65l-9 -77l132 56l15 -36l-153 -65l-27 -226h-55l24 202l-133 -57l-13 36l152 65l9 77l-132 -56l-14 36l152 64l32 268h-182l6 52h427z" />
    <glyph glyph-name="uni20B1" unicode="&#x20b1;" horiz-adv-x="602" 
d="M600 511h-75q0 -33 -6 -61h73l-5 -40h-80q-25 -64 -82.5 -99t-141.5 -35h-122l-34 -276h-54l50 410h-78l4 40h79l7 61h-78l5 39h78l17 137h184q163 0 182 -137h82zM341 636h-135l-11 -89h271q-19 89 -125 89zM190 511l-8 -61h280q8 30 8 61h-280zM285 326q120 0 164 88
h-271l-11 -88h118z" />
    <glyph glyph-name="uni20B2" unicode="&#x20b2;" horiz-adv-x="571" 
d="M393 639l-34 -286h181l-36 -294q-74 -59 -187 -63l-15 -120h-42l15 121q-92 10 -151 82.5t-59 199.5q0 169 81 284.5t211 125.5l13 103h42l-13 -103q107 -6 164 -88l-40 -36q-47 68 -130 74zM121 279q0 -102 43 -161.5t117 -68.5l70 588q-104 -13 -167 -114t-63 -244z
M483 305h-130l-30 -258q81 5 133 41z" />
    <glyph glyph-name="uni20B4" unicode="&#x20b4;" horiz-adv-x="494" 
d="M477 555q0 -80 -88 -142h83l-5 -39h-118l-121 -74h229l-5 -39h-275q-78 -51 -78 -120q0 -41 32.5 -67.5t84.5 -26.5q109 0 188 88l33 -39q-45 -51 -106 -76t-121 -25q-76 0 -121.5 35.5t-45.5 96.5q0 77 74 134h-70l5 39h96q47 28 121 74h-208l5 39h258q97 61 97 132
q0 42 -28.5 66.5t-79.5 24.5q-88 0 -163 -70l-33 38q90 84 203 84q75 0 116 -37t41 -96z" />
    <glyph glyph-name="uni20B5" unicode="&#x20b5;" horiz-adv-x="565" 
d="M520 567q-48 69 -132 72l-70 -592q85 4 149 70l33 -40q-81 -78 -188 -81l-15 -120h-42l15 122q-90 11 -147.5 83t-57.5 198q0 167 79 282t208 128l13 103h42l-13 -102q109 -7 167 -86zM121 279q0 -102 42.5 -161t111.5 -69l71 588q-101 -16 -163 -116.5t-62 -241.5z" />
    <glyph glyph-name="uni20B8" unicode="&#x20b8;" horiz-adv-x="482" 
d="M83 687h426l-6 -43h-426zM62 518l5 43h426l-5 -43h-188l-64 -518h-56l64 518h-182z" />
    <glyph glyph-name="uni20B9" unicode="&#x20b9;" horiz-adv-x="484" 
d="M516 644h-175l-1 -2q57 -31 63 -109h99l-5 -43h-94q-8 -88 -73 -142.5t-168 -54.5h-36l244 -293h-69l-245 298l5 44h97q82 0 131 40t57 108h-267l6 43h262q-7 111 -138 111h-111l6 43h417z" />
    <glyph glyph-name="uni20BA" unicode="&#x20ba;" horiz-adv-x="536" 
d="M449 189l46 -20q-84 -169 -265 -169h-148l28 228l-63 -30l-12 39l81 38l9 75l-63 -29l-12 39l81 38l35 289h56l-32 -261l195 91l13 -39l-214 -100l-9 -75l195 91l13 -38l-214 -101l-25 -206h85q82 0 131.5 33t88.5 107z" />
    <glyph glyph-name="uni20BC" unicode="&#x20bc;" horiz-adv-x="668" 
d="M416 690q116 -7 165.5 -84.5t34.5 -207.5l-50 -398h-54l49 398q13 106 -23.5 169.5t-126.5 70.5l-65 -530h-47l65 530q-191 -16 -217 -234l-49 -404h-55l49 405q33 273 280 286l11 88h44z" />
    <glyph glyph-name="uni20BD" unicode="&#x20bd;" horiz-adv-x="540" 
d="M301 286h-122l-10 -83h220l-5 -41h-220l-20 -162h-55l20 162h-88l5 41h88l10 83h-88l6 42h88l44 359h184q185 0 185 -168q0 -107 -64 -170t-178 -63zM357 636h-135l-38 -304h115q87 0 137 50.5t49 134.5q0 59 -35 89t-93 30z" />
    <glyph glyph-name="uni2113" unicode="&#x2113;" horiz-adv-x="448" 
d="M402 105l23 -18q-63 -92 -168 -92q-71 0 -111 43t-44 115q-39 -33 -54 -43l-16 21q65 51 70 56l2 273q1 115 43.5 167t110.5 52q53 0 80 -39t27 -107q0 -146 -196 -325v-24q0 -83 30 -119.5t74 -36.5q38 0 72 23t57 54zM262 644q-94 0 -94 -177l1 -222q166 161 166 287
q0 58 -17 85t-56 27z" />
    </font>
</defs>
</svg>
