<?xml version="1.0" standalone="no"?>
<!DOCTYPE svg PUBLIC "-//W3C//DTD SVG 1.1//EN" "http://www.w3.org/Graphics/SVG/1.1/DTD/svg11.dtd" >
<svg xmlns="http://www.w3.org/2000/svg" xmlns:xlink="http://www.w3.org/1999/xlink" version="1.1">
<metadata>
Created by FontForge 20170731 at Sat Jul 15 13:21:48 2017
 By Aleksey,,,
Copyright (c) 2015 by Kostas Bartsokas. All rights reserved.
</metadata>
<defs>
<font id="AvertaStd-Semibold" horiz-adv-x="0" >
  <font-face 
    font-family="Averta Std Semibold"
    font-weight="600"
    font-stretch="normal"
    units-per-em="1000"
    panose-1="0 0 7 0 0 0 0 0 0 0"
    ascent="800"
    descent="-200"
    x-height="488"
    cap-height="710"
    bbox="-695 -257 1427 1056"
    underline-thickness="49"
    underline-position="-181"
    unicode-range="U+000D-2E18"
  />
<missing-glyph horiz-adv-x="449" 
 />
    <glyph glyph-name=".notdef" horiz-adv-x="449" 
 />
    <glyph glyph-name=".null" 
 />
    <glyph glyph-name="nonmarkingreturn" horiz-adv-x="333" 
 />
    <glyph glyph-name="CR" unicode="&#xd;" 
 />
    <glyph glyph-name="space" unicode=" " horiz-adv-x="268" 
 />
    <glyph glyph-name="exclam" unicode="!" horiz-adv-x="270" 
d="M94 224l-20 512h127l-20 -512h-87zM135 -8q-32 0 -54 21.5t-22 52.5t22.5 53t53.5 22t53 -22t22 -53t-22 -52.5t-53 -21.5z" />
    <glyph glyph-name="quotedbl" unicode="&#x22;" horiz-adv-x="387" 
d="M32 457l31 253h120l-60 -253h-91zM204 457l31 253h120l-60 -253h-91z" />
    <glyph glyph-name="numbersign" unicode="#" horiz-adv-x="639" 
d="M117 -41l30 194h-110v85h123l23 147h-123v84h136l29 187h77l-29 -187h147l29 187h77l-28 -187h114l-1 -84h-127l-22 -147h125v-85h-138l-30 -194h-77l30 194h-147l-30 -194h-78zM237 238h148l22 147h-147z" />
    <glyph glyph-name="dollar" unicode="$" horiz-adv-x="573" 
d="M531 190q0 -80 -52 -131.5t-142 -60.5v-120h-88v122q-114 16 -199 99l71 85q82 -79 183 -79q45 0 72.5 20.5t27.5 55.5q0 38 -28.5 59t-98.5 43q-51 16 -81.5 28.5t-64.5 34.5t-50 55t-16 77q0 76 49 127t135 60v126h88v-129q101 -19 176 -79l-68 -84q-79 57 -159 57
q-44 0 -69.5 -18.5t-25.5 -51.5t28 -52t92 -39q59 -19 91 -32t66 -36.5t48.5 -56.5t14.5 -80z" />
    <glyph glyph-name="percent" unicode="%" horiz-adv-x="1023" 
d="M401 -22l-90 39l314 708l90 -39zM247 321q-85 0 -143.5 55.5t-58.5 143.5q0 83 56.5 140.5t145.5 57.5q84 0 142.5 -55.5t58.5 -142.5q0 -83 -56.5 -141t-144.5 -58zM247 406q48 0 77.5 32.5t29.5 80.5q0 50 -30.5 81t-76.5 31t-75.5 -32.5t-29.5 -79.5q0 -49 30.5 -81
t74.5 -32zM776 -8q-84 0 -142.5 55.5t-58.5 143.5q0 83 56.5 140.5t144.5 57.5q85 0 143.5 -55.5t58.5 -142.5q0 -84 -56.5 -141.5t-145.5 -57.5zM777 78q47 0 77 32.5t30 79.5q0 49 -31 80.5t-76 31.5q-47 0 -77 -32.5t-30 -79.5q0 -49 31 -80.5t76 -31.5z" />
    <glyph glyph-name="ampersand" unicode="&#x26;" horiz-adv-x="670" 
d="M281 -8q-98 0 -164.5 60t-66.5 155q0 67 35.5 120.5t93.5 87.5v2l-78 98q11 88 72 145.5t147 57.5q149 0 221 -139l-96 -37q-42 75 -115 76q-47 0 -74.5 -25t-36.5 -62l251 -313h3q27 59 27 119l109 2q0 -123 -62 -214v-3l98 -122h-132l-44 55h-2q-72 -63 -186 -63z
M293 99q63 0 111 35v2l-159 199q-78 -41 -78 -121q0 -51 35 -83t91 -32z" />
    <glyph glyph-name="quotesingle" unicode="'" horiz-adv-x="215" 
d="M32 457l31 253h120l-60 -253h-91z" />
    <glyph glyph-name="parenleft" unicode="(" horiz-adv-x="305" 
d="M172 -154q-117 194 -117 449q0 265 120 451l85 -39q-101 -183 -101 -412q0 -218 99 -411z" />
    <glyph glyph-name="parenright" unicode=")" horiz-adv-x="305" 
d="M133 -154l-86 38q99 193 99 411q0 229 -101 412l85 39q120 -186 120 -451q0 -255 -117 -449z" />
    <glyph glyph-name="asterisk" unicode="*" horiz-adv-x="407" 
d="M168 386l4 108l-90 -57l-36 62l95 48l-96 51l37 62l90 -57l-4 107h71l-5 -107l92 56l35 -61l-95 -50l95 -49l-35 -62l-90 57l3 -108h-71z" />
    <glyph glyph-name="plus" unicode="+" horiz-adv-x="578" 
d="M237 42v184h-185v102h185v185h103v-185h185v-102h-185v-184h-103z" />
    <glyph glyph-name="comma" unicode="," horiz-adv-x="238" 
d="M27 -132l32 253h120l-70 -253h-82z" />
    <glyph glyph-name="hyphen" unicode="-" horiz-adv-x="407" 
d="M53 254v109h301v-109h-301z" />
    <glyph glyph-name="period" unicode="." horiz-adv-x="270" 
d="M135 -8q-32 0 -54 21.5t-22 52.5t22.5 53t53.5 22t53 -22t22 -53t-22 -52.5t-53 -21.5z" />
    <glyph glyph-name="slash" unicode="/" horiz-adv-x="430" 
d="M56 -112l-89 41l383 853l88 -41z" />
    <glyph glyph-name="zero" unicode="0" horiz-adv-x="632" 
d="M316 -8q-119 0 -191.5 93.5t-72.5 257.5q0 158 71 254.5t193 96.5q119 0 191.5 -93t72.5 -258q0 -158 -70.5 -254.5t-193.5 -96.5zM316 100q69 0 107.5 64t38.5 179t-39 179.5t-107 64.5t-107 -64.5t-39 -179.5q0 -113 39.5 -178t106.5 -65z" />
    <glyph glyph-name="one" unicode="1" horiz-adv-x="399" 
d="M197 0v548l-124 -93l-55 86l201 146h94v-687h-116z" />
    <glyph glyph-name="two" unicode="2" horiz-adv-x="532" 
d="M42 0l-2 77l221 233q49 52 73 89.5t24 78.5q0 46 -29.5 76.5t-75.5 30.5q-85 0 -131 -81l-83 59q69 130 222 130q89 0 152 -55.5t63 -146.5q0 -59 -25.5 -112.5t-88.5 -118.5l-145 -151l1 -3h265v-106h-441z" />
    <glyph glyph-name="three" unicode="3" horiz-adv-x="550" 
d="M270 -8q-87 0 -151.5 40.5t-90.5 105.5l100 44q34 -82 134 -82q50 0 84 28.5t34 73.5q0 43 -34 73t-95 30h-52v98h63q51 0 75.5 26t24.5 65q0 41 -30 67t-73 26q-75 0 -113 -60l-93 50q26 53 81 85t128 32q93 0 155 -49t62 -133q0 -50 -24 -90.5t-67 -63.5v-3
q51 -23 80.5 -67t29.5 -102q0 -87 -64.5 -140.5t-163.5 -53.5z" />
    <glyph glyph-name="four" unicode="4" horiz-adv-x="578" 
d="M332 0v116h-300v79l319 492h97v-468h95v-103h-95v-116h-116zM167 216h169v275z" />
    <glyph glyph-name="five" unicode="5" horiz-adv-x="564" 
d="M296 441q92 0 154.5 -60t62.5 -161q0 -102 -67 -165t-176 -63q-71 0 -132.5 29t-101.5 82l84 67q49 -71 140 -71q62 0 98.5 34.5t36.5 88.5q0 55 -40 87t-93 32q-68 0 -112 -36l-63 22l20 360h372v-107h-263l-9 -154q48 15 89 15z" />
    <glyph glyph-name="six" unicode="6" horiz-adv-x="590" 
d="M328 438q93 0 153 -59.5t60 -161.5q0 -98 -70.5 -161.5t-174.5 -63.5q-105 0 -175 76.5t-70 200.5q0 168 101 289.5t256 149.5l37 -97q-200 -56 -256 -207l2 -2q59 36 137 36zM304 100q53 0 87 35t34 84q0 50 -35 82t-91 32q-81 0 -135 -69v-9q0 -68 41 -111.5t99 -43.5z
" />
    <glyph glyph-name="seven" unicode="7" horiz-adv-x="494" 
d="M23 687h427v-77l-252 -624l-117 22l239 573h-297v106z" />
    <glyph glyph-name="eight" unicode="8" horiz-adv-x="576" 
d="M288 -7q-107 0 -176 54.5t-69 141.5q0 67 33 114t85 68v2q-34 16 -59 55.5t-25 88.5q0 83 59 130t152 47q95 0 154 -48t59 -129q0 -50 -26 -90t-59 -54v-2q52 -20 85.5 -67.5t33.5 -114.5q0 -89 -70.5 -142.5t-176.5 -53.5zM288 421q45 0 73.5 23.5t28.5 61.5
q0 37 -29 61.5t-73 24.5t-72.5 -25.5t-28.5 -60.5q0 -38 28 -61.5t73 -23.5zM288 96q56 0 92 32t36 76q0 49 -35.5 80t-92.5 31t-92 -31t-35 -80q0 -46 37 -77t90 -31z" />
    <glyph glyph-name="nine" unicode="9" horiz-adv-x="584" 
d="M289 694q104 0 174.5 -75.5t70.5 -195.5q0 -174 -103 -296t-259 -151l-37 97q203 56 261 210l-1 1q-60 -36 -138 -36q-92 0 -152.5 59.5t-60.5 161.5q0 98 70 161.5t175 63.5zM161 468q0 -51 34 -82.5t91 -31.5q78 0 135 68v10q0 69 -36.5 112t-93.5 43q-58 0 -94 -35
t-36 -84z" />
    <glyph glyph-name="colon" unicode=":" horiz-adv-x="270" 
d="M131 346q-32 0 -54 21.5t-22 52.5t22.5 53t53.5 22t53 -22t22 -53t-22 -52.5t-53 -21.5zM131 -8q-32 0 -54 21.5t-22 52.5t22.5 53t53.5 22t53 -22t22 -53t-22 -52.5t-53 -21.5z" />
    <glyph glyph-name="semicolon" unicode=";" horiz-adv-x="248" 
d="M130 346q-32 0 -54 21.5t-22 52.5t22.5 53t53.5 22t53 -22t22 -53t-22 -52.5t-53 -21.5zM38 -132l32 253h120l-70 -253h-82z" />
    <glyph glyph-name="less" unicode="&#x3c;" horiz-adv-x="581" 
d="M517 31l-460 201v84l460 205v-113l-309 -133l309 -133v-111z" />
    <glyph glyph-name="equal" unicode="=" horiz-adv-x="591" 
d="M68 340v102h473v-102h-473zM68 112v102h473v-102h-473z" />
    <glyph glyph-name="greater" unicode="&#x3e;" horiz-adv-x="581" 
d="M64 31v111l309 133l-309 133v113l460 -205v-84z" />
    <glyph glyph-name="question" unicode="?" horiz-adv-x="463" 
d="M145 224v50q0 10 1 19.5t5 19.5t6.5 17t9.5 17.5l10 15t13 16t12.5 14t14.5 15t14 14.5q31 34 47.5 61.5t16.5 61.5q0 42 -25 65t-65 23q-29 0 -58 -16t-47 -43l-84 78q73 92 198 92q86 0 146.5 -50.5t60.5 -142.5q0 -89 -88 -175q-7 -7 -23.5 -22t-24.5 -22.5t-18 -19.5
t-14.5 -22.5t-5.5 -21.5l-3 -44h-99zM197 -8q-32 0 -54 21.5t-22 52.5t22.5 53t53.5 22t53 -22t22 -53t-22 -52.5t-53 -21.5z" />
    <glyph glyph-name="at" unicode="@" horiz-adv-x="900" 
d="M423 -146q-166 0 -272 106t-106 278q0 56 14 112.5t47.5 113t82 99t125 69.5t169.5 27q168 0 270 -103t102 -262q0 -39 -10 -79t-33 -81t-68 -67t-106 -26q-59 0 -87 33q-15 20 -22 48h-3q-44 -71 -132 -71q-74 0 -120.5 52.5t-46.5 137.5q0 35 10.5 72.5t31.5 74.5
t60.5 61t89.5 24q82 0 121 -71l2 1l7 63h114l-27 -262q-1 -10 -1 -25q0 -29 9 -39.5t28 -10.5q43 0 69.5 55t26.5 109q0 121 -79 203.5t-207 82.5q-85 0 -153.5 -29.5t-110.5 -79t-64 -109.5t-22 -124q0 -122 78.5 -211t212.5 -89q106 0 199 51l37 -61q-94 -73 -236 -73z
M428 152q48 0 79 37t31 86q0 42 -24.5 69.5t-60.5 27.5q-49 0 -80.5 -35.5t-31.5 -85.5q0 -44 24.5 -71.5t62.5 -27.5z" />
    <glyph glyph-name="A" unicode="A" horiz-adv-x="695" 
d="M23 0l265 710h118l266 -710h-126l-54 153h-290l-53 -153h-126zM239 257h217l-108 308h-2z" />
    <glyph glyph-name="B" unicode="B" horiz-adv-x="648" 
d="M87 0v710h247q111 0 171 -43.5t60 -129.5q0 -53 -26.5 -96.5t-78.5 -64.5v-1q64 -16 102.5 -62.5t38.5 -117.5q0 -88 -59.5 -141.5t-173.5 -53.5h-281zM208 416h117q117 0 117 94q0 43 -30.5 68t-90.5 25l-113 -1v-186zM208 108h145q58 0 90 25.5t32 74.5q0 48 -36 76
t-105 28h-126v-204z" />
    <glyph glyph-name="C" unicode="C" horiz-adv-x="729" 
d="M413 -6q-152 0 -255 95.5t-103 263.5q0 157 95 261t261 104q169 0 280 -136l-89 -75q-79 97 -191 97q-102 0 -166 -69.5t-64 -181.5q0 -109 65 -177.5t167 -68.5q113 0 191 97l89 -76q-108 -134 -280 -134z" />
    <glyph glyph-name="D" unicode="D" horiz-adv-x="736" 
d="M87 0v710h226q167 0 268 -98.5t101 -257.5t-98.5 -256.5t-267.5 -97.5h-229zM208 108h101q111 0 179.5 69.5t68.5 176.5q0 108 -67.5 178t-174.5 70h-107v-494z" />
    <glyph glyph-name="E" unicode="E" horiz-adv-x="607" 
d="M87 0v710h447v-108h-326v-196h263v-108h-263v-190h347v-108h-468z" />
    <glyph glyph-name="F" unicode="F" horiz-adv-x="595" 
d="M87 0v710h464v-108h-343v-212h288v-109h-288v-281h-121z" />
    <glyph glyph-name="G" unicode="G" horiz-adv-x="759" 
d="M413 -6q-157 0 -257.5 97.5t-100.5 262.5q0 160 96.5 262t257.5 102q77 0 150 -29.5t127 -87.5l-85 -74q-79 77 -193 77q-98 0 -162.5 -68.5t-64.5 -181.5q0 -108 63.5 -179t168.5 -71q87 0 158 47v120h-174v108h294v-296q-49 -41 -123 -65t-155 -24z" />
    <glyph glyph-name="H" unicode="H" horiz-adv-x="736" 
d="M87 0v710h121v-317h320v317h121v-710h-121v285h-320v-285h-121z" />
    <glyph glyph-name="I" unicode="I" horiz-adv-x="304" 
d="M91 0v710h121v-710h-121z" />
    <glyph glyph-name="J" unicode="J" horiz-adv-x="507" 
d="M219 -6q-53 0 -104 23t-84 66l68 88q22 -26 53 -44.5t62 -18.5q96 0 96 136v466h121v-467q0 -122 -50 -185.5t-162 -63.5z" />
    <glyph glyph-name="K" unicode="K" horiz-adv-x="664" 
d="M87 0v710h121v-340h2l272 340h154l-267 -317l275 -393h-150l-205 297l-81 -96v-201h-121z" />
    <glyph glyph-name="L" unicode="L" horiz-adv-x="573" 
d="M87 0v710h121v-602h329v-108h-450z" />
    <glyph glyph-name="M" unicode="M" horiz-adv-x="887" 
d="M88 0v710h121l234 -425h2l234 425h121v-710h-121v475h-2l-194 -338h-79l-194 338h-1v-475h-121z" />
    <glyph glyph-name="N" unicode="N" horiz-adv-x="763" 
d="M87 0v710h120l347 -510h2v510h120v-710h-123l-343 501h-2v-501h-121z" />
    <glyph glyph-name="O" unicode="O" horiz-adv-x="827" 
d="M414 -8q-159 0 -259 102.5t-100 260.5t100 260.5t259 102.5q155 0 256.5 -101t101.5 -262t-101.5 -262t-256.5 -101zM414 105q99 0 165.5 71t66.5 179q0 109 -66.5 179.5t-165.5 70.5q-103 0 -168.5 -72t-65.5 -178t65.5 -178t168.5 -72z" />
    <glyph glyph-name="P" unicode="P" horiz-adv-x="629" 
d="M87 0v710h257q122 0 182.5 -62.5t60.5 -167.5q0 -112 -69 -169.5t-188 -57.5h-122v-253h-121zM208 362h110q72 0 108 32.5t36 87.5q0 57 -35 88.5t-100 31.5h-119v-240z" />
    <glyph glyph-name="Q" unicode="Q" horiz-adv-x="848" 
d="M792 65l-68 -86l-90 82q-94 -69 -220 -69q-159 0 -259 102.5t-100 260.5t100 260.5t259 102.5q155 0 256.5 -101t101.5 -262q0 -123 -63 -216zM180 355q0 -109 67 -179.5t167 -70.5q72 0 130 40l-71 65l67 80l74 -66q32 58 32 131q0 106 -64.5 178t-167.5 72
q-100 0 -167 -70.5t-67 -179.5z" />
    <glyph glyph-name="R" unicode="R" horiz-adv-x="659" 
d="M87 0v710h262q122 0 182.5 -63t60.5 -167q0 -169 -158 -215l184 -265h-145l-170 253h-95v-253h-121zM208 362h115q70 0 107 32.5t37 87.5q0 57 -35.5 88.5t-100.5 31.5h-123v-240z" />
    <glyph glyph-name="S" unicode="S" horiz-adv-x="591" 
d="M299 -8q-149 0 -257 112l76 93q37 -45 86 -69t96 -24q57 0 87.5 23t30.5 63q0 43 -30 65t-107 49q-49 17 -80.5 32.5t-66 40.5t-51.5 60.5t-17 82.5q0 83 66 140.5t159 57.5q125 0 235 -87l-72 -95q-88 73 -163 73q-43 0 -71 -22t-29 -61q0 -19 7 -32.5t28.5 -26.5
t39 -20.5t58.5 -23.5q110 -43 145 -67q75 -53 75 -151q0 -102 -74.5 -157.5t-170.5 -55.5z" />
    <glyph glyph-name="T" unicode="T" horiz-adv-x="589" 
d="M233 0v602h-201v108h526v-108h-204v-602h-121z" />
    <glyph glyph-name="U" unicode="U" horiz-adv-x="719" 
d="M359 -8q-128 0 -205 79.5t-77 220.5v418h120v-409q0 -87 43.5 -141t118.5 -54q73 0 118 52.5t45 142.5v409h121v-418q0 -139 -76 -219.5t-208 -80.5z" />
    <glyph glyph-name="V" unicode="V" horiz-adv-x="691" 
d="M295 0l-265 710h130l189 -536h1l188 536h129l-265 -710h-107z" />
    <glyph glyph-name="W" unicode="W" horiz-adv-x="1035" 
d="M257 0l-225 710h129l152 -512h2l139 512h128l138 -511h2l153 511h128l-225 -710h-113l-145 534h-2l-148 -534h-113z" />
    <glyph glyph-name="X" unicode="X" horiz-adv-x="694" 
d="M32 0l235 356l-230 354h141l170 -262h1l170 262h138l-230 -354l236 -356h-142l-174 262h-2l-173 -262h-140z" />
    <glyph glyph-name="Y" unicode="Y" horiz-adv-x="625" 
d="M251 0v314l-237 396h138l159 -275h2l158 275h140l-239 -396v-314h-121z" />
    <glyph glyph-name="Z" unicode="Z" horiz-adv-x="626" 
d="M57 0v95l349 505l-1 2h-332v108h492v-93l-355 -506l2 -3h355v-108h-510z" />
    <glyph glyph-name="bracketleft" unicode="[" horiz-adv-x="333" 
d="M59 -147v879h224v-86h-125v-706h125v-87h-224z" />
    <glyph glyph-name="backslash" unicode="\" horiz-adv-x="438" 
d="M374 -112l-382 853l88 41l383 -853z" />
    <glyph glyph-name="bracketright" unicode="]" horiz-adv-x="333" 
d="M274 -147h-224v87h125v706h-125v86h224v-879z" />
    <glyph glyph-name="asciicircum" unicode="^" horiz-adv-x="470" 
d="M55 500l137 210h85l138 -210h-98l-83 135l-85 -135h-94z" />
    <glyph glyph-name="underscore" unicode="_" horiz-adv-x="531" 
d="M-2 -104v77h535v-77h-535z" />
    <glyph glyph-name="grave" unicode="`" horiz-adv-x="503" 
d="M240 536l-124 144l125 -1l110 -143h-111z" />
    <glyph glyph-name="a" unicode="a" horiz-adv-x="611" 
d="M279 -8q-103 0 -169.5 69t-66.5 181q0 110 67 181.5t168 71.5q98 0 151 -67l2 1v59h112v-488h-107v64l-2 1q-54 -73 -155 -73zM297 94q58 0 98.5 41t40.5 106t-39.5 109t-99.5 44t-100 -42t-40 -111q0 -65 39 -106t101 -41z" />
    <glyph glyph-name="b" unicode="b" horiz-adv-x="621" 
d="M340 -8q-102 0 -158 73h-2v-65h-107v736h112v-306h1q57 65 155 65q102 0 169 -71.5t67 -181.5q0 -112 -67 -181t-170 -69zM323 94q61 0 100.5 41t39.5 106q0 69 -40.5 111t-100.5 42q-62 0 -102 -43.5t-40 -109.5q0 -65 41 -106t102 -41z" />
    <glyph glyph-name="c" unicode="c" horiz-adv-x="532" 
d="M293 -8q-109 0 -179 70t-70 181q0 112 71 182t182 70q59 0 114 -23.5t91 -67.5l-76 -66q-48 56 -123 56q-65 0 -105 -41.5t-40 -108.5t40 -108.5t105 -41.5q80 0 123 57l77 -68q-70 -91 -210 -91z" />
    <glyph glyph-name="d" unicode="d" horiz-adv-x="620" 
d="M280 -8q-103 0 -170 69t-67 181q0 110 67.5 181.5t168.5 71.5q100 0 156 -67h1v308h111v-736h-107v66h-1q-57 -74 -159 -74zM297 94q61 0 102 41t41 106q0 66 -40 109.5t-102 43.5q-60 0 -100.5 -42t-40.5 -111q0 -65 39.5 -106t100.5 -41z" />
    <glyph glyph-name="e" unicode="e" horiz-adv-x="562" 
d="M519 250q0 -19 -3 -43h-356q11 -53 48.5 -83t94.5 -30q77 0 123 57l78 -67q-71 -92 -207 -92q-112 0 -182.5 69t-70.5 183q0 112 68.5 181.5t176.5 69.5q102 0 166 -69t64 -176zM288 394q-47 0 -80.5 -26t-45.5 -73h244q-11 46 -41 72.5t-77 26.5z" />
    <glyph glyph-name="f" unicode="f" horiz-adv-x="343" 
d="M91 0v393h-54v95h54v89q0 82 38 124.5t110 42.5q70 0 122 -34l-25 -94q-53 25 -81 25q-52 0 -52 -76v-77h120v-95h-120v-393h-112z" />
    <glyph glyph-name="g" unicode="g" horiz-adv-x="607" 
d="M291 -205q-114 0 -199 51l27 98q47 -25 82.5 -36.5t83.5 -11.5q69 0 107 34.5t38 85.5v51h-2q-59 -59 -148 -59q-103 0 -170.5 67t-67.5 174t65.5 176.5t166.5 69.5q90 0 152 -59h2v52h112v-438q0 -118 -60 -186.5t-189 -68.5zM295 111q61 0 99.5 40.5t38.5 102.5
q0 61 -39.5 100t-98.5 39q-62 0 -100.5 -39.5t-38.5 -101.5q0 -64 39.5 -102.5t99.5 -38.5z" />
    <glyph glyph-name="h" unicode="h" horiz-adv-x="598" 
d="M73 0v736h112v-309h1q62 68 166 68q85 0 133.5 -49t48.5 -154v-292h-112v263q0 70 -26.5 100.5t-79.5 30.5q-62 0 -96.5 -37.5t-34.5 -108.5v-248h-112z" />
    <glyph glyph-name="i" unicode="i" horiz-adv-x="272" 
d="M136 560q-31 0 -53 22t-22 53q0 30 22 52t53 22t53.5 -22t22.5 -52q0 -31 -22.5 -53t-53.5 -22zM80 0v488h112v-488h-112z" />
    <glyph glyph-name="j" unicode="j" horiz-adv-x="249" 
d="M125 560q-31 0 -53 22t-22 53q0 30 22 52t53 22t53.5 -22t22.5 -52q0 -31 -22.5 -53t-53.5 -22zM46 -206q-51 0 -95 18l19 97q22 -14 51 -14q49 0 49 72v521h112v-521q0 -82 -38 -127.5t-98 -45.5z" />
    <glyph glyph-name="k" unicode="k" horiz-adv-x="535" 
d="M73 0v736h112v-473l2 -1l198 226h133l-176 -196l179 -292h-126l-131 215l-79 -86v-129h-112z" />
    <glyph glyph-name="l" unicode="l" horiz-adv-x="272" 
d="M80 0v736h112v-736h-112z" />
    <glyph glyph-name="m" unicode="m" horiz-adv-x="897" 
d="M73 0v488h112v-67h1q62 74 152 74q103 0 146 -81h2q63 81 175 81q82 0 126.5 -53t44.5 -160v-282h-112v254q0 140 -95 140q-49 0 -81.5 -40.5t-32.5 -110.5v-243h-112v254q0 140 -97 140q-52 0 -84.5 -40.5t-32.5 -110.5v-243h-112z" />
    <glyph glyph-name="n" unicode="n" horiz-adv-x="593" 
d="M73 0v488h112v-67h2q62 74 163 74q84 0 131.5 -51t47.5 -157v-287h-112v258q0 74 -26.5 105t-79.5 31q-58 0 -92 -39t-34 -110v-245h-112z" />
    <glyph glyph-name="o" unicode="o" horiz-adv-x="600" 
d="M300 -8q-114 0 -185 71t-71 180t71 180.5t185 71.5q113 0 184.5 -70t71.5 -182q0 -111 -71.5 -181t-184.5 -70zM300 94q60 0 101 42t41 107q0 67 -40.5 109t-101.5 42q-63 0 -102.5 -43t-39.5 -108q0 -63 40 -106t102 -43z" />
    <glyph glyph-name="p" unicode="p" horiz-adv-x="621" 
d="M73 -198v686h112v-58h2q56 65 154 65q102 0 169 -71.5t67 -181.5q0 -112 -67 -181t-170 -69q-97 0 -153 68l-2 -1v-257h-112zM323 94q61 0 100.5 41t39.5 106q0 69 -40.5 111t-100.5 42q-62 0 -102 -43.5t-40 -109.5q0 -65 41 -106t102 -41z" />
    <glyph glyph-name="q" unicode="q" horiz-adv-x="616" 
d="M436 -198v258h-1q-56 -68 -155 -68q-103 0 -169.5 69t-66.5 181q0 110 67 181.5t168 71.5q100 0 156 -67h1v60h112v-686h-112zM298 94q60 0 101 41t41 106q0 66 -40 109.5t-102 43.5q-60 0 -100 -42t-40 -111q0 -65 39 -106t101 -41z" />
    <glyph glyph-name="r" unicode="r" horiz-adv-x="372" 
d="M73 0v488h112v-73h2q60 80 151 80h14v-125q-26 2 -34 2q-62 0 -97.5 -39.5t-35.5 -101.5v-231h-112z" />
    <glyph glyph-name="s" unicode="s" horiz-adv-x="449" 
d="M229 -8q-117 0 -197 71l56 84q58 -57 141 -57q32 0 50 13t18 35q0 17 -20.5 28.5t-75.5 30.5q-72 25 -110.5 60t-38.5 100q0 60 48.5 99t123.5 39q97 0 172 -61l-56 -88q-55 52 -122 52q-20 0 -36.5 -10.5t-16.5 -31.5q0 -30 77 -59q95 -37 119 -54q50 -35 50 -103
q0 -65 -46.5 -106.5t-135.5 -41.5z" />
    <glyph glyph-name="t" unicode="t" horiz-adv-x="365" 
d="M218 -8q-64 0 -100 41t-36 121v239h-60v95h60v162l112 12v-174h143v-95h-143v-228q0 -37 11 -52.5t36 -15.5q33 0 72 21l29 -97q-53 -29 -124 -29z" />
    <glyph glyph-name="u" unicode="u" horiz-adv-x="578" 
d="M246 -8q-183 0 -183 199v297h112v-267q0 -71 22.5 -99t74.5 -28t88.5 42.5t36.5 117.5v234h112v-488h-112v61l-2 1q-58 -70 -149 -70z" />
    <glyph glyph-name="v" unicode="v" horiz-adv-x="534" 
d="M213 0l-193 488h120l127 -348h1l127 348h119l-194 -488h-107z" />
    <glyph glyph-name="w" unicode="w" horiz-adv-x="771" 
d="M189 0l-166 488h115l103 -324h2l96 324h93l98 -324h2l103 324h113l-166 -488h-103l-94 307h-1l-94 -307h-101z" />
    <glyph glyph-name="x" unicode="x" horiz-adv-x="527" 
d="M27 0l172 249l-171 239h130l103 -154h2l105 154h129l-170 -240l173 -248h-125l-111 154h-1l-112 -154h-124z" />
    <glyph glyph-name="y" unicode="y" horiz-adv-x="535" 
d="M131 -198l88 225l-200 461h120l134 -327h2l125 327h115l-268 -686h-116z" />
    <glyph glyph-name="z" unicode="z" horiz-adv-x="489" 
d="M40 0v79l251 311l-1 3h-233v95h388v-77l-253 -314l1 -2h248v-95h-401z" />
    <glyph glyph-name="braceleft" unicode="{" horiz-adv-x="357" 
d="M246 -146q-49 0 -81.5 33.5t-32.5 88.5v194q0 19 -1.5 29t-9 23t-25 18.5t-46.5 6.5v86q29 1 47 8t25 20t8.5 23t1.5 27v199q0 52 31.5 87t82.5 35h66v-77h-23q-31 0 -45.5 -20.5t-14.5 -45.5v-193q0 -45 -12.5 -69.5t-42.5 -34.5v-2q32 -11 43.5 -31t11.5 -74v-181
q0 -38 13 -55.5t47 -17.5h23v-77h-66z" />
    <glyph glyph-name="bar" unicode="|" horiz-adv-x="316" 
d="M109 -115v852h97v-852h-97z" />
    <glyph glyph-name="braceright" unicode="}" horiz-adv-x="357" 
d="M111 -146h-66v77h23q34 0 47 17.5t13 55.5v181q0 54 11.5 74t43.5 31v2q-30 10 -42.5 34.5t-12.5 69.5v193q0 25 -14.5 45.5t-45.5 20.5h-23v77h66q51 0 82.5 -35t31.5 -87v-199q0 -17 1.5 -27t8.5 -23t25 -20t47 -8v-86q-29 -1 -46.5 -6.5t-25 -18.5t-9 -23t-1.5 -29
v-194q0 -55 -32.5 -88.5t-81.5 -33.5z" />
    <glyph glyph-name="asciitilde" unicode="~" horiz-adv-x="568" 
d="M380 201q-41 0 -106 28q-42 20 -68 20q-45 0 -71 -48l-80 32q19 55 53.5 88t82.5 33q47 0 103 -26q39 -21 70 -21q44 0 69 47l80 -27q-18 -56 -53 -91t-80 -35z" />
    <glyph glyph-name="uni00A0" unicode="&#xa0;" horiz-adv-x="268" 
 />
    <glyph glyph-name="exclamdown" unicode="&#xa1;" horiz-adv-x="270" 
d="M135 495q31 0 53 -21.5t22 -52.5t-22 -53t-53 -22t-53.5 22t-22.5 53t22 52.5t54 21.5zM94 263h87l20 -512h-127z" />
    <glyph glyph-name="cent" unicode="&#xa2;" horiz-adv-x="548" 
d="M509 132q-60 -68 -168 -83v-97h-81v96q-96 11 -156 79.5t-60 169.5t59 168.5t157 80.5v97h81v-96q106 -15 166 -89l-76 -65q-50 55 -125 55q-66 0 -107 -41.5t-41 -107.5t41 -108.5t107 -42.5q78 0 126 53z" />
    <glyph glyph-name="sterling" unicode="&#xa3;" horiz-adv-x="566" 
d="M45 0v108h71v209h-58v82h58v59q0 120 57.5 177.5t147.5 57.5q58 0 109.5 -25.5t85.5 -71.5l-61 -81q-49 66 -118 66q-102 0 -102 -136v-46h162v-82h-160v-209h301v-108h-493z" />
    <glyph glyph-name="currency" unicode="&#xa4;" horiz-adv-x="510" 
d="M437 387q0 -55 -31 -102l78 -78l-51 -52l-79 79q-46 -30 -102 -30q-54 0 -100 30l-79 -78l-52 52l79 79q-30 46 -30 100t30 100l-79 80l52 52l79 -79q47 31 101 31t101 -31l79 80l52 -53l-79 -79q31 -47 31 -101zM253 284q43 1 73.5 31.5t31.5 72.5q-1 44 -31.5 74.5
t-73.5 30.5q-43 -1 -73.5 -31.5t-30.5 -72.5q0 -43 30.5 -73.5t73.5 -31.5z" />
    <glyph glyph-name="yen" unicode="&#xa5;" horiz-adv-x="580" 
d="M573 687l-180 -323h110v-79h-152v-60h152v-78h-152v-147h-122v147h-160v78h160v60h-160v79h118l-180 323h139l143 -279h2l142 279h140z" />
    <glyph glyph-name="brokenbar" unicode="&#xa6;" horiz-adv-x="316" 
d="M109 385v352h97v-352h-97zM109 -114v352h97v-352h-97z" />
    <glyph glyph-name="section" unicode="&#xa7;" horiz-adv-x="552" 
d="M420 137q59 -43 59 -119q0 -78 -55.5 -124.5t-147.5 -46.5q-130 0 -221 94l68 82q67 -71 151 -71q35 0 58 17.5t23 46.5t-21.5 44.5t-79.5 37.5q-40 15 -63.5 25t-52.5 26.5t-45 32.5t-27 39.5t-11 51.5q0 91 77 132q-55 43 -55 115q0 73 52 120t140 47q52 0 108 -21
t96 -55l-66 -81q-69 50 -132 50q-34 0 -54.5 -16t-20.5 -42t20.5 -41.5t73.5 -36.5q111 -45 140 -64q62 -45 63 -118q0 -81 -77 -125zM169 294q0 -30 26 -49.5t92 -44.5l39 -15q56 14 56 63q0 30 -24 47.5t-96 45.5l-35 14q-27 -6 -42.5 -23t-15.5 -38z" />
    <glyph glyph-name="dieresis" unicode="&#xa8;" horiz-adv-x="515" 
d="M158 544q-31 0 -52.5 22t-21.5 52q0 29 21.5 50.5t52.5 21.5t53 -22t22 -51q0 -30 -22 -51.5t-53 -21.5zM357 544q-31 0 -52.5 22t-21.5 52q0 29 21.5 50.5t52.5 21.5t53 -22t22 -51q0 -30 -22 -51.5t-53 -21.5z" />
    <glyph glyph-name="copyright" unicode="&#xa9;" horiz-adv-x="717" 
d="M358 2q-130 0 -221.5 93t-91.5 223q0 129 91.5 222.5t222.5 93.5q132 0 222.5 -93t90.5 -223q0 -129 -91 -222.5t-223 -93.5zM358 78q100 0 168.5 70.5t68.5 169.5q0 100 -68 170t-168 70t-168.5 -71t-68.5 -170t68 -169t168 -70zM365 153q-70 0 -117 43t-47 120
q0 70 43.5 117t120.5 47q78 0 129 -62l-50 -43q-33 40 -79 40q-41 0 -67 -27t-26 -72q0 -44 25.5 -70.5t67.5 -26.5q49 0 79 38l50 -43q-50 -61 -129 -61z" />
    <glyph glyph-name="ordfeminine" unicode="&#xaa;" horiz-adv-x="421" 
d="M175 388q-64 0 -103.5 42t-39.5 110q0 66 38.5 109t100.5 43q58 0 102 -44h1v39h79v-293h-79v33h-2q-36 -39 -97 -39zM194 463q33 0 55.5 21.5t22.5 55.5q0 33 -22 55.5t-56 22.5t-57.5 -22t-23.5 -56t23 -55.5t58 -21.5z" />
    <glyph glyph-name="guillemotleft" unicode="&#xab;" horiz-adv-x="501" 
d="M274 33h-112l-121 213l123 217h111l-123 -217zM465 33h-112l-121 213l123 217h111l-123 -217z" />
    <glyph glyph-name="logicalnot" unicode="&#xac;" horiz-adv-x="552" 
d="M401 152v161h-351v100h452v-261h-101z" />
    <glyph glyph-name="registered" unicode="&#xae;" horiz-adv-x="717" 
d="M359 634q132 0 222.5 -93t90.5 -223q0 -129 -91 -222.5t-223 -93.5q-130 0 -221.5 93t-91.5 223q0 129 91.5 222.5t222.5 93.5zM358 78q100 0 168.5 70.5t68.5 169.5q0 100 -68 170t-168 70t-168.5 -71t-68.5 -170t68 -169t168 -70zM482 374q0 -74 -63 -97l79 -119h-78
l-72 110h-35v-110h-66v324h123q56 0 84 -29.5t28 -78.5zM314 421v-93h41q28 0 43 13t15 34t-15 33.5t-41 12.5h-43z" />
    <glyph glyph-name="macron" unicode="&#xaf;" horiz-adv-x="445" 
d="M74 566v94h298v-94h-298z" />
    <glyph glyph-name="degree" unicode="&#xb0;" horiz-adv-x="392" 
d="M196 441q-58 0 -99.5 40.5t-41.5 97.5q0 56 42.5 97.5t98.5 41.5q57 0 99 -41.5t42 -98.5q0 -56 -41.5 -96.5t-99.5 -40.5zM196 515q27 0 45.5 18.5t18.5 45.5t-19 46t-45 19t-45.5 -19.5t-19.5 -45.5q0 -27 19 -45.5t46 -18.5z" />
    <glyph glyph-name="plusminus" unicode="&#xb1;" horiz-adv-x="595" 
d="M246 171v184h-185v102h185v185h103v-185h185v-102h-185v-184h-103zM61 0v102h473v-102h-473z" />
    <glyph glyph-name="uni00B2" unicode="&#xb2;" horiz-adv-x="344" 
d="M27 436l-2 63l133 130q56 55 56 89q0 22 -14 35.5t-37 13.5q-44 0 -70 -42l-70 51q21 34 59.5 56t87.5 22q58 0 99.5 -34.5t41.5 -90.5q0 -38 -15.5 -68t-58.5 -70l-75 -68l1 -2h152v-85h-288z" />
    <glyph glyph-name="uni00B3" unicode="&#xb3;" horiz-adv-x="351" 
d="M176 429q-57 0 -99.5 27t-58.5 68l84 35q16 -47 67 -47q27 0 42.5 13.5t15.5 36.5q0 22 -17.5 35.5t-48.5 13.5h-30v70h37q24 0 39 12.5t15 30.5q0 21 -14.5 34t-39.5 13q-40 0 -56 -37l-78 42q15 35 51.5 56.5t84.5 21.5q61 0 101 -30t40 -82q0 -61 -52 -92v-2
q66 -30 66 -99q0 -54 -41.5 -87t-107.5 -33z" />
    <glyph glyph-name="acute" unicode="&#xb4;" horiz-adv-x="503" 
d="M149 538l115 144l123 1l-124 -145h-114z" />
    <glyph glyph-name="uni00B5" unicode="&#xb5;" horiz-adv-x="580" 
d="M67 -198v686h112v-254q0 -140 106 -140q51 0 83.5 40t32.5 110v244h112v-488h-102l-6 63h-2q-58 -71 -142 -71q-55 0 -85 31l-3 -1q6 -51 6 -105v-115h-112z" />
    <glyph glyph-name="paragraph" unicode="&#xb6;" horiz-adv-x="527" 
d="M366 -151v741h-62v-590h-72v316q-84 5 -135.5 50.5t-51.5 122.5q0 80 54.5 128t149.5 48h187v-816h-70z" />
    <glyph glyph-name="periodcentered" unicode="&#xb7;" horiz-adv-x="274" 
d="M136 171q-32 0 -54 21.5t-22 52.5t22.5 53t53.5 22t53 -22t22 -53t-22 -52.5t-53 -21.5z" />
    <glyph glyph-name="cedilla" unicode="&#xb8;" horiz-adv-x="378" 
d="M159 -190q-29 0 -59 6v55q21 -7 50 -7q20 0 35.5 7.5t15.5 22.5q0 14 -22.5 24t-61.5 10v36l19 42h67l-17 -36v-2q92 -3 92 -80q0 -35 -29.5 -56.5t-89.5 -21.5z" />
    <glyph glyph-name="uni00B9" unicode="&#xb9;" horiz-adv-x="282" 
d="M131 436v295l-67 -46l-46 72l134 91h73v-412h-94z" />
    <glyph glyph-name="ordmasculine" unicode="&#xba;" horiz-adv-x="389" 
d="M189 388q-69 0 -113 43t-44 110q0 66 44 108.5t113 42.5t113.5 -42.5t44.5 -108.5q0 -68 -44.5 -110.5t-113.5 -42.5zM189 462q31 0 52 22.5t21 56.5t-20.5 56t-52.5 22t-52 -22.5t-20 -55.5q0 -34 20 -56.5t52 -22.5z" />
    <glyph glyph-name="guillemotright" unicode="&#xbb;" horiz-adv-x="501" 
d="M36 33l122 213l-123 217h111l123 -217l-121 -213h-112zM227 33l122 213l-123 217h111l123 -217l-121 -213h-112z" />
    <glyph glyph-name="onequarter" unicode="&#xbc;" horiz-adv-x="809" 
d="M291 -22l-90 39l313 708l91 -39zM131 299v295l-67 -46l-46 72l134 91h73v-412h-94zM637 0v64h-173v58l193 290h73v-267h57v-81h-57v-64h-93zM567 139h77v121z" />
    <glyph glyph-name="onehalf" unicode="&#xbd;" horiz-adv-x="842" 
d="M291 -22l-90 39l313 708l91 -39zM131 299v295l-67 -46l-46 72l134 91h73v-412h-94zM525 0l-2 63l133 130q56 55 56 89q0 22 -14 35.5t-37 13.5q-44 0 -70 -42l-70 51q21 34 59.5 56t87.5 22q58 0 99.5 -34.5t41.5 -90.5q0 -38 -15.5 -68t-58.5 -70l-75 -68l1 -2h152v-85
h-288z" />
    <glyph glyph-name="threequarters" unicode="&#xbe;" horiz-adv-x="858" 
d="M340 -22l-90 39l313 708l91 -39zM176 292q-57 0 -99.5 27t-58.5 68l84 35q16 -47 67 -47q27 0 42.5 13.5t15.5 36.5q0 22 -17.5 35.5t-48.5 13.5h-30v70h37q24 0 39 12.5t15 30.5q0 21 -14.5 34t-39.5 13q-40 0 -56 -37l-78 42q15 35 51.5 56.5t84.5 21.5q61 0 101 -30
t40 -82q0 -61 -52 -92v-2q66 -30 66 -99q0 -54 -41.5 -87t-107.5 -33zM686 0v64h-173v58l193 290h73v-267h57v-81h-57v-64h-93zM616 139h77v121z" />
    <glyph glyph-name="questiondown" unicode="&#xbf;" horiz-adv-x="447" 
d="M266 495q32 0 54 -21.5t22 -52.5t-22.5 -53t-53.5 -22t-53 22t-22 53t22 52.5t53 21.5zM318 263v-50q0 -10 -1 -19.5t-5 -19.5t-6.5 -17t-9.5 -17.5l-10 -15t-13 -16t-12.5 -14t-14.5 -15t-14 -14.5q-31 -34 -47.5 -61.5t-16.5 -61.5q0 -42 25 -65t65 -23q29 0 58 16
t47 43l84 -78q-73 -92 -198 -92q-86 0 -146.5 50.5t-60.5 142.5q0 89 88 175q7 7 23.5 22t24.5 22.5t18 19.5t14.5 22.5t5.5 21.5l3 44h99z" />
    <glyph glyph-name="Agrave" unicode="&#xc0;" horiz-adv-x="695" 
d="M302 775l-126 133h125l112 -133h-111zM23 0l265 710h118l266 -710h-126l-54 153h-290l-53 -153h-126zM239 257h217l-108 308h-2z" />
    <glyph glyph-name="Aacute" unicode="&#xc1;" horiz-adv-x="695" 
d="M294 775l112 133h125l-126 -133h-111zM23 0l265 710h118l266 -710h-126l-54 153h-290l-53 -153h-126zM239 257h217l-108 308h-2z" />
    <glyph glyph-name="Acircumflex" unicode="&#xc2;" horiz-adv-x="695" 
d="M178 775l111 133h117l108 -133h-109l-57 71h-2l-57 -71h-111zM23 0l265 710h118l266 -710h-126l-54 153h-290l-53 -153h-126zM239 257h217l-108 308h-2z" />
    <glyph glyph-name="Atilde" unicode="&#xc3;" horiz-adv-x="695" 
d="M425 775q-34 0 -84 29q-42 24 -63 24q-33 0 -54 -52l-68 31q36 103 114 103q38 0 89 -29q42 -24 59 -24q30 0 51 52l68 -23q-33 -111 -112 -111zM23 0l265 710h118l266 -710h-126l-54 153h-290l-53 -153h-126zM239 257h217l-108 308h-2z" />
    <glyph glyph-name="Adieresis" unicode="&#xc4;" horiz-adv-x="695" 
d="M248 775q-31 0 -52.5 22t-21.5 52q0 29 21.5 50.5t52.5 21.5t53 -22t22 -51q0 -30 -22 -51.5t-53 -21.5zM447 775q-31 0 -52.5 22t-21.5 52q0 29 21.5 50.5t52.5 21.5t53 -22t22 -51q0 -30 -22 -51.5t-53 -21.5zM23 0l265 710h118l266 -710h-126l-54 153h-290l-53 -153
h-126zM239 257h217l-108 308h-2z" />
    <glyph glyph-name="Aring" unicode="&#xc5;" horiz-adv-x="695" 
d="M346 748q-44 0 -76 30.5t-32 74.5q0 43 31 74t77 31q45 0 77 -30t32 -75q0 -44 -31 -74.5t-78 -30.5zM346 816q16 0 27.5 11t11.5 27t-11.5 27t-27.5 11t-27 -11.5t-11 -26.5q0 -16 11 -27t27 -11zM23 0l265 710h118l266 -710h-126l-54 153h-290l-53 -153h-126zM239 257
h217l-108 308h-2z" />
    <glyph glyph-name="AE" unicode="&#xc6;" horiz-adv-x="943" 
d="M11 0l354 710h516v-108h-327v-195h268v-108h-268v-191h347v-108h-467v153h-225l-75 -153h-123zM261 257h173v348h-2z" />
    <glyph glyph-name="Ccedilla" unicode="&#xc7;" horiz-adv-x="729" 
d="M417 -6l-11 -24v-2q92 -3 92 -80q0 -35 -29.5 -56.5t-89.5 -21.5q-29 0 -59 6v55q21 -7 50 -7q20 0 35.5 7.5t15.5 22.5q0 14 -22.5 24t-61.5 10v36l15 34q-130 19 -213.5 112t-83.5 243q0 157 95 261t261 104q169 0 280 -136l-89 -75q-79 97 -191 97q-102 0 -166 -69.5
t-64 -181.5q0 -109 65 -177.5t167 -68.5q113 0 191 97l89 -76q-106 -133 -276 -134z" />
    <glyph glyph-name="Egrave" unicode="&#xc8;" horiz-adv-x="607" 
d="M320 775l-126 133h125l112 -133h-111zM87 0v710h447v-108h-326v-196h263v-108h-263v-190h347v-108h-468z" />
    <glyph glyph-name="Eacute" unicode="&#xc9;" horiz-adv-x="607" 
d="M219 775l112 133h125l-126 -133h-111zM87 0v710h447v-108h-326v-196h263v-108h-263v-190h347v-108h-468z" />
    <glyph glyph-name="Ecircumflex" unicode="&#xca;" horiz-adv-x="607" 
d="M151 775l111 133h117l108 -133h-109l-57 71h-2l-57 -71h-111zM87 0v710h447v-108h-326v-196h263v-108h-263v-190h347v-108h-468z" />
    <glyph glyph-name="Edieresis" unicode="&#xcb;" horiz-adv-x="607" 
d="M221 775q-31 0 -52.5 22t-21.5 52q0 29 21.5 50.5t52.5 21.5t53 -22t22 -51q0 -30 -22 -51.5t-53 -21.5zM420 775q-31 0 -52.5 22t-21.5 52q0 29 21.5 50.5t52.5 21.5t53 -22t22 -51q0 -30 -22 -51.5t-53 -21.5zM87 0v710h447v-108h-326v-196h263v-108h-263v-190h347
v-108h-468z" />
    <glyph glyph-name="Igrave" unicode="&#xcc;" horiz-adv-x="304" 
d="M100 775l-126 133h125l112 -133h-111zM91 0v710h121v-710h-121z" />
    <glyph glyph-name="Iacute" unicode="&#xcd;" horiz-adv-x="304" 
d="M95 775l112 133h125l-126 -133h-111zM91 0v710h121v-710h-121z" />
    <glyph glyph-name="Icircumflex" unicode="&#xce;" horiz-adv-x="304" 
d="M-19 775l111 133h117l108 -133h-109l-57 71h-2l-57 -71h-111zM91 0v710h121v-710h-121z" />
    <glyph glyph-name="Idieresis" unicode="&#xcf;" horiz-adv-x="304" 
d="M51 775q-31 0 -52.5 22t-21.5 52q0 29 21.5 50.5t52.5 21.5t53 -22t22 -51q0 -30 -22 -51.5t-53 -21.5zM250 775q-31 0 -52.5 22t-21.5 52q0 29 21.5 50.5t52.5 21.5t53 -22t22 -51q0 -30 -22 -51.5t-53 -21.5zM91 0v710h121v-710h-121z" />
    <glyph glyph-name="Eth" unicode="&#xd0;" horiz-adv-x="736" 
d="M313 710q167 0 268 -98.5t101 -257.5t-98.5 -256.5t-267.5 -97.5h-229v301h-59v103h59v306h226zM309 108q111 0 179.5 69.5t68.5 176.5q0 108 -67.5 178t-174.5 70h-107v-198h168v-103h-168v-193h101z" />
    <glyph glyph-name="Ntilde" unicode="&#xd1;" horiz-adv-x="763" 
d="M459 775q-34 0 -84 29q-42 24 -63 24q-33 0 -54 -52l-68 31q36 103 114 103q38 0 89 -29q42 -24 59 -24q30 0 51 52l68 -23q-33 -111 -112 -111zM87 0v710h120l347 -510h2v510h120v-710h-123l-343 501h-2v-501h-121z" />
    <glyph glyph-name="Ograve" unicode="&#xd2;" horiz-adv-x="827" 
d="M373 775l-126 133h125l112 -133h-111zM414 -8q-159 0 -259 102.5t-100 260.5t100 260.5t259 102.5q155 0 256.5 -101t101.5 -262t-101.5 -262t-256.5 -101zM414 105q99 0 165.5 71t66.5 179q0 109 -66.5 179.5t-165.5 70.5q-103 0 -168.5 -72t-65.5 -178t65.5 -178
t168.5 -72z" />
    <glyph glyph-name="Oacute" unicode="&#xd3;" horiz-adv-x="827" 
d="M353 775l112 133h125l-126 -133h-111zM414 -8q-159 0 -259 102.5t-100 260.5t100 260.5t259 102.5q155 0 256.5 -101t101.5 -262t-101.5 -262t-256.5 -101zM414 105q99 0 165.5 71t66.5 179q0 109 -66.5 179.5t-165.5 70.5q-103 0 -168.5 -72t-65.5 -178t65.5 -178
t168.5 -72z" />
    <glyph glyph-name="Ocircumflex" unicode="&#xd4;" horiz-adv-x="827" 
d="M246 775l111 133h117l108 -133h-109l-57 71h-2l-57 -71h-111zM414 -8q-159 0 -259 102.5t-100 260.5t100 260.5t259 102.5q155 0 256.5 -101t101.5 -262t-101.5 -262t-256.5 -101zM414 105q99 0 165.5 71t66.5 179q0 109 -66.5 179.5t-165.5 70.5q-103 0 -168.5 -72
t-65.5 -178t65.5 -178t168.5 -72z" />
    <glyph glyph-name="Otilde" unicode="&#xd5;" horiz-adv-x="827" 
d="M493 775q-34 0 -84 29q-42 24 -63 24q-33 0 -54 -52l-68 31q36 103 114 103q38 0 89 -29q42 -24 59 -24q30 0 51 52l68 -23q-33 -111 -112 -111zM414 -8q-159 0 -259 102.5t-100 260.5t100 260.5t259 102.5q155 0 256.5 -101t101.5 -262t-101.5 -262t-256.5 -101z
M414 105q99 0 165.5 71t66.5 179q0 109 -66.5 179.5t-165.5 70.5q-103 0 -168.5 -72t-65.5 -178t65.5 -178t168.5 -72z" />
    <glyph glyph-name="Odieresis" unicode="&#xd6;" horiz-adv-x="827" 
d="M316 775q-31 0 -52.5 22t-21.5 52q0 29 21.5 50.5t52.5 21.5t53 -22t22 -51q0 -30 -22 -51.5t-53 -21.5zM515 775q-31 0 -52.5 22t-21.5 52q0 29 21.5 50.5t52.5 21.5t53 -22t22 -51q0 -30 -22 -51.5t-53 -21.5zM414 -8q-159 0 -259 102.5t-100 260.5t100 260.5
t259 102.5q155 0 256.5 -101t101.5 -262t-101.5 -262t-256.5 -101zM414 105q99 0 165.5 71t66.5 179q0 109 -66.5 179.5t-165.5 70.5q-103 0 -168.5 -72t-65.5 -178t65.5 -178t168.5 -72z" />
    <glyph glyph-name="multiply" unicode="&#xd7;" horiz-adv-x="524" 
d="M122 66l-72 71l141 140l-141 140l71 72l140 -141l141 141l72 -71l-141 -142l140 -140l-71 -70l-140 140z" />
    <glyph glyph-name="Oslash" unicode="&#xd8;" horiz-adv-x="827" 
d="M785 677l-85 -93q72 -96 72 -229q0 -161 -101.5 -262t-256.5 -101q-116 0 -205 58l-78 -85l-69 64l77 83q-84 98 -84 243q0 158 100 260.5t259 102.5q126 0 220 -69l83 90zM180 355q0 -86 44 -150l328 355q-61 45 -138 45q-103 0 -168.5 -72t-65.5 -178zM646 355
q0 75 -34 134l-321 -350q54 -34 123 -34q99 0 165.5 71t66.5 179z" />
    <glyph glyph-name="Ugrave" unicode="&#xd9;" horiz-adv-x="719" 
d="M321 775l-126 133h125l112 -133h-111zM359 -8q-128 0 -205 79.5t-77 220.5v418h120v-409q0 -87 43.5 -141t118.5 -54q73 0 118 52.5t45 142.5v409h121v-418q0 -139 -76 -219.5t-208 -80.5z" />
    <glyph glyph-name="Uacute" unicode="&#xda;" horiz-adv-x="719" 
d="M284 775l112 133h125l-126 -133h-111zM359 -8q-128 0 -205 79.5t-77 220.5v418h120v-409q0 -87 43.5 -141t118.5 -54q73 0 118 52.5t45 142.5v409h121v-418q0 -139 -76 -219.5t-208 -80.5z" />
    <glyph glyph-name="Ucircumflex" unicode="&#xdb;" horiz-adv-x="719" 
d="M190 775l111 133h117l108 -133h-109l-57 71h-2l-57 -71h-111zM359 -8q-128 0 -205 79.5t-77 220.5v418h120v-409q0 -87 43.5 -141t118.5 -54q73 0 118 52.5t45 142.5v409h121v-418q0 -139 -76 -219.5t-208 -80.5z" />
    <glyph glyph-name="Udieresis" unicode="&#xdc;" horiz-adv-x="719" 
d="M260 775q-31 0 -52.5 22t-21.5 52q0 29 21.5 50.5t52.5 21.5t53 -22t22 -51q0 -30 -22 -51.5t-53 -21.5zM459 775q-31 0 -52.5 22t-21.5 52q0 29 21.5 50.5t52.5 21.5t53 -22t22 -51q0 -30 -22 -51.5t-53 -21.5zM359 -8q-128 0 -205 79.5t-77 220.5v418h120v-409
q0 -87 43.5 -141t118.5 -54q73 0 118 52.5t45 142.5v409h121v-418q0 -139 -76 -219.5t-208 -80.5z" />
    <glyph glyph-name="Yacute" unicode="&#xdd;" horiz-adv-x="625" 
d="M245 775l112 133h125l-126 -133h-111zM251 0v314l-237 396h138l159 -275h2l158 275h140l-239 -396v-314h-121z" />
    <glyph glyph-name="Thorn" unicode="&#xde;" horiz-adv-x="649" 
d="M87 0v710h121v-131h157q121 0 181 -62.5t60 -167.5q0 -111 -68.5 -167.5t-187.5 -56.5h-142v-125h-121zM208 233h130q71 0 107 32t36 86q0 57 -35 88.5t-100 31.5h-138v-238z" />
    <glyph glyph-name="germandbls" unicode="&#xdf;" horiz-adv-x="639" 
d="M277 -8v101h76q58 0 97 36.5t39 93.5t-40.5 97.5t-108.5 40.5h-47v96h42q29 0 50.5 8t33.5 19t19 25t9 24t2 19q0 37 -30.5 64t-88.5 27q-72 0 -108 -36t-36 -118v-489h-112v486q0 258 252 258q110 0 171.5 -51.5t61.5 -129.5q0 -93 -80 -137v-2q58 -27 91 -81.5
t33 -121.5q0 -104 -61.5 -166.5t-161.5 -62.5h-103z" />
    <glyph glyph-name="agrave" unicode="&#xe0;" horiz-adv-x="611" 
d="M273 554l-124 144l125 -1l110 -143h-111zM279 -8q-103 0 -169.5 69t-66.5 181q0 110 67 181.5t168 71.5q98 0 151 -67l2 1v59h112v-488h-107v64l-2 1q-54 -73 -155 -73zM297 94q58 0 98.5 41t40.5 106t-39.5 109t-99.5 44t-100 -42t-40 -111q0 -65 39 -106t101 -41z" />
    <glyph glyph-name="aacute" unicode="&#xe1;" horiz-adv-x="611" 
d="M233 556l115 144l123 1l-124 -145h-114zM279 -8q-103 0 -169.5 69t-66.5 181q0 110 67 181.5t168 71.5q98 0 151 -67l2 1v59h112v-488h-107v64l-2 1q-54 -73 -155 -73zM297 94q58 0 98.5 41t40.5 106t-39.5 109t-99.5 44t-100 -42t-40 -111q0 -65 39 -106t101 -41z" />
    <glyph glyph-name="acircumflex" unicode="&#xe2;" horiz-adv-x="611" 
d="M139 554l109 145h117l105 -145h-109l-54 77h-2l-55 -77h-111zM279 -8q-103 0 -169.5 69t-66.5 181q0 110 67 181.5t168 71.5q98 0 151 -67l2 1v59h112v-488h-107v64l-2 1q-54 -73 -155 -73zM297 94q58 0 98.5 41t40.5 106t-39.5 109t-99.5 44t-100 -42t-40 -111
q0 -65 39 -106t101 -41z" />
    <glyph glyph-name="atilde" unicode="&#xe3;" horiz-adv-x="611" 
d="M384 553q-37 0 -88 32q-35 22 -56 22q-37 0 -58 -52l-68 31q34 110 114 110q40 0 84 -28q40 -25 58 -25q36 0 57 52l68 -23q-15 -56 -44 -87.5t-67 -31.5zM279 -8q-103 0 -169.5 69t-66.5 181q0 110 67 181.5t168 71.5q98 0 151 -67l2 1v59h112v-488h-107v64l-2 1
q-54 -73 -155 -73zM297 94q58 0 98.5 41t40.5 106t-39.5 109t-99.5 44t-100 -42t-40 -111q0 -65 39 -106t101 -41z" />
    <glyph glyph-name="adieresis" unicode="&#xe4;" horiz-adv-x="611" 
d="M205 562q-31 0 -52.5 22t-21.5 52q0 29 21.5 50.5t52.5 21.5t53 -22t22 -51q0 -30 -22 -51.5t-53 -21.5zM404 562q-31 0 -52.5 22t-21.5 52q0 29 21.5 50.5t52.5 21.5t53 -22t22 -51q0 -30 -22 -51.5t-53 -21.5zM279 -8q-103 0 -169.5 69t-66.5 181q0 110 67 181.5
t168 71.5q98 0 151 -67l2 1v59h112v-488h-107v64l-2 1q-54 -73 -155 -73zM297 94q58 0 98.5 41t40.5 106t-39.5 109t-99.5 44t-100 -42t-40 -111q0 -65 39 -106t101 -41z" />
    <glyph glyph-name="aring" unicode="&#xe5;" horiz-adv-x="611" 
d="M304 540q-44 0 -76 30.5t-32 74.5q0 43 31 74t77 31q45 0 77 -30t32 -75q0 -44 -31 -74.5t-78 -30.5zM304 608q16 0 27.5 11t11.5 27t-11.5 27t-27.5 11t-27 -11.5t-11 -26.5q0 -16 11 -27t27 -11zM279 -8q-103 0 -169.5 69t-66.5 181q0 110 67 181.5t168 71.5
q98 0 151 -67l2 1v59h112v-488h-107v64l-2 1q-54 -73 -155 -73zM297 94q58 0 98.5 41t40.5 106t-39.5 109t-99.5 44t-100 -42t-40 -111q0 -65 39 -106t101 -41z" />
    <glyph glyph-name="ae" unicode="&#xe6;" horiz-adv-x="789" 
d="M760 250q0 -32 -3 -45h-326q10 -51 44 -81t87 -30q39 0 63 14t46 43l77 -67q-36 -46 -79 -69t-117 -23q-104 0 -168 77h-2q-59 -77 -173 -77q-88 0 -133.5 43.5t-45.5 110.5q0 72 49 112.5t144 40.5h98v6q0 51 -21 71t-66 20q-70 0 -132 -34l-42 90q27 15 79.5 29
t101.5 14q107 0 152 -72h3q60 72 157 72q92 0 149.5 -69t57.5 -176zM433 295h214q-5 44 -29 71.5t-70 27.5q-42 0 -73 -27.5t-42 -71.5zM220 85q42 0 72 25t30 66v34h-88q-94 0 -94 -63q0 -28 20 -45t60 -17z" />
    <glyph glyph-name="ccedilla" unicode="&#xe7;" horiz-adv-x="532" 
d="M309 -8l-11 -22v-2q92 -3 92 -80q0 -35 -29.5 -56.5t-89.5 -21.5q-29 0 -59 6v55q21 -7 50 -7q20 0 35.5 7.5t15.5 22.5q0 14 -22.5 24t-61.5 10v36l15 32q-90 16 -145 83t-55 164q0 112 71 182t182 70q59 0 114 -23.5t91 -67.5l-76 -66q-48 56 -123 56q-65 0 -105 -41.5
t-40 -108.5t40 -108.5t105 -41.5q80 0 123 57l77 -68q-67 -86 -194 -91z" />
    <glyph glyph-name="egrave" unicode="&#xe8;" horiz-adv-x="561" 
d="M370 554h-111l-124 144l125 -1zM519 250q0 -19 -3 -43h-356q11 -53 48.5 -83t94.5 -30q77 0 123 57l78 -67q-71 -92 -207 -92q-112 0 -182.5 69t-70.5 183q0 112 68.5 181.5t176.5 69.5q102 0 166 -69t64 -176zM288 394q-47 0 -80.5 -26t-45.5 -73h244q-11 46 -41 72.5
t-77 26.5z" />
    <glyph glyph-name="eacute" unicode="&#xe9;" horiz-adv-x="561" 
d="M461 701l-124 -145h-114l115 144zM519 250q0 -19 -3 -43h-356q11 -53 48.5 -83t94.5 -30q77 0 123 57l78 -67q-71 -92 -207 -92q-112 0 -182.5 69t-70.5 183q0 112 68.5 181.5t176.5 69.5q102 0 166 -69t64 -176zM288 394q-47 0 -80.5 -26t-45.5 -73h244q-11 46 -41 72.5
t-77 26.5z" />
    <glyph glyph-name="ecircumflex" unicode="&#xea;" horiz-adv-x="562" 
d="M291 631l-55 -77h-111l109 145h117l105 -145h-109l-54 77h-2zM519 250q0 -19 -3 -43h-356q11 -53 48.5 -83t94.5 -30q77 0 123 57l78 -67q-71 -92 -207 -92q-112 0 -182.5 69t-70.5 183q0 112 68.5 181.5t176.5 69.5q102 0 166 -69t64 -176zM288 394q-47 0 -80.5 -26
t-45.5 -73h244q-11 46 -41 72.5t-77 26.5z" />
    <glyph glyph-name="edieresis" unicode="&#xeb;" horiz-adv-x="562" 
d="M191 562q-31 0 -52.5 22t-21.5 52q0 29 21.5 50.5t52.5 21.5t53 -22t22 -51q0 -30 -22 -51.5t-53 -21.5zM390 562q-31 0 -52.5 22t-21.5 52q0 29 21.5 50.5t52.5 21.5t53 -22t22 -51q0 -30 -22 -51.5t-53 -21.5zM519 250q0 -19 -3 -43h-356q11 -53 48.5 -83t94.5 -30
q77 0 123 57l78 -67q-71 -92 -207 -92q-112 0 -182.5 69t-70.5 183q0 112 68.5 181.5t176.5 69.5q102 0 166 -69t64 -176zM288 394q-47 0 -80.5 -26t-45.5 -73h244q-11 46 -41 72.5t-77 26.5z" />
    <glyph glyph-name="igrave" unicode="&#xec;" horiz-adv-x="273" 
d="M79 556l-90 145l123 -1l81 -144h-114zM80 0v488h112v-488h-112z" />
    <glyph glyph-name="iacute" unicode="&#xed;" horiz-adv-x="272" 
d="M84 556l115 144l123 1l-124 -145h-114zM80 0v488h112v-488h-112z" />
    <glyph glyph-name="icircumflex" unicode="&#xee;" horiz-adv-x="272" 
d="M-30 554l109 145h117l105 -145h-109l-54 77h-2l-55 -77h-111zM80 0v488h112v-488h-112z" />
    <glyph glyph-name="idieresis" unicode="&#xef;" horiz-adv-x="272" 
d="M49 560q-32 0 -54 22t-22 53q0 30 22 52t54 22q31 0 53 -22t22 -52q0 -31 -22 -53t-53 -22zM225 562q-31 0 -53 21.5t-22 51.5q0 29 22 51t53 22q30 0 52 -22t22 -51q0 -30 -22 -51.5t-52 -21.5zM80 0v488h112v-488h-112z" />
    <glyph glyph-name="eth" unicode="&#xf0;" horiz-adv-x="596" 
d="M430 575q120 -136 120 -307q0 -134 -69 -205t-187 -71q-106 0 -177.5 68t-71.5 171q0 109 64.5 177.5t152.5 68.5q91 0 144 -49v1q-24 51 -61 91q-16 18 -34 34l-39 -47l-73 53l38 46q-46 27 -110 51l49 84q65 -22 124 -57l64 79l77 -51l-67 -82q33 -28 56 -55zM295 94
q62 0 101.5 41t39.5 104q0 60 -39.5 99.5t-100.5 39.5q-59 0 -98 -40.5t-39 -98.5q0 -62 39.5 -103.5t96.5 -41.5z" />
    <glyph glyph-name="ntilde" unicode="&#xf1;" horiz-adv-x="593" 
d="M375 553q-37 0 -88 32q-35 22 -56 22q-37 0 -58 -52l-68 31q34 110 114 110q40 0 84 -28q40 -25 58 -25q36 0 57 52l68 -23q-15 -56 -44 -87.5t-67 -31.5zM73 0v488h112v-67h2q62 74 163 74q84 0 131.5 -51t47.5 -157v-287h-112v258q0 74 -26.5 105t-79.5 31
q-58 0 -92 -39t-34 -110v-245h-112z" />
    <glyph glyph-name="ograve" unicode="&#xf2;" horiz-adv-x="600" 
d="M261 554l-124 144l125 -1l110 -143h-111zM300 -8q-114 0 -185 71t-71 180t71 180.5t185 71.5q113 0 184.5 -70t71.5 -182q0 -111 -71.5 -181t-184.5 -70zM300 94q60 0 101 42t41 107q0 67 -40.5 109t-101.5 42q-63 0 -102.5 -43t-39.5 -108q0 -63 40 -106t102 -43z" />
    <glyph glyph-name="oacute" unicode="&#xf3;" horiz-adv-x="600" 
d="M240 556l115 144l123 1l-124 -145h-114zM300 -8q-114 0 -185 71t-71 180t71 180.5t185 71.5q113 0 184.5 -70t71.5 -182q0 -111 -71.5 -181t-184.5 -70zM300 94q60 0 101 42t41 107q0 67 -40.5 109t-101.5 42q-63 0 -102.5 -43t-39.5 -108q0 -63 40 -106t102 -43z" />
    <glyph glyph-name="ocircumflex" unicode="&#xf4;" horiz-adv-x="600" 
d="M134 554l109 145h117l105 -145h-109l-54 77h-2l-55 -77h-111zM300 -8q-114 0 -185 71t-71 180t71 180.5t185 71.5q113 0 184.5 -70t71.5 -182q0 -111 -71.5 -181t-184.5 -70zM300 94q60 0 101 42t41 107q0 67 -40.5 109t-101.5 42q-63 0 -102.5 -43t-39.5 -108
q0 -63 40 -106t102 -43z" />
    <glyph glyph-name="otilde" unicode="&#xf5;" horiz-adv-x="600" 
d="M379 553q-37 0 -88 32q-35 22 -56 22q-37 0 -58 -52l-68 31q34 110 114 110q40 0 84 -28q40 -25 58 -25q36 0 57 52l68 -23q-15 -56 -44 -87.5t-67 -31.5zM300 -8q-114 0 -185 71t-71 180t71 180.5t185 71.5q113 0 184.5 -70t71.5 -182q0 -111 -71.5 -181t-184.5 -70z
M300 94q60 0 101 42t41 107q0 67 -40.5 109t-101.5 42q-63 0 -102.5 -43t-39.5 -108q0 -63 40 -106t102 -43z" />
    <glyph glyph-name="odieresis" unicode="&#xf6;" horiz-adv-x="600" 
d="M200 562q-31 0 -52.5 22t-21.5 52q0 29 21.5 50.5t52.5 21.5t53 -22t22 -51q0 -30 -22 -51.5t-53 -21.5zM399 562q-31 0 -52.5 22t-21.5 52q0 29 21.5 50.5t52.5 21.5t53 -22t22 -51q0 -30 -22 -51.5t-53 -21.5zM300 -8q-114 0 -185 71t-71 180t71 180.5t185 71.5
q113 0 184.5 -70t71.5 -182q0 -111 -71.5 -181t-184.5 -70zM300 94q60 0 101 42t41 107q0 67 -40.5 109t-101.5 42q-63 0 -102.5 -43t-39.5 -108q0 -63 40 -106t102 -43z" />
    <glyph glyph-name="divide" unicode="&#xf7;" horiz-adv-x="573" 
d="M292 396q-31 0 -53 22t-22 53q0 30 22 52t53 22t53.5 -22t22.5 -52q0 -31 -22.5 -53t-53.5 -22zM59 226v102h473v-102h-473zM292 -3q-31 0 -53 22t-22 53q0 30 22 52t53 22t53.5 -22t22.5 -52q0 -31 -22.5 -53t-53.5 -22z" />
    <glyph glyph-name="oslash" unicode="&#xf8;" horiz-adv-x="600" 
d="M569 459l-59 -63q46 -67 46 -153q0 -111 -71.5 -181t-184.5 -70q-76 0 -135 34l-51 -55l-60 56l47 51q-57 68 -57 165q0 109 71 180.5t185 71.5q88 0 151 -43l59 63zM158 243q0 -44 22 -82l197 211q-35 22 -77 22q-63 0 -102.5 -43t-39.5 -108zM442 243q0 35 -13 66
l-189 -202q26 -13 60 -13q60 0 101 42t41 107z" />
    <glyph glyph-name="ugrave" unicode="&#xf9;" horiz-adv-x="578" 
d="M253 554l-124 144l125 -1l110 -143h-111zM246 -8q-183 0 -183 199v297h112v-267q0 -71 22.5 -99t74.5 -28t88.5 42.5t36.5 117.5v234h112v-488h-112v61l-2 1q-58 -70 -149 -70z" />
    <glyph glyph-name="uacute" unicode="&#xfa;" horiz-adv-x="578" 
d="M229 556l115 144l123 1l-124 -145h-114zM246 -8q-183 0 -183 199v297h112v-267q0 -71 22.5 -99t74.5 -28t88.5 42.5t36.5 117.5v234h112v-488h-112v61l-2 1q-58 -70 -149 -70z" />
    <glyph glyph-name="ucircumflex" unicode="&#xfb;" horiz-adv-x="578" 
d="M121 554l109 145h117l105 -145h-109l-54 77h-2l-55 -77h-111zM246 -8q-183 0 -183 199v297h112v-267q0 -71 22.5 -99t74.5 -28t88.5 42.5t36.5 117.5v234h112v-488h-112v61l-2 1q-58 -70 -149 -70z" />
    <glyph glyph-name="udieresis" unicode="&#xfc;" horiz-adv-x="578" 
d="M187 562q-31 0 -52.5 22t-21.5 52q0 29 21.5 50.5t52.5 21.5t53 -22t22 -51q0 -30 -22 -51.5t-53 -21.5zM386 562q-31 0 -52.5 22t-21.5 52q0 29 21.5 50.5t52.5 21.5t53 -22t22 -51q0 -30 -22 -51.5t-53 -21.5zM246 -8q-183 0 -183 199v297h112v-267q0 -71 22.5 -99
t74.5 -28t88.5 42.5t36.5 117.5v234h112v-488h-112v61l-2 1q-58 -70 -149 -70z" />
    <glyph glyph-name="yacute" unicode="&#xfd;" horiz-adv-x="535" 
d="M190 556l115 144l123 1l-124 -145h-114zM131 -198l88 225l-200 461h120l134 -327h2l125 327h115l-268 -686h-116z" />
    <glyph glyph-name="thorn" unicode="&#xfe;" horiz-adv-x="621" 
d="M73 -198v934h112v-305h2q56 64 154 64q102 0 169 -71.5t67 -181.5q0 -112 -67 -181t-170 -69q-98 0 -153 67l-2 -1v-256h-112zM323 94q61 0 100.5 41t39.5 106q0 69 -40.5 111t-100.5 42q-62 0 -102 -43.5t-40 -109.5q0 -65 41 -106t102 -41z" />
    <glyph glyph-name="ydieresis" unicode="&#xff;" horiz-adv-x="535" 
d="M168 562q-31 0 -52.5 22t-21.5 52q0 29 21.5 50.5t52.5 21.5t53 -22t22 -51q0 -30 -22 -51.5t-53 -21.5zM367 562q-31 0 -52.5 22t-21.5 52q0 29 21.5 50.5t52.5 21.5t53 -22t22 -51q0 -30 -22 -51.5t-53 -21.5zM131 -198l88 225l-200 461h120l134 -327h2l125 327h115
l-268 -686h-116z" />
    <glyph glyph-name="Amacron" unicode="&#x100;" horiz-adv-x="695" 
d="M198 797v89h298v-89h-298zM23 0l265 710h118l266 -710h-126l-54 153h-290l-53 -153h-126zM239 257h217l-108 308h-2z" />
    <glyph glyph-name="amacron" unicode="&#x101;" horiz-adv-x="611" 
d="M156 584v94h298v-94h-298zM279 -8q-103 0 -169.5 69t-66.5 181q0 110 67 181.5t168 71.5q98 0 151 -67l2 1v59h112v-488h-107v64l-2 1q-54 -73 -155 -73zM297 94q58 0 98.5 41t40.5 106t-39.5 109t-99.5 44t-100 -42t-40 -111q0 -65 39 -106t101 -41z" />
    <glyph glyph-name="Abreve" unicode="&#x102;" horiz-adv-x="695" 
d="M347 768q-70 0 -110.5 38t-45.5 102h88q2 -24 19.5 -39t48.5 -15q30 0 48 15.5t20 38.5h88q-5 -64 -45.5 -102t-110.5 -38zM23 0l265 710h118l266 -710h-126l-54 153h-290l-53 -153h-126zM239 257h217l-108 308h-2z" />
    <glyph glyph-name="abreve" unicode="&#x103;" horiz-adv-x="611" 
d="M305 548q-71 0 -111 39.5t-45 109.5h88q2 -26 20 -44.5t48 -18.5t48 18.5t20 44.5h88q-5 -70 -45 -109.5t-111 -39.5zM279 -8q-103 0 -169.5 69t-66.5 181q0 110 67 181.5t168 71.5q98 0 151 -67l2 1v59h112v-488h-107v64l-2 1q-54 -73 -155 -73zM297 94q58 0 98.5 41
t40.5 106t-39.5 109t-99.5 44t-100 -42t-40 -111q0 -65 39 -106t101 -41z" />
    <glyph glyph-name="Aogonek" unicode="&#x104;" horiz-adv-x="695" 
d="M612 -116q23 0 41 8l7 -68q-28 -12 -72 -12q-49 0 -78.5 24t-29.5 64q0 56 66 101l-54 152h-290l-53 -153h-126l265 710h118l266 -710h-24q-36 -8 -57.5 -29.5t-21.5 -45.5q0 -41 43 -41zM239 257h217l-108 308h-2z" />
    <glyph glyph-name="aogonek" unicode="&#x105;" horiz-adv-x="611" 
d="M537 -108l7 -68q-28 -12 -72 -12q-49 0 -78.5 24t-29.5 64q0 26 19 55t53 50v59l-2 1q-54 -73 -155 -73q-103 0 -169.5 69t-66.5 181q0 110 67 181.5t168 71.5q98 0 151 -67l2 1v59h112v-488h-11q-36 -8 -57.5 -29.5t-21.5 -45.5q0 -41 43 -41q23 0 41 8zM297 94
q58 0 98.5 41t40.5 106t-39.5 109t-99.5 44t-100 -42t-40 -111q0 -65 39 -106t101 -41z" />
    <glyph glyph-name="Cacute" unicode="&#x106;" horiz-adv-x="729" 
d="M333 775l112 133h125l-126 -133h-111zM413 -6q-152 0 -255 95.5t-103 263.5q0 157 95 261t261 104q169 0 280 -136l-89 -75q-79 97 -191 97q-102 0 -166 -69.5t-64 -181.5q0 -109 65 -177.5t167 -68.5q113 0 191 97l89 -76q-108 -134 -280 -134z" />
    <glyph glyph-name="cacute" unicode="&#x107;" horiz-adv-x="532" 
d="M226 556l115 144l123 1l-124 -145h-114zM293 -8q-109 0 -179 70t-70 181q0 112 71 182t182 70q59 0 114 -23.5t91 -67.5l-76 -66q-48 56 -123 56q-65 0 -105 -41.5t-40 -108.5t40 -108.5t105 -41.5q80 0 123 57l77 -68q-70 -91 -210 -91z" />
    <glyph glyph-name="Ccircumflex" unicode="&#x108;" horiz-adv-x="729" 
d="M242 775l111 133h117l108 -133h-109l-57 71h-2l-57 -71h-111zM413 -6q-152 0 -255 95.5t-103 263.5q0 157 95 261t261 104q169 0 280 -136l-89 -75q-79 97 -191 97q-102 0 -166 -69.5t-64 -181.5q0 -109 65 -177.5t167 -68.5q113 0 191 97l89 -76q-108 -134 -280 -134z
" />
    <glyph glyph-name="ccircumflex" unicode="&#x109;" horiz-adv-x="532" 
d="M133 554l109 145h117l105 -145h-109l-54 77h-2l-55 -77h-111zM293 -8q-109 0 -179 70t-70 181q0 112 71 182t182 70q59 0 114 -23.5t91 -67.5l-76 -66q-48 56 -123 56q-65 0 -105 -41.5t-40 -108.5t40 -108.5t105 -41.5q80 0 123 57l77 -68q-70 -91 -210 -91z" />
    <glyph glyph-name="Cdotaccent" unicode="&#x10a;" horiz-adv-x="729" 
d="M412 773q-31 0 -53 22t-22 53q0 30 22 52t53 22t53.5 -22t22.5 -52q0 -31 -22.5 -53t-53.5 -22zM413 -6q-152 0 -255 95.5t-103 263.5q0 157 95 261t261 104q169 0 280 -136l-89 -75q-79 97 -191 97q-102 0 -166 -69.5t-64 -181.5q0 -109 65 -177.5t167 -68.5
q113 0 191 97l89 -76q-108 -134 -280 -134z" />
    <glyph glyph-name="cdotaccent" unicode="&#x10b;" horiz-adv-x="532" 
d="M299 560q-31 0 -53 22t-22 53q0 30 22 52t53 22t53.5 -22t22.5 -52q0 -31 -22.5 -53t-53.5 -22zM293 -8q-109 0 -179 70t-70 181q0 112 71 182t182 70q59 0 114 -23.5t91 -67.5l-76 -66q-48 56 -123 56q-65 0 -105 -41.5t-40 -108.5t40 -108.5t105 -41.5q80 0 123 57
l77 -68q-70 -91 -210 -91z" />
    <glyph glyph-name="Ccaron" unicode="&#x10c;" horiz-adv-x="729" 
d="M350 775l-108 133h109l57 -71h2l57 71h111l-111 -133h-117zM413 -6q-152 0 -255 95.5t-103 263.5q0 157 95 261t261 104q169 0 280 -136l-89 -75q-79 97 -191 97q-102 0 -166 -69.5t-64 -181.5q0 -109 65 -177.5t167 -68.5q113 0 191 97l89 -76q-108 -134 -280 -134z" />
    <glyph glyph-name="ccaron" unicode="&#x10d;" horiz-adv-x="532" 
d="M238 552l-105 145h109l54 -77h2l55 77h111l-109 -145h-117zM293 -8q-109 0 -179 70t-70 181q0 112 71 182t182 70q59 0 114 -23.5t91 -67.5l-76 -66q-48 56 -123 56q-65 0 -105 -41.5t-40 -108.5t40 -108.5t105 -41.5q80 0 123 57l77 -68q-70 -91 -210 -91z" />
    <glyph glyph-name="Dcaron" unicode="&#x10e;" horiz-adv-x="736" 
d="M301 775l-108 133h109l57 -71h2l57 71h111l-111 -133h-117zM87 0v710h226q167 0 268 -98.5t101 -257.5t-98.5 -256.5t-267.5 -97.5h-229zM208 108h101q111 0 179.5 69.5t68.5 176.5q0 108 -67.5 178t-174.5 70h-107v-494z" />
    <glyph glyph-name="dcaron" unicode="&#x10f;" horiz-adv-x="703" 
d="M612 583l30 198h108l-58 -198h-80zM280 -8q-103 0 -170 69t-67 181q0 110 67.5 181.5t168.5 71.5q100 0 156 -67h1v308h111v-736h-107v66h-1q-57 -74 -159 -74zM297 94q61 0 102 41t41 106q0 66 -40 109.5t-102 43.5q-60 0 -100.5 -42t-40.5 -111q0 -65 39.5 -106
t100.5 -41z" />
    <glyph glyph-name="Dcroat" unicode="&#x110;" horiz-adv-x="736" 
d="M313 710q167 0 268 -98.5t101 -257.5t-98.5 -256.5t-267.5 -97.5h-229v301h-59v103h59v306h226zM309 108q111 0 179.5 69.5t68.5 176.5q0 108 -67.5 178t-174.5 70h-107v-198h168v-103h-168v-193h101z" />
    <glyph glyph-name="dcroat" unicode="&#x111;" horiz-adv-x="609" 
d="M609 638v-76h-62v-562h-107v66h-1q-57 -74 -159 -74q-103 0 -170 69t-67 181q0 110 67.5 181.5t168.5 71.5q100 0 156 -67h1v134h-186v76h186v98h111v-98h62zM297 94q61 0 102 41t41 106q0 66 -40 109.5t-102 43.5q-60 0 -100.5 -42t-40.5 -111q0 -65 39.5 -106
t100.5 -41z" />
    <glyph glyph-name="Emacron" unicode="&#x112;" horiz-adv-x="607" 
d="M171 797v89h298v-89h-298zM87 0v710h447v-108h-326v-196h263v-108h-263v-190h347v-108h-468z" />
    <glyph glyph-name="emacron" unicode="&#x113;" horiz-adv-x="562" 
d="M440 678v-94h-298v94h298zM519 250q0 -19 -3 -43h-356q11 -53 48.5 -83t94.5 -30q77 0 123 57l78 -67q-71 -92 -207 -92q-112 0 -182.5 69t-70.5 183q0 112 68.5 181.5t176.5 69.5q102 0 166 -69t64 -176zM288 394q-47 0 -80.5 -26t-45.5 -73h244q-11 46 -41 72.5
t-77 26.5z" />
    <glyph glyph-name="Ebreve" unicode="&#x114;" horiz-adv-x="607" 
d="M320 768q-70 0 -110.5 38t-45.5 102h88q2 -24 19.5 -39t48.5 -15q30 0 48 15.5t20 38.5h88q-5 -64 -45.5 -102t-110.5 -38zM87 0v710h447v-108h-326v-196h263v-108h-263v-190h347v-108h-468z" />
    <glyph glyph-name="ebreve" unicode="&#x115;" horiz-adv-x="562" 
d="M291 548q-71 0 -111 39.5t-45 109.5h88q2 -26 20 -44.5t48 -18.5t48 18.5t20 44.5h88q-5 -70 -45 -109.5t-111 -39.5zM519 250q0 -19 -3 -43h-356q11 -53 48.5 -83t94.5 -30q77 0 123 57l78 -67q-71 -92 -207 -92q-112 0 -182.5 69t-70.5 183q0 112 68.5 181.5
t176.5 69.5q102 0 166 -69t64 -176zM288 394q-47 0 -80.5 -26t-45.5 -73h244q-11 46 -41 72.5t-77 26.5z" />
    <glyph glyph-name="Edotaccent" unicode="&#x116;" horiz-adv-x="607" 
d="M321 773q-31 0 -53 22t-22 53q0 30 22 52t53 22t53.5 -22t22.5 -52q0 -31 -22.5 -53t-53.5 -22zM87 0v710h447v-108h-326v-196h263v-108h-263v-190h347v-108h-468z" />
    <glyph glyph-name="edotaccent" unicode="&#x117;" horiz-adv-x="562" 
d="M291 560q-31 0 -53 22t-22 53q0 30 22 52t53 22t53.5 -22t22.5 -52q0 -31 -22.5 -53t-53.5 -22zM519 250q0 -19 -3 -43h-356q11 -53 48.5 -83t94.5 -30q77 0 123 57l78 -67q-71 -92 -207 -92q-112 0 -182.5 69t-70.5 183q0 112 68.5 181.5t176.5 69.5q102 0 166 -69
t64 -176zM288 394q-47 0 -80.5 -26t-45.5 -73h244q-11 46 -41 72.5t-77 26.5z" />
    <glyph glyph-name="Eogonek" unicode="&#x118;" horiz-adv-x="607" 
d="M542 0q-36 -8 -57.5 -29.5t-21.5 -45.5q0 -41 43 -41q23 0 41 8l7 -68q-28 -12 -72 -12q-49 0 -78.5 24t-29.5 64q0 55 64 100h-351v710h447v-108h-326v-196h263v-108h-263v-190h347v-108h-13z" />
    <glyph glyph-name="eogonek" unicode="&#x119;" horiz-adv-x="561" 
d="M519 250q0 -19 -3 -43h-356q11 -53 48.5 -83t94.5 -30q77 0 123 57l78 -67q-54 -69 -142 -86q-68 -28 -68 -68q0 -16 11.5 -26.5t31.5 -10.5q22 0 41 7l7 -71q-27 -13 -72 -13q-55 0 -86 24.5t-31 64.5q0 47 50 88v3q-92 16 -147 82t-55 166q0 112 68.5 181.5t176.5 69.5
q102 0 166 -69t64 -176zM288 394q-47 0 -80.5 -26t-45.5 -73h244q-11 46 -41 72.5t-77 26.5z" />
    <glyph glyph-name="Ecaron" unicode="&#x11a;" horiz-adv-x="607" 
d="M259 775l-108 133h109l57 -71h2l57 71h111l-111 -133h-117zM87 0v710h447v-108h-326v-196h263v-108h-263v-190h347v-108h-468z" />
    <glyph glyph-name="ecaron" unicode="&#x11b;" horiz-adv-x="562" 
d="M347 552h-117l-105 145h109l54 -77h2l55 77h111zM519 250q0 -19 -3 -43h-356q11 -53 48.5 -83t94.5 -30q77 0 123 57l78 -67q-71 -92 -207 -92q-112 0 -182.5 69t-70.5 183q0 112 68.5 181.5t176.5 69.5q102 0 166 -69t64 -176zM288 394q-47 0 -80.5 -26t-45.5 -73h244
q-11 46 -41 72.5t-77 26.5z" />
    <glyph glyph-name="Gcircumflex" unicode="&#x11c;" horiz-adv-x="759" 
d="M237 775l111 133h117l108 -133h-109l-57 71h-2l-57 -71h-111zM413 -6q-157 0 -257.5 97.5t-100.5 262.5q0 160 96.5 262t257.5 102q77 0 150 -29.5t127 -87.5l-85 -74q-79 77 -193 77q-98 0 -162.5 -68.5t-64.5 -181.5q0 -108 63.5 -179t168.5 -71q87 0 158 47v120h-174
v108h294v-296q-49 -41 -123 -65t-155 -24z" />
    <glyph glyph-name="gcircumflex" unicode="&#x11d;" horiz-adv-x="607" 
d="M127 554l109 145h117l105 -145h-109l-54 77h-2l-55 -77h-111zM291 -205q-114 0 -199 51l27 98q47 -25 82.5 -36.5t83.5 -11.5q69 0 107 34.5t38 85.5v51h-2q-59 -59 -148 -59q-103 0 -170.5 67t-67.5 174t65.5 176.5t166.5 69.5q90 0 152 -59h2v52h112v-438
q0 -118 -60 -186.5t-189 -68.5zM295 111q61 0 99.5 40.5t38.5 102.5q0 61 -39.5 100t-98.5 39q-62 0 -100.5 -39.5t-38.5 -101.5q0 -64 39.5 -102.5t99.5 -38.5z" />
    <glyph glyph-name="Gbreve" unicode="&#x11e;" horiz-adv-x="759" 
d="M406 768q-70 0 -110.5 38t-45.5 102h88q2 -24 19.5 -39t48.5 -15q30 0 48 15.5t20 38.5h88q-5 -64 -45.5 -102t-110.5 -38zM413 -6q-157 0 -257.5 97.5t-100.5 262.5q0 160 96.5 262t257.5 102q77 0 150 -29.5t127 -87.5l-85 -74q-79 77 -193 77q-98 0 -162.5 -68.5
t-64.5 -181.5q0 -108 63.5 -179t168.5 -71q87 0 158 47v120h-174v108h294v-296q-49 -41 -123 -65t-155 -24z" />
    <glyph glyph-name="gbreve" unicode="&#x11f;" horiz-adv-x="607" 
d="M293 548q-71 0 -111 39.5t-45 109.5h88q2 -26 20 -44.5t48 -18.5t48 18.5t20 44.5h88q-5 -70 -45 -109.5t-111 -39.5zM291 -205q-114 0 -199 51l27 98q47 -25 82.5 -36.5t83.5 -11.5q69 0 107 34.5t38 85.5v51h-2q-59 -59 -148 -59q-103 0 -170.5 67t-67.5 174
t65.5 176.5t166.5 69.5q90 0 152 -59h2v52h112v-438q0 -118 -60 -186.5t-189 -68.5zM295 111q61 0 99.5 40.5t38.5 102.5q0 61 -39.5 100t-98.5 39q-62 0 -100.5 -39.5t-38.5 -101.5q0 -64 39.5 -102.5t99.5 -38.5z" />
    <glyph glyph-name="Gdotaccent" unicode="&#x120;" horiz-adv-x="759" 
d="M407 773q-31 0 -53 22t-22 53q0 30 22 52t53 22t53.5 -22t22.5 -52q0 -31 -22.5 -53t-53.5 -22zM413 -6q-157 0 -257.5 97.5t-100.5 262.5q0 160 96.5 262t257.5 102q77 0 150 -29.5t127 -87.5l-85 -74q-79 77 -193 77q-98 0 -162.5 -68.5t-64.5 -181.5q0 -108 63.5 -179
t168.5 -71q87 0 158 47v120h-174v108h294v-296q-49 -41 -123 -65t-155 -24z" />
    <glyph glyph-name="gdotaccent" unicode="&#x121;" horiz-adv-x="607" 
d="M293 560q-31 0 -53 22t-22 53q0 30 22 52t53 22t53.5 -22t22.5 -52q0 -31 -22.5 -53t-53.5 -22zM291 -205q-114 0 -199 51l27 98q47 -25 82.5 -36.5t83.5 -11.5q69 0 107 34.5t38 85.5v51h-2q-59 -59 -148 -59q-103 0 -170.5 67t-67.5 174t65.5 176.5t166.5 69.5
q90 0 152 -59h2v52h112v-438q0 -118 -60 -186.5t-189 -68.5zM295 111q61 0 99.5 40.5t38.5 102.5q0 61 -39.5 100t-98.5 39q-62 0 -100.5 -39.5t-38.5 -101.5q0 -64 39.5 -102.5t99.5 -38.5z" />
    <glyph glyph-name="Gcommaaccent" unicode="&#x122;" horiz-adv-x="759" 
d="M413 -6q-157 0 -257.5 97.5t-100.5 262.5q0 160 96.5 262t257.5 102q77 0 150 -29.5t127 -87.5l-85 -74q-79 77 -193 77q-98 0 -162.5 -68.5t-64.5 -181.5q0 -108 63.5 -179t168.5 -71q87 0 158 47v120h-174v108h294v-296q-49 -41 -123 -65t-155 -24zM336 -219l-26 65
q30 11 42.5 24.5t12.5 37.5q0 14 -6 39h102q4 -20 4 -47q0 -54 -36.5 -83.5t-92.5 -35.5z" />
    <glyph glyph-name="gcommaaccent" unicode="&#x123;" horiz-adv-x="607" 
d="M371 725l26 -65q-30 -11 -42.5 -24.5t-12.5 -37.5q0 -14 6 -39h-102q-4 20 -4 47q0 54 36.5 83.5t92.5 35.5zM291 -205q-114 0 -199 51l27 98q47 -25 82.5 -36.5t83.5 -11.5q69 0 107 34.5t38 85.5v51h-2q-59 -59 -148 -59q-103 0 -170.5 67t-67.5 174t65.5 176.5
t166.5 69.5q90 0 152 -59h2v52h112v-438q0 -118 -60 -186.5t-189 -68.5zM295 111q61 0 99.5 40.5t38.5 102.5q0 61 -39.5 100t-98.5 39q-62 0 -100.5 -39.5t-38.5 -101.5q0 -64 39.5 -102.5t99.5 -38.5z" />
    <glyph glyph-name="Hcircumflex" unicode="&#x124;" horiz-adv-x="736" 
d="M202 775l111 133h117l108 -133h-109l-57 71h-2l-57 -71h-111zM87 0v710h121v-317h320v317h121v-710h-121v285h-320v-285h-121z" />
    <glyph glyph-name="hcircumflex" unicode="&#x125;" horiz-adv-x="598" 
d="M72 785l111 133h117l108 -133h-109l-57 71h-2l-57 -71h-111zM73 0v736h112v-309h1q62 68 166 68q85 0 133.5 -49t48.5 -154v-292h-112v263q0 70 -26.5 100.5t-79.5 30.5q-62 0 -96.5 -37.5t-34.5 -108.5v-248h-112z" />
    <glyph glyph-name="Hbar" unicode="&#x126;" horiz-adv-x="738" 
d="M705 599v-83h-54v-516h-121v285h-320v-285h-121v516h-52v83h52v111h121v-111h320v111h121v-111h54zM530 393v123h-320v-123h320z" />
    <glyph glyph-name="hbar" unicode="&#x127;" horiz-adv-x="598" 
d="M352 495q85 0 133.5 -49t48.5 -154v-292h-112v263q0 70 -26.5 100.5t-79.5 30.5q-62 0 -96.5 -37.5t-34.5 -108.5v-248h-112v562h-67v76h67v98h112v-98h174v-76h-174v-135h1q62 68 166 68z" />
    <glyph glyph-name="Itilde" unicode="&#x128;" horiz-adv-x="304" 
d="M228 775q-34 0 -84 29q-42 24 -63 24q-33 0 -54 -52l-68 31q36 103 114 103q38 0 89 -29q42 -24 59 -24q30 0 51 52l68 -23q-33 -111 -112 -111zM91 0v710h121v-710h-121z" />
    <glyph glyph-name="itilde" unicode="&#x129;" horiz-adv-x="272" 
d="M24 558l-68 31q34 104 107 104q36 0 77 -24q42 -25 57 -25q36 0 57 52l68 -23q-34 -113 -111 -113q-34 0 -80 28q-41 24 -59 22q-30 -4 -48 -52zM80 0v488h112v-488h-112z" />
    <glyph glyph-name="Imacron" unicode="&#x12a;" horiz-adv-x="304" 
d="M1 797v89h298v-89h-298zM91 0v710h121v-710h-121z" />
    <glyph glyph-name="imacron" unicode="&#x12b;" horiz-adv-x="272" 
d="M-13 584v94h298v-94h-298zM80 0v488h112v-488h-112z" />
    <glyph glyph-name="Ibreve" unicode="&#x12c;" horiz-adv-x="304" 
d="M150 768q-70 0 -110.5 38t-45.5 102h88q2 -24 19.5 -39t48.5 -15q30 0 48 15.5t20 38.5h88q-5 -64 -45.5 -102t-110.5 -38zM91 0v710h121v-710h-121z" />
    <glyph glyph-name="ibreve" unicode="&#x12d;" horiz-adv-x="272" 
d="M136 551q-58 0 -97.5 38.5t-44.5 107.5h88q2 -30 16 -49t38 -19q22 0 36.5 18.5t16.5 49.5h88q-5 -65 -42 -105.5t-99 -40.5zM80 0v488h112v-488h-112z" />
    <glyph glyph-name="Iogonek" unicode="&#x12e;" horiz-adv-x="304" 
d="M193 0q-36 -8 -57.5 -29.5t-21.5 -45.5q0 -41 43 -41q23 0 41 8l7 -68q-28 -12 -72 -12q-49 0 -78.5 24t-29.5 64q0 56 66 101v709h121v-710h-19z" />
    <glyph glyph-name="iogonek" unicode="&#x12f;" horiz-adv-x="272" 
d="M136 560q-31 0 -53 22t-22 53q0 30 22 52t53 22t53.5 -22t22.5 -52q0 -31 -22.5 -53t-53.5 -22zM145 -116q23 0 41 8l7 -68q-29 -12 -72 -12q-49 0 -78.5 24t-29.5 64q0 25 17.5 53t49.5 49v486h112v-488h-11q-36 -8 -57.5 -29.5t-21.5 -45.5q0 -41 43 -41z" />
    <glyph glyph-name="Idotaccent" unicode="&#x130;" horiz-adv-x="304" 
d="M151 773q-31 0 -53 22t-22 53q0 30 22 52t53 22t53.5 -22t22.5 -52q0 -31 -22.5 -53t-53.5 -22zM91 0v710h121v-710h-121z" />
    <glyph glyph-name="dotlessi" unicode="&#x131;" horiz-adv-x="272" 
d="M80 0v488h112v-488h-112z" />
    <glyph glyph-name="IJ" unicode="&#x132;" horiz-adv-x="811" 
d="M91 0v710h121v-710h-121zM523 -6q-53 0 -104 23t-84 66l68 88q22 -26 53 -44.5t62 -18.5q96 0 96 136v466h121v-467q0 -122 -50 -185.5t-162 -63.5z" />
    <glyph glyph-name="ij" unicode="&#x133;" horiz-adv-x="521" 
d="M136 560q-31 0 -53 22t-22 53q0 30 22 52t53 22t53.5 -22t22.5 -52q0 -31 -22.5 -53t-53.5 -22zM397 560q-31 0 -53 22t-22 53q0 30 22 52t53 22t53.5 -22t22.5 -52q0 -31 -22.5 -53t-53.5 -22zM80 0v488h112v-488h-112zM318 -206q-51 0 -95 18l19 97q22 -14 51 -14
q49 0 49 72v521h112v-521q0 -82 -38 -127.5t-98 -45.5z" />
    <glyph glyph-name="Jcircumflex" unicode="&#x134;" horiz-adv-x="507" 
d="M201 775l111 133h117l108 -133h-109l-57 71h-2l-57 -71h-111zM219 -6q-53 0 -104 23t-84 66l68 88q22 -26 53 -44.5t62 -18.5q96 0 96 136v466h121v-467q0 -122 -50 -185.5t-162 -63.5z" />
    <glyph glyph-name="jcircumflex" unicode="&#x135;" horiz-adv-x="249" 
d="M-41 554l109 145h117l105 -145h-109l-54 77h-2l-55 -77h-111zM46 -206q-51 0 -95 18l19 97q22 -14 51 -14q49 0 49 72v521h112v-521q0 -82 -38 -127.5t-98 -45.5z" />
    <glyph glyph-name="Kcommaaccent" unicode="&#x136;" horiz-adv-x="664" 
d="M87 0v710h121v-340h2l272 340h154l-267 -317l275 -393h-150l-205 297l-81 -96v-201h-121zM265 -219l-26 65q30 11 42.5 24.5t12.5 37.5q0 14 -6 39h102q4 -20 4 -47q0 -54 -36.5 -83.5t-92.5 -35.5z" />
    <glyph glyph-name="kcommaaccent" unicode="&#x137;" horiz-adv-x="535" 
d="M73 0v736h112v-473l2 -1l198 226h133l-176 -196l179 -292h-126l-131 215l-79 -86v-129h-112zM210 -219l-26 65q30 11 42.5 24.5t12.5 37.5q0 14 -6 39h102q4 -20 4 -47q0 -54 -36.5 -83.5t-92.5 -35.5z" />
    <glyph glyph-name="kgreenlandic" unicode="&#x138;" horiz-adv-x="555" 
d="M73 0v488h112v-226l2 -1l204 227h139l-196 -210l207 -278h-136l-145 205l-75 -80v-125h-112z" />
    <glyph glyph-name="Lacute" unicode="&#x139;" horiz-adv-x="573" 
d="M193 775l112 133h125l-126 -133h-111zM87 0v710h121v-602h329v-108h-450z" />
    <glyph glyph-name="lacute" unicode="&#x13a;" horiz-adv-x="272" 
d="M79 788l112 133h125l-126 -133h-111zM80 0v736h112v-736h-112z" />
    <glyph glyph-name="Lcommaaccent" unicode="&#x13b;" horiz-adv-x="573" 
d="M87 0v710h121v-602h329v-108h-450zM230 -219l-26 65q30 11 42.5 24.5t12.5 37.5q0 14 -6 39h102q4 -20 4 -47q0 -54 -36.5 -83.5t-92.5 -35.5z" />
    <glyph glyph-name="lcommaaccent" unicode="&#x13c;" horiz-adv-x="272" 
d="M80 0v736h112v-736h-112zM59 -219l-26 65q30 11 42.5 24.5t12.5 37.5q0 14 -6 39h102q4 -20 4 -47q0 -54 -36.5 -83.5t-92.5 -35.5z" />
    <glyph glyph-name="Lcaron" unicode="&#x13d;" horiz-adv-x="573" 
d="M320 582l30 198h108l-58 -198h-80zM87 0v710h121v-602h329v-108h-450z" />
    <glyph glyph-name="lcaron" unicode="&#x13e;" horiz-adv-x="346" 
d="M257 583l30 198h108l-58 -198h-80zM80 0v736h112v-736h-112z" />
    <glyph glyph-name="Ldot" unicode="&#x13f;" horiz-adv-x="573" 
d="M87 0v710h121v-602h329v-108h-450zM438 265q-32 0 -54 21.5t-22 52.5t22.5 53t53.5 22t53 -22t22 -53t-22 -52.5t-53 -21.5z" />
    <glyph glyph-name="ldot" unicode="&#x140;" horiz-adv-x="453" 
d="M80 0v736h112v-736h-112zM360 171q-32 0 -54 21.5t-22 52.5t22.5 53t53.5 22t53 -22t22 -53t-22 -52.5t-53 -21.5z" />
    <glyph glyph-name="Lslash" unicode="&#x141;" horiz-adv-x="579" 
d="M214 108h329v-108h-450v270l-72 -31v98l72 31v342h121v-289l118 51v-100l-118 -50v-214z" />
    <glyph glyph-name="lslash" unicode="&#x142;" horiz-adv-x="307" 
d="M284 418v-88l-70 -30v-300h-112v252l-74 -32v88l74 32v396h112v-348z" />
    <glyph glyph-name="Nacute" unicode="&#x143;" horiz-adv-x="763" 
d="M280 775l112 133h125l-126 -133h-111zM87 0v710h120l347 -510h2v510h120v-710h-123l-343 501h-2v-501h-121z" />
    <glyph glyph-name="nacute" unicode="&#x144;" horiz-adv-x="593" 
d="M226 556l115 144l123 1l-124 -145h-114zM73 0v488h112v-67h2q62 74 163 74q84 0 131.5 -51t47.5 -157v-287h-112v258q0 74 -26.5 105t-79.5 31q-58 0 -92 -39t-34 -110v-245h-112z" />
    <glyph glyph-name="Ncommaaccent" unicode="&#x145;" horiz-adv-x="763" 
d="M87 0v710h120l347 -510h2v510h120v-710h-123l-343 501h-2v-501h-121zM303 -219l-26 65q30 11 42.5 24.5t12.5 37.5q0 14 -6 39h102q4 -20 4 -47q0 -54 -36.5 -83.5t-92.5 -35.5z" />
    <glyph glyph-name="ncommaaccent" unicode="&#x146;" horiz-adv-x="593" 
d="M73 0v488h112v-67h2q62 74 163 74q84 0 131.5 -51t47.5 -157v-287h-112v258q0 74 -26.5 105t-79.5 31q-58 0 -92 -39t-34 -110v-245h-112zM235 -219l-26 65q30 11 42.5 24.5t12.5 37.5q0 14 -6 39h102q4 -20 4 -47q0 -54 -36.5 -83.5t-92.5 -35.5z" />
    <glyph glyph-name="Ncaron" unicode="&#x147;" horiz-adv-x="763" 
d="M320 775l-108 133h109l57 -71h2l57 71h111l-111 -133h-117zM87 0v710h120l347 -510h2v510h120v-710h-123l-343 501h-2v-501h-121z" />
    <glyph glyph-name="ncaron" unicode="&#x148;" horiz-adv-x="593" 
d="M235 552l-105 145h109l54 -77h2l55 77h111l-109 -145h-117zM73 0v488h112v-67h2q62 74 163 74q84 0 131.5 -51t47.5 -157v-287h-112v258q0 74 -26.5 105t-79.5 31q-58 0 -92 -39t-34 -110v-245h-112z" />
    <glyph glyph-name="napostrophe" unicode="&#x149;" horiz-adv-x="676" 
d="M-9 502l30 208h108l-58 -208h-80zM156 0v488h112v-67h2q62 74 163 74q84 0 131.5 -51t47.5 -157v-287h-112v258q0 74 -26.5 105t-79.5 31q-58 0 -92 -39t-34 -110v-245h-112z" />
    <glyph glyph-name="Eng" unicode="&#x14a;" horiz-adv-x="764" 
d="M556 710h121v-713q0 -58 -16.5 -99.5t-46 -63t-61.5 -30.5t-71 -9q-46 0 -88 14l9 98q23 -11 58 -11q50 0 72.5 28t22.5 68v7l-346 501h-2v-500h-121v710h118l349 -511h2v511z" />
    <glyph glyph-name="eng" unicode="&#x14b;" horiz-adv-x="589" 
d="M348 -205q-39 0 -75 14l8 89q26 -10 52 -10q44 0 62 22t18 70v278q0 74 -26.5 105t-79.5 31q-55 0 -88.5 -39t-33.5 -110v-245h-112v488h112v-67h2q62 74 159 74q84 0 131.5 -51t47.5 -157v-296q0 -196 -177 -196z" />
    <glyph glyph-name="Omacron" unicode="&#x14c;" horiz-adv-x="827" 
d="M266 797v89h298v-89h-298zM414 -8q-159 0 -259 102.5t-100 260.5t100 260.5t259 102.5q155 0 256.5 -101t101.5 -262t-101.5 -262t-256.5 -101zM414 105q99 0 165.5 71t66.5 179q0 109 -66.5 179.5t-165.5 70.5q-103 0 -168.5 -72t-65.5 -178t65.5 -178t168.5 -72z" />
    <glyph glyph-name="omacron" unicode="&#x14d;" horiz-adv-x="600" 
d="M151 584v94h298v-94h-298zM300 -8q-114 0 -185 71t-71 180t71 180.5t185 71.5q113 0 184.5 -70t71.5 -182q0 -111 -71.5 -181t-184.5 -70zM300 94q60 0 101 42t41 107q0 67 -40.5 109t-101.5 42q-63 0 -102.5 -43t-39.5 -108q0 -63 40 -106t102 -43z" />
    <glyph glyph-name="Obreve" unicode="&#x14e;" horiz-adv-x="827" 
d="M415 768q-70 0 -110.5 38t-45.5 102h88q2 -24 19.5 -39t48.5 -15q30 0 48 15.5t20 38.5h88q-5 -64 -45.5 -102t-110.5 -38zM414 -8q-159 0 -259 102.5t-100 260.5t100 260.5t259 102.5q155 0 256.5 -101t101.5 -262t-101.5 -262t-256.5 -101zM414 105q99 0 165.5 71
t66.5 179q0 109 -66.5 179.5t-165.5 70.5q-103 0 -168.5 -72t-65.5 -178t65.5 -178t168.5 -72z" />
    <glyph glyph-name="obreve" unicode="&#x14f;" horiz-adv-x="600" 
d="M300 548q-71 0 -111 39.5t-45 109.5h88q2 -26 20 -44.5t48 -18.5t48 18.5t20 44.5h88q-5 -70 -45 -109.5t-111 -39.5zM300 -8q-114 0 -185 71t-71 180t71 180.5t185 71.5q113 0 184.5 -70t71.5 -182q0 -111 -71.5 -181t-184.5 -70zM300 94q60 0 101 42t41 107
q0 67 -40.5 109t-101.5 42q-63 0 -102.5 -43t-39.5 -108q0 -63 40 -106t102 -43z" />
    <glyph glyph-name="Ohungarumlaut" unicode="&#x150;" horiz-adv-x="827" 
d="M267 775l115 144l114 1l-124 -145h-105zM458 775l114 144l114 1l-124 -145h-104zM414 -8q-159 0 -259 102.5t-100 260.5t100 260.5t259 102.5q155 0 256.5 -101t101.5 -262t-101.5 -262t-256.5 -101zM414 105q99 0 165.5 71t66.5 179q0 109 -66.5 179.5t-165.5 70.5
q-103 0 -168.5 -72t-65.5 -178t65.5 -178t168.5 -72z" />
    <glyph glyph-name="ohungarumlaut" unicode="&#x151;" horiz-adv-x="600" 
d="M152 556l115 144l114 1l-124 -145h-105zM343 556l114 144l114 1l-124 -145h-104zM300 -8q-114 0 -185 71t-71 180t71 180.5t185 71.5q113 0 184.5 -70t71.5 -182q0 -111 -71.5 -181t-184.5 -70zM300 94q60 0 101 42t41 107q0 67 -40.5 109t-101.5 42q-63 0 -102.5 -43
t-39.5 -108q0 -63 40 -106t102 -43z" />
    <glyph glyph-name="OE" unicode="&#x152;" horiz-adv-x="966" 
d="M565 108h349v-108h-498q-159 0 -260 101.5t-101 254.5t101 254t260 100h478v-108h-329v-197h269v-108h-269v-189zM416 112l34 1v485h-34q-100 1 -168 -68.5t-68 -173.5t68 -174.5t168 -69.5z" />
    <glyph glyph-name="oe" unicode="&#x153;" horiz-adv-x="810" 
d="M782 250q0 -21 -3 -42h-311q8 -53 38.5 -83.5t82.5 -30.5q64 0 103 57l78 -67q-66 -92 -187 -92q-118 0 -178 81h-2q-23 -37 -66.5 -59t-89.5 -22q-100 0 -158.5 67.5t-58.5 182.5q0 111 60 182t157 71q104 0 156 -81h2q60 81 176 81q91 0 146 -68.5t55 -176.5zM245 93
q44 0 75 42.5t31 107.5q0 67 -28.5 109t-71.5 42q-47 0 -77 -42.5t-30 -108.5q0 -68 27.5 -109t73.5 -41zM469 293h202q-6 47 -30 74t-63 27q-91 0 -109 -101z" />
    <glyph glyph-name="Racute" unicode="&#x154;" horiz-adv-x="659" 
d="M227 775l112 133h125l-126 -133h-111zM87 0v710h262q122 0 182.5 -63t60.5 -167q0 -169 -158 -215l184 -265h-145l-170 253h-95v-253h-121zM208 362h115q70 0 107 32.5t37 87.5q0 57 -35.5 88.5t-100.5 31.5h-123v-240z" />
    <glyph glyph-name="racute" unicode="&#x155;" horiz-adv-x="372" 
d="M122 556l115 144l123 1l-124 -145h-114zM73 0v488h112v-73h2q60 80 151 80h14v-125q-26 2 -34 2q-62 0 -97.5 -39.5t-35.5 -101.5v-231h-112z" />
    <glyph glyph-name="Rcommaaccent" unicode="&#x156;" horiz-adv-x="659" 
d="M87 0v710h262q122 0 182.5 -63t60.5 -167q0 -169 -158 -215l184 -265h-145l-170 253h-95v-253h-121zM208 362h115q70 0 107 32.5t37 87.5q0 57 -35.5 88.5t-100.5 31.5h-123v-240zM250 -219l-26 65q30 11 42.5 24.5t12.5 37.5q0 14 -6 39h102q4 -20 4 -47
q0 -54 -36.5 -83.5t-92.5 -35.5z" />
    <glyph glyph-name="rcommaaccent" unicode="&#x157;" horiz-adv-x="372" 
d="M73 0v488h112v-73h2q60 80 151 80h14v-125q-26 2 -34 2q-62 0 -97.5 -39.5t-35.5 -101.5v-231h-112zM54 -219l-26 65q30 11 42.5 24.5t12.5 37.5q0 14 -6 39h102q4 -20 4 -47q0 -54 -36.5 -83.5t-92.5 -35.5z" />
    <glyph glyph-name="Rcaron" unicode="&#x158;" horiz-adv-x="659" 
d="M267 775l-108 133h109l57 -71h2l57 71h111l-111 -133h-117zM87 0v710h262q122 0 182.5 -63t60.5 -167q0 -169 -158 -215l184 -265h-145l-170 253h-95v-253h-121zM208 362h115q70 0 107 32.5t37 87.5q0 57 -35.5 88.5t-100.5 31.5h-123v-240z" />
    <glyph glyph-name="rcaron" unicode="&#x159;" horiz-adv-x="372" 
d="M161 552l-105 145h109l54 -77h2l55 77h111l-109 -145h-117zM73 0v488h112v-73h2q60 80 151 80h14v-125q-26 2 -34 2q-62 0 -97.5 -39.5t-35.5 -101.5v-231h-112z" />
    <glyph glyph-name="Sacute" unicode="&#x15a;" horiz-adv-x="591" 
d="M222 775l112 133h125l-126 -133h-111zM299 -8q-149 0 -257 112l76 93q37 -45 86 -69t96 -24q57 0 87.5 23t30.5 63q0 43 -30 65t-107 49q-49 17 -80.5 32.5t-66 40.5t-51.5 60.5t-17 82.5q0 83 66 140.5t159 57.5q125 0 235 -87l-72 -95q-88 73 -163 73q-43 0 -71 -22
t-29 -61q0 -19 7 -32.5t28.5 -26.5t39 -20.5t58.5 -23.5q110 -43 145 -67q75 -53 75 -151q0 -102 -74.5 -157.5t-170.5 -55.5z" />
    <glyph glyph-name="sacute" unicode="&#x15b;" horiz-adv-x="449" 
d="M154 556l115 144l123 1l-124 -145h-114zM229 -8q-117 0 -197 71l56 84q58 -57 141 -57q32 0 50 13t18 35q0 17 -20.5 28.5t-75.5 30.5q-72 25 -110.5 60t-38.5 100q0 60 48.5 99t123.5 39q97 0 172 -61l-56 -88q-55 52 -122 52q-20 0 -36.5 -10.5t-16.5 -31.5
q0 -30 77 -59q95 -37 119 -54q50 -35 50 -103q0 -65 -46.5 -106.5t-135.5 -41.5z" />
    <glyph glyph-name="Scircumflex" unicode="&#x15c;" horiz-adv-x="591" 
d="M124 775l111 133h117l108 -133h-109l-57 71h-2l-57 -71h-111zM299 -8q-149 0 -257 112l76 93q37 -45 86 -69t96 -24q57 0 87.5 23t30.5 63q0 43 -30 65t-107 49q-49 17 -80.5 32.5t-66 40.5t-51.5 60.5t-17 82.5q0 83 66 140.5t159 57.5q125 0 235 -87l-72 -95
q-88 73 -163 73q-43 0 -71 -22t-29 -61q0 -19 7 -32.5t28.5 -26.5t39 -20.5t58.5 -23.5q110 -43 145 -67q75 -53 75 -151q0 -102 -74.5 -157.5t-170.5 -55.5z" />
    <glyph glyph-name="scircumflex" unicode="&#x15d;" horiz-adv-x="449" 
d="M65 554l109 145h117l105 -145h-109l-54 77h-2l-55 -77h-111zM229 -8q-117 0 -197 71l56 84q58 -57 141 -57q32 0 50 13t18 35q0 17 -20.5 28.5t-75.5 30.5q-72 25 -110.5 60t-38.5 100q0 60 48.5 99t123.5 39q97 0 172 -61l-56 -88q-55 52 -122 52q-20 0 -36.5 -10.5
t-16.5 -31.5q0 -30 77 -59q95 -37 119 -54q50 -35 50 -103q0 -65 -46.5 -106.5t-135.5 -41.5z" />
    <glyph glyph-name="Scedilla" unicode="&#x15e;" horiz-adv-x="591" 
d="M313 -8l-11 -22v-2q92 -3 92 -80q0 -35 -29.5 -56.5t-89.5 -21.5q-29 0 -59 6v55q21 -7 50 -7q20 0 35.5 7.5t15.5 22.5q0 14 -22.5 24t-61.5 10v36l14 32q-118 18 -205 108l76 93q37 -45 86 -69t96 -24q57 0 87.5 23t30.5 63q0 43 -30 65t-107 49q-49 17 -80.5 32.5
t-66 40.5t-51.5 60.5t-17 82.5q0 83 66 140.5t159 57.5q125 0 235 -87l-72 -95q-88 73 -163 73q-43 0 -71 -22t-29 -61q0 -19 7 -32.5t28.5 -26.5t39 -20.5t58.5 -23.5q110 -43 145 -67q75 -53 75 -151t-69.5 -153.5t-161.5 -59.5z" />
    <glyph glyph-name="scedilla" unicode="&#x15f;" horiz-adv-x="449" 
d="M230 -8l-10 -22v-2q92 -3 92 -80q0 -35 -29.5 -56.5t-89.5 -21.5q-29 0 -59 6v55q21 -7 50 -7q20 0 35.5 7.5t15.5 22.5q0 14 -22.5 24t-61.5 10v36l15 34q-78 15 -134 65l56 84q58 -57 141 -57q32 0 50 13t18 35q0 17 -20.5 28.5t-75.5 30.5q-72 25 -110.5 60t-38.5 100
q0 60 48.5 99t123.5 39q97 0 172 -61l-56 -88q-55 52 -122 52q-20 0 -36.5 -10.5t-16.5 -31.5q0 -30 77 -59q95 -37 119 -54q50 -35 50 -103q0 -65 -46.5 -106.5t-134.5 -41.5z" />
    <glyph glyph-name="Scaron" unicode="&#x160;" horiz-adv-x="591" 
d="M232 775l-108 133h109l57 -71h2l57 71h111l-111 -133h-117zM299 -8q-149 0 -257 112l76 93q37 -45 86 -69t96 -24q57 0 87.5 23t30.5 63q0 43 -30 65t-107 49q-49 17 -80.5 32.5t-66 40.5t-51.5 60.5t-17 82.5q0 83 66 140.5t159 57.5q125 0 235 -87l-72 -95
q-88 73 -163 73q-43 0 -71 -22t-29 -61q0 -19 7 -32.5t28.5 -26.5t39 -20.5t58.5 -23.5q110 -43 145 -67q75 -53 75 -151q0 -102 -74.5 -157.5t-170.5 -55.5z" />
    <glyph glyph-name="scaron" unicode="&#x161;" horiz-adv-x="449" 
d="M170 552l-105 145h109l54 -77h2l55 77h111l-109 -145h-117zM229 -8q-117 0 -197 71l56 84q58 -57 141 -57q32 0 50 13t18 35q0 17 -20.5 28.5t-75.5 30.5q-72 25 -110.5 60t-38.5 100q0 60 48.5 99t123.5 39q97 0 172 -61l-56 -88q-55 52 -122 52q-20 0 -36.5 -10.5
t-16.5 -31.5q0 -30 77 -59q95 -37 119 -54q50 -35 50 -103q0 -65 -46.5 -106.5t-135.5 -41.5z" />
    <glyph glyph-name="uni0162" unicode="&#x162;" horiz-adv-x="589" 
d="M299 0l-14 -30v-2q92 -3 92 -80q0 -35 -29.5 -56.5t-89.5 -21.5q-29 0 -59 6v55q21 -7 50 -7q20 0 35.5 7.5t15.5 22.5q0 14 -22.5 24t-61.5 10v36l17 38v600h-201v108h526v-108h-204v-602h-55z" />
    <glyph glyph-name="uni0163" unicode="&#x163;" horiz-adv-x="365" 
d="M208 -32q92 -3 92 -80q0 -35 -29.5 -56.5t-89.5 -21.5q-29 0 -59 6v55q21 -7 50 -7q20 0 35.5 7.5t15.5 22.5q0 14 -22.5 24t-61.5 10v36l18 40q-75 34 -75 150v239h-60v95h60v162l112 12v-174h143v-95h-143v-228q0 -37 11 -52.5t36 -15.5q33 0 72 21l29 -97
q-53 -29 -124 -29l-10 -22v-2z" />
    <glyph glyph-name="Tcaron" unicode="&#x164;" horiz-adv-x="589" 
d="M232 775l-108 133h109l57 -71h2l57 71h111l-111 -133h-117zM233 0v602h-201v108h526v-108h-204v-602h-121z" />
    <glyph glyph-name="tcaron" unicode="&#x165;" horiz-adv-x="364" 
d="M255 583l30 198h108l-58 -198h-80zM218 -8q-64 0 -100 41t-36 121v239h-60v95h60v162l112 12v-174h143v-95h-143v-228q0 -37 11 -52.5t36 -15.5q33 0 72 21l29 -97q-53 -29 -124 -29z" />
    <glyph glyph-name="Tbar" unicode="&#x166;" horiz-adv-x="589" 
d="M558 602h-204v-219h122v-94h-122v-289h-121v289h-116v94h116v219h-201v108h526v-108z" />
    <glyph glyph-name="tbar" unicode="&#x167;" horiz-adv-x="365" 
d="M313 118l29 -97q-53 -29 -124 -29q-64 0 -100 41t-36 121v73h-54v76h54v90h-60v95h60v162l112 12v-174h143v-95h-143v-90h116v-76h-116v-62q0 -37 11 -52.5t36 -15.5q33 0 72 21z" />
    <glyph glyph-name="Utilde" unicode="&#x168;" horiz-adv-x="719" 
d="M437 775q-34 0 -84 29q-42 24 -63 24q-33 0 -54 -52l-68 31q36 103 114 103q38 0 89 -29q42 -24 59 -24q30 0 51 52l68 -23q-33 -111 -112 -111zM359 -8q-128 0 -205 79.5t-77 220.5v418h120v-409q0 -87 43.5 -141t118.5 -54q73 0 118 52.5t45 142.5v409h121v-418
q0 -139 -76 -219.5t-208 -80.5z" />
    <glyph glyph-name="utilde" unicode="&#x169;" horiz-adv-x="578" 
d="M366 553q-37 0 -88 32q-35 22 -56 22q-37 0 -58 -52l-68 31q34 110 114 110q40 0 84 -28q40 -25 58 -25q36 0 57 52l68 -23q-15 -56 -44 -87.5t-67 -31.5zM246 -8q-183 0 -183 199v297h112v-267q0 -71 22.5 -99t74.5 -28t88.5 42.5t36.5 117.5v234h112v-488h-112v61l-2 1
q-58 -70 -149 -70z" />
    <glyph glyph-name="Umacron" unicode="&#x16a;" horiz-adv-x="719" 
d="M210 797v89h298v-89h-298zM359 -8q-128 0 -205 79.5t-77 220.5v418h120v-409q0 -87 43.5 -141t118.5 -54q73 0 118 52.5t45 142.5v409h121v-418q0 -139 -76 -219.5t-208 -80.5z" />
    <glyph glyph-name="umacron" unicode="&#x16b;" horiz-adv-x="578" 
d="M138 584v94h298v-94h-298zM246 -8q-183 0 -183 199v297h112v-267q0 -71 22.5 -99t74.5 -28t88.5 42.5t36.5 117.5v234h112v-488h-112v61l-2 1q-58 -70 -149 -70z" />
    <glyph glyph-name="Ubreve" unicode="&#x16c;" horiz-adv-x="719" 
d="M359 768q-70 0 -110.5 38t-45.5 102h88q2 -24 19.5 -39t48.5 -15q30 0 48 15.5t20 38.5h88q-5 -64 -45.5 -102t-110.5 -38zM359 -8q-128 0 -205 79.5t-77 220.5v418h120v-409q0 -87 43.5 -141t118.5 -54q73 0 118 52.5t45 142.5v409h121v-418q0 -139 -76 -219.5
t-208 -80.5z" />
    <glyph glyph-name="ubreve" unicode="&#x16d;" horiz-adv-x="578" 
d="M287 548q-71 0 -111 39.5t-45 109.5h88q2 -26 20 -44.5t48 -18.5t48 18.5t20 44.5h88q-5 -70 -45 -109.5t-111 -39.5zM246 -8q-183 0 -183 199v297h112v-267q0 -71 22.5 -99t74.5 -28t88.5 42.5t36.5 117.5v234h112v-488h-112v61l-2 1q-58 -70 -149 -70z" />
    <glyph glyph-name="Uring" unicode="&#x16e;" horiz-adv-x="719" 
d="M358 748q-44 0 -76 30.5t-32 74.5q0 43 31 74t77 31q45 0 77 -30t32 -75q0 -44 -31 -74.5t-78 -30.5zM358 816q16 0 27.5 11t11.5 27t-11.5 27t-27.5 11t-27 -11.5t-11 -26.5q0 -16 11 -27t27 -11zM359 -8q-128 0 -205 79.5t-77 220.5v418h120v-409q0 -87 43.5 -141
t118.5 -54q73 0 118 52.5t45 142.5v409h121v-418q0 -139 -76 -219.5t-208 -80.5z" />
    <glyph glyph-name="uring" unicode="&#x16f;" horiz-adv-x="578" 
d="M286 540q-44 0 -76 30.5t-32 74.5q0 43 31 74t77 31q45 0 77 -30t32 -75q0 -44 -31 -74.5t-78 -30.5zM286 608q16 0 27.5 11t11.5 27t-11.5 27t-27.5 11t-27 -11.5t-11 -26.5q0 -16 11 -27t27 -11zM246 -8q-183 0 -183 199v297h112v-267q0 -71 22.5 -99t74.5 -28
t88.5 42.5t36.5 117.5v234h112v-488h-112v61l-2 1q-58 -70 -149 -70z" />
    <glyph glyph-name="Uhungarumlaut" unicode="&#x170;" horiz-adv-x="719" 
d="M211 775l115 144l114 1l-124 -145h-105zM402 775l114 144l114 1l-124 -145h-104zM359 -8q-128 0 -205 79.5t-77 220.5v418h120v-409q0 -87 43.5 -141t118.5 -54q73 0 118 52.5t45 142.5v409h121v-418q0 -139 -76 -219.5t-208 -80.5z" />
    <glyph glyph-name="uhungarumlaut" unicode="&#x171;" horiz-adv-x="578" 
d="M139 556l115 144l114 1l-124 -145h-105zM330 556l114 144l114 1l-124 -145h-104zM246 -8q-183 0 -183 199v297h112v-267q0 -71 22.5 -99t74.5 -28t88.5 42.5t36.5 117.5v234h112v-488h-112v61l-2 1q-58 -70 -149 -70z" />
    <glyph glyph-name="Uogonek" unicode="&#x172;" horiz-adv-x="719" 
d="M522 710h121v-418q0 -111 -49.5 -186t-138.5 -101q-39 -11 -62 -31.5t-23 -43.5q0 -41 43 -41q26 0 41 7l6 -67q-27 -13 -71 -13q-50 0 -79 24.5t-29 64.5q0 45 47 86l-1 2q-115 10 -182.5 88.5t-67.5 210.5v418h120v-409q0 -87 43.5 -141t118.5 -54q73 0 118 52.5
t45 142.5v409z" />
    <glyph glyph-name="uogonek" unicode="&#x173;" horiz-adv-x="578" 
d="M497 0q-36 -8 -57.5 -29.5t-21.5 -45.5q0 -41 43 -41q23 0 41 8l7 -68q-29 -12 -72 -12q-49 0 -78.5 24t-29.5 64q0 25 18 53t50 49v59l-2 1q-58 -70 -149 -70q-183 0 -183 199v297h112v-267q0 -71 22.5 -99t74.5 -28t88.5 42.5t36.5 117.5v234h112v-488h-12z" />
    <glyph glyph-name="Wcircumflex" unicode="&#x174;" horiz-adv-x="1035" 
d="M350 775l111 133h117l108 -133h-109l-57 71h-2l-57 -71h-111zM257 0l-225 710h129l152 -512h2l139 512h128l138 -511h2l153 511h128l-225 -710h-113l-145 534h-2l-148 -534h-113z" />
    <glyph glyph-name="wcircumflex" unicode="&#x175;" horiz-adv-x="771" 
d="M219 554l109 145h117l105 -145h-109l-54 77h-2l-55 -77h-111zM189 0l-166 488h115l103 -324h2l96 324h93l98 -324h2l103 324h113l-166 -488h-103l-94 307h-1l-94 -307h-101z" />
    <glyph glyph-name="Ycircumflex" unicode="&#x176;" horiz-adv-x="625" 
d="M145 775l111 133h117l108 -133h-109l-57 71h-2l-57 -71h-111zM251 0v314l-237 396h138l159 -275h2l158 275h140l-239 -396v-314h-121z" />
    <glyph glyph-name="ycircumflex" unicode="&#x177;" horiz-adv-x="535" 
d="M102 554l109 145h117l105 -145h-109l-54 77h-2l-55 -77h-111zM131 -198l88 225l-200 461h120l134 -327h2l125 327h115l-268 -686h-116z" />
    <glyph glyph-name="Ydieresis" unicode="&#x178;" horiz-adv-x="625" 
d="M215 775q-31 0 -52.5 22t-21.5 52q0 29 21.5 50.5t52.5 21.5t53 -22t22 -51q0 -30 -22 -51.5t-53 -21.5zM414 775q-31 0 -52.5 22t-21.5 52q0 29 21.5 50.5t52.5 21.5t53 -22t22 -51q0 -30 -22 -51.5t-53 -21.5zM251 0v314l-237 396h138l159 -275h2l158 275h140
l-239 -396v-314h-121z" />
    <glyph glyph-name="Zacute" unicode="&#x179;" horiz-adv-x="626" 
d="M212 775l112 133h125l-126 -133h-111zM57 0v95l349 505l-1 2h-332v108h492v-93l-355 -506l2 -3h355v-108h-510z" />
    <glyph glyph-name="zacute" unicode="&#x17a;" horiz-adv-x="489" 
d="M167 556l115 144l123 1l-124 -145h-114zM40 0v79l251 311l-1 3h-233v95h388v-77l-253 -314l1 -2h248v-95h-401z" />
    <glyph glyph-name="Zdotaccent" unicode="&#x17b;" horiz-adv-x="626" 
d="M314 773q-31 0 -53 22t-22 53q0 30 22 52t53 22t53.5 -22t22.5 -52q0 -31 -22.5 -53t-53.5 -22zM57 0v95l349 505l-1 2h-332v108h492v-93l-355 -506l2 -3h355v-108h-510z" />
    <glyph glyph-name="zdotaccent" unicode="&#x17c;" horiz-adv-x="489" 
d="M247 560q-31 0 -53 22t-22 53q0 30 22 52t53 22t53.5 -22t22.5 -52q0 -31 -22.5 -53t-53.5 -22zM40 0v79l251 311l-1 3h-233v95h388v-77l-253 -314l1 -2h248v-95h-401z" />
    <glyph glyph-name="Zcaron" unicode="&#x17d;" horiz-adv-x="626" 
d="M252 775l-108 133h109l57 -71h2l57 71h111l-111 -133h-117zM57 0v95l349 505l-1 2h-332v108h492v-93l-355 -506l2 -3h355v-108h-510z" />
    <glyph glyph-name="zcaron" unicode="&#x17e;" horiz-adv-x="489" 
d="M186 552l-105 145h109l54 -77h2l55 77h111l-109 -145h-117zM40 0v79l251 311l-1 3h-233v95h388v-77l-253 -314l1 -2h248v-95h-401z" />
    <glyph glyph-name="longs" unicode="&#x17f;" horiz-adv-x="337" 
d="M91 0v393h-54v95h54v89q0 82 38 124.5t110 42.5q70 0 122 -34l-25 -94q-53 25 -81 25q-52 0 -52 -76v-565h-112z" />
    <glyph glyph-name="uni018F" unicode="&#x18f;" horiz-adv-x="780" 
d="M371 718q172 0 263.5 -101t91.5 -259q0 -170 -98 -268t-250 -98q-155 0 -244.5 90t-89.5 244q0 23 4 61h553q-8 103 -69.5 160t-172.5 57q-113 2 -207 -61l-66 93q118 85 285 82zM375 105q82 0 141 44.5t78 130.5h-427q4 -81 60 -128t148 -47z" />
    <glyph glyph-name="florin" unicode="&#x192;" horiz-adv-x="549" 
d="M110 -143q-98 0 -140 42l40 79q40 -20 79 -20q71 0 83 91l42 325h-76l14 95h76l14 109q22 166 175 166q91 0 140 -42l-41 -79q-41 19 -80 19q-71 0 -82 -91l-10 -82h138l-13 -95h-139l-46 -351q-21 -166 -174 -166z" />
    <glyph glyph-name="uni019D" unicode="&#x19d;" horiz-adv-x="763" 
d="M556 710h120v-710h-123l-343 501h-2v-512q0 -194 -147 -194q-44 0 -86 14l9 98q32 -10 48 -10q55 0 55 67v746h121v-1l346 -509h2v510z" />
    <glyph glyph-name="Ohorn" unicode="&#x1a0;" horiz-adv-x="870" 
d="M732 774h114v-71q0 -142 -110 -180q36 -77 36 -168q0 -161 -101.5 -262t-256.5 -101q-159 0 -259 102.5t-100 260.5t100 260.5t259 102.5q176 0 279 -125q14 7 22.5 17.5t12 29.5t4 31t0.5 39v64zM414 105q99 0 165.5 71t66.5 179q0 109 -66.5 179.5t-165.5 70.5
q-103 0 -168.5 -72t-65.5 -178t65.5 -178t168.5 -72z" />
    <glyph glyph-name="ohorn" unicode="&#x1a1;" horiz-adv-x="681" 
d="M555 565h114v-71q0 -72 -31 -120t-90 -64q8 -34 8 -67q0 -111 -71.5 -181t-184.5 -70q-114 0 -185 71t-71 180t71 180.5t185 71.5q71 0 127.5 -29.5t89.5 -81.5q18 9 27 29.5t10 36.5t1 51v64zM300 94q60 0 101 42t41 107q0 67 -40.5 109t-101.5 42q-63 0 -102.5 -43
t-39.5 -108q0 -63 40 -106t102 -43z" />
    <glyph glyph-name="Uhorn" unicode="&#x1af;" horiz-adv-x="819" 
d="M703 774h114v-71q0 -86 -45 -137.5t-129 -53.5v-220q0 -139 -76 -219.5t-208 -80.5q-128 0 -205 79.5t-77 220.5v418h120v-409q0 -87 43.5 -141t118.5 -54q73 0 118 52.5t45 142.5v409h121v-124q22 5 35 15t18 30.5t6 33.5t1 45v64z" />
    <glyph glyph-name="uhorn" unicode="&#x1b0;" horiz-adv-x="687" 
d="M562 565h114v-71q0 -85 -43 -136t-124 -55v-303h-112v61l-2 1q-58 -70 -149 -70q-183 0 -183 199v297h112v-267q0 -71 22.5 -99t74.5 -28t88.5 42.5t36.5 117.5v234h112v-110q13 4 23 10t15.5 17t8.5 18t4.5 24.5t1.5 24.5v29v64z" />
    <glyph glyph-name="uni01CD" unicode="&#x1cd;" horiz-adv-x="695" 
d="M286 775l-108 133h109l57 -71h2l57 71h111l-111 -133h-117zM23 0l265 710h118l266 -710h-126l-54 153h-290l-53 -153h-126zM239 257h217l-108 308h-2z" />
    <glyph glyph-name="uni01CE" unicode="&#x1ce;" horiz-adv-x="611" 
d="M244 552l-105 145h109l54 -77h2l55 77h111l-109 -145h-117zM279 -8q-103 0 -169.5 69t-66.5 181q0 110 67 181.5t168 71.5q98 0 151 -67l2 1v59h112v-488h-107v64l-2 1q-54 -73 -155 -73zM297 94q58 0 98.5 41t40.5 106t-39.5 109t-99.5 44t-100 -42t-40 -111
q0 -65 39 -106t101 -41z" />
    <glyph glyph-name="uni01CF" unicode="&#x1cf;" horiz-adv-x="304" 
d="M89 775l-108 133h109l57 -71h2l57 71h111l-111 -133h-117zM91 0v710h121v-710h-121z" />
    <glyph glyph-name="uni01D0" unicode="&#x1d0;" horiz-adv-x="272" 
d="M75 552l-105 145h109l54 -77h2l55 77h111l-109 -145h-117zM80 0v488h112v-488h-112z" />
    <glyph glyph-name="uni01D1" unicode="&#x1d1;" horiz-adv-x="827" 
d="M354 775l-108 133h109l57 -71h2l57 71h111l-111 -133h-117zM414 -8q-159 0 -259 102.5t-100 260.5t100 260.5t259 102.5q155 0 256.5 -101t101.5 -262t-101.5 -262t-256.5 -101zM414 105q99 0 165.5 71t66.5 179q0 109 -66.5 179.5t-165.5 70.5q-103 0 -168.5 -72
t-65.5 -178t65.5 -178t168.5 -72z" />
    <glyph glyph-name="uni01D2" unicode="&#x1d2;" horiz-adv-x="600" 
d="M239 552l-105 145h109l54 -77h2l55 77h111l-109 -145h-117zM300 -8q-114 0 -185 71t-71 180t71 180.5t185 71.5q113 0 184.5 -70t71.5 -182q0 -111 -71.5 -181t-184.5 -70zM300 94q60 0 101 42t41 107q0 67 -40.5 109t-101.5 42q-63 0 -102.5 -43t-39.5 -108
q0 -63 40 -106t102 -43z" />
    <glyph glyph-name="uni01D3" unicode="&#x1d3;" horiz-adv-x="719" 
d="M298 775l-108 133h109l57 -71h2l57 71h111l-111 -133h-117zM359 -8q-128 0 -205 79.5t-77 220.5v418h120v-409q0 -87 43.5 -141t118.5 -54q73 0 118 52.5t45 142.5v409h121v-418q0 -139 -76 -219.5t-208 -80.5z" />
    <glyph glyph-name="uni01D4" unicode="&#x1d4;" horiz-adv-x="578" 
d="M226 552l-105 145h109l54 -77h2l55 77h111l-109 -145h-117zM246 -8q-183 0 -183 199v297h112v-267q0 -71 22.5 -99t74.5 -28t88.5 42.5t36.5 117.5v234h112v-488h-112v61l-2 1q-58 -70 -149 -70z" />
    <glyph glyph-name="uni01D5" unicode="&#x1d5;" horiz-adv-x="719" 
d="M210 934v76h298v-76h-298zM267 765q-28 0 -47.5 19t-19.5 46q0 26 19.5 44.5t47.5 18.5t48 -18.5t20 -44.5q0 -27 -20 -46t-48 -19zM446 765q-28 0 -47.5 19t-19.5 46q0 26 19.5 44.5t47.5 18.5t48 -18.5t20 -44.5q0 -27 -20 -46t-48 -19zM359 -8q-128 0 -205 79.5
t-77 220.5v418h120v-409q0 -87 43.5 -141t118.5 -54q73 0 118 52.5t45 142.5v409h121v-418q0 -139 -76 -219.5t-208 -80.5z" />
    <glyph glyph-name="uni01D6" unicode="&#x1d6;" horiz-adv-x="578" 
d="M137 757v85h298v-85h-298zM188 565q-32 0 -53.5 20.5t-21.5 50.5q0 29 22 50t53 21t53.5 -21t22.5 -50q0 -30 -22 -50.5t-54 -20.5zM386 565q-32 0 -53.5 20.5t-21.5 50.5q0 29 22 50t53 21t53.5 -21t22.5 -50q0 -30 -22 -50.5t-54 -20.5zM246 -8q-183 0 -183 199v297
h112v-267q0 -71 22.5 -99t74.5 -28t88.5 42.5t36.5 117.5v234h112v-488h-112v61l-2 1q-58 -70 -149 -70z" />
    <glyph glyph-name="uni01D7" unicode="&#x1d7;" horiz-adv-x="719" 
d="M318 907l84 125h123l-124 -125h-83zM267 765q-28 0 -47.5 19t-19.5 46q0 26 19.5 44.5t47.5 18.5t48 -18.5t20 -44.5q0 -27 -20 -46t-48 -19zM446 765q-28 0 -47.5 19t-19.5 46q0 26 19.5 44.5t47.5 18.5t48 -18.5t20 -44.5q0 -27 -20 -46t-48 -19zM359 -8
q-128 0 -205 79.5t-77 220.5v418h120v-409q0 -87 43.5 -141t118.5 -54q73 0 118 52.5t45 142.5v409h121v-418q0 -139 -76 -219.5t-208 -80.5z" />
    <glyph glyph-name="uni01D8" unicode="&#x1d8;" horiz-adv-x="578" 
d="M241 728l115 145h123l-153 -145h-85zM188 565q-32 0 -53.5 20.5t-21.5 50.5q0 29 22 50t53 21t53.5 -21t22.5 -50q0 -30 -22 -50.5t-54 -20.5zM386 565q-32 0 -53.5 20.5t-21.5 50.5q0 29 22 50t53 21t53.5 -21t22.5 -50q0 -30 -22 -50.5t-54 -20.5zM246 -8
q-183 0 -183 199v297h112v-267q0 -71 22.5 -99t74.5 -28t88.5 42.5t36.5 117.5v234h112v-488h-112v61l-2 1q-58 -70 -149 -70z" />
    <glyph glyph-name="uni01D9" unicode="&#x1d9;" horiz-adv-x="719" 
d="M301 906l-108 133h109l57 -71h2l57 71h111l-111 -133h-117zM267 765q-28 0 -47.5 19t-19.5 46q0 26 19.5 44.5t47.5 18.5t48 -18.5t20 -44.5q0 -27 -20 -46t-48 -19zM446 765q-28 0 -47.5 19t-19.5 46q0 26 19.5 44.5t47.5 18.5t48 -18.5t20 -44.5q0 -27 -20 -46t-48 -19
zM359 -8q-128 0 -205 79.5t-77 220.5v418h120v-409q0 -87 43.5 -141t118.5 -54q73 0 118 52.5t45 142.5v409h121v-418q0 -139 -76 -219.5t-208 -80.5z" />
    <glyph glyph-name="uni01DA" unicode="&#x1da;" horiz-adv-x="578" 
d="M227 730l-105 145h109l54 -77h2l55 77h111l-109 -145h-117zM188 565q-32 0 -53.5 20.5t-21.5 50.5q0 29 22 50t53 21t53.5 -21t22.5 -50q0 -30 -22 -50.5t-54 -20.5zM386 565q-32 0 -53.5 20.5t-21.5 50.5q0 29 22 50t53 21t53.5 -21t22.5 -50q0 -30 -22 -50.5t-54 -20.5
zM246 -8q-183 0 -183 199v297h112v-267q0 -71 22.5 -99t74.5 -28t88.5 42.5t36.5 117.5v234h112v-488h-112v61l-2 1q-58 -70 -149 -70z" />
    <glyph glyph-name="uni01DB" unicode="&#x1db;" horiz-adv-x="719" 
d="M317 907l-124 125h123l84 -125h-83zM267 765q-28 0 -47.5 19t-19.5 46q0 26 19.5 44.5t47.5 18.5t48 -18.5t20 -44.5q0 -27 -20 -46t-48 -19zM446 765q-28 0 -47.5 19t-19.5 46q0 26 19.5 44.5t47.5 18.5t48 -18.5t20 -44.5q0 -27 -20 -46t-48 -19zM359 -8
q-128 0 -205 79.5t-77 220.5v418h120v-409q0 -87 43.5 -141t118.5 -54q73 0 118 52.5t45 142.5v409h121v-418q0 -139 -76 -219.5t-208 -80.5z" />
    <glyph glyph-name="uni01DC" unicode="&#x1dc;" horiz-adv-x="578" 
d="M335 728h-85l-153 145h123zM188 565q-32 0 -53.5 20.5t-21.5 50.5q0 29 22 50t53 21t53.5 -21t22.5 -50q0 -30 -22 -50.5t-54 -20.5zM386 565q-32 0 -53.5 20.5t-21.5 50.5q0 29 22 50t53 21t53.5 -21t22.5 -50q0 -30 -22 -50.5t-54 -20.5zM246 -8q-183 0 -183 199v297
h112v-267q0 -71 22.5 -99t74.5 -28t88.5 42.5t36.5 117.5v234h112v-488h-112v61l-2 1q-58 -70 -149 -70z" />
    <glyph glyph-name="Gcaron" unicode="&#x1e6;" horiz-adv-x="759" 
d="M345 775l-108 133h109l57 -71h2l57 71h111l-111 -133h-117zM413 -6q-157 0 -257.5 97.5t-100.5 262.5q0 160 96.5 262t257.5 102q77 0 150 -29.5t127 -87.5l-85 -74q-79 77 -193 77q-98 0 -162.5 -68.5t-64.5 -181.5q0 -108 63.5 -179t168.5 -71q87 0 158 47v120h-174
v108h294v-296q-49 -41 -123 -65t-155 -24z" />
    <glyph glyph-name="gcaron" unicode="&#x1e7;" horiz-adv-x="607" 
d="M232 552l-105 145h109l54 -77h2l55 77h111l-109 -145h-117zM291 -205q-114 0 -199 51l27 98q47 -25 82.5 -36.5t83.5 -11.5q69 0 107 34.5t38 85.5v51h-2q-59 -59 -148 -59q-103 0 -170.5 67t-67.5 174t65.5 176.5t166.5 69.5q90 0 152 -59h2v52h112v-438
q0 -118 -60 -186.5t-189 -68.5zM295 111q61 0 99.5 40.5t38.5 102.5q0 61 -39.5 100t-98.5 39q-62 0 -100.5 -39.5t-38.5 -101.5q0 -64 39.5 -102.5t99.5 -38.5z" />
    <glyph glyph-name="uni01EA" unicode="&#x1ea;" horiz-adv-x="827" 
d="M474 -4q-30 -10 -48 -29.5t-18 -41.5q0 -41 43 -41q23 0 41 8l7 -68q-29 -12 -72 -12q-49 0 -78.5 24t-29.5 64q0 49 54 92v2q-143 14 -230.5 114t-87.5 247q0 158 100 260.5t259 102.5q155 0 256.5 -101t101.5 -262q0 -144 -83 -241.5t-215 -117.5zM180 355
q0 -106 65.5 -178t168.5 -72q99 0 165.5 71t66.5 179q0 109 -66.5 179.5t-165.5 70.5q-103 0 -168.5 -72t-65.5 -178z" />
    <glyph glyph-name="uni01EB" unicode="&#x1eb;" horiz-adv-x="600" 
d="M338 -6q-28 -10 -44 -29t-16 -40q0 -41 43 -41q23 0 41 8l7 -68q-29 -12 -72 -12q-49 0 -78.5 24t-29.5 64q0 52 57 95v2q-92 16 -147 84t-55 162q0 109 71 180.5t185 71.5q113 0 184.5 -70t71.5 -182q0 -101 -60 -169t-158 -80zM158 243q0 -63 40 -106t102 -43
q60 0 101 42t41 107q0 67 -40.5 109t-101.5 42q-63 0 -102.5 -43t-39.5 -108z" />
    <glyph glyph-name="Aringacute" unicode="&#x1fa;" horiz-adv-x="695" 
d="M346 748q-44 0 -76 30.5t-32 74.5q0 43 31 74t77 31q47 0 79 -32l59 44l126 1l-155 -120q-1 -43 -32 -73t-77 -30zM346 892q-16 0 -27 -11.5t-11 -26.5q0 -16 11 -27t27 -11t27.5 11t11.5 27t-11.5 27t-27.5 11zM406 710l266 -710h-126l-54 153h-290l-53 -153h-126
l265 710h118zM239 257h217l-108 308h-2z" />
    <glyph glyph-name="aringacute" unicode="&#x1fb;" horiz-adv-x="611" 
d="M304 540q-44 0 -76 30.5t-32 74.5q0 43 31 74t77 31q45 0 78 -31l54 40h127l-150 -115q-1 -44 -31.5 -74t-77.5 -30zM304 684q-16 0 -27 -11.5t-11 -26.5q0 -16 11 -27t27 -11t27.5 11t11.5 27t-11.5 27t-27.5 11zM431 429v59h112v-488h-107v64l-2 1q-54 -73 -155 -73
q-103 0 -169.5 69t-66.5 181q0 110 67 181.5t168 71.5q98 0 151 -67zM297 94q58 0 98.5 41t40.5 106t-39.5 109t-99.5 44t-100 -42t-40 -111q0 -65 39 -106t101 -41z" />
    <glyph glyph-name="AEacute" unicode="&#x1fc;" horiz-adv-x="943" 
d="M411 775l112 133h125l-126 -133h-111zM11 0l354 710h516v-108h-327v-195h268v-108h-268v-191h347v-108h-467v153h-225l-75 -153h-123zM261 257h173v348h-2z" />
    <glyph glyph-name="aeacute" unicode="&#x1fd;" horiz-adv-x="789" 
d="M571 701l-124 -145h-114l115 144zM760 250q0 -32 -3 -45h-326q10 -51 44 -81t87 -30q39 0 63 14t46 43l77 -67q-36 -46 -79 -69t-117 -23q-104 0 -168 77h-2q-59 -77 -173 -77q-88 0 -133.5 43.5t-45.5 110.5q0 72 49 112.5t144 40.5h98v6q0 51 -21 71t-66 20
q-70 0 -132 -34l-42 90q27 15 79.5 29t101.5 14q107 0 152 -72h3q60 72 157 72q92 0 149.5 -69t57.5 -176zM433 295h214q-5 44 -29 71.5t-70 27.5q-42 0 -73 -27.5t-42 -71.5zM220 85q42 0 72 25t30 66v34h-88q-94 0 -94 -63q0 -28 20 -45t60 -17z" />
    <glyph glyph-name="Oslashacute" unicode="&#x1fe;" horiz-adv-x="827" 
d="M587 908l-126 -133h-111l112 133h125zM785 677l-85 -93q72 -96 72 -229q0 -161 -101.5 -262t-256.5 -101q-116 0 -205 58l-78 -85l-69 64l77 83q-84 98 -84 243q0 158 100 260.5t259 102.5q126 0 220 -69l83 90zM180 355q0 -86 44 -150l328 355q-61 45 -138 45
q-103 0 -168.5 -72t-65.5 -178zM646 355q0 75 -34 134l-321 -350q54 -34 123 -34q99 0 165.5 71t66.5 179z" />
    <glyph glyph-name="oslashacute" unicode="&#x1ff;" horiz-adv-x="600" 
d="M478 701l-124 -145h-114l115 144zM569 459l-59 -63q46 -67 46 -153q0 -111 -71.5 -181t-184.5 -70q-76 0 -135 34l-51 -55l-60 56l47 51q-57 68 -57 165q0 109 71 180.5t185 71.5q88 0 151 -43l59 63zM158 243q0 -44 22 -82l197 211q-35 22 -77 22q-63 0 -102.5 -43
t-39.5 -108zM442 243q0 35 -13 66l-189 -202q26 -13 60 -13q60 0 101 42t41 107z" />
    <glyph glyph-name="Scommaaccent" unicode="&#x218;" horiz-adv-x="591" 
d="M299 -8q-149 0 -257 112l76 93q37 -45 86 -69t96 -24q57 0 87.5 23t30.5 63q0 43 -30 65t-107 49q-49 17 -80.5 32.5t-66 40.5t-51.5 60.5t-17 82.5q0 83 66 140.5t159 57.5q125 0 235 -87l-72 -95q-88 73 -163 73q-43 0 -71 -22t-29 -61q0 -19 7 -32.5t28.5 -26.5
t39 -20.5t58.5 -23.5q110 -43 145 -67q75 -53 75 -151q0 -102 -74.5 -157.5t-170.5 -55.5zM231 -219l-26 65q30 11 42.5 24.5t12.5 37.5q0 14 -6 39h102q4 -20 4 -47q0 -54 -36.5 -83.5t-92.5 -35.5z" />
    <glyph glyph-name="scommaaccent" unicode="&#x219;" horiz-adv-x="449" 
d="M229 -8q-117 0 -197 71l56 84q58 -57 141 -57q32 0 50 13t18 35q0 17 -20.5 28.5t-75.5 30.5q-72 25 -110.5 60t-38.5 100q0 60 48.5 99t123.5 39q97 0 172 -61l-56 -88q-55 52 -122 52q-20 0 -36.5 -10.5t-16.5 -31.5q0 -30 77 -59q95 -37 119 -54q50 -35 50 -103
q0 -65 -46.5 -106.5t-135.5 -41.5zM149 -219l-26 65q30 11 42.5 24.5t12.5 37.5q0 14 -6 39h102q4 -20 4 -47q0 -54 -36.5 -83.5t-92.5 -35.5z" />
    <glyph glyph-name="uni021A" unicode="&#x21a;" horiz-adv-x="589" 
d="M233 0v602h-201v108h526v-108h-204v-602h-121zM214 -219l-26 65q30 11 42.5 24.5t12.5 37.5q0 14 -6 39h102q4 -20 4 -47q0 -54 -36.5 -83.5t-92.5 -35.5z" />
    <glyph glyph-name="uni021B" unicode="&#x21b;" horiz-adv-x="365" 
d="M218 -8q-64 0 -100 41t-36 121v239h-60v95h60v162l112 12v-174h143v-95h-143v-228q0 -37 11 -52.5t36 -15.5q33 0 72 21l29 -97q-53 -29 -124 -29zM137 -219l-26 65q30 11 42.5 24.5t12.5 37.5q0 14 -6 39h102q4 -20 4 -47q0 -54 -36.5 -83.5t-92.5 -35.5z" />
    <glyph glyph-name="uni0232" unicode="&#x232;" horiz-adv-x="625" 
d="M165 797v89h298v-89h-298zM251 0v314l-237 396h138l159 -275h2l158 275h140l-239 -396v-314h-121z" />
    <glyph glyph-name="uni0233" unicode="&#x233;" horiz-adv-x="535" 
d="M119 584v94h298v-94h-298zM131 -198l88 225l-200 461h120l134 -327h2l125 327h115l-268 -686h-116z" />
    <glyph glyph-name="uni0237" unicode="&#x237;" horiz-adv-x="249" 
d="M46 -206q-51 0 -95 18l19 97q22 -14 51 -14q49 0 49 72v521h112v-521q0 -82 -38 -127.5t-98 -45.5z" />
    <glyph glyph-name="uni0251" unicode="&#x251;" horiz-adv-x="611" 
d="M279 -8q-103 0 -169.5 69t-66.5 181q0 110 67 181.5t168 71.5q98 0 151 -67l2 1v59h112v-488h-107v64l-2 1q-54 -73 -155 -73zM297 94q58 0 98.5 41t40.5 106t-39.5 109t-99.5 44t-100 -42t-40 -111q0 -65 39 -106t101 -41z" />
    <glyph glyph-name="uni0259" unicode="&#x259;" horiz-adv-x="561" 
d="M261 495q110 0 183 -66.5t73 -188.5q0 -110 -63 -179t-176 -69q-111 0 -172.5 69t-61.5 175q0 19 3 46h356q-11 56 -51.5 85t-98.5 29q-65 0 -134 -36l-43 91q85 44 185 44zM278 93q101 0 124 99h-244q7 -47 38 -73t82 -26z" />
    <glyph glyph-name="uni0261" unicode="&#x261;" horiz-adv-x="607" 
d="M291 -205q-114 0 -199 51l27 98q47 -25 82.5 -36.5t83.5 -11.5q69 0 107 34.5t38 85.5v51h-2q-59 -59 -148 -59q-103 0 -170.5 67t-67.5 174t65.5 176.5t166.5 69.5q90 0 152 -59h2v52h112v-438q0 -118 -60 -186.5t-189 -68.5zM295 111q61 0 99.5 40.5t38.5 102.5
q0 61 -39.5 100t-98.5 39q-62 0 -100.5 -39.5t-38.5 -101.5q0 -64 39.5 -102.5t99.5 -38.5z" />
    <glyph glyph-name="uni0272" unicode="&#x272;" horiz-adv-x="593" 
d="M350 495q84 0 131.5 -51t47.5 -157v-287h-112v258q0 74 -26.5 105t-79.5 31q-58 0 -92 -39t-34 -110v-264q0 -92 -38 -139t-110 -47q-39 0 -75 14l8 89q26 -10 46 -10q57 0 57 82v518h112v-67h2q62 74 163 74z" />
    <glyph glyph-name="uni02BB" unicode="&#x2bb;" horiz-adv-x="229" 
d="M63 411l17 253h91l12 -253h-120z" />
    <glyph glyph-name="uni02BC" unicode="&#x2bc;" horiz-adv-x="193" 
d="M29 502l30 208h108l-58 -208h-80z" />
    <glyph glyph-name="uni02BE" unicode="&#x2be;" horiz-adv-x="214" 
d="M43 439l-10 82q35 1 52 22t17 52q0 30 -17.5 51.5t-51.5 22.5l10 82q67 0 110.5 -44t43.5 -112t-43.5 -112t-110.5 -44z" />
    <glyph glyph-name="uni02BF" unicode="&#x2bf;" horiz-adv-x="248" 
d="M205 439q-67 0 -110.5 44t-43.5 112t43.5 112t110.5 44l10 -82q-34 -1 -51.5 -22.5t-17.5 -51.5q0 -31 17 -52t52 -22z" />
    <glyph glyph-name="circumflex" unicode="&#x2c6;" horiz-adv-x="477" 
d="M73 536l109 145h117l105 -145h-109l-54 77h-2l-55 -77h-111z" />
    <glyph glyph-name="caron" unicode="&#x2c7;" horiz-adv-x="477" 
d="M178 534l-105 145h109l54 -77h2l55 77h111l-109 -145h-117z" />
    <glyph glyph-name="uni02C8" unicode="&#x2c8;" horiz-adv-x="185" 
d="M47 683h91v-298h-91v298z" />
    <glyph glyph-name="uni02C9" unicode="&#x2c9;" horiz-adv-x="388" 
d="M45 584v94h298v-94h-298z" />
    <glyph glyph-name="uni02CA" unicode="&#x2ca;" horiz-adv-x="328" 
d="M60 556l115 144l123 1l-124 -145h-114z" />
    <glyph glyph-name="uni02CB" unicode="&#x2cb;" horiz-adv-x="328" 
d="M154 554l-124 144l125 -1l110 -143h-111z" />
    <glyph glyph-name="uni02CC" unicode="&#x2cc;" horiz-adv-x="185" 
d="M47 134h91v-298h-91v298z" />
    <glyph glyph-name="breve" unicode="&#x2d8;" horiz-adv-x="460" 
d="M230 530q-71 0 -111 39.5t-45 109.5h88q2 -26 20 -44.5t48 -18.5t48 18.5t20 44.5h88q-5 -70 -45 -109.5t-111 -39.5z" />
    <glyph glyph-name="dotaccent" unicode="&#x2d9;" horiz-adv-x="500" 
d="M250 542q-31 0 -53 22t-22 53q0 30 22 52t53 22t53.5 -22t22.5 -52q0 -31 -22.5 -53t-53.5 -22z" />
    <glyph glyph-name="ring" unicode="&#x2da;" horiz-adv-x="471" 
d="M235 512q-44 0 -76 30.5t-32 74.5q0 43 30.5 74t77.5 31q45 0 77 -30t32 -75q0 -44 -31 -74.5t-78 -30.5zM235 580q16 0 27.5 11t11.5 27t-11.5 27t-27.5 11t-27 -11.5t-11 -26.5q0 -16 11 -27t27 -11z" />
    <glyph glyph-name="ogonek" unicode="&#x2db;" horiz-adv-x="469" 
d="M272 -188q-49 0 -78.5 24t-29.5 64q0 29 23.5 61t64.5 53l85 -13q-38 -7 -61 -29t-23 -47q0 -41 43 -41q23 0 41 8l7 -68q-28 -12 -72 -12z" />
    <glyph glyph-name="tilde" unicode="&#x2dc;" horiz-adv-x="495" 
d="M327 535q-37 0 -88 32q-35 22 -56 22q-37 0 -58 -52l-68 31q34 110 114 110q40 0 84 -28q40 -25 58 -25q36 0 57 52l68 -23q-15 -56 -44 -87.5t-67 -31.5z" />
    <glyph glyph-name="hungarumlaut" unicode="&#x2dd;" horiz-adv-x="518" 
d="M52 538l115 144l114 1l-124 -145h-105zM243 538l114 144l114 1l-124 -145h-104z" />
    <glyph glyph-name="gravecomb" unicode="&#x300;" 
d="M-500 536l-124 144l125 -1l110 -143h-111z" />
    <glyph glyph-name="acutecomb" unicode="&#x301;" 
d="M-600 538l115 144l123 1l-124 -145h-114z" />
    <glyph glyph-name="uni0302" unicode="&#x302;" 
d="M-666 536l109 145h117l105 -145h-109l-54 77h-2l-55 -77h-111z" />
    <glyph glyph-name="tildecomb" unicode="&#x303;" 
d="M-421 535q-37 0 -88 32q-35 22 -56 22q-37 0 -58 -52l-68 31q34 110 114 110q40 0 84 -28q40 -25 58 -25q36 0 57 52l68 -23q-15 -56 -44 -87.5t-67 -31.5z" />
    <glyph glyph-name="uni0304" unicode="&#x304;" 
d="M-649 566v94h298v-94h-298z" />
    <glyph glyph-name="uni0306" unicode="&#x306;" 
d="M-500 530q-71 0 -111 39.5t-45 109.5h88q2 -26 20 -44.5t48 -18.5t48 18.5t20 44.5h88q-5 -70 -45 -109.5t-111 -39.5z" />
    <glyph glyph-name="uni0307" unicode="&#x307;" 
d="M-500 542q-31 0 -53 22t-22 53q0 30 22 52t53 22t53.5 -22t22.5 -52q0 -31 -22.5 -53t-53.5 -22z" />
    <glyph glyph-name="uni0308" unicode="&#x308;" 
d="M-600 544q-31 0 -52.5 22t-21.5 52q0 29 21.5 50.5t52.5 21.5t53 -22t22 -51q0 -30 -22 -51.5t-53 -21.5zM-401 544q-31 0 -52.5 22t-21.5 52q0 29 21.5 50.5t52.5 21.5t53 -22t22 -51q0 -30 -22 -51.5t-53 -21.5z" />
    <glyph glyph-name="hookabovecomb" unicode="&#x309;" 
d="M-540 536q72 51 70 86q0 21 -29 21q-38 0 -88 -34l-26 58q51 53 141 53q43 0 68.5 -20.5t25.5 -61.5q0 -34 -25.5 -62t-54.5 -40h-82z" />
    <glyph glyph-name="uni030A" unicode="&#x30a;" 
d="M-501 522q-44 0 -76 30.5t-32 74.5q0 43 30.5 74t77.5 31q45 0 77 -30t32 -75q0 -44 -31 -74.5t-78 -30.5zM-501 590q16 0 27.5 11t11.5 27t-11.5 27t-27.5 11t-27 -11.5t-11 -26.5q0 -16 11 -27t27 -11z" />
    <glyph glyph-name="uni030B" unicode="&#x30b;" 
d="M-648 538l115 144l114 1l-124 -145h-105zM-457 538l114 144l114 1l-124 -145h-104z" />
    <glyph glyph-name="uni030C" unicode="&#x30c;" 
d="M-561 534l-105 145h109l54 -77h2l55 77h111l-109 -145h-117z" />
    <glyph glyph-name="uni0312" unicode="&#x312;" 
d="M-547 541q-4 20 -4 47q0 54 36.5 83.5t92.5 35.5l26 -65q-30 -11 -42.5 -25t-12.5 -37q0 -13 6 -39h-102z" />
    <glyph glyph-name="uni0313" unicode="&#x313;" 
d="M-441 697q4 -20 4 -47q0 -54 -36.5 -83.5t-92.5 -35.5l-26 65q30 11 42.5 25t12.5 37q0 14 -6 39h102z" />
    <glyph glyph-name="uni031B" unicode="&#x31b;" 
d="M-521 448l-2 71q24 2 40 10t24 17t11.5 29t4 31.5t0.5 39.5v64h114v-71q0 -91 -49.5 -143t-142.5 -48z" />
    <glyph glyph-name="dotbelowcomb" unicode="&#x323;" 
d="M-500 -78q31 0 53 -22t22 -53q0 -30 -22 -52t-53 -22t-53.5 22t-22.5 52q0 31 22.5 53t53.5 22z" />
    <glyph glyph-name="uni0324" unicode="&#x324;" 
d="M-600 -80q31 0 52.5 -22t21.5 -52q0 -29 -21.5 -50.5t-52.5 -21.5t-53 22t-22 51q0 30 22 51.5t53 21.5zM-401 -80q31 0 52.5 -22t21.5 -52q0 -29 -21.5 -50.5t-52.5 -21.5t-53 22t-22 51q0 30 22 51.5t53 21.5z" />
    <glyph glyph-name="uni0326" unicode="&#x326;" 
d="M-578 -219l-26 65q30 11 42.5 24.5t12.5 37.5q0 14 -6 39h102q4 -20 4 -47q0 -54 -36.5 -83.5t-92.5 -35.5z" />
    <glyph glyph-name="uni0327" unicode="&#x327;" 
d="M-534 -190q-29 0 -59 6v55q21 -7 50 -7q20 0 35.5 7.5t15.5 22.5q0 14 -22.5 24t-61.5 10v36l19 42h67l-17 -36v-2q92 -3 92 -80q0 -35 -29.5 -56.5t-89.5 -21.5z" />
    <glyph glyph-name="uni0328" unicode="&#x328;" 
d="M-572 -188q-49 0 -78.5 24t-29.5 64q0 29 23.5 61t64.5 53l85 -13q-38 -7 -61 -29t-23 -47q0 -41 43 -41q23 0 41 8l7 -68q-28 -12 -72 -12z" />
    <glyph glyph-name="uni032E" unicode="&#x32e;" 
d="M-500 -226q-71 0 -111 39.5t-45 109.5h88q2 -26 20 -44.5t48 -18.5t48 18.5t20 44.5h88q-5 -70 -45 -109.5t-111 -39.5z" />
    <glyph glyph-name="uni0331" unicode="&#x331;" 
d="M-351 -207h-298v94h298v-94z" />
    <glyph glyph-name="uni0335" unicode="&#x335;" 
d="M-639 226v77h282v-77h-282z" />
    <glyph glyph-name="uni0374" unicode="&#x374;" horiz-adv-x="260" 
d="M34 475l52 254h116l-71 -254h-97z" />
    <glyph glyph-name="uni0375" unicode="&#x375;" horiz-adv-x="271" 
d="M64 -151l52 254h116l-71 -254h-97z" />
    <glyph glyph-name="uni037E" unicode="&#x37e;" horiz-adv-x="248" 
d="M130 346q-32 0 -54 21.5t-22 52.5t22.5 53t53.5 22t53 -22t22 -53t-22 -52.5t-53 -21.5zM38 -132l32 253h120l-70 -253h-82z" />
    <glyph glyph-name="tonos" unicode="&#x384;" horiz-adv-x="467" 
d="M149 538l58 169h129l-79 -169h-108z" />
    <glyph glyph-name="dieresistonos" unicode="&#x385;" horiz-adv-x="530" 
d="M186 547l13 169h104l-32 -169h-85zM90 542q-31 0 -53 22t-22 53q0 30 22 52t53 22t53.5 -22t22.5 -52q0 -31 -22.5 -53t-53.5 -22zM385 544q-31 0 -52.5 21.5t-21.5 51.5q0 29 22 51t52 22t52 -22t22 -51q0 -30 -22 -51.5t-52 -21.5z" />
    <glyph glyph-name="Alphatonos" unicode="&#x386;" horiz-adv-x="695" 
d="M23 0l265 710h118l266 -710h-126l-54 153h-290l-53 -153h-126zM-57 538l71 169h128l-94 -169h-105zM239 257h217l-108 308h-2z" />
    <glyph glyph-name="anoteleia" unicode="&#x387;" horiz-adv-x="270" 
d="M135 346q-32 0 -54 21.5t-22 52.5t22.5 53t53.5 22t53 -22t22 -53t-22 -52.5t-53 -21.5z" />
    <glyph glyph-name="Epsilontonos" unicode="&#x388;" horiz-adv-x="607" 
d="M87 0v710h447v-108h-326v-196h263v-108h-263v-190h347v-108h-468zM-169 538l71 169h128l-94 -169h-105z" />
    <glyph glyph-name="Etatonos" unicode="&#x389;" horiz-adv-x="736" 
d="M87 0v710h121v-317h320v317h121v-710h-121v285h-320v-285h-121zM-169 538l71 169h128l-94 -169h-105z" />
    <glyph glyph-name="Iotatonos" unicode="&#x38a;" horiz-adv-x="304" 
d="M91 0v710h121v-710h-121zM-165 538l71 169h128l-94 -169h-105z" />
    <glyph glyph-name="Omicrontonos" unicode="&#x38c;" horiz-adv-x="827" 
d="M414 -8q-159 0 -259 102.5t-100 260.5t100 260.5t259 102.5q155 0 256.5 -101t101.5 -262t-101.5 -262t-256.5 -101zM-120 538l71 169h128l-94 -169h-105zM414 105q99 0 165.5 71t66.5 179q0 109 -66.5 179.5t-165.5 70.5q-103 0 -168.5 -72t-65.5 -178t65.5 -178
t168.5 -72z" />
    <glyph glyph-name="Upsilontonos" unicode="&#x38e;" horiz-adv-x="625" 
d="M251 0v314l-237 396h138l159 -275h2l158 275h140l-239 -396v-314h-121zM-233 538l71 169h128l-94 -169h-105z" />
    <glyph glyph-name="Omegatonos" unicode="&#x38f;" horiz-adv-x="772" 
d="M63 0v108h119l1 2q-130 109 -130 277q0 143 92.5 237t240.5 94t240.5 -94t92.5 -237q0 -168 -130 -277l1 -2h120v-108h-274v108q158 117 158 277q0 98 -57.5 159t-150.5 61q-93 -1 -150 -61.5t-57 -158.5q0 -161 157 -277v-108h-273zM-132 538l71 169h128l-94 -169h-105z
" />
    <glyph glyph-name="iotadieresistonos" unicode="&#x390;" horiz-adv-x="295" 
d="M91 565l13 169h104l-32 -169h-85zM-5 560q-31 0 -53 22t-22 53q0 30 22 52t53 22t53.5 -22t22.5 -52q0 -31 -22.5 -53t-53.5 -22zM290 562q-31 0 -52.5 21.5t-21.5 51.5q0 29 22 51t52 22t52 -22t22 -51q0 -30 -22 -51.5t-52 -21.5zM190 -8q-115 0 -115 124v372h112v-341
q0 -32 6 -41.5t26 -9.5q21 0 46 7l11 -93q-50 -18 -86 -18z" />
    <glyph glyph-name="Alpha" unicode="&#x391;" horiz-adv-x="695" 
d="M23 0l265 710h118l266 -710h-126l-54 153h-290l-53 -153h-126zM239 257h217l-108 308h-2z" />
    <glyph glyph-name="Beta" unicode="&#x392;" horiz-adv-x="648" 
d="M87 0v710h247q111 0 171 -43.5t60 -129.5q0 -53 -26.5 -96.5t-78.5 -64.5v-1q64 -16 102.5 -62.5t38.5 -117.5q0 -88 -59.5 -141.5t-173.5 -53.5h-281zM208 416h117q117 0 117 94q0 43 -30.5 68t-90.5 25l-113 -1v-186zM208 108h145q58 0 90 25.5t32 74.5q0 48 -36 76
t-105 28h-126v-204z" />
    <glyph glyph-name="Gamma" unicode="&#x393;" horiz-adv-x="580" 
d="M87 0v710h459v-108h-338v-602h-121z" />
    <glyph glyph-name="uni0394" unicode="&#x394;" horiz-adv-x="683" 
d="M38 0v93l242 617h121l244 -617v-93h-607zM174 108h333l-165 453h-2z" />
    <glyph glyph-name="Epsilon" unicode="&#x395;" horiz-adv-x="607" 
d="M87 0v710h447v-108h-326v-196h263v-108h-263v-190h347v-108h-468z" />
    <glyph glyph-name="Zeta" unicode="&#x396;" horiz-adv-x="626" 
d="M57 0v95l349 505l-1 2h-332v108h492v-93l-355 -506l2 -3h355v-108h-510z" />
    <glyph glyph-name="Eta" unicode="&#x397;" horiz-adv-x="736" 
d="M87 0v710h121v-317h320v317h121v-710h-121v285h-320v-285h-121z" />
    <glyph glyph-name="Theta" unicode="&#x398;" horiz-adv-x="838" 
d="M414 -8q-159 0 -259 102.5t-100 260.5t100 260.5t259 102.5q155 0 256.5 -101t101.5 -262t-101.5 -262t-256.5 -101zM414 105q99 0 165.5 71t66.5 179q0 109 -66.5 179.5t-165.5 70.5q-103 0 -168.5 -72t-65.5 -178t65.5 -178t168.5 -72zM273 296v108h295v-108h-295z" />
    <glyph glyph-name="Iota" unicode="&#x399;" horiz-adv-x="304" 
d="M91 0v710h121v-710h-121z" />
    <glyph glyph-name="Kappa" unicode="&#x39a;" horiz-adv-x="664" 
d="M87 0v710h121v-340h2l272 340h154l-267 -317l275 -393h-150l-205 297l-81 -96v-201h-121z" />
    <glyph glyph-name="Lambda" unicode="&#x39b;" horiz-adv-x="684" 
d="M26 0l255 710h120l256 -710h-131l-183 540h-4l-183 -540h-130z" />
    <glyph glyph-name="Mu" unicode="&#x39c;" horiz-adv-x="887" 
d="M88 0v710h121l234 -425h2l234 425h121v-710h-121v475h-2l-194 -338h-79l-194 338h-1v-475h-121z" />
    <glyph glyph-name="Nu" unicode="&#x39d;" horiz-adv-x="763" 
d="M87 0v710h120l347 -510h2v510h120v-710h-123l-343 501h-2v-501h-121z" />
    <glyph glyph-name="Xi" unicode="&#x39e;" horiz-adv-x="642" 
d="M69 598v112h504v-112h-504zM121 296v109h398v-109h-398zM62 0v112h518v-112h-518z" />
    <glyph glyph-name="Omicron" unicode="&#x39f;" horiz-adv-x="827" 
d="M414 -8q-159 0 -259 102.5t-100 260.5t100 260.5t259 102.5q155 0 256.5 -101t101.5 -262t-101.5 -262t-256.5 -101zM414 105q99 0 165.5 71t66.5 179q0 109 -66.5 179.5t-165.5 70.5q-103 0 -168.5 -72t-65.5 -178t65.5 -178t168.5 -72z" />
    <glyph glyph-name="Pi" unicode="&#x3a0;" horiz-adv-x="709" 
d="M87 0v710h535v-710h-121v602h-293v-602h-121z" />
    <glyph glyph-name="Rho" unicode="&#x3a1;" horiz-adv-x="629" 
d="M87 0v710h257q122 0 182.5 -62.5t60.5 -167.5q0 -112 -69 -169.5t-188 -57.5h-122v-253h-121zM208 362h110q72 0 108 32.5t36 87.5q0 57 -35 88.5t-100 31.5h-119v-240z" />
    <glyph glyph-name="Sigma" unicode="&#x3a3;" horiz-adv-x="589" 
d="M53 0v85l192 271l-192 266v88h494v-108h-329l-2 -3l175 -243l-175 -245l2 -3h329v-108h-494z" />
    <glyph glyph-name="Tau" unicode="&#x3a4;" horiz-adv-x="589" 
d="M233 0v602h-201v108h526v-108h-204v-602h-121z" />
    <glyph glyph-name="Upsilon" unicode="&#x3a5;" horiz-adv-x="625" 
d="M251 0v314l-237 396h138l159 -275h2l158 275h140l-239 -396v-314h-121z" />
    <glyph glyph-name="Phi" unicode="&#x3a6;" horiz-adv-x="857" 
d="M814 362q0 -126 -85 -203.5t-240 -84.5v-74h-121v74q-154 6 -239.5 84.5t-85.5 203.5q0 129 85.5 212t239.5 89v66h121v-66q154 -7 239.5 -89.5t85.5 -211.5zM169 362q0 -79 52 -127.5t150 -53.5v373q-97 -5 -149.5 -57t-52.5 -135zM487 182q98 5 149.5 53t51.5 127
q0 82 -52 134t-149 58v-372z" />
    <glyph glyph-name="Chi" unicode="&#x3a7;" horiz-adv-x="694" 
d="M32 0l235 356l-230 354h141l170 -262h1l170 262h138l-230 -354l236 -356h-142l-174 262h-2l-173 -262h-140z" />
    <glyph glyph-name="Psi" unicode="&#x3a8;" horiz-adv-x="797" 
d="M614 710h121l-1 -256q0 -141 -69 -216.5t-207 -76.5v-161h-121v161q-135 1 -205 76.5t-70 216.5l1 256h121l-1 -243q0 -100 36 -147.5t118 -50.5v441h121v-441q79 2 117 49.5t39 148.5v243z" />
    <glyph glyph-name="uni03A9" unicode="&#x3a9;" horiz-adv-x="772" 
d="M63 0v108h119l1 2q-130 109 -130 277q0 143 92.5 237t240.5 94t240.5 -94t92.5 -237q0 -168 -130 -277l1 -2h120v-108h-274v108q158 117 158 277q0 98 -57.5 159t-150.5 61q-93 -1 -150 -61.5t-57 -158.5q0 -161 157 -277v-108h-273z" />
    <glyph glyph-name="Iotadieresis" unicode="&#x3aa;" horiz-adv-x="304" 
d="M46 773q-31 0 -53 22t-22 53q0 30 22 52t53 22t53.5 -22t22.5 -52q0 -31 -22.5 -53t-53.5 -22zM260 775q-31 0 -53 21.5t-22 51.5q0 29 22.5 51t52.5 22t52 -22t22 -51q0 -30 -22 -51.5t-52 -21.5zM91 0v710h121v-710h-121z" />
    <glyph glyph-name="Upsilondieresis" unicode="&#x3ab;" horiz-adv-x="625" 
d="M202 773q-31 0 -53 22t-22 53q0 30 22 52t53 22t53.5 -22t22.5 -52q0 -31 -22.5 -53t-53.5 -22zM416 775q-31 0 -53 21.5t-22 51.5q0 29 22.5 51t52.5 22t52 -22t22 -51q0 -30 -22 -51.5t-52 -21.5zM251 0v314l-237 396h138l159 -275h2l158 275h140l-239 -396v-314h-121z
" />
    <glyph glyph-name="alphatonos" unicode="&#x3ac;" horiz-adv-x="593" 
d="M245 556l58 169h129l-79 -169h-108zM263 -7q-102 0 -161.5 68.5t-59.5 180.5q0 110 63.5 181.5t163.5 71.5q99 0 152 -81h2l2 74h106l-25 -242v-93q0 -32 7 -45t27 -13q15 0 30 5l11 -91q-42 -16 -81 -16q-74 0 -88 70h-2q-51 -70 -147 -70zM276 94q56 0 93 40t45 107
q-1 72 -35.5 112.5t-93.5 40.5q-56 0 -92.5 -42t-36.5 -111q0 -65 32.5 -106t87.5 -41z" />
    <glyph glyph-name="epsilontonos" unicode="&#x3ad;" horiz-adv-x="508" 
d="M387 725l-79 -169h-108l58 169h129zM428 134l52 -81q-54 -36 -108.5 -48.5t-127.5 -12.5q-90 0 -142.5 37t-52.5 105q0 40 24.5 71t65.5 47q-36 17 -56 45t-20 59q0 71 55.5 105t140.5 34q126 0 213 -51l-47 -83q-82 35 -157 33q-91 -1 -91 -47q0 -23 21 -38.5t64 -15.5
h84v-89h-91q-45 0 -67 -18t-22 -40q0 -52 107 -52q90 0 155 40z" />
    <glyph glyph-name="etatonos" unicode="&#x3ae;" horiz-adv-x="590" 
d="M240 556l58 169h129l-79 -169h-108zM413 -198v456q0 136 -106 136q-54 0 -87.5 -40t-33.5 -111v-243h-112v488h112v-66l2 -1q63 74 159 74q84 0 131 -51t47 -157v-485h-112z" />
    <glyph glyph-name="iotatonos" unicode="&#x3af;" horiz-adv-x="283" 
d="M78 556l58 169h129l-79 -169h-108zM190 -8q-115 0 -115 124v372h112v-341q0 -32 6 -41.5t26 -9.5q21 0 46 7l11 -93q-50 -18 -86 -18z" />
    <glyph glyph-name="upsilondieresistonos" unicode="&#x3b0;" horiz-adv-x="569" 
d="M235 565l13 169h104l-32 -169h-85zM139 560q-31 0 -53 22t-22 53q0 30 22 52t53 22t53.5 -22t22.5 -52q0 -31 -22.5 -53t-53.5 -22zM434 562q-31 0 -52.5 21.5t-21.5 51.5q0 29 22 51t52 22t52 -22t22 -51q0 -30 -22 -51.5t-52 -21.5zM281 -8q-101 0 -160.5 62.5
t-59.5 181.5v252h112v-241q0 -76 30 -114.5t78 -38.5q52 0 81 37.5t29 115.5v241h111v-252q0 -120 -58.5 -182t-162.5 -62z" />
    <glyph glyph-name="alpha" unicode="&#x3b1;" horiz-adv-x="593" 
d="M263 -7q-102 0 -161.5 68.5t-59.5 180.5q0 110 63.5 181.5t163.5 71.5q99 0 152 -81h2l2 74h106l-25 -242v-93q0 -32 7 -45t27 -13q15 0 30 5l11 -91q-42 -16 -81 -16q-74 0 -88 70h-2q-51 -70 -147 -70zM276 94q56 0 93 40t45 107q-1 72 -35.5 112.5t-93.5 40.5
q-56 0 -92.5 -42t-36.5 -111q0 -65 32.5 -106t87.5 -41z" />
    <glyph glyph-name="beta" unicode="&#x3b2;" horiz-adv-x="598" 
d="M74 -198v689q0 124 62 188.5t166 64.5q101 0 160 -52.5t59 -133.5q0 -110 -82 -157v-1q54 -26 86 -75t32 -106q0 -105 -62.5 -166t-166.5 -61q-86 0 -140 52l-2 -1v-241h-112zM316 93q58 0 92.5 33t34.5 88q0 50 -38.5 86.5t-105.5 36.5h-41v95h36q116 1 116 114
q0 41 -27 69t-77 28q-52 0 -86 -35.5t-34 -108.5v-274q0 -53 37 -92.5t93 -39.5z" />
    <glyph glyph-name="gamma" unicode="&#x3b3;" horiz-adv-x="533" 
d="M226 -198v31.5t-0.5 36t-2.5 34t-4.5 40t-8 37.5t-13.5 42l-177 465h121l125 -357h3l124 357h121l-191 -489q5 -21 8 -49.5t3.5 -44.5t1 -56t0.5 -47h-110z" />
    <glyph glyph-name="delta" unicode="&#x3b4;" horiz-adv-x="575" 
d="M389 476q150 -70 150 -239q0 -111 -69.5 -178t-174.5 -67q-111 0 -181.5 69.5t-70.5 177.5q0 148 143 220q-88 51 -88 140q0 65 50 104.5t143 40.5q128 2 220 -52l-47 -88q-71 38 -168 38q-86 0 -86 -49q0 -23 19 -42t68 -38q65 -24 92 -37zM295 94q55 0 93 38t38 105
q0 120 -123 169l-25 10q-57 -25 -89.5 -71t-32.5 -106q0 -64 38 -104.5t101 -40.5z" />
    <glyph glyph-name="epsilon" unicode="&#x3b5;" horiz-adv-x="508" 
d="M428 134l52 -81q-54 -36 -108.5 -48.5t-127.5 -12.5q-90 0 -142.5 37t-52.5 105q0 40 24.5 71t65.5 47q-36 17 -56 45t-20 59q0 71 55.5 105t140.5 34q126 0 213 -51l-47 -83q-82 35 -157 33q-91 -1 -91 -47q0 -23 21 -38.5t64 -15.5h84v-89h-91q-45 0 -67 -18t-22 -40
q0 -52 107 -52q90 0 155 40z" />
    <glyph glyph-name="zeta" unicode="&#x3b6;" horiz-adv-x="468" 
d="M381 -220l-94 51q2 3 12 13.5t13.5 14.5t11 13.5t11 15.5t8 14.5t6.5 17t2 16.5q0 25 -22.5 42.5t-97.5 37.5q-41 11 -71 25t-59 38.5t-44 63.5t-15 91q1 181 266 405v2h-228v95h388v-84q-137 -104 -224.5 -215t-88.5 -203q0 -29 10 -50.5t33.5 -36.5t45.5 -23.5
t61 -20.5q94 -28 127.5 -61.5t33.5 -89.5q0 -83 -85 -172z" />
    <glyph glyph-name="eta" unicode="&#x3b7;" horiz-adv-x="590" 
d="M413 -198v456q0 136 -106 136q-54 0 -87.5 -40t-33.5 -111v-243h-112v488h112v-66l2 -1q63 74 159 74q84 0 131 -51t47 -157v-485h-112z" />
    <glyph glyph-name="theta" unicode="&#x3b8;" horiz-adv-x="592" 
d="M296 744q115 0 184.5 -94t69.5 -281q0 -170 -62 -273.5t-192 -103.5q-116 0 -185 93.5t-69 283.5q0 108 24.5 189.5t83 133.5t146.5 52zM296 643q-61 0 -96 -59t-42 -164h277q-7 107 -43 165t-96 58zM296 94q63 0 98.5 60.5t41.5 170.5h-279q6 -112 41.5 -171.5
t97.5 -59.5z" />
    <glyph glyph-name="iota" unicode="&#x3b9;" horiz-adv-x="283" 
d="M190 -8q-115 0 -115 124v372h112v-341q0 -32 6 -41.5t26 -9.5q21 0 46 7l11 -93q-50 -18 -86 -18z" />
    <glyph glyph-name="kappa" unicode="&#x3ba;" horiz-adv-x="564" 
d="M73 0v488h112v-226l2 -1l212 227h139l-204 -207l217 -281h-136l-155 205l-75 -76v-129h-112z" />
    <glyph glyph-name="lambda" unicode="&#x3bb;" horiz-adv-x="553" 
d="M533 0h-118q-19 53 -40 112.5t-46.5 132t-39.5 112.5h-1l-142 -357h-122l210 502l-24 65q-25 78 -77 78q-27 0 -55 -10l-15 93q53 16 100 16q55 0 92 -39t67 -123q36 -97 105.5 -291t105.5 -291z" />
    <glyph glyph-name="uni03BC" unicode="&#x3bc;" horiz-adv-x="580" 
d="M67 -198v686h112v-254q0 -140 106 -140q51 0 83.5 40t32.5 110v244h112v-488h-102l-6 63h-2q-58 -71 -142 -71q-55 0 -85 31l-3 -1q6 -51 6 -105v-115h-112z" />
    <glyph glyph-name="nu" unicode="&#x3bd;" horiz-adv-x="534" 
d="M213 0l-193 488h120l127 -348h1l127 348h119l-194 -488h-107z" />
    <glyph glyph-name="xi" unicode="&#x3be;" horiz-adv-x="496" 
d="M392 -220l-94 51q65 67 65 105q0 22 -21.5 38.5t-77.5 36.5q-47 16 -81 33t-68 42.5t-52 61t-18 79.5q0 51 33 97.5t90 73.5v2q-89 51 -89 155q0 92 63 140.5t142 48.5q118 0 206 -52l-47 -88q-69 38 -144 38q-51 0 -79 -26.5t-28 -66.5q0 -110 183 -110h58v-95h-110
q-76 0 -120 -33t-44 -77q0 -45 37.5 -73.5t122.5 -61.5q88 -34 123 -66.5t35 -83.5q0 -39 -27 -88t-58 -81z" />
    <glyph glyph-name="omicron" unicode="&#x3bf;" horiz-adv-x="584" 
d="M292 -8q-110 0 -180 70t-70 181q0 112 70 182t180 70t180 -70t70 -182q0 -111 -70 -181t-180 -70zM292 94q58 0 97.5 42t39.5 107q0 67 -39 109t-98 42t-98 -42t-39 -109q0 -65 39.5 -107t97.5 -42z" />
    <glyph glyph-name="pi" unicode="&#x3c0;" horiz-adv-x="611" 
d="M589 488v-95h-81v-393h-112v393h-181v-393h-112v393h-76v95h562z" />
    <glyph glyph-name="rho" unicode="&#x3c1;" horiz-adv-x="602" 
d="M65 -198v440q0 111 66 182t176 71q109 0 181.5 -71.5t72.5 -181.5t-66 -180t-164 -70q-91 0 -152 55h-2v-245h-112zM307 94q61 0 100.5 42t39.5 105q0 68 -40.5 110.5t-99.5 42.5q-58 0 -96.5 -44t-38.5 -109t39 -106t96 -41z" />
    <glyph glyph-name="uni03C2" unicode="&#x3c2;" horiz-adv-x="508" 
d="M377 -221l-94 52q4 4 15 16t15 16.5t12 15.5t11.5 18t6.5 17.5t3 21.5q0 23 -18.5 38.5t-72.5 34.5q-49 17 -83.5 35t-67.5 47t-50 71t-17 97q0 105 70.5 170.5t184.5 65.5q57 0 111 -23.5t90 -67.5l-76 -66q-48 56 -122 56q-66 0 -105.5 -38t-39.5 -97t41.5 -95
t127.5 -65q79 -27 110 -61.5t31 -88.5q0 -35 -16 -71.5t-26.5 -50t-40.5 -48.5z" />
    <glyph glyph-name="sigma" unicode="&#x3c3;" horiz-adv-x="601" 
d="M292 -8q-110 0 -179 67.5t-69 179.5q0 110 70.5 179.5t181.5 69.5h287v-95h-117l-1 -2q75 -70 75 -168q0 -101 -68.5 -166t-179.5 -65zM292 94q61 0 96.5 40.5t35.5 104.5q0 94 -77 154h-51q-60 0 -99 -44t-39 -110t38.5 -105.5t95.5 -39.5z" />
    <glyph glyph-name="tau" unicode="&#x3c4;" horiz-adv-x="467" 
d="M287 -8q-132 0 -132 156v245h-135v95h421v-95h-174v-221q0 -41 11 -59t44 -18q30 0 74 23l29 -97q-64 -29 -138 -29z" />
    <glyph glyph-name="upsilon" unicode="&#x3c5;" horiz-adv-x="563" 
d="M281 -8q-101 0 -160.5 62.5t-59.5 181.5v252h112v-241q0 -76 30 -114.5t78 -38.5q52 0 81 37.5t29 115.5v241h111v-252q0 -120 -58.5 -182t-162.5 -62z" />
    <glyph glyph-name="phi" unicode="&#x3c6;" horiz-adv-x="714" 
d="M671 266q0 -113 -72 -189t-193 -80v-195h-112v195q-109 3 -178.5 70.5t-69.5 175.5q0 84 25.5 143t73.5 116l113 -31q-46 -46 -72 -104.5t-26 -113.5q0 -63 36 -105t98 -49v195q0 99 45.5 150t118.5 51q95 0 154 -65.5t59 -163.5zM406 98q73 5 112.5 51t39.5 114
q0 49 -25.5 90t-66.5 41q-27 0 -41 -18.5t-16.5 -38t-2.5 -52.5v-187z" />
    <glyph glyph-name="chi" unicode="&#x3c7;" horiz-adv-x="525" 
d="M452 -205q-45 0 -73 27t-54 82l-63 137h-2l-123 -239h-122l194 351l-98 189q-15 27 -28 39.5t-32 12.5q-5 0 -25 -4l-14 88q34 17 77 17t71 -28t52 -81l54 -122h2l117 224h120l-185 -333l106 -207q26 -53 56 -53q6 0 30 4l12 -87q-34 -17 -72 -17z" />
    <glyph glyph-name="psi" unicode="&#x3c8;" horiz-adv-x="718" 
d="M547 488h112v-255q0 -116 -66.5 -177.5t-177.5 -63.5v-190h-112v190q-111 2 -177.5 63.5t-66.5 177.5v255h111v-243q0 -72 37 -109t96 -39v546h112v-546q58 2 95 39t37 109v243z" />
    <glyph glyph-name="omega" unicode="&#x3c9;" horiz-adv-x="766" 
d="M234 -8q-78 0 -133.5 65.5t-55.5 174.5q0 95 25.5 157t71.5 114l101 -23q-34 -45 -59 -110t-25 -127q0 -71 24.5 -110t65.5 -39q35 0 56.5 40t21.5 110v121h111v-121q0 -70 22 -110t57 -40q41 0 65 39t24 110q0 62 -25 127t-59 110l102 23q46 -52 71 -114t25 -157
q0 -109 -55.5 -174.5t-133.5 -65.5q-103 0 -147 91h-3q-44 -91 -147 -91z" />
    <glyph glyph-name="iotadieresis" unicode="&#x3ca;" horiz-adv-x="283" 
d="M28 560q-31 0 -53 22t-22 53q0 30 22 52t53 22t53.5 -22t22.5 -52q0 -31 -22.5 -53t-53.5 -22zM242 562q-31 0 -53 21.5t-22 51.5q0 29 22.5 51t52.5 22t52 -22t22 -51q0 -30 -22 -51.5t-52 -21.5zM190 -8q-115 0 -115 124v372h112v-341q0 -32 6 -41.5t26 -9.5q21 0 46 7
l11 -93q-50 -18 -86 -18z" />
    <glyph glyph-name="upsilondieresis" unicode="&#x3cb;" horiz-adv-x="563" 
d="M176 560q-31 0 -53 22t-22 53q0 30 22 52t53 22t53.5 -22t22.5 -52q0 -31 -22.5 -53t-53.5 -22zM390 562q-31 0 -53 21.5t-22 51.5q0 29 22.5 51t52.5 22t52 -22t22 -51q0 -30 -22 -51.5t-52 -21.5zM281 -8q-101 0 -160.5 62.5t-59.5 181.5v252h112v-241q0 -76 30 -114.5
t78 -38.5q52 0 81 37.5t29 115.5v241h111v-252q0 -120 -58.5 -182t-162.5 -62z" />
    <glyph glyph-name="omicrontonos" unicode="&#x3cc;" horiz-adv-x="584" 
d="M235 556l58 169h129l-79 -169h-108zM292 -8q-110 0 -180 70t-70 181q0 112 70 182t180 70t180 -70t70 -182q0 -111 -70 -181t-180 -70zM292 94q58 0 97.5 42t39.5 107q0 67 -39 109t-98 42t-98 -42t-39 -109q0 -65 39.5 -107t97.5 -42z" />
    <glyph glyph-name="upsilontonos" unicode="&#x3cd;" horiz-adv-x="563" 
d="M226 556l58 169h129l-79 -169h-108zM281 -8q-101 0 -160.5 62.5t-59.5 181.5v252h112v-241q0 -76 30 -114.5t78 -38.5q52 0 81 37.5t29 115.5v241h111v-252q0 -120 -58.5 -182t-162.5 -62z" />
    <glyph glyph-name="omegatonos" unicode="&#x3ce;" horiz-adv-x="766" 
d="M328 556l58 169h129l-79 -169h-108zM234 -8q-78 0 -133.5 65.5t-55.5 174.5q0 95 25.5 157t71.5 114l101 -23q-34 -45 -59 -110t-25 -127q0 -71 24.5 -110t65.5 -39q35 0 56.5 40t21.5 110v121h111v-121q0 -70 22 -110t57 -40q41 0 65 39t24 110q0 62 -25 127t-59 110
l102 23q46 -52 71 -114t25 -157q0 -109 -55.5 -174.5t-133.5 -65.5q-103 0 -147 91h-3q-44 -91 -147 -91z" />
    <glyph glyph-name="uni03D7" unicode="&#x3d7;" horiz-adv-x="598" 
d="M196 -216q-109 0 -191 49l22 100q70 -54 153 -54q117 0 251 117v4q-122 57 -168 198l-78 -84v-114h-112v488h112v-225l3 -1l207 226h135l-187 -204q37 -94 86.5 -139.5t145.5 -66.5v-66q-115 -125 -195 -176.5t-184 -51.5z" />
    <glyph glyph-name="uni1E0C" unicode="&#x1e0c;" horiz-adv-x="736" 
d="M87 0v710h226q167 0 268 -98.5t101 -257.5t-98.5 -256.5t-267.5 -97.5h-229zM208 108h101q111 0 179.5 69.5t68.5 176.5q0 108 -67.5 178t-174.5 70h-107v-494zM352 -78q31 0 53 -22t22 -53q0 -30 -22 -52t-53 -22t-53.5 22t-22.5 52q0 31 22.5 53t53.5 22z" />
    <glyph glyph-name="uni1E0D" unicode="&#x1e0d;" horiz-adv-x="620" 
d="M280 -8q-103 0 -170 69t-67 181q0 110 67.5 181.5t168.5 71.5q100 0 156 -67h1v308h111v-736h-107v66h-1q-57 -74 -159 -74zM297 94q61 0 102 41t41 106q0 66 -40 109.5t-102 43.5q-60 0 -100.5 -42t-40.5 -111q0 -65 39.5 -106t100.5 -41zM310 -78q31 0 53 -22t22 -53
q0 -30 -22 -52t-53 -22t-53.5 22t-22.5 52q0 31 22.5 53t53.5 22z" />
    <glyph glyph-name="uni1E0E" unicode="&#x1e0e;" horiz-adv-x="736" 
d="M87 0v710h226q167 0 268 -98.5t101 -257.5t-98.5 -256.5t-267.5 -97.5h-229zM208 108h101q111 0 179.5 69.5t68.5 176.5q0 108 -67.5 178t-174.5 70h-107v-494zM501 -207h-298v94h298v-94z" />
    <glyph glyph-name="uni1E0F" unicode="&#x1e0f;" horiz-adv-x="620" 
d="M280 -8q-103 0 -170 69t-67 181q0 110 67.5 181.5t168.5 71.5q100 0 156 -67h1v308h111v-736h-107v66h-1q-57 -74 -159 -74zM297 94q61 0 102 41t41 106q0 66 -40 109.5t-102 43.5q-60 0 -100.5 -42t-40.5 -111q0 -65 39.5 -106t100.5 -41zM459 -207h-298v94h298v-94z
" />
    <glyph glyph-name="uni1E20" unicode="&#x1e20;" horiz-adv-x="759" 
d="M257 797v89h298v-89h-298zM413 -6q-157 0 -257.5 97.5t-100.5 262.5q0 160 96.5 262t257.5 102q77 0 150 -29.5t127 -87.5l-85 -74q-79 77 -193 77q-98 0 -162.5 -68.5t-64.5 -181.5q0 -108 63.5 -179t168.5 -71q87 0 158 47v120h-174v108h294v-296q-49 -41 -123 -65
t-155 -24z" />
    <glyph glyph-name="uni1E21" unicode="&#x1e21;" horiz-adv-x="607" 
d="M144 584v94h298v-94h-298zM291 -205q-114 0 -199 51l27 98q47 -25 82.5 -36.5t83.5 -11.5q69 0 107 34.5t38 85.5v51h-2q-59 -59 -148 -59q-103 0 -170.5 67t-67.5 174t65.5 176.5t166.5 69.5q90 0 152 -59h2v52h112v-438q0 -118 -60 -186.5t-189 -68.5zM295 111
q61 0 99.5 40.5t38.5 102.5q0 61 -39.5 100t-98.5 39q-62 0 -100.5 -39.5t-38.5 -101.5q0 -64 39.5 -102.5t99.5 -38.5z" />
    <glyph glyph-name="uni1E24" unicode="&#x1e24;" horiz-adv-x="736" 
d="M87 0v710h121v-317h320v317h121v-710h-121v285h-320v-285h-121zM371 -78q31 0 53 -22t22 -53q0 -30 -22 -52t-53 -22t-53.5 22t-22.5 52q0 31 22.5 53t53.5 22z" />
    <glyph glyph-name="uni1E25" unicode="&#x1e25;" horiz-adv-x="598" 
d="M73 0v736h112v-309h1q62 68 166 68q85 0 133.5 -49t48.5 -154v-292h-112v263q0 70 -26.5 100.5t-79.5 30.5q-62 0 -96.5 -37.5t-34.5 -108.5v-248h-112zM294 -78q31 0 53 -22t22 -53q0 -30 -22 -52t-53 -22t-53.5 22t-22.5 52q0 31 22.5 53t53.5 22z" />
    <glyph glyph-name="uni1E2A" unicode="&#x1e2a;" horiz-adv-x="736" 
d="M87 0v710h121v-317h320v317h121v-710h-121v285h-320v-285h-121zM371 -226q-71 0 -111 39.5t-45 109.5h88q2 -26 20 -44.5t48 -18.5t48 18.5t20 44.5h88q-5 -70 -45 -109.5t-111 -39.5z" />
    <glyph glyph-name="uni1E2B" unicode="&#x1e2b;" horiz-adv-x="598" 
d="M73 0v736h112v-309h1q62 68 166 68q85 0 133.5 -49t48.5 -154v-292h-112v263q0 70 -26.5 100.5t-79.5 30.5q-62 0 -96.5 -37.5t-34.5 -108.5v-248h-112zM294 -226q-71 0 -111 39.5t-45 109.5h88q2 -26 20 -44.5t48 -18.5t48 18.5t20 44.5h88q-5 -70 -45 -109.5
t-111 -39.5z" />
    <glyph glyph-name="uni1E30" unicode="&#x1e30;" horiz-adv-x="664" 
d="M242 775l112 133h125l-126 -133h-111zM87 0v710h121v-340h2l272 340h154l-267 -317l275 -393h-150l-205 297l-81 -96v-201h-121z" />
    <glyph glyph-name="uni1E31" unicode="&#x1e31;" horiz-adv-x="535" 
d="M73 0v736h112v-473l2 -1l198 226h133l-176 -196l179 -292h-126l-131 215l-79 -86v-129h-112zM246 556l115 144l123 1l-124 -145h-114z" />
    <glyph glyph-name="uni1E36" unicode="&#x1e36;" horiz-adv-x="573" 
d="M87 0v710h121v-602h329v-108h-450zM308 -78q31 0 53 -22t22 -53q0 -30 -22 -52t-53 -22t-53.5 22t-22.5 52q0 31 22.5 53t53.5 22z" />
    <glyph glyph-name="uni1E37" unicode="&#x1e37;" horiz-adv-x="272" 
d="M80 0v736h112v-736h-112zM137 -78q31 0 53 -22t22 -53q0 -30 -22 -52t-53 -22t-53.5 22t-22.5 52q0 31 22.5 53t53.5 22z" />
    <glyph glyph-name="uni1E38" unicode="&#x1e38;" horiz-adv-x="573" 
d="M145 797v89h298v-89h-298zM87 0v710h121v-602h329v-108h-450zM308 -78q31 0 53 -22t22 -53q0 -30 -22 -52t-53 -22t-53.5 22t-22.5 52q0 31 22.5 53t53.5 22z" />
    <glyph glyph-name="uni1E39" unicode="&#x1e39;" horiz-adv-x="272" 
d="M-9 810v89h298v-89h-298zM80 0v736h112v-736h-112zM137 -78q31 0 53 -22t22 -53q0 -30 -22 -52t-53 -22t-53.5 22t-22.5 52q0 31 22.5 53t53.5 22z" />
    <glyph glyph-name="uni1E3A" unicode="&#x1e3a;" horiz-adv-x="573" 
d="M87 0v710h121v-602h329v-108h-450zM457 -207h-298v94h298v-94z" />
    <glyph glyph-name="uni1E3B" unicode="&#x1e3b;" horiz-adv-x="272" 
d="M80 0v736h112v-736h-112zM286 -207h-298v94h298v-94z" />
    <glyph glyph-name="uni1E42" unicode="&#x1e42;" horiz-adv-x="887" 
d="M88 0v710h121l234 -425h2l234 425h121v-710h-121v475h-2l-194 -338h-79l-194 338h-1v-475h-121zM444 -78q31 0 53 -22t22 -53q0 -30 -22 -52t-53 -22t-53.5 22t-22.5 52q0 31 22.5 53t53.5 22z" />
    <glyph glyph-name="uni1E43" unicode="&#x1e43;" horiz-adv-x="897" 
d="M73 0v488h112v-67h1q62 74 152 74q103 0 146 -81h2q63 81 175 81q82 0 126.5 -53t44.5 -160v-282h-112v254q0 140 -95 140q-49 0 -81.5 -40.5t-32.5 -110.5v-243h-112v254q0 140 -97 140q-52 0 -84.5 -40.5t-32.5 -110.5v-243h-112zM456 -78q31 0 53 -22t22 -53
q0 -30 -22 -52t-53 -22t-53.5 22t-22.5 52q0 31 22.5 53t53.5 22z" />
    <glyph glyph-name="uni1E44" unicode="&#x1e44;" horiz-adv-x="763" 
d="M382 773q-31 0 -53 22t-22 53q0 30 22 52t53 22t53.5 -22t22.5 -52q0 -31 -22.5 -53t-53.5 -22zM87 0v710h120l347 -510h2v510h120v-710h-123l-343 501h-2v-501h-121z" />
    <glyph glyph-name="uni1E45" unicode="&#x1e45;" horiz-adv-x="593" 
d="M296 560q-31 0 -53 22t-22 53q0 30 22 52t53 22t53.5 -22t22.5 -52q0 -31 -22.5 -53t-53.5 -22zM73 0v488h112v-67h2q62 74 163 74q84 0 131.5 -51t47.5 -157v-287h-112v258q0 74 -26.5 105t-79.5 31q-58 0 -92 -39t-34 -110v-245h-112z" />
    <glyph glyph-name="uni1E46" unicode="&#x1e46;" horiz-adv-x="763" 
d="M87 0v710h120l347 -510h2v510h120v-710h-123l-343 501h-2v-501h-121zM381 -78q31 0 53 -22t22 -53q0 -30 -22 -52t-53 -22t-53.5 22t-22.5 52q0 31 22.5 53t53.5 22z" />
    <glyph glyph-name="uni1E47" unicode="&#x1e47;" horiz-adv-x="593" 
d="M73 0v488h112v-67h2q62 74 163 74q84 0 131.5 -51t47.5 -157v-287h-112v258q0 74 -26.5 105t-79.5 31q-58 0 -92 -39t-34 -110v-245h-112zM313 -78q31 0 53 -22t22 -53q0 -30 -22 -52t-53 -22t-53.5 22t-22.5 52q0 31 22.5 53t53.5 22z" />
    <glyph glyph-name="uni1E48" unicode="&#x1e48;" horiz-adv-x="763" 
d="M87 0v710h120l347 -510h2v510h120v-710h-123l-343 501h-2v-501h-121zM530 -207h-298v94h298v-94z" />
    <glyph glyph-name="uni1E49" unicode="&#x1e49;" horiz-adv-x="593" 
d="M73 0v488h112v-67h2q62 74 163 74q84 0 131.5 -51t47.5 -157v-287h-112v258q0 74 -26.5 105t-79.5 31q-58 0 -92 -39t-34 -110v-245h-112zM462 -207h-298v94h298v-94z" />
    <glyph glyph-name="uni1E5A" unicode="&#x1e5a;" horiz-adv-x="659" 
d="M87 0v710h262q122 0 182.5 -63t60.5 -167q0 -169 -158 -215l184 -265h-145l-170 253h-95v-253h-121zM208 362h115q70 0 107 32.5t37 87.5q0 57 -35.5 88.5t-100.5 31.5h-123v-240zM328 -78q31 0 53 -22t22 -53q0 -30 -22 -52t-53 -22t-53.5 22t-22.5 52q0 31 22.5 53
t53.5 22z" />
    <glyph glyph-name="uni1E5B" unicode="&#x1e5b;" horiz-adv-x="372" 
d="M73 0v488h112v-73h2q60 80 151 80h14v-125q-26 2 -34 2q-62 0 -97.5 -39.5t-35.5 -101.5v-231h-112zM132 -78q31 0 53 -22t22 -53q0 -30 -22 -52t-53 -22t-53.5 22t-22.5 52q0 31 22.5 53t53.5 22z" />
    <glyph glyph-name="uni1E5C" unicode="&#x1e5c;" horiz-adv-x="659" 
d="M179 797v89h298v-89h-298zM87 0v710h262q122 0 182.5 -63t60.5 -167q0 -169 -158 -215l184 -265h-145l-170 253h-95v-253h-121zM208 362h115q70 0 107 32.5t37 87.5q0 57 -35.5 88.5t-100.5 31.5h-123v-240zM328 -78q31 0 53 -22t22 -53q0 -30 -22 -52t-53 -22t-53.5 22
t-22.5 52q0 31 22.5 53t53.5 22z" />
    <glyph glyph-name="uni1E5D" unicode="&#x1e5d;" horiz-adv-x="372" 
d="M73 584v94h298v-94h-298zM73 0v488h112v-73h2q60 80 151 80h14v-125q-26 2 -34 2q-62 0 -97.5 -39.5t-35.5 -101.5v-231h-112zM132 -78q31 0 53 -22t22 -53q0 -30 -22 -52t-53 -22t-53.5 22t-22.5 52q0 31 22.5 53t53.5 22z" />
    <glyph glyph-name="uni1E5E" unicode="&#x1e5e;" horiz-adv-x="659" 
d="M87 0v710h262q122 0 182.5 -63t60.5 -167q0 -169 -158 -215l184 -265h-145l-170 253h-95v-253h-121zM208 362h115q70 0 107 32.5t37 87.5q0 57 -35.5 88.5t-100.5 31.5h-123v-240zM477 -207h-298v94h298v-94z" />
    <glyph glyph-name="uni1E5F" unicode="&#x1e5f;" horiz-adv-x="372" 
d="M73 0v488h112v-73h2q60 80 151 80h14v-125q-26 2 -34 2q-62 0 -97.5 -39.5t-35.5 -101.5v-231h-112zM281 -207h-298v94h298v-94z" />
    <glyph glyph-name="uni1E60" unicode="&#x1e60;" horiz-adv-x="591" 
d="M294 773q-31 0 -53 22t-22 53q0 30 22 52t53 22t53.5 -22t22.5 -52q0 -31 -22.5 -53t-53.5 -22zM299 -8q-149 0 -257 112l76 93q37 -45 86 -69t96 -24q57 0 87.5 23t30.5 63q0 43 -30 65t-107 49q-49 17 -80.5 32.5t-66 40.5t-51.5 60.5t-17 82.5q0 83 66 140.5t159 57.5
q125 0 235 -87l-72 -95q-88 73 -163 73q-43 0 -71 -22t-29 -61q0 -19 7 -32.5t28.5 -26.5t39 -20.5t58.5 -23.5q110 -43 145 -67q75 -53 75 -151q0 -102 -74.5 -157.5t-170.5 -55.5z" />
    <glyph glyph-name="uni1E61" unicode="&#x1e61;" horiz-adv-x="449" 
d="M231 560q-31 0 -53 22t-22 53q0 30 22 52t53 22t53.5 -22t22.5 -52q0 -31 -22.5 -53t-53.5 -22zM229 -8q-117 0 -197 71l56 84q58 -57 141 -57q32 0 50 13t18 35q0 17 -20.5 28.5t-75.5 30.5q-72 25 -110.5 60t-38.5 100q0 60 48.5 99t123.5 39q97 0 172 -61l-56 -88
q-55 52 -122 52q-20 0 -36.5 -10.5t-16.5 -31.5q0 -30 77 -59q95 -37 119 -54q50 -35 50 -103q0 -65 -46.5 -106.5t-135.5 -41.5z" />
    <glyph glyph-name="uni1E62" unicode="&#x1e62;" horiz-adv-x="591" 
d="M299 -8q-149 0 -257 112l76 93q37 -45 86 -69t96 -24q57 0 87.5 23t30.5 63q0 43 -30 65t-107 49q-49 17 -80.5 32.5t-66 40.5t-51.5 60.5t-17 82.5q0 83 66 140.5t159 57.5q125 0 235 -87l-72 -95q-88 73 -163 73q-43 0 -71 -22t-29 -61q0 -19 7 -32.5t28.5 -26.5
t39 -20.5t58.5 -23.5q110 -43 145 -67q75 -53 75 -151q0 -102 -74.5 -157.5t-170.5 -55.5zM309 -78q31 0 53 -22t22 -53q0 -30 -22 -52t-53 -22t-53.5 22t-22.5 52q0 31 22.5 53t53.5 22z" />
    <glyph glyph-name="uni1E63" unicode="&#x1e63;" horiz-adv-x="449" 
d="M229 -8q-117 0 -197 71l56 84q58 -57 141 -57q32 0 50 13t18 35q0 17 -20.5 28.5t-75.5 30.5q-72 25 -110.5 60t-38.5 100q0 60 48.5 99t123.5 39q97 0 172 -61l-56 -88q-55 52 -122 52q-20 0 -36.5 -10.5t-16.5 -31.5q0 -30 77 -59q95 -37 119 -54q50 -35 50 -103
q0 -65 -46.5 -106.5t-135.5 -41.5zM227 -78q31 0 53 -22t22 -53q0 -30 -22 -52t-53 -22t-53.5 22t-22.5 52q0 31 22.5 53t53.5 22z" />
    <glyph glyph-name="uni1E6C" unicode="&#x1e6c;" horiz-adv-x="589" 
d="M233 0v602h-201v108h526v-108h-204v-602h-121zM292 -78q31 0 53 -22t22 -53q0 -30 -22 -52t-53 -22t-53.5 22t-22.5 52q0 31 22.5 53t53.5 22z" />
    <glyph glyph-name="uni1E6D" unicode="&#x1e6d;" horiz-adv-x="365" 
d="M218 -8q-64 0 -100 41t-36 121v239h-60v95h60v162l112 12v-174h143v-95h-143v-228q0 -37 11 -52.5t36 -15.5q33 0 72 21l29 -97q-53 -29 -124 -29zM215 -78q31 0 53 -22t22 -53q0 -30 -22 -52t-53 -22t-53.5 22t-22.5 52q0 31 22.5 53t53.5 22z" />
    <glyph glyph-name="uni1E6E" unicode="&#x1e6e;" horiz-adv-x="589" 
d="M233 0v602h-201v108h526v-108h-204v-602h-121zM441 -207h-298v94h298v-94z" />
    <glyph glyph-name="uni1E6F" unicode="&#x1e6f;" horiz-adv-x="365" 
d="M218 -8q-64 0 -100 41t-36 121v239h-60v95h60v162l112 12v-174h143v-95h-143v-228q0 -37 11 -52.5t36 -15.5q33 0 72 21l29 -97q-53 -29 -124 -29zM364 -207h-298v94h298v-94z" />
    <glyph glyph-name="Wgrave" unicode="&#x1e80;" horiz-adv-x="1035" 
d="M468 775l-126 133h125l112 -133h-111zM257 0l-225 710h129l152 -512h2l139 512h128l138 -511h2l153 511h128l-225 -710h-113l-145 534h-2l-148 -534h-113z" />
    <glyph glyph-name="wgrave" unicode="&#x1e81;" horiz-adv-x="771" 
d="M329 554l-124 144l125 -1l110 -143h-111zM189 0l-166 488h115l103 -324h2l96 324h93l98 -324h2l103 324h113l-166 -488h-103l-94 307h-1l-94 -307h-101z" />
    <glyph glyph-name="Wacute" unicode="&#x1e82;" horiz-adv-x="1035" 
d="M468 775l112 133h125l-126 -133h-111zM257 0l-225 710h129l152 -512h2l139 512h128l138 -511h2l153 511h128l-225 -710h-113l-145 534h-2l-148 -534h-113z" />
    <glyph glyph-name="wacute" unicode="&#x1e83;" horiz-adv-x="771" 
d="M330 556l115 144l123 1l-124 -145h-114zM189 0l-166 488h115l103 -324h2l96 324h93l98 -324h2l103 324h113l-166 -488h-103l-94 307h-1l-94 -307h-101z" />
    <glyph glyph-name="Wdieresis" unicode="&#x1e84;" horiz-adv-x="1035" 
d="M420 775q-31 0 -52.5 22t-21.5 52q0 29 21.5 50.5t52.5 21.5t53 -22t22 -51q0 -30 -22 -51.5t-53 -21.5zM619 775q-31 0 -52.5 22t-21.5 52q0 29 21.5 50.5t52.5 21.5t53 -22t22 -51q0 -30 -22 -51.5t-53 -21.5zM257 0l-225 710h129l152 -512h2l139 512h128l138 -511h2
l153 511h128l-225 -710h-113l-145 534h-2l-148 -534h-113z" />
    <glyph glyph-name="wdieresis" unicode="&#x1e85;" horiz-adv-x="771" 
d="M285 562q-31 0 -52.5 22t-21.5 52q0 29 21.5 50.5t52.5 21.5t53 -22t22 -51q0 -30 -22 -51.5t-53 -21.5zM484 562q-31 0 -52.5 22t-21.5 52q0 29 21.5 50.5t52.5 21.5t53 -22t22 -51q0 -30 -22 -51.5t-53 -21.5zM189 0l-166 488h115l103 -324h2l96 324h93l98 -324h2
l103 324h113l-166 -488h-103l-94 307h-1l-94 -307h-101z" />
    <glyph glyph-name="uni1E8E" unicode="&#x1e8e;" horiz-adv-x="625" 
d="M315 773q-31 0 -53 22t-22 53q0 30 22 52t53 22t53.5 -22t22.5 -52q0 -31 -22.5 -53t-53.5 -22zM251 0v314l-237 396h138l159 -275h2l158 275h140l-239 -396v-314h-121z" />
    <glyph glyph-name="uni1E8F" unicode="&#x1e8f;" horiz-adv-x="535" 
d="M268 560q-31 0 -53 22t-22 53q0 30 22 52t53 22t53.5 -22t22.5 -52q0 -31 -22.5 -53t-53.5 -22zM131 -198l88 225l-200 461h120l134 -327h2l125 327h115l-268 -686h-116z" />
    <glyph glyph-name="uni1E92" unicode="&#x1e92;" horiz-adv-x="626" 
d="M57 0v95l349 505l-1 2h-332v108h492v-93l-355 -506l2 -3h355v-108h-510zM313 -78q31 0 53 -22t22 -53q0 -30 -22 -52t-53 -22t-53.5 22t-22.5 52q0 31 22.5 53t53.5 22z" />
    <glyph glyph-name="uni1E93" unicode="&#x1e93;" horiz-adv-x="489" 
d="M40 0v79l251 311l-1 3h-233v95h388v-77l-253 -314l1 -2h248v-95h-401zM247 -78q31 0 53 -22t22 -53q0 -30 -22 -52t-53 -22t-53.5 22t-22.5 52q0 31 22.5 53t53.5 22z" />
    <glyph glyph-name="uni1E97" unicode="&#x1e97;" horiz-adv-x="365" 
d="M81 710q-31 0 -52.5 22t-21.5 52q0 29 21.5 50.5t52.5 21.5t53 -22t22 -51q0 -30 -22 -51.5t-53 -21.5zM280 710q-31 0 -52.5 22t-21.5 52q0 29 21.5 50.5t52.5 21.5t53 -22t22 -51q0 -30 -22 -51.5t-53 -21.5zM218 -8q-64 0 -100 41t-36 121v239h-60v95h60v162l112 12
v-174h143v-95h-143v-228q0 -37 11 -52.5t36 -15.5q33 0 72 21l29 -97q-53 -29 -124 -29z" />
    <glyph glyph-name="uni1E9E" unicode="&#x1e9e;" horiz-adv-x="762" 
d="M523 422q108 -43 142 -68q74 -53 74 -149q0 -69 -38 -119.5t-89.5 -72t-107.5 -21.5q-115 0 -215 82l56 109q36 -38 79.5 -58.5t80.5 -20.5q51 0 79.5 23.5t28.5 62.5q0 43 -30.5 66t-106.5 48q-44 15 -112 47l123 242l-1 4q-96 12 -139 12q-80 0 -117.5 -31t-38.5 -105
v-473h-121l1 479q0 239 262 239q119 0 321 -47z" />
    <glyph glyph-name="uni1EA0" unicode="&#x1ea0;" horiz-adv-x="695" 
d="M23 0l265 710h118l266 -710h-126l-54 153h-290l-53 -153h-126zM239 257h217l-108 308h-2zM349 -78q31 0 53 -22t22 -53q0 -30 -22 -52t-53 -22t-53.5 22t-22.5 52q0 31 22.5 53t53.5 22z" />
    <glyph glyph-name="uni1EA1" unicode="&#x1ea1;" horiz-adv-x="611" 
d="M279 -8q-103 0 -169.5 69t-66.5 181q0 110 67 181.5t168 71.5q98 0 151 -67l2 1v59h112v-488h-107v64l-2 1q-54 -73 -155 -73zM297 94q58 0 98.5 41t40.5 106t-39.5 109t-99.5 44t-100 -42t-40 -111q0 -65 39 -106t101 -41zM294 -78q31 0 53 -22t22 -53q0 -30 -22 -52
t-53 -22t-53.5 22t-22.5 52q0 31 22.5 53t53.5 22z" />
    <glyph glyph-name="uni1EA2" unicode="&#x1ea2;" horiz-adv-x="695" 
d="M307 775q25 18 36 26.5t22.5 22t11.5 24.5q0 20 -29 20q-33 0 -89 -32l-26 58q54 47 142 47q42 0 68 -20t26 -58q0 -55 -80 -88h-82zM23 0l265 710h118l266 -710h-126l-54 153h-290l-53 -153h-126zM239 257h217l-108 308h-2z" />
    <glyph glyph-name="uni1EA3" unicode="&#x1ea3;" horiz-adv-x="611" 
d="M265 554q72 51 70 86q0 21 -29 21q-38 0 -88 -34l-26 58q51 53 141 53q43 0 68.5 -20.5t25.5 -61.5q0 -34 -25.5 -62t-54.5 -40h-82zM279 -8q-103 0 -169.5 69t-66.5 181q0 110 67 181.5t168 71.5q98 0 151 -67l2 1v59h112v-488h-107v64l-2 1q-54 -73 -155 -73zM297 94
q58 0 98.5 41t40.5 106t-39.5 109t-99.5 44t-100 -42t-40 -111q0 -65 39 -106t101 -41z" />
    <glyph glyph-name="uni1EA4" unicode="&#x1ea4;" horiz-adv-x="695" 
d="M500 831l82 135h123l-122 -135h-83zM178 775l111 133h117l108 -133h-109l-57 71h-2l-57 -71h-111zM23 0l265 710h118l266 -710h-126l-54 153h-290l-53 -153h-126zM239 257h217l-108 308h-2z" />
    <glyph glyph-name="uni1EA5" unicode="&#x1ea5;" horiz-adv-x="611" 
d="M441 645l83 145h123l-123 -145h-83zM140 554l109 145h117l105 -145h-109l-54 77h-2l-55 -77h-111zM279 -8q-103 0 -169.5 69t-66.5 181q0 110 67 181.5t168 71.5q98 0 151 -67l2 1v59h112v-488h-107v64l-2 1q-54 -73 -155 -73zM297 94q58 0 98.5 41t40.5 106t-39.5 109
t-99.5 44t-100 -42t-40 -111q0 -65 39 -106t101 -41z" />
    <glyph glyph-name="uni1EA6" unicode="&#x1ea6;" horiz-adv-x="695" 
d="M551 830l-122 135h123l82 -135h-83zM178 775l111 133h117l108 -133h-109l-57 71h-2l-57 -71h-111zM23 0l265 710h118l266 -710h-126l-54 153h-290l-53 -153h-126zM239 257h217l-108 308h-2z" />
    <glyph glyph-name="uni1EA7" unicode="&#x1ea7;" horiz-adv-x="611" 
d="M469 645l-123 145h123l83 -145h-83zM140 554l109 145h117l105 -145h-109l-54 77h-2l-55 -77h-111zM279 -8q-103 0 -169.5 69t-66.5 181q0 110 67 181.5t168 71.5q98 0 151 -67l2 1v59h112v-488h-107v64l-2 1q-54 -73 -155 -73zM297 94q58 0 98.5 41t40.5 106t-39.5 109
t-99.5 44t-100 -42t-40 -111q0 -65 39 -106t101 -41z" />
    <glyph glyph-name="uni1EA8" unicode="&#x1ea8;" horiz-adv-x="695" 
d="M509 840q50 38 59 52q4 8 4 14q0 18 -26 18q-32 0 -80 -29l-24 52q48 43 128 43q38 0 61.5 -18t23.5 -52q0 -50 -72 -80h-74zM178 775l111 133h117l108 -133h-109l-57 71h-2l-57 -71h-111zM23 0l265 710h118l266 -710h-126l-54 153h-290l-53 -153h-126zM239 257h217
l-108 308h-2z" />
    <glyph glyph-name="uni1EA9" unicode="&#x1ea9;" horiz-adv-x="611" 
d="M454 655q68 49 66 82q0 20 -27 20q-36 0 -84 -32l-24 55q50 50 134 50q40 0 64.5 -19.5t24.5 -58.5q0 -32 -24 -58.5t-52 -38.5h-78zM139 554l109 145h117l105 -145h-109l-54 77h-2l-55 -77h-111zM279 -8q-103 0 -169.5 69t-66.5 181q0 110 67 181.5t168 71.5
q98 0 151 -67l2 1v59h112v-488h-107v64l-2 1q-54 -73 -155 -73zM297 94q58 0 98.5 41t40.5 106t-39.5 109t-99.5 44t-100 -42t-40 -111q0 -65 39 -106t101 -41z" />
    <glyph glyph-name="uni1EAA" unicode="&#x1eaa;" horiz-adv-x="695" 
d="M420 930q-31 0 -79 27q-38 22 -59 22q-30 0 -51 -48l-64 29q34 96 108 96q36 0 83 -27q42 -23 56 -23q28 0 48 49l64 -22q-32 -103 -106 -103zM178 775l111 133h117l108 -133h-109l-57 71h-2l-57 -71h-111zM23 0l265 710h118l266 -710h-126l-54 153h-290l-53 -153h-126z
M239 257h217l-108 308h-2z" />
    <glyph glyph-name="uni1EAB" unicode="&#x1eab;" horiz-adv-x="611" 
d="M194 740l-68 31q34 104 107 104q36 0 77 -24q42 -25 57 -25q36 0 57 52l68 -23q-34 -113 -111 -113q-34 0 -80 28q-41 24 -59 22q-30 -4 -48 -52zM140 554l109 145h117l105 -145h-109l-54 77h-2l-55 -77h-111zM279 -8q-103 0 -169.5 69t-66.5 181q0 110 67 181.5
t168 71.5q98 0 151 -67l2 1v59h112v-488h-107v64l-2 1q-54 -73 -155 -73zM297 94q58 0 98.5 41t40.5 106t-39.5 109t-99.5 44t-100 -42t-40 -111q0 -65 39 -106t101 -41z" />
    <glyph glyph-name="uni1EAC" unicode="&#x1eac;" horiz-adv-x="695" 
d="M178 775l111 133h117l108 -133h-109l-57 71h-2l-57 -71h-111zM23 0l265 710h118l266 -710h-126l-54 153h-290l-53 -153h-126zM239 257h217l-108 308h-2zM349 -78q31 0 53 -22t22 -53q0 -30 -22 -52t-53 -22t-53.5 22t-22.5 52q0 31 22.5 53t53.5 22z" />
    <glyph glyph-name="uni1EAD" unicode="&#x1ead;" horiz-adv-x="611" 
d="M139 554l109 145h117l105 -145h-109l-54 77h-2l-55 -77h-111zM279 -8q-103 0 -169.5 69t-66.5 181q0 110 67 181.5t168 71.5q98 0 151 -67l2 1v59h112v-488h-107v64l-2 1q-54 -73 -155 -73zM297 94q58 0 98.5 41t40.5 106t-39.5 109t-99.5 44t-100 -42t-40 -111
q0 -65 39 -106t101 -41zM294 -78q31 0 53 -22t22 -53q0 -30 -22 -52t-53 -22t-53.5 22t-22.5 52q0 31 22.5 53t53.5 22z" />
    <glyph glyph-name="uni1EAE" unicode="&#x1eae;" horiz-adv-x="695" 
d="M307 896l82 135h123l-122 -135h-83zM347 765q-74 0 -117 35t-48 94h93q2 -22 20.5 -35.5t51.5 -13.5q32 0 51 14t21 35h93q-5 -59 -48 -94t-117 -35zM23 0l265 710h118l266 -710h-126l-54 153h-290l-53 -153h-126zM239 257h217l-108 308h-2z" />
    <glyph glyph-name="uni1EAF" unicode="&#x1eaf;" horiz-adv-x="611" 
d="M258 710l83 145h123l-123 -145h-83zM305 548q-71 0 -111 39.5t-45 109.5h88q2 -26 20 -44.5t48 -18.5t48 18.5t20 44.5h88q-5 -70 -45 -109.5t-111 -39.5zM279 -8q-103 0 -169.5 69t-66.5 181q0 110 67 181.5t168 71.5q98 0 151 -67l2 1v59h112v-488h-107v64l-2 1
q-54 -73 -155 -73zM297 94q58 0 98.5 41t40.5 106t-39.5 109t-99.5 44t-100 -42t-40 -111q0 -65 39 -106t101 -41z" />
    <glyph glyph-name="uni1EB0" unicode="&#x1eb0;" horiz-adv-x="695" 
d="M314 896l-122 135h123l82 -135h-83zM347 765q-74 0 -117 35t-48 94h93q2 -22 20.5 -35.5t51.5 -13.5q32 0 51 14t21 35h93q-5 -59 -48 -94t-117 -35zM23 0l265 710h118l266 -710h-126l-54 153h-290l-53 -153h-126zM239 257h217l-108 308h-2z" />
    <glyph glyph-name="uni1EB1" unicode="&#x1eb1;" horiz-adv-x="611" 
d="M269 710l-123 145h123l83 -145h-83zM305 548q-71 0 -111 39.5t-45 109.5h88q2 -26 20 -44.5t48 -18.5t48 18.5t20 44.5h88q-5 -70 -45 -109.5t-111 -39.5zM279 -8q-103 0 -169.5 69t-66.5 181q0 110 67 181.5t168 71.5q98 0 151 -67l2 1v59h112v-488h-107v64l-2 1
q-54 -73 -155 -73zM297 94q58 0 98.5 41t40.5 106t-39.5 109t-99.5 44t-100 -42t-40 -111q0 -65 39 -106t101 -41z" />
    <glyph glyph-name="uni1EB2" unicode="&#x1eb2;" horiz-adv-x="695" 
d="M299 889q50 38 59 52q4 7 4 14q0 18 -26 18q-32 0 -80 -29l-24 52q48 43 128 43q38 0 61.5 -18t23.5 -52q0 -50 -72 -80h-74zM347 765q-74 0 -117 35t-48 94h93q2 -22 20.5 -35.5t51.5 -13.5q32 0 51 14t21 35h93q-5 -59 -48 -94t-117 -35zM23 0l265 710h118l266 -710
h-126l-54 153h-290l-53 -153h-126zM239 257h217l-108 308h-2z" />
    <glyph glyph-name="uni1EB3" unicode="&#x1eb3;" horiz-adv-x="611" 
d="M260 697q68 49 66 82q0 20 -27 20q-36 0 -84 -32l-24 55q50 50 134 50q40 0 64.5 -19.5t24.5 -58.5q0 -32 -24 -58.5t-52 -38.5h-78zM305 550q-74 0 -115.5 37t-46.5 103h91q2 -25 20.5 -42t50.5 -17t50.5 17t20.5 42h91q-5 -66 -46.5 -103t-115.5 -37zM279 -8
q-103 0 -169.5 69t-66.5 181q0 110 67 181.5t168 71.5q98 0 151 -67l2 1v59h112v-488h-107v64l-2 1q-54 -73 -155 -73zM297 94q58 0 98.5 41t40.5 106t-39.5 109t-99.5 44t-100 -42t-40 -111q0 -65 39 -106t101 -41z" />
    <glyph glyph-name="uni1EB4" unicode="&#x1eb4;" horiz-adv-x="695" 
d="M419 914q-31 0 -79 27q-39 22 -59 22q-30 0 -51 -48l-64 29q34 96 108 96q36 0 83 -27q42 -23 56 -23q28 0 48 49l64 -22q-32 -103 -106 -103zM347 765q-74 0 -117 35t-48 94h93q2 -22 20.5 -35.5t51.5 -13.5q32 0 51 14t21 35h93q-5 -59 -48 -94t-117 -35zM23 0l265 710
h118l266 -710h-126l-54 153h-290l-53 -153h-126zM239 257h217l-108 308h-2z" />
    <glyph glyph-name="uni1EB5" unicode="&#x1eb5;" horiz-adv-x="611" 
d="M192 737l-68 31q34 104 107 104q36 0 77 -24q42 -25 57 -25q36 0 57 52l68 -23q-34 -113 -111 -113q-34 0 -80 28q-41 24 -59 22q-30 -4 -48 -52zM304 548q-71 0 -111 39.5t-45 109.5h88q2 -26 20 -44.5t48 -18.5t48 18.5t20 44.5h88q-5 -70 -45 -109.5t-111 -39.5z
M279 -8q-103 0 -169.5 69t-66.5 181q0 110 67 181.5t168 71.5q98 0 151 -67l2 1v59h112v-488h-107v64l-2 1q-54 -73 -155 -73zM297 94q58 0 98.5 41t40.5 106t-39.5 109t-99.5 44t-100 -42t-40 -111q0 -65 39 -106t101 -41z" />
    <glyph glyph-name="uni1EB6" unicode="&#x1eb6;" horiz-adv-x="695" 
d="M347 768q-70 0 -110.5 38t-45.5 102h88q2 -24 19.5 -39t48.5 -15q30 0 48 15.5t20 38.5h88q-5 -64 -45.5 -102t-110.5 -38zM23 0l265 710h118l266 -710h-126l-54 153h-290l-53 -153h-126zM239 257h217l-108 308h-2zM349 -78q31 0 53 -22t22 -53q0 -30 -22 -52t-53 -22
t-53.5 22t-22.5 52q0 31 22.5 53t53.5 22z" />
    <glyph glyph-name="uni1EB7" unicode="&#x1eb7;" horiz-adv-x="611" 
d="M305 548q-71 0 -111 39.5t-45 109.5h88q2 -26 20 -44.5t48 -18.5t48 18.5t20 44.5h88q-5 -70 -45 -109.5t-111 -39.5zM279 -8q-103 0 -169.5 69t-66.5 181q0 110 67 181.5t168 71.5q98 0 151 -67l2 1v59h112v-488h-107v64l-2 1q-54 -73 -155 -73zM297 94q58 0 98.5 41
t40.5 106t-39.5 109t-99.5 44t-100 -42t-40 -111q0 -65 39 -106t101 -41zM294 -78q31 0 53 -22t22 -53q0 -30 -22 -52t-53 -22t-53.5 22t-22.5 52q0 31 22.5 53t53.5 22z" />
    <glyph glyph-name="uni1EB8" unicode="&#x1eb8;" horiz-adv-x="607" 
d="M87 0v710h447v-108h-326v-196h263v-108h-263v-190h347v-108h-468zM327 -78q31 0 53 -22t22 -53q0 -30 -22 -52t-53 -22t-53.5 22t-22.5 52q0 31 22.5 53t53.5 22z" />
    <glyph glyph-name="uni1EB9" unicode="&#x1eb9;" horiz-adv-x="562" 
d="M519 250q0 -19 -3 -43h-356q11 -53 48.5 -83t94.5 -30q77 0 123 57l78 -67q-71 -92 -207 -92q-112 0 -182.5 69t-70.5 183q0 112 68.5 181.5t176.5 69.5q102 0 166 -69t64 -176zM288 394q-47 0 -80.5 -26t-45.5 -73h244q-11 46 -41 72.5t-77 26.5zM296 -78q31 0 53 -22
t22 -53q0 -30 -22 -52t-53 -22t-53.5 22t-22.5 52q0 31 22.5 53t53.5 22z" />
    <glyph glyph-name="uni1EBA" unicode="&#x1eba;" horiz-adv-x="607" 
d="M280 775q25 18 36 26.5t22.5 22t11.5 24.5q0 20 -29 20q-33 0 -89 -32l-26 58q54 47 142 47q42 0 68 -20t26 -58q0 -55 -80 -88h-82zM87 0v710h447v-108h-326v-196h263v-108h-263v-190h347v-108h-468z" />
    <glyph glyph-name="uni1EBB" unicode="&#x1ebb;" horiz-adv-x="562" 
d="M292 661q-38 0 -88 -34l-26 58q51 53 141 53q43 0 68.5 -20.5t25.5 -61.5q0 -34 -25.5 -62t-54.5 -40h-82q72 51 70 86q0 21 -29 21zM519 250q0 -19 -3 -43h-356q11 -53 48.5 -83t94.5 -30q77 0 123 57l78 -67q-71 -92 -207 -92q-112 0 -182.5 69t-70.5 183
q0 112 68.5 181.5t176.5 69.5q102 0 166 -69t64 -176zM288 394q-47 0 -80.5 -26t-45.5 -73h244q-11 46 -41 72.5t-77 26.5z" />
    <glyph glyph-name="uni1EBC" unicode="&#x1ebc;" horiz-adv-x="607" 
d="M398 775q-34 0 -84 29q-42 24 -63 24q-33 0 -54 -52l-68 31q36 103 114 103q38 0 89 -29q42 -24 59 -24q30 0 51 52l68 -23q-33 -111 -112 -111zM87 0v710h447v-108h-326v-196h263v-108h-263v-190h347v-108h-468z" />
    <glyph glyph-name="uni1EBD" unicode="&#x1ebd;" horiz-adv-x="562" 
d="M226 607q-37 0 -58 -52l-68 31q34 110 114 110q40 0 84 -28q40 -25 58 -25q36 0 57 52l68 -23q-15 -56 -44 -87.5t-67 -31.5q-37 0 -88 32q-35 22 -56 22zM519 250q0 -19 -3 -43h-356q11 -53 48.5 -83t94.5 -30q77 0 123 57l78 -67q-71 -92 -207 -92q-112 0 -182.5 69
t-70.5 183q0 112 68.5 181.5t176.5 69.5q102 0 166 -69t64 -176zM288 394q-47 0 -80.5 -26t-45.5 -73h244q-11 46 -41 72.5t-77 26.5z" />
    <glyph glyph-name="uni1EBE" unicode="&#x1ebe;" horiz-adv-x="607" 
d="M473 831l82 135h123l-122 -135h-83zM151 775l111 133h117l108 -133h-109l-57 71h-2l-57 -71h-111zM87 0v710h447v-108h-326v-196h263v-108h-263v-190h347v-108h-468z" />
    <glyph glyph-name="uni1EBF" unicode="&#x1ebf;" horiz-adv-x="562" 
d="M633 790l-123 -145h-83l83 145h123zM292 631l-55 -77h-111l109 145h117l105 -145h-109l-54 77h-2zM289 495q102 0 166 -69t64 -176q0 -19 -3 -43h-356q11 -53 48.5 -83t94.5 -30q77 0 123 57l78 -67q-71 -92 -207 -92q-112 0 -182.5 69t-70.5 183q0 112 68.5 181.5
t176.5 69.5zM288 394q-47 0 -80.5 -26t-45.5 -73h244q-11 46 -41 72.5t-77 26.5z" />
    <glyph glyph-name="uni1EC0" unicode="&#x1ec0;" horiz-adv-x="607" 
d="M524 830l-122 135h123l82 -135h-83zM151 775l111 133h117l108 -133h-109l-57 71h-2l-57 -71h-111zM87 0v710h447v-108h-326v-196h263v-108h-263v-190h347v-108h-468z" />
    <glyph glyph-name="uni1EC1" unicode="&#x1ec1;" horiz-adv-x="562" 
d="M538 645h-83l-123 145h123zM292 631l-55 -77h-111l109 145h117l105 -145h-109l-54 77h-2zM289 495q102 0 166 -69t64 -176q0 -19 -3 -43h-356q11 -53 48.5 -83t94.5 -30q77 0 123 57l78 -67q-71 -92 -207 -92q-112 0 -182.5 69t-70.5 183q0 112 68.5 181.5t176.5 69.5z
M288 394q-47 0 -80.5 -26t-45.5 -73h244q-11 46 -41 72.5t-77 26.5z" />
    <glyph glyph-name="uni1EC2" unicode="&#x1ec2;" horiz-adv-x="607" 
d="M482 840q50 38 59 52q4 8 4 14q0 18 -26 18q-32 0 -80 -29l-24 52q48 43 128 43q38 0 61.5 -18t23.5 -52q0 -50 -72 -80h-74zM151 775l111 133h117l108 -133h-109l-57 71h-2l-57 -71h-111zM87 0v710h447v-108h-326v-196h263v-108h-263v-190h347v-108h-468z" />
    <glyph glyph-name="uni1EC3" unicode="&#x1ec3;" horiz-adv-x="562" 
d="M505 830q40 0 64.5 -19.5t24.5 -58.5q0 -32 -24 -58.5t-52 -38.5h-78q68 49 66 82q0 20 -27 20q-36 0 -84 -32l-24 55q50 50 134 50zM291 631l-55 -77h-111l109 145h117l105 -145h-109l-54 77h-2zM289 495q102 0 166 -69t64 -176q0 -19 -3 -43h-356q11 -53 48.5 -83
t94.5 -30q77 0 123 57l78 -67q-71 -92 -207 -92q-112 0 -182.5 69t-70.5 183q0 112 68.5 181.5t176.5 69.5zM288 394q-47 0 -80.5 -26t-45.5 -73h244q-11 46 -41 72.5t-77 26.5z" />
    <glyph glyph-name="uni1EC4" unicode="&#x1ec4;" horiz-adv-x="607" 
d="M393 930q-31 0 -79 27q-39 22 -59 22q-30 0 -51 -48l-64 29q34 96 108 96q36 0 83 -27q42 -23 56 -23q28 0 48 49l64 -22q-32 -103 -106 -103zM151 775l111 133h117l108 -133h-109l-57 71h-2l-57 -71h-111zM87 0v710h447v-108h-326v-196h263v-108h-263v-190h347v-108
h-468z" />
    <glyph glyph-name="uni1EC5" unicode="&#x1ec5;" horiz-adv-x="562" 
d="M228 792q-30 -4 -48 -52l-68 31q34 104 107 104q36 0 77 -24q42 -25 57 -25q36 0 57 52l68 -23q-34 -113 -111 -113q-34 0 -80 28q-41 24 -59 22zM235 699h117l105 -145h-109l-54 77h-2l-55 -77h-111zM519 250q0 -19 -3 -43h-356q11 -53 48.5 -83t94.5 -30q77 0 123 57
l78 -67q-71 -92 -207 -92q-112 0 -182.5 69t-70.5 183q0 112 68.5 181.5t176.5 69.5q102 0 166 -69t64 -176zM288 394q-47 0 -80.5 -26t-45.5 -73h244q-11 46 -41 72.5t-77 26.5z" />
    <glyph glyph-name="uni1EC6" unicode="&#x1ec6;" horiz-adv-x="607" 
d="M151 775l111 133h117l108 -133h-109l-57 71h-2l-57 -71h-111zM87 0v710h447v-108h-326v-196h263v-108h-263v-190h347v-108h-468zM327 -78q31 0 53 -22t22 -53q0 -30 -22 -52t-53 -22t-53.5 22t-22.5 52q0 31 22.5 53t53.5 22z" />
    <glyph glyph-name="uni1EC7" unicode="&#x1ec7;" horiz-adv-x="562" 
d="M291 631l-55 -77h-111l109 145h117l105 -145h-109l-54 77h-2zM519 250q0 -19 -3 -43h-356q11 -53 48.5 -83t94.5 -30q77 0 123 57l78 -67q-71 -92 -207 -92q-112 0 -182.5 69t-70.5 183q0 112 68.5 181.5t176.5 69.5q102 0 166 -69t64 -176zM288 394q-47 0 -80.5 -26
t-45.5 -73h244q-11 46 -41 72.5t-77 26.5zM296 -78q31 0 53 -22t22 -53q0 -30 -22 -52t-53 -22t-53.5 22t-22.5 52q0 31 22.5 53t53.5 22z" />
    <glyph glyph-name="uni1EC8" unicode="&#x1ec8;" horiz-adv-x="304" 
d="M110 775q25 18 36 26.5t22.5 22t11.5 24.5q0 20 -29 20q-33 0 -89 -32l-26 58q54 47 142 47q42 0 68 -20t26 -58q0 -55 -80 -88h-82zM91 0v710h121v-710h-121z" />
    <glyph glyph-name="uni1EC9" unicode="&#x1ec9;" horiz-adv-x="272" 
d="M96 554q72 51 70 86q0 21 -29 21q-38 0 -88 -34l-26 58q51 53 141 53q43 0 68.5 -20.5t25.5 -61.5q0 -34 -25.5 -62t-54.5 -40h-82zM80 0v488h112v-488h-112z" />
    <glyph glyph-name="uni1ECA" unicode="&#x1eca;" horiz-adv-x="304" 
d="M91 0v710h121v-710h-121zM154 -78q31 0 53 -22t22 -53q0 -30 -22 -52t-53 -22t-53.5 22t-22.5 52q0 31 22.5 53t53.5 22z" />
    <glyph glyph-name="uni1ECB" unicode="&#x1ecb;" horiz-adv-x="272" 
d="M136 560q-31 0 -53 22t-22 53q0 30 22 52t53 22t53.5 -22t22.5 -52q0 -31 -22.5 -53t-53.5 -22zM80 0v488h112v-488h-112zM136 -78q31 0 53 -22t22 -53q0 -30 -22 -52t-53 -22t-53.5 22t-22.5 52q0 31 22.5 53t53.5 22z" />
    <glyph glyph-name="uni1ECC" unicode="&#x1ecc;" horiz-adv-x="827" 
d="M414 -8q-159 0 -259 102.5t-100 260.5t100 260.5t259 102.5q155 0 256.5 -101t101.5 -262t-101.5 -262t-256.5 -101zM414 105q99 0 165.5 71t66.5 179q0 109 -66.5 179.5t-165.5 70.5q-103 0 -168.5 -72t-65.5 -178t65.5 -178t168.5 -72zM414 -78q31 0 53 -22t22 -53
q0 -30 -22 -52t-53 -22t-53.5 22t-22.5 52q0 31 22.5 53t53.5 22z" />
    <glyph glyph-name="uni1ECD" unicode="&#x1ecd;" horiz-adv-x="600" 
d="M300 -8q-114 0 -185 71t-71 180t71 180.5t185 71.5q113 0 184.5 -70t71.5 -182q0 -111 -71.5 -181t-184.5 -70zM300 94q60 0 101 42t41 107q0 67 -40.5 109t-101.5 42q-63 0 -102.5 -43t-39.5 -108q0 -63 40 -106t102 -43zM300 -78q31 0 53 -22t22 -53q0 -30 -22 -52
t-53 -22t-53.5 22t-22.5 52q0 31 22.5 53t53.5 22z" />
    <glyph glyph-name="uni1ECE" unicode="&#x1ece;" horiz-adv-x="827" 
d="M375 775q25 18 36 26.5t22.5 22t11.5 24.5q0 20 -29 20q-33 0 -89 -32l-26 58q54 47 142 47q42 0 68 -20t26 -58q0 -55 -80 -88h-82zM414 -8q-159 0 -259 102.5t-100 260.5t100 260.5t259 102.5q155 0 256.5 -101t101.5 -262t-101.5 -262t-256.5 -101zM414 105
q99 0 165.5 71t66.5 179q0 109 -66.5 179.5t-165.5 70.5q-103 0 -168.5 -72t-65.5 -178t65.5 -178t168.5 -72z" />
    <glyph glyph-name="uni1ECF" unicode="&#x1ecf;" horiz-adv-x="600" 
d="M260 554q72 51 70 86q0 21 -29 21q-38 0 -88 -34l-26 58q51 53 141 53q43 0 68.5 -20.5t25.5 -61.5q0 -34 -25.5 -62t-54.5 -40h-82zM300 -8q-114 0 -185 71t-71 180t71 180.5t185 71.5q113 0 184.5 -70t71.5 -182q0 -111 -71.5 -181t-184.5 -70zM300 94q60 0 101 42
t41 107q0 67 -40.5 109t-101.5 42q-63 0 -102.5 -43t-39.5 -108q0 -63 40 -106t102 -43z" />
    <glyph glyph-name="uni1ED0" unicode="&#x1ed0;" horiz-adv-x="827" 
d="M568 831l82 135h123l-122 -135h-83zM246 775l111 133h117l108 -133h-109l-57 71h-2l-57 -71h-111zM414 -8q-159 0 -259 102.5t-100 260.5t100 260.5t259 102.5q155 0 256.5 -101t101.5 -262t-101.5 -262t-256.5 -101zM414 105q99 0 165.5 71t66.5 179q0 109 -66.5 179.5
t-165.5 70.5q-103 0 -168.5 -72t-65.5 -178t65.5 -178t168.5 -72z" />
    <glyph glyph-name="uni1ED1" unicode="&#x1ed1;" horiz-adv-x="600" 
d="M436 645l83 145h123l-123 -145h-83zM135 554l109 145h117l105 -145h-109l-54 77h-2l-55 -77h-111zM300 -8q-114 0 -185 71t-71 180t71 180.5t185 71.5q113 0 184.5 -70t71.5 -182q0 -111 -71.5 -181t-184.5 -70zM300 94q60 0 101 42t41 107q0 67 -40.5 109t-101.5 42
q-63 0 -102.5 -43t-39.5 -108q0 -63 40 -106t102 -43z" />
    <glyph glyph-name="uni1ED2" unicode="&#x1ed2;" horiz-adv-x="827" 
d="M619 830l-122 135h123l82 -135h-83zM246 775l111 133h117l108 -133h-109l-57 71h-2l-57 -71h-111zM414 -8q-159 0 -259 102.5t-100 260.5t100 260.5t259 102.5q155 0 256.5 -101t101.5 -262t-101.5 -262t-256.5 -101zM414 105q99 0 165.5 71t66.5 179q0 109 -66.5 179.5
t-165.5 70.5q-103 0 -168.5 -72t-65.5 -178t65.5 -178t168.5 -72z" />
    <glyph glyph-name="uni1ED3" unicode="&#x1ed3;" horiz-adv-x="600" 
d="M464 645l-123 145h123l83 -145h-83zM135 554l109 145h117l105 -145h-109l-54 77h-2l-55 -77h-111zM300 -8q-114 0 -185 71t-71 180t71 180.5t185 71.5q113 0 184.5 -70t71.5 -182q0 -111 -71.5 -181t-184.5 -70zM300 94q60 0 101 42t41 107q0 67 -40.5 109t-101.5 42
q-63 0 -102.5 -43t-39.5 -108q0 -63 40 -106t102 -43z" />
    <glyph glyph-name="uni1ED4" unicode="&#x1ed4;" horiz-adv-x="827" 
d="M577 840q50 38 59 52q4 8 4 14q0 18 -26 18q-32 0 -80 -29l-24 52q48 43 128 43q38 0 61.5 -18t23.5 -52q0 -50 -72 -80h-74zM246 775l111 133h117l108 -133h-109l-57 71h-2l-57 -71h-111zM414 -8q-159 0 -259 102.5t-100 260.5t100 260.5t259 102.5q155 0 256.5 -101
t101.5 -262t-101.5 -262t-256.5 -101zM414 105q99 0 165.5 71t66.5 179q0 109 -66.5 179.5t-165.5 70.5q-103 0 -168.5 -72t-65.5 -178t65.5 -178t168.5 -72z" />
    <glyph glyph-name="uni1ED5" unicode="&#x1ed5;" horiz-adv-x="600" 
d="M449 655q68 49 66 82q0 20 -27 20q-36 0 -84 -32l-24 55q50 50 134 50q40 0 64.5 -19.5t24.5 -58.5q0 -32 -24 -58.5t-52 -38.5h-78zM134 554l109 145h117l105 -145h-109l-54 77h-2l-55 -77h-111zM300 -8q-114 0 -185 71t-71 180t71 180.5t185 71.5q113 0 184.5 -70
t71.5 -182q0 -111 -71.5 -181t-184.5 -70zM300 94q60 0 101 42t41 107q0 67 -40.5 109t-101.5 42q-63 0 -102.5 -43t-39.5 -108q0 -63 40 -106t102 -43z" />
    <glyph glyph-name="uni1ED6" unicode="&#x1ed6;" horiz-adv-x="827" 
d="M488 930q-31 0 -79 27q-38 22 -59 22q-30 0 -51 -48l-64 29q34 96 108 96q36 0 83 -27q42 -23 56 -23q28 0 48 49l64 -22q-32 -103 -106 -103zM246 775l111 133h117l108 -133h-109l-57 71h-2l-57 -71h-111zM414 -8q-159 0 -259 102.5t-100 260.5t100 260.5t259 102.5
q155 0 256.5 -101t101.5 -262t-101.5 -262t-256.5 -101zM414 105q99 0 165.5 71t66.5 179q0 109 -66.5 179.5t-165.5 70.5q-103 0 -168.5 -72t-65.5 -178t65.5 -178t168.5 -72z" />
    <glyph glyph-name="uni1ED7" unicode="&#x1ed7;" horiz-adv-x="600" 
d="M189 740l-68 31q34 104 107 104q36 0 77 -24q42 -25 57 -25q36 0 57 52l68 -23q-34 -113 -111 -113q-34 0 -80 28q-41 24 -59 22q-30 -4 -48 -52zM135 554l109 145h117l105 -145h-109l-54 77h-2l-55 -77h-111zM300 -8q-114 0 -185 71t-71 180t71 180.5t185 71.5
q113 0 184.5 -70t71.5 -182q0 -111 -71.5 -181t-184.5 -70zM300 94q60 0 101 42t41 107q0 67 -40.5 109t-101.5 42q-63 0 -102.5 -43t-39.5 -108q0 -63 40 -106t102 -43z" />
    <glyph glyph-name="uni1ED8" unicode="&#x1ed8;" horiz-adv-x="827" 
d="M246 775l111 133h117l108 -133h-109l-57 71h-2l-57 -71h-111zM414 -8q-159 0 -259 102.5t-100 260.5t100 260.5t259 102.5q155 0 256.5 -101t101.5 -262t-101.5 -262t-256.5 -101zM414 105q99 0 165.5 71t66.5 179q0 109 -66.5 179.5t-165.5 70.5q-103 0 -168.5 -72
t-65.5 -178t65.5 -178t168.5 -72zM414 -78q31 0 53 -22t22 -53q0 -30 -22 -52t-53 -22t-53.5 22t-22.5 52q0 31 22.5 53t53.5 22z" />
    <glyph glyph-name="uni1ED9" unicode="&#x1ed9;" horiz-adv-x="600" 
d="M134 554l109 145h117l105 -145h-109l-54 77h-2l-55 -77h-111zM300 -8q-114 0 -185 71t-71 180t71 180.5t185 71.5q113 0 184.5 -70t71.5 -182q0 -111 -71.5 -181t-184.5 -70zM300 94q60 0 101 42t41 107q0 67 -40.5 109t-101.5 42q-63 0 -102.5 -43t-39.5 -108
q0 -63 40 -106t102 -43zM300 -78q31 0 53 -22t22 -53q0 -30 -22 -52t-53 -22t-53.5 22t-22.5 52q0 31 22.5 53t53.5 22z" />
    <glyph glyph-name="uni1EDA" unicode="&#x1eda;" horiz-adv-x="870" 
d="M590 908l-126 -133h-111l112 133h125zM732 774h114v-71q0 -142 -110 -180q36 -77 36 -168q0 -161 -101.5 -262t-256.5 -101q-159 0 -259 102.5t-100 260.5t100 260.5t259 102.5q176 0 279 -125q14 7 22.5 17.5t12 29.5t4 31t0.5 39v64zM414 105q99 0 165.5 71t66.5 179
q0 109 -66.5 179.5t-165.5 70.5q-103 0 -168.5 -72t-65.5 -178t65.5 -178t168.5 -72z" />
    <glyph glyph-name="uni1EDB" unicode="&#x1edb;" horiz-adv-x="681" 
d="M478 701l-124 -145h-114l115 144zM555 565h114v-71q0 -72 -31 -120t-90 -64q8 -34 8 -67q0 -111 -71.5 -181t-184.5 -70q-114 0 -185 71t-71 180t71 180.5t185 71.5q71 0 127.5 -29.5t89.5 -81.5q18 9 27 29.5t10 36.5t1 51v64zM300 94q60 0 101 42t41 107
q0 67 -40.5 109t-101.5 42q-63 0 -102.5 -43t-39.5 -108q0 -63 40 -106t102 -43z" />
    <glyph glyph-name="uni1EDC" unicode="&#x1edc;" horiz-adv-x="870" 
d="M484 775h-111l-126 133h125zM732 774h114v-71q0 -142 -110 -180q36 -77 36 -168q0 -161 -101.5 -262t-256.5 -101q-159 0 -259 102.5t-100 260.5t100 260.5t259 102.5q176 0 279 -125q14 7 22.5 17.5t12 29.5t4 31t0.5 39v64zM414 105q99 0 165.5 71t66.5 179
q0 109 -66.5 179.5t-165.5 70.5q-103 0 -168.5 -72t-65.5 -178t65.5 -178t168.5 -72z" />
    <glyph glyph-name="uni1EDD" unicode="&#x1edd;" horiz-adv-x="681" 
d="M372 554h-111l-124 144l125 -1zM555 565h114v-71q0 -72 -31 -120t-90 -64q8 -34 8 -67q0 -111 -71.5 -181t-184.5 -70q-114 0 -185 71t-71 180t71 180.5t185 71.5q71 0 127.5 -29.5t89.5 -81.5q18 9 27 29.5t10 36.5t1 51v64zM300 94q60 0 101 42t41 107q0 67 -40.5 109
t-101.5 42q-63 0 -102.5 -43t-39.5 -108q0 -63 40 -106t102 -43z" />
    <glyph glyph-name="uni1EDE" unicode="&#x1ede;" horiz-adv-x="870" 
d="M416 868q-33 0 -89 -32l-26 58q54 47 142 47q42 0 68 -20t26 -58q0 -55 -80 -88h-82q25 18 36 26.5t22.5 22t11.5 24.5q0 20 -29 20zM732 774h114v-71q0 -142 -110 -180q36 -77 36 -168q0 -161 -101.5 -262t-256.5 -101q-159 0 -259 102.5t-100 260.5t100 260.5
t259 102.5q176 0 279 -125q14 7 22.5 17.5t12 29.5t4 31t0.5 39v64zM414 105q99 0 165.5 71t66.5 179q0 109 -66.5 179.5t-165.5 70.5q-103 0 -168.5 -72t-65.5 -178t65.5 -178t168.5 -72z" />
    <glyph glyph-name="uni1EDF" unicode="&#x1edf;" horiz-adv-x="681" 
d="M301 661q-38 0 -88 -34l-26 58q51 53 141 53q43 0 68.5 -20.5t25.5 -61.5q0 -34 -25.5 -62t-54.5 -40h-82q72 51 70 86q0 21 -29 21zM555 565h114v-71q0 -72 -31 -120t-90 -64q8 -34 8 -67q0 -111 -71.5 -181t-184.5 -70q-114 0 -185 71t-71 180t71 180.5t185 71.5
q71 0 127.5 -29.5t89.5 -81.5q18 9 27 29.5t10 36.5t1 51v64zM300 94q60 0 101 42t41 107q0 67 -40.5 109t-101.5 42q-63 0 -102.5 -43t-39.5 -108q0 -63 40 -106t102 -43z" />
    <glyph glyph-name="uni1EE0" unicode="&#x1ee0;" horiz-adv-x="870" 
d="M346 828q-33 0 -54 -52l-68 31q36 103 114 103q38 0 89 -29q42 -24 59 -24q30 0 51 52l68 -23q-33 -111 -112 -111q-34 0 -84 29q-42 24 -63 24zM732 774h114v-71q0 -142 -110 -180q36 -77 36 -168q0 -161 -101.5 -262t-256.5 -101q-159 0 -259 102.5t-100 260.5
t100 260.5t259 102.5q176 0 279 -125q14 7 22.5 17.5t12 29.5t4 31t0.5 39v64zM414 105q99 0 165.5 71t66.5 179q0 109 -66.5 179.5t-165.5 70.5q-103 0 -168.5 -72t-65.5 -178t65.5 -178t168.5 -72z" />
    <glyph glyph-name="uni1EE1" unicode="&#x1ee1;" horiz-adv-x="681" 
d="M235 607q-37 0 -58 -52l-68 31q34 110 114 110q40 0 84 -28q40 -25 58 -25q36 0 57 52l68 -23q-15 -56 -44 -87.5t-67 -31.5q-37 0 -88 32q-35 22 -56 22zM555 565h114v-71q0 -72 -31 -120t-90 -64q8 -34 8 -67q0 -111 -71.5 -181t-184.5 -70q-114 0 -185 71t-71 180
t71 180.5t185 71.5q71 0 127.5 -29.5t89.5 -81.5q18 9 27 29.5t10 36.5t1 51v64zM300 94q60 0 101 42t41 107q0 67 -40.5 109t-101.5 42q-63 0 -102.5 -43t-39.5 -108q0 -63 40 -106t102 -43z" />
    <glyph glyph-name="uni1EE2" unicode="&#x1ee2;" horiz-adv-x="870" 
d="M732 774h114v-71q0 -142 -110 -180q36 -77 36 -168q0 -161 -101.5 -262t-256.5 -101q-159 0 -259 102.5t-100 260.5t100 260.5t259 102.5q176 0 279 -125q14 7 22.5 17.5t12 29.5t4 31t0.5 39v64zM414 105q99 0 165.5 71t66.5 179q0 109 -66.5 179.5t-165.5 70.5
q-103 0 -168.5 -72t-65.5 -178t65.5 -178t168.5 -72zM414 -78q31 0 53 -22t22 -53q0 -30 -22 -52t-53 -22t-53.5 22t-22.5 52q0 31 22.5 53t53.5 22z" />
    <glyph glyph-name="uni1EE3" unicode="&#x1ee3;" horiz-adv-x="681" 
d="M555 565h114v-71q0 -72 -31 -120t-90 -64q8 -34 8 -67q0 -111 -71.5 -181t-184.5 -70q-114 0 -185 71t-71 180t71 180.5t185 71.5q71 0 127.5 -29.5t89.5 -81.5q18 9 27 29.5t10 36.5t1 51v64zM300 94q60 0 101 42t41 107q0 67 -40.5 109t-101.5 42q-63 0 -102.5 -43
t-39.5 -108q0 -63 40 -106t102 -43zM300 -78q31 0 53 -22t22 -53q0 -30 -22 -52t-53 -22t-53.5 22t-22.5 52q0 31 22.5 53t53.5 22z" />
    <glyph glyph-name="uni1EE4" unicode="&#x1ee4;" horiz-adv-x="719" 
d="M359 -8q-128 0 -205 79.5t-77 220.5v418h120v-409q0 -87 43.5 -141t118.5 -54q73 0 118 52.5t45 142.5v409h121v-418q0 -139 -76 -219.5t-208 -80.5zM359 -78q31 0 53 -22t22 -53q0 -30 -22 -52t-53 -22t-53.5 22t-22.5 52q0 31 22.5 53t53.5 22z" />
    <glyph glyph-name="uni1EE5" unicode="&#x1ee5;" horiz-adv-x="578" 
d="M246 -8q-183 0 -183 199v297h112v-267q0 -71 22.5 -99t74.5 -28t88.5 42.5t36.5 117.5v234h112v-488h-112v61l-2 1q-58 -70 -149 -70zM292 -78q31 0 53 -22t22 -53q0 -30 -22 -52t-53 -22t-53.5 22t-22.5 52q0 31 22.5 53t53.5 22z" />
    <glyph glyph-name="uni1EE6" unicode="&#x1ee6;" horiz-adv-x="719" 
d="M319 775q25 18 36 26.5t22.5 22t11.5 24.5q0 20 -29 20q-33 0 -89 -32l-26 58q54 47 142 47q42 0 68 -20t26 -58q0 -55 -80 -88h-82zM359 -8q-128 0 -205 79.5t-77 220.5v418h120v-409q0 -87 43.5 -141t118.5 -54q73 0 118 52.5t45 142.5v409h121v-418q0 -139 -76 -219.5
t-208 -80.5z" />
    <glyph glyph-name="uni1EE7" unicode="&#x1ee7;" horiz-adv-x="578" 
d="M247 554q72 51 70 86q0 21 -29 21q-38 0 -88 -34l-26 58q51 53 141 53q43 0 68.5 -20.5t25.5 -61.5q0 -34 -25.5 -62t-54.5 -40h-82zM246 -8q-183 0 -183 199v297h112v-267q0 -71 22.5 -99t74.5 -28t88.5 42.5t36.5 117.5v234h112v-488h-112v61l-2 1q-58 -70 -149 -70z
" />
    <glyph glyph-name="uni1EE8" unicode="&#x1ee8;" horiz-adv-x="819" 
d="M521 908l-126 -133h-111l112 133h125zM703 774h114v-71q0 -86 -45 -137.5t-129 -53.5v-220q0 -139 -76 -219.5t-208 -80.5q-128 0 -205 79.5t-77 220.5v418h120v-409q0 -87 43.5 -141t118.5 -54q73 0 118 52.5t45 142.5v409h121v-124q22 5 35 15t18 30.5t6 33.5t1 45v64z
" />
    <glyph glyph-name="uni1EE9" unicode="&#x1ee9;" horiz-adv-x="687" 
d="M467 701l-124 -145h-114l115 144zM562 565h114v-71q0 -85 -43 -136t-124 -55v-303h-112v61l-2 1q-58 -70 -149 -70q-183 0 -183 199v297h112v-267q0 -71 22.5 -99t74.5 -28t88.5 42.5t36.5 117.5v234h112v-110q13 4 23 10t15.5 17t8.5 18t4.5 24.5t1.5 24.5v29v64z" />
    <glyph glyph-name="uni1EEA" unicode="&#x1eea;" horiz-adv-x="819" 
d="M432 775h-111l-126 133h125zM703 774h114v-71q0 -86 -45 -137.5t-129 -53.5v-220q0 -139 -76 -219.5t-208 -80.5q-128 0 -205 79.5t-77 220.5v418h120v-409q0 -87 43.5 -141t118.5 -54q73 0 118 52.5t45 142.5v409h121v-124q22 5 35 15t18 30.5t6 33.5t1 45v64z" />
    <glyph glyph-name="uni1EEB" unicode="&#x1eeb;" horiz-adv-x="687" 
d="M364 554h-111l-124 144l125 -1zM562 565h114v-71q0 -85 -43 -136t-124 -55v-303h-112v61l-2 1q-58 -70 -149 -70q-183 0 -183 199v297h112v-267q0 -71 22.5 -99t74.5 -28t88.5 42.5t36.5 117.5v234h112v-110q13 4 23 10t15.5 17t8.5 18t4.5 24.5t1.5 24.5v29v64z" />
    <glyph glyph-name="uni1EEC" unicode="&#x1eec;" horiz-adv-x="819" 
d="M360 868q-33 0 -89 -32l-26 58q54 47 142 47q42 0 68 -20t26 -58q0 -55 -80 -88h-82q25 18 36 26.5t22.5 22t11.5 24.5q0 20 -29 20zM703 774h114v-71q0 -86 -45 -137.5t-129 -53.5v-220q0 -139 -76 -219.5t-208 -80.5q-128 0 -205 79.5t-77 220.5v418h120v-409
q0 -87 43.5 -141t118.5 -54q73 0 118 52.5t45 142.5v409h121v-124q22 5 35 15t18 30.5t6 33.5t1 45v64z" />
    <glyph glyph-name="uni1EED" unicode="&#x1eed;" horiz-adv-x="687" 
d="M288 661q-38 0 -88 -34l-26 58q51 53 141 53q43 0 68.5 -20.5t25.5 -61.5q0 -34 -25.5 -62t-54.5 -40h-82q72 51 70 86q0 21 -29 21zM562 565h114v-71q0 -85 -43 -136t-124 -55v-303h-112v61l-2 1q-58 -70 -149 -70q-183 0 -183 199v297h112v-267q0 -71 22.5 -99
t74.5 -28t88.5 42.5t36.5 117.5v234h112v-110q13 4 23 10t15.5 17t8.5 18t4.5 24.5t1.5 24.5v29v64z" />
    <glyph glyph-name="uni1EEE" unicode="&#x1eee;" horiz-adv-x="819" 
d="M290 828q-33 0 -54 -52l-68 31q36 103 114 103q38 0 89 -29q42 -24 59 -24q30 0 51 52l68 -23q-33 -111 -112 -111q-34 0 -84 29q-42 24 -63 24zM703 774h114v-71q0 -86 -45 -137.5t-129 -53.5v-220q0 -139 -76 -219.5t-208 -80.5q-128 0 -205 79.5t-77 220.5v418h120
v-409q0 -87 43.5 -141t118.5 -54q73 0 118 52.5t45 142.5v409h121v-124q22 5 35 15t18 30.5t6 33.5t1 45v64z" />
    <glyph glyph-name="uni1EEF" unicode="&#x1eef;" horiz-adv-x="687" 
d="M222 607q-37 0 -58 -52l-68 31q34 110 114 110q40 0 84 -28q40 -25 58 -25q36 0 57 52l68 -23q-15 -56 -44 -87.5t-67 -31.5q-37 0 -88 32q-35 22 -56 22zM562 565h114v-71q0 -85 -43 -136t-124 -55v-303h-112v61l-2 1q-58 -70 -149 -70q-183 0 -183 199v297h112v-267
q0 -71 22.5 -99t74.5 -28t88.5 42.5t36.5 117.5v234h112v-110q13 4 23 10t15.5 17t8.5 18t4.5 24.5t1.5 24.5v29v64z" />
    <glyph glyph-name="uni1EF0" unicode="&#x1ef0;" horiz-adv-x="819" 
d="M703 774h114v-71q0 -86 -45 -137.5t-129 -53.5v-220q0 -139 -76 -219.5t-208 -80.5q-128 0 -205 79.5t-77 220.5v418h120v-409q0 -87 43.5 -141t118.5 -54q73 0 118 52.5t45 142.5v409h121v-124q22 5 35 15t18 30.5t6 33.5t1 45v64zM359 -78q31 0 53 -22t22 -53
q0 -30 -22 -52t-53 -22t-53.5 22t-22.5 52q0 31 22.5 53t53.5 22z" />
    <glyph glyph-name="uni1EF1" unicode="&#x1ef1;" horiz-adv-x="687" 
d="M562 565h114v-71q0 -85 -43 -136t-124 -55v-303h-112v61l-2 1q-58 -70 -149 -70q-183 0 -183 199v297h112v-267q0 -71 22.5 -99t74.5 -28t88.5 42.5t36.5 117.5v234h112v-110q13 4 23 10t15.5 17t8.5 18t4.5 24.5t1.5 24.5v29v64zM292 -78q31 0 53 -22t22 -53
q0 -30 -22 -52t-53 -22t-53.5 22t-22.5 52q0 31 22.5 53t53.5 22z" />
    <glyph glyph-name="Ygrave" unicode="&#x1ef2;" horiz-adv-x="625" 
d="M286 775l-126 133h125l112 -133h-111zM251 0v314l-237 396h138l159 -275h2l158 275h140l-239 -396v-314h-121z" />
    <glyph glyph-name="ygrave" unicode="&#x1ef3;" horiz-adv-x="535" 
d="M228 554l-124 144l125 -1l110 -143h-111zM131 -198l88 225l-200 461h120l134 -327h2l125 327h115l-268 -686h-116z" />
    <glyph glyph-name="uni1EF4" unicode="&#x1ef4;" horiz-adv-x="625" 
d="M251 0v314l-237 396h138l159 -275h2l158 275h140l-239 -396v-314h-121zM312 -78q31 0 53 -22t22 -53q0 -30 -22 -52t-53 -22t-53.5 22t-22.5 52q0 31 22.5 53t53.5 22z" />
    <glyph glyph-name="uni1EF5" unicode="&#x1ef5;" horiz-adv-x="535" 
d="M131 -198l88 225l-200 461h120l134 -327h2l125 327h115l-268 -686h-116zM403 -78q31 0 53 -22t22 -53q0 -30 -22 -52t-53 -22t-53.5 22t-22.5 52q0 31 22.5 53t53.5 22z" />
    <glyph glyph-name="uni1EF6" unicode="&#x1ef6;" horiz-adv-x="625" 
d="M274 775q25 18 36 26.5t22.5 22t11.5 24.5q0 20 -29 20q-33 0 -89 -32l-26 58q54 47 142 47q42 0 68 -20t26 -58q0 -55 -80 -88h-82zM251 0v314l-237 396h138l159 -275h2l158 275h140l-239 -396v-314h-121z" />
    <glyph glyph-name="uni1EF7" unicode="&#x1ef7;" horiz-adv-x="535" 
d="M228 554q72 51 70 86q0 21 -29 21q-38 0 -88 -34l-26 58q51 53 141 53q43 0 68.5 -20.5t25.5 -61.5q0 -34 -25.5 -62t-54.5 -40h-82zM131 -198l88 225l-200 461h120l134 -327h2l125 327h115l-268 -686h-116z" />
    <glyph glyph-name="uni1EF8" unicode="&#x1ef8;" horiz-adv-x="625" 
d="M392 775q-34 0 -84 29q-42 24 -63 24q-33 0 -54 -52l-68 31q36 103 114 103q38 0 89 -29q42 -24 59 -24q30 0 51 52l68 -23q-33 -111 -112 -111zM251 0v314l-237 396h138l159 -275h2l158 275h140l-239 -396v-314h-121z" />
    <glyph glyph-name="uni1EF9" unicode="&#x1ef9;" horiz-adv-x="535" 
d="M347 553q-37 0 -88 32q-35 22 -56 22q-37 0 -58 -52l-68 31q34 110 114 110q40 0 84 -28q40 -25 58 -25q36 0 57 52l68 -23q-15 -56 -44 -87.5t-67 -31.5zM131 -198l88 225l-200 461h120l134 -327h2l125 327h115l-268 -686h-116z" />
    <glyph glyph-name="uni2002" unicode="&#x2002;" horiz-adv-x="467" 
 />
    <glyph glyph-name="uni2003" unicode="&#x2003;" horiz-adv-x="934" 
 />
    <glyph glyph-name="uni2007" unicode="&#x2007;" horiz-adv-x="586" 
 />
    <glyph glyph-name="uni2009" unicode="&#x2009;" horiz-adv-x="29" 
 />
    <glyph glyph-name="uni2010" unicode="&#x2010;" horiz-adv-x="407" 
d="M53 254v109h301v-109h-301z" />
    <glyph glyph-name="figuredash" unicode="&#x2012;" horiz-adv-x="586" 
d="M53 248v100h480v-100h-480z" />
    <glyph glyph-name="endash" unicode="&#x2013;" horiz-adv-x="573" 
d="M53 248v100h467v-100h-467z" />
    <glyph glyph-name="emdash" unicode="&#x2014;" horiz-adv-x="1040" 
d="M53 248v100h934v-100h-934z" />
    <glyph glyph-name="uni2015" unicode="&#x2015;" horiz-adv-x="1199" 
d="M53 248v100h1093v-100h-1093z" />
    <glyph glyph-name="quoteleft" unicode="&#x2018;" horiz-adv-x="215" 
d="M183 709l-31 -253h-120l60 253h91z" />
    <glyph glyph-name="quoteright" unicode="&#x2019;" horiz-adv-x="215" 
d="M32 457l31 253h120l-60 -253h-91z" />
    <glyph glyph-name="quotesinglbase" unicode="&#x201a;" horiz-adv-x="238" 
d="M27 -78l32 253h120l-70 -253h-82z" />
    <glyph glyph-name="quotedblleft" unicode="&#x201c;" horiz-adv-x="387" 
d="M183 710l-31 -253h-120l60 253h91zM355 710l-31 -253h-120l60 253h91z" />
    <glyph glyph-name="quotedblright" unicode="&#x201d;" horiz-adv-x="387" 
d="M32 457l31 253h120l-60 -253h-91zM204 457l31 253h120l-60 -253h-91z" />
    <glyph glyph-name="quotedblbase" unicode="&#x201e;" horiz-adv-x="409" 
d="M27 -78l31 253h120l-60 -253h-91zM199 -78l31 253h120l-60 -253h-91z" />
    <glyph glyph-name="dagger" unicode="&#x2020;" horiz-adv-x="400" 
d="M201 234l-34 58l4 129l-1 109h-19l-96 -5v68l96 -4h19l-3 97h69l-5 -97h19l96 5v-69l-96 5h-20v-109l6 -129z" />
    <glyph glyph-name="daggerdbl" unicode="&#x2021;" horiz-adv-x="400" 
d="M167 55l3 95h-19l-96 -4v68l95 -4h21v70l-4 92l4 92v66h-20l-96 -4v67l95 -5h20l-4 98h69l-5 -98h19l97 5v-67l-97 4h-19v-66l5 -92l-6 -92l1 -70h19l97 4v-67l-97 3h-19l5 -95h-68z" />
    <glyph glyph-name="bullet" unicode="&#x2022;" horiz-adv-x="426" 
d="M213 205q-47 0 -79.5 32.5t-32.5 78.5t32.5 79t79.5 33t80 -33t33 -79t-33 -78.5t-80 -32.5z" />
    <glyph glyph-name="ellipsis" unicode="&#x2026;" horiz-adv-x="1000" 
d="M167 -8q-32 0 -54 21.5t-22 52.5t22.5 53t53.5 22t53 -22t22 -53t-22 -52.5t-53 -21.5zM500 -8q-32 0 -54 21.5t-22 52.5t22.5 53t53.5 22t53 -22t22 -53t-22 -52.5t-53 -21.5zM834 -8q-32 0 -54 21.5t-22 52.5t22.5 53t53.5 22t53 -22t22 -53t-22 -52.5t-53 -21.5z" />
    <glyph glyph-name="perthousand" unicode="&#x2030;" horiz-adv-x="1472" 
d="M401 -22l-90 39l314 708l90 -39zM247 321q-85 0 -143.5 55.5t-58.5 143.5q0 83 56.5 140.5t145.5 57.5q84 0 142.5 -55.5t58.5 -142.5q0 -83 -56.5 -141t-144.5 -58zM247 406q48 0 77.5 32.5t29.5 80.5q0 50 -30.5 81t-76.5 31t-75.5 -32.5t-29.5 -79.5q0 -49 30.5 -81
t74.5 -32zM776 -8q-84 0 -142.5 55.5t-58.5 143.5q0 83 56.5 140.5t144.5 57.5q85 0 143.5 -55.5t58.5 -142.5q0 -84 -56.5 -141.5t-145.5 -57.5zM1226 -8q-85 0 -143.5 55.5t-58.5 143.5q0 83 56.5 140.5t145.5 57.5q84 0 142.5 -55.5t58.5 -142.5q0 -83 -56.5 -141
t-144.5 -58zM777 78q47 0 77 32.5t30 79.5q0 49 -31 80.5t-76 31.5q-47 0 -77 -32.5t-30 -79.5q0 -49 31 -80.5t76 -31.5zM1226 78q47 0 77 32.5t30 79.5q0 49 -31 80.5t-76 31.5q-47 0 -76.5 -32t-29.5 -80q0 -49 30.5 -80.5t75.5 -31.5z" />
    <glyph glyph-name="minute" unicode="&#x2032;" horiz-adv-x="259" 
d="M32 457l75 253h120l-104 -253h-91z" />
    <glyph glyph-name="second" unicode="&#x2033;" horiz-adv-x="443" 
d="M32 457l75 253h120l-104 -253h-91zM216 457l75 253h120l-104 -253h-91z" />
    <glyph glyph-name="guilsinglleft" unicode="&#x2039;" horiz-adv-x="310" 
d="M274 463l-122 -213l123 -217h-111l-123 217l121 213h112z" />
    <glyph glyph-name="guilsinglright" unicode="&#x203a;" horiz-adv-x="310" 
d="M36 33l122 213l-123 217h111l123 -217l-121 -213h-112z" />
    <glyph glyph-name="uni203D" unicode="&#x203d;" horiz-adv-x="463" 
d="M214 744q86 0 146.5 -50.5t60.5 -142.5q0 -55 -23 -94.5t-65 -80.5q-7 -7 -23.5 -22t-24.5 -22.5t-18 -19.5t-14.5 -22.5t-5.5 -21.5l-3 -44h-92l-20 334h127l-6 -105l3 -1q39 46 39 84q0 48 -24.5 72.5t-65.5 24.5q-29 0 -58 -16t-47 -43l-84 78q73 92 198 92zM197 141
q31 0 53 -22t22 -53t-22 -52.5t-53 -21.5q-32 0 -54 21.5t-22 52.5t22.5 53t53.5 22z" />
    <glyph glyph-name="uni2042" unicode="&#x2042;" horiz-adv-x="838" 
d="M379 386l4 108l-90 -57l-36 62l95 48l-96 51l37 62l90 -57l-4 107h71l-5 -107l92 56l35 -61l-95 -50l95 -49l-35 -62l-90 57l3 -108h-71zM168 51l4 108l-90 -57l-36 62l95 48l-96 51l37 62l90 -57l-4 107h71l-5 -107l92 56l35 -61l-95 -50l95 -49l-35 -62l-90 57l3 -108
h-71zM599 51l4 108l-90 -57l-36 62l95 48l-96 51l37 62l90 -57l-4 107h71l-5 -107l92 56l35 -61l-95 -50l95 -49l-35 -62l-90 57l3 -108h-71z" />
    <glyph glyph-name="fraction" unicode="&#x2044;" horiz-adv-x="223" 
d="M16 -22l-90 39l313 708l91 -39z" />
    <glyph glyph-name="uni2051" unicode="&#x2051;" horiz-adv-x="407" 
d="M168 386l4 108l-90 -57l-36 62l95 48l-96 51l37 62l90 -57l-4 107h71l-5 -107l92 56l35 -61l-95 -50l95 -49l-35 -62l-90 57l3 -108h-71zM168 31l4 108l-90 -57l-36 62l95 48l-96 51l37 62l90 -57l-4 107h71l-5 -107l92 56l35 -61l-95 -50l95 -49l-35 -62l-90 57l3 -108
h-71z" />
    <glyph glyph-name="uni2070" unicode="&#x2070;" horiz-adv-x="412" 
d="M206 428q-83 0 -130.5 58t-47.5 156q0 100 49 157t129 57q82 0 129.5 -58t47.5 -156q0 -100 -48.5 -157t-128.5 -57zM206 516q38 0 60 33t22 93t-22.5 93.5t-59.5 33.5q-39 0 -61 -33t-22 -94q0 -60 22.5 -93t60.5 -33z" />
    <glyph glyph-name="colonmonetary" unicode="&#x20a1;" horiz-adv-x="582" 
d="M557 53q-87 -60 -191 -60q-59 0 -108 16l-37 -89l-61 24l38 91q-21 11 -37 26l-59 -141l-61 24l71 169q-63 89 -63 228q0 160 81.5 253t222.5 98l20 47l61 -23l-12 -29q13 -2 44 -10l26 62l61 -23l-27 -66q12 -7 26 -16l-68 -86q-1 0 -1 1l-182 -438q29 -10 65 -10
q71 0 126 39zM211 181q14 -22 32 -37l181 433q-23 7 -45 8zM171 341q0 -39 6 -71l128 306q-61 -19 -97.5 -78.5t-36.5 -156.5z" />
    <glyph glyph-name="lira" unicode="&#x20a4;" horiz-adv-x="566" 
d="M237 108h301v-108h-493v108h71v107h-58v79h58v68h-58v79h58v17q0 120 57.5 177.5t147.5 57.5q58 0 109.5 -25.5t85.5 -71.5l-61 -81q-49 66 -118 66q-102 0 -102 -136v-4h163v-79h-163v-68h163v-79h-161v-107z" />
    <glyph glyph-name="uni20A6" unicode="&#x20a6;" horiz-adv-x="640" 
d="M625 368h-56v-64h56v-75h-56v-229h-129l-112 229h-141v-229h-116v229h-56v75h56v64h-56v75h56v244h130l119 -244h134v244h115v-244h56v-75zM187 536v-93h40l-38 93h-2zM187 304h104l-31 64h-73v-64zM454 304v64h-98l31 -64h67zM454 150v79h-34l32 -79h2z" />
    <glyph glyph-name="peseta" unicode="&#x20a7;" horiz-adv-x="649" 
d="M627 501v-79h-72q-22 -178 -239 -178h-99v-244h-120v422h-75v79h75v186h233q102 0 159 -49.5t67 -136.5h71zM217 582v-81h219q-21 81 -115 81h-104zM323 345q96 0 114 77h-220v-77h106z" />
    <glyph glyph-name="dong" unicode="&#x20ab;" horiz-adv-x="609" 
d="M609 638v-76h-62v-562h-107v66h-1q-57 -74 -159 -74q-103 0 -170 69t-67 181q0 110 67.5 181.5t168.5 71.5q100 0 156 -67h1v134h-186v76h186v98h111v-98h62zM297 94q61 0 102 41t41 106q0 66 -40 109.5t-102 43.5q-60 0 -100.5 -42t-40.5 -111q0 -65 39.5 -106
t100.5 -41zM72 -160v102h473v-102h-473z" />
    <glyph glyph-name="Euro" unicode="&#x20ac;" horiz-adv-x="602" 
d="M510 140l65 -87q-87 -60 -191 -60q-110 0 -193.5 58.5t-111.5 178.5h-68v79h57q-1 10 -1 32q0 24 1 36h-57v79h69q27 112 106 174t198 62q102 0 186 -58l-68 -86q-54 37 -118 37q-62 0 -109 -32.5t-69 -96.5h248v-79h-264q-1 -11 -1 -36q0 -22 1 -32h264v-79h-249
q22 -65 70 -97t109 -32q71 0 126 39z" />
    <glyph glyph-name="uni20AE" unicode="&#x20ae;" horiz-adv-x="563" 
d="M530 579h-190v-139l118 50l36 -71l-154 -65v-68l118 50l36 -71l-154 -66v-199h-121v148l-114 -49l-38 71l152 65v67l-114 -48l-37 70l151 64v191h-186v108h497v-108z" />
    <glyph glyph-name="uni20B1" unicode="&#x20b1;" horiz-adv-x="649" 
d="M626 553v-71h-68v-18v-15h68v-71h-80q-42 -134 -230 -134h-99v-244h-120v378h-75v71h75v33h-75v71h75v134h233q169 0 215 -134h81zM335 582h-118v-35h207q-25 35 -89 35zM217 482v-33h228v10q0 16 -1 23h-227zM337 345q70 0 94 39h-214v-39h120z" />
    <glyph glyph-name="uni20B2" unicode="&#x20b2;" horiz-adv-x="666" 
d="M597 379v-307q-71 -71 -191 -78v-116h-88v121q-111 20 -181 104.5t-70 237.5q0 144 66.5 235t184.5 111v104h88v-100q99 -6 178 -67l-69 -86q-53 42 -113 46v-205h195zM189 341q0 -96 36 -153.5t96 -76.5v464q-61 -20 -96.5 -78.5t-35.5 -155.5zM483 132v142h-81v-171
q55 5 81 29z" />
    <glyph glyph-name="uni20B4" unicode="&#x20b4;" horiz-adv-x="580" 
d="M465 180l71 -96q-98 -92 -254 -92q-105 0 -162 40.5t-57 99.5q0 60 50 98h-66v75h109q17 7 61.5 25.5t67.5 27.5h-238v75h294q49 40 49 78q0 64 -92 64q-80 0 -160 -65l-71 96q111 81 234 81q100 0 160 -45.5t60 -110.5q0 -63 -57 -98h62v-75h-91q-22 -8 -65.5 -27
t-63.5 -26h220v-75h-317q-28 -28 -28 -58q0 -29 29 -48.5t85 -19.5q100 0 170 76z" />
    <glyph glyph-name="uni20B5" unicode="&#x20b5;" horiz-adv-x="615" 
d="M587 61q-85 -62 -181 -67v-116h-88v121q-111 20 -181 104.5t-70 237.5q0 144 66.5 235t184.5 111v104h88v-100q99 -6 178 -67l-69 -86q-53 42 -113 46v-482q68 4 120 47zM189 341q0 -96 36 -153.5t96 -76.5v464q-61 -20 -96.5 -78.5t-35.5 -155.5z" />
    <glyph glyph-name="uni20B8" unicode="&#x20b8;" horiz-adv-x="560" 
d="M33 687h494v-88h-494v88zM33 454v86h494v-86h-188v-454h-121v454h-185z" />
    <glyph glyph-name="uni20B9" unicode="&#x20b9;" horiz-adv-x="605" 
d="M554 599h-141v-1q29 -29 41 -70h100v-88h-95q-20 -151 -214 -172v-2l291 -266h-156l-303 278v88h127q105 0 126 74h-253v88h252q-25 71 -116 71h-136v88h477v-88z" />
    <glyph glyph-name="uni20BA" unicode="&#x20ba;" horiz-adv-x="563" 
d="M452 252l97 -38q-43 -117 -107.5 -165.5t-161.5 -48.5h-189v186l-70 -35l-32 71l102 50v69l-70 -35l-31 70l101 50v261h121v-201l161 80l31 -71l-192 -95v-68l161 80l31 -71l-192 -95v-148h55q72 0 112.5 34t72.5 120z" />
    <glyph glyph-name="uni20BC" unicode="&#x20bc;" horiz-adv-x="740" 
d="M417 689q124 -13 190.5 -91t66.5 -206v-392h-118v390q0 77 -35 126t-99 63v-484h-105v485q-66 -15 -100 -65.5t-34 -124.5v-390h-117v392q0 130 67.5 207.5t188.5 90.5v101h95v-102z" />
    <glyph glyph-name="uni20BD" unicode="&#x20bd;" horiz-adv-x="584" 
d="M316 269h-99v-61h235v-78h-235v-130h-120v130h-75v78h75v61h-75v81h75v337h233q112 0 170 -58.5t58 -154.5q0 -106 -65.5 -155.5t-176.5 -49.5zM217 579v-217h96q59 0 89.5 30t30.5 74q0 53 -30.5 83t-89.5 30h-96z" />
    <glyph glyph-name="uni2113" unicode="&#x2113;" horiz-adv-x="462" 
d="M403 119l36 -25q-65 -102 -173 -102q-77 0 -119.5 38.5t-50.5 108.5q-9 -7 -27.5 -21t-27.5 -21l-23 31q10 8 36.5 29t39.5 32l2 264q1 118 45 172t119 54q54 0 84 -40.5t30 -105.5q0 -146 -184 -317v-22q0 -82 28.5 -115t68.5 -33q64 0 116 73zM271 622q-34 0 -58 -38.5
t-24 -125.5l1 -189q143 148 143 258q0 95 -62 95z" />
    <glyph glyph-name="uni2116" unicode="&#x2116;" horiz-adv-x="1119" 
d="M902 410q-69 0 -113 43t-44 110q0 66 44 108.5t113 42.5t113.5 -42.5t44.5 -108.5q0 -68 -44.5 -110.5t-113.5 -42.5zM87 0v710h120l347 -510h2v510h120v-710h-123l-343 501h-2v-501h-121zM902 484q31 0 52 22.5t21 56.5t-20.5 56t-52.5 22t-52 -22.5t-20 -55.5
q0 -34 20 -56.5t52 -22.5zM755 279v80h304v-80h-304z" />
    <glyph glyph-name="uni2117" unicode="&#x2117;" horiz-adv-x="717" 
d="M358 2q-130 0 -221.5 93t-91.5 223q0 129 91.5 222.5t222.5 93.5q132 0 222.5 -93t90.5 -223q0 -129 -91 -222.5t-223 -93.5zM358 78q100 0 168.5 70.5t68.5 169.5q0 100 -68 170t-168 70t-168.5 -71t-68.5 -170t68 -169t168 -70zM247 158v324h123q56 0 84 -29.5
t28 -78.5q0 -52 -31.5 -79t-86.5 -27h-51v-110h-66zM314 328h41q28 0 43 13t15 34t-15 33.5t-41 12.5h-43v-93z" />
    <glyph glyph-name="uni2120" unicode="&#x2120;" horiz-adv-x="701" 
d="M158 383q-78 0 -130 51l41 52q37 -40 84 -40q20 0 33.5 8.5t13.5 21.5q0 16 -11.5 23t-43.5 18q-28 10 -40 15t-31 17t-26.5 29.5t-7.5 42.5q1 41 29.5 66.5t79.5 25.5q60 0 115 -39l-34 -58q-41 34 -79 34q-15 0 -28 -7.5t-13 -21.5q0 -3 1 -6t3 -5.5t4 -4.5t6.5 -4
t8 -4t10.5 -4.5t12 -4t14 -5t15 -5.5q44 -16 66 -37t22 -58q0 -50 -32 -75t-82 -25zM324 387v323h73l93 -177l92 177h73v-323h-71v191l-72 -129h-46l-73 129v-191h-69z" />
    <glyph glyph-name="trademark" unicode="&#x2122;" horiz-adv-x="690" 
d="M109 387v259h-86v64h245v-64h-87v-259h-72zM313 387v323h73l93 -177l92 177h73v-323h-71v191l-72 -129h-46l-73 129v-191h-69z" />
    <glyph glyph-name="uni2126" unicode="&#x2126;" horiz-adv-x="772" 
d="M63 0v108h119l1 2q-130 109 -130 277q0 143 92.5 237t240.5 94t240.5 -94t92.5 -237q0 -168 -130 -277l1 -2h120v-108h-274v108q158 117 158 277q0 98 -57.5 159t-150.5 61q-93 -1 -150 -61.5t-57 -158.5q0 -161 157 -277v-108h-273z" />
    <glyph glyph-name="estimated" unicode="&#x212e;" horiz-adv-x="795" 
d="M397 -10q-145 0 -243.5 93.5t-98.5 227.5q0 137 99.5 229t242.5 92q146 0 245 -93.5t99 -227.5v-9h-520v-224q75 -55 177 -55q131 0 209 84h55q-45 -54 -116 -85.5t-149 -31.5zM221 340h352v207q-67 51 -175 51q-109 0 -177 -55v-203z" />
    <glyph glyph-name="partialdiff" unicode="&#x2202;" horiz-adv-x="587" 
d="M281 694q76 0 130 -40.5t79.5 -106t36 -127t10.5 -126.5q0 -147 -69 -224.5t-177 -77.5q-103 0 -172.5 63.5t-69.5 162.5q0 104 63.5 164t155.5 60q90 0 146 -44l2 1q-26 189 -151 189q-40 0 -138 -35l-34 98q101 43 188 43zM292 104q57 0 93.5 43.5t37.5 117.5
q-23 33 -58.5 53.5t-76.5 20.5q-54 0 -86 -31t-32 -87q0 -48 34.5 -82.5t87.5 -34.5z" />
    <glyph glyph-name="emptyset" unicode="&#x2205;" horiz-adv-x="718" 
d="M602 510q65 -84 65 -192q0 -127 -90 -219t-219 -92q-107 0 -192 67l-48 -48l-47 47l48 48q-69 87 -69 197q0 127 90 218.5t219 91.5q112 0 196 -71l44 44l47 -47zM140 317q0 -73 43 -132l308 308q-58 45 -132 45q-92 0 -155.5 -65t-63.5 -156zM358 97q92 0 155.5 65
t63.5 156q0 69 -40 127l-307 -307q57 -41 128 -41z" />
    <glyph glyph-name="uni2206" unicode="&#x2206;" horiz-adv-x="683" 
d="M38 0v93l242 617h121l244 -617v-93h-607zM174 108h333l-165 453h-2z" />
    <glyph glyph-name="product" unicode="&#x220f;" horiz-adv-x="709" 
d="M87 -104v814h535v-814h-121v706h-293v-706h-121z" />
    <glyph glyph-name="summation" unicode="&#x2211;" horiz-adv-x="614" 
d="M52 -80v86l221 310l-221 306v88h513v-108h-349l-2 -3l197 -283l-196 -283l1 -4h349v-109h-513z" />
    <glyph glyph-name="minus" unicode="&#x2212;" horiz-adv-x="573" 
d="M50 226v102h473v-102h-473z" />
    <glyph glyph-name="radical" unicode="&#x221a;" horiz-adv-x="717" 
d="M313 0l-167 500h-113v98h206l142 -439h2l308 663h85l-385 -822h-78z" />
    <glyph glyph-name="infinity" unicode="&#x221e;" horiz-adv-x="783" 
d="M559 445q69 0 117 -48t48 -120q0 -74 -48.5 -121t-116.5 -47q-93 0 -168 95q-75 -95 -167 -95q-70 0 -117.5 48.5t-47.5 119.5q0 74 48.5 121t116.5 47q95 0 167 -95q77 95 168 95zM226 198q51 0 109 79q-58 80 -109 80q-32 0 -54 -22t-22 -58q0 -35 22 -57t54 -22z
M560 198q30 0 51 22t21 57q0 36 -21 58t-51 22q-56 0 -113 -80q59 -79 113 -79z" />
    <glyph glyph-name="integral" unicode="&#x222b;" horiz-adv-x="398" 
d="M49 -171q-30 -2 -76 4l12 86h9q46 0 59 19t24 89l79 529q11 67 46.5 103.5t85.5 39.5q45 2 97 -10l-12 -80q-7 0 -17 0.5t-14 0.5q-46 0 -58.5 -18.5t-23.5 -91.5l-80 -529q-10 -66 -45 -102t-86 -40z" />
    <glyph glyph-name="uni2236" unicode="&#x2236;" horiz-adv-x="270" 
d="M131 404q-32 0 -54 21.5t-22 52.5t22.5 53t53.5 22t53 -22t22 -53t-22 -52.5t-53 -21.5zM131 50q-32 0 -54 21.5t-22 52.5t22.5 53t53.5 22t53 -22t22 -53t-22 -52.5t-53 -21.5z" />
    <glyph glyph-name="approxequal" unicode="&#x2248;" horiz-adv-x="590" 
d="M409 313q-33 0 -99 24.5t-105 24.5q-59 0 -118 -39l-32 78q18 19 57.5 40t81.5 21t106 -24.5t97 -24.5q54 0 104 44l34 -79q-56 -65 -126 -65zM409 93q-33 0 -99 24.5t-105 24.5q-59 0 -118 -39l-32 77q17 19 56.5 40.5t82.5 21.5t106.5 -25t96.5 -25q55 0 104 45l34 -80
q-55 -64 -126 -64z" />
    <glyph glyph-name="notequal" unicode="&#x2260;" horiz-adv-x="591" 
d="M532 340h-166l-58 -126h224v-102h-272l-52 -112l-75 29l39 83h-113v102h160l59 126h-219v102h266l56 120l75 -30l-42 -90h118v-102z" />
    <glyph glyph-name="lessequal" unicode="&#x2264;" horiz-adv-x="587" 
d="M520 158l-460 201v84l460 205v-113l-309 -133l309 -133v-111zM521 0h-465v102h465v-102z" />
    <glyph glyph-name="greaterequal" unicode="&#x2265;" horiz-adv-x="586" 
d="M67 158v111l309 133l-309 133v113l460 -205v-84zM66 0v102h465v-102h-465z" />
    <glyph glyph-name="lozenge" unicode="&#x25ca;" horiz-adv-x="495" 
d="M244 0l-203 338l203 339l210 -339zM245 177l90 161l-90 164l-88 -164z" />
    <glyph glyph-name="uni2713" unicode="&#x2713;" horiz-adv-x="585" 
d="M216 115l-193 200l65 63l111 -116l322 526l78 -48z" />
    <glyph glyph-name="uni2715" unicode="&#x2715;" horiz-adv-x="366" 
d="M85 117l-62 62l99 99l-99 98l61 61l98 -98l99 99l62 -62l-99 -100l99 -99l-61 -60l-98 98z" />
    <glyph glyph-name="uni2E18" unicode="&#x2e18;" horiz-adv-x="447" 
d="M266 347q-31 0 -53 22t-22 53t22 52.5t53 21.5q32 0 54 -21.5t22 -52.5t-22.5 -53t-53.5 -22zM363 -86l84 -78q-73 -92 -198 -92q-86 0 -146.5 50.5t-60.5 142.5q0 55 23 94.5t65 80.5q7 7 23.5 22t24.5 22.5t18 19.5t14.5 22.5t5.5 21.5l3 44h92l20 -334h-127l6 105
l-3 1q-39 -46 -39 -84q0 -48 24.5 -72.5t65.5 -24.5q29 0 58 16t47 43z" />
    <glyph glyph-name="uni00A40301" horiz-adv-x="507" 
d="M316 775l112 133h125l-126 -133h-111zM219 -6q-53 0 -104 23t-84 66l68 88q22 -26 53 -44.5t62 -18.5q96 0 96 136v466h121v-467q0 -122 -50 -185.5t-162 -63.5z" />
    <glyph glyph-name="Tdieresis" horiz-adv-x="589" 
d="M193 793q-31 0 -52.5 22t-21.5 52q0 29 21.5 50.5t52.5 21.5t53 -22t22 -51q0 -30 -22 -51.5t-53 -21.5zM392 793q-31 0 -52.5 22t-21.5 52q0 29 21.5 50.5t52.5 21.5t53 -22t22 -51q0 -30 -22 -51.5t-53 -21.5zM233 0v602h-201v108h526v-108h-204v-602h-121z" />
    <glyph glyph-name="Q.alt" horiz-adv-x="828" 
d="M772 355q0 -96 -39 -174t-108 -126l138 -114l-73 -90l-180 152q-47 -11 -96 -11q-159 0 -259 102.5t-100 260.5t100 260.5t259 102.5q155 0 256.5 -101t101.5 -262zM180 355q0 -106 65.5 -178t168.5 -72q99 0 165.5 71t66.5 179q0 109 -66.5 179.5t-165.5 70.5
q-103 0 -168.5 -72t-65.5 -178z" />
    <glyph glyph-name="i.loclTRK" horiz-adv-x="272" 
d="M136 560q-31 0 -53 22t-22 53q0 30 22 52t53 22t53.5 -22t22.5 -52q0 -31 -22.5 -53t-53.5 -22zM80 0v488h112v-488h-112z" />
    <glyph glyph-name="uni006A0301" horiz-adv-x="249" 
d="M74 565l115 144l123 1l-124 -145h-114zM46 -206q-51 0 -95 18l19 97q22 -14 51 -14q49 0 49 72v521h112v-521q0 -82 -38 -127.5t-98 -45.5z" />
    <glyph glyph-name="a.alt" horiz-adv-x="514" 
d="M252 495q108 0 156 -50t48 -155v-290h-104l-4 46l-2 1q-58 -55 -141 -55q-76 0 -121 43.5t-45 111.5q0 77 49 118.5t144 41.5h116q-1 48 -26 68.5t-80 20.5q-70 0 -129 -34l-41 91q38 18 89.5 30t90.5 12zM224 85q56 0 90 22.5t34 57.5v53h-117q-83 0 -83 -67
q0 -31 19.5 -48.5t56.5 -17.5z" />
    <glyph glyph-name="aacute.alt" horiz-adv-x="514" 
d="M436 696l-124 -145h-114l115 144zM252 495q108 0 156 -50t48 -155v-290h-104l-4 46l-2 1q-58 -55 -141 -55q-76 0 -121 43.5t-45 111.5q0 77 49 118.5t144 41.5h116q-1 48 -26 68.5t-80 20.5q-70 0 -129 -34l-41 91q38 18 89.5 30t90.5 12zM224 85q56 0 90 22.5t34 57.5
v53h-117q-83 0 -83 -67q0 -31 19.5 -48.5t56.5 -17.5z" />
    <glyph glyph-name="abreve.alt" horiz-adv-x="514" 
d="M263 548q-71 0 -111 39.5t-45 109.5h88q2 -26 20 -44.5t48 -18.5t48 18.5t20 44.5h88q-5 -70 -45 -109.5t-111 -39.5zM252 495q108 0 156 -50t48 -155v-290h-104l-4 46l-2 1q-58 -55 -141 -55q-76 0 -121 43.5t-45 111.5q0 77 49 118.5t144 41.5h116q-1 48 -26 68.5
t-80 20.5q-70 0 -129 -34l-41 91q38 18 89.5 30t90.5 12zM224 85q56 0 90 22.5t34 57.5v53h-117q-83 0 -83 -67q0 -31 19.5 -48.5t56.5 -17.5z" />
    <glyph glyph-name="uni1EAF.alt" horiz-adv-x="514" 
d="M422 855l-123 -145h-83l83 145h123zM263 548q-71 0 -111 39.5t-45 109.5h88q2 -26 20 -44.5t48 -18.5t48 18.5t20 44.5h88q-5 -70 -45 -109.5t-111 -39.5zM252 495q108 0 156 -50t48 -155v-290h-104l-4 46l-2 1q-58 -55 -141 -55q-76 0 -121 43.5t-45 111.5
q0 77 49 118.5t144 41.5h116q-1 48 -26 68.5t-80 20.5q-70 0 -129 -34l-41 91q38 18 89.5 30t90.5 12zM224 85q56 0 90 22.5t34 57.5v53h-117q-83 0 -83 -67q0 -31 19.5 -48.5t56.5 -17.5z" />
    <glyph glyph-name="uni1EB7.alt" horiz-adv-x="514" 
d="M263 548q-71 0 -111 39.5t-45 109.5h88q2 -26 20 -44.5t48 -18.5t48 18.5t20 44.5h88q-5 -70 -45 -109.5t-111 -39.5zM252 495q108 0 156 -50t48 -155v-290h-104l-4 46l-2 1q-58 -55 -141 -55q-76 0 -121 43.5t-45 111.5q0 77 49 118.5t144 41.5h116q-1 48 -26 68.5
t-80 20.5q-70 0 -129 -34l-41 91q38 18 89.5 30t90.5 12zM224 85q56 0 90 22.5t34 57.5v53h-117q-83 0 -83 -67q0 -31 19.5 -48.5t56.5 -17.5zM263 -78q31 0 53 -22t22 -53q0 -30 -22 -52t-53 -22t-53.5 22t-22.5 52q0 31 22.5 53t53.5 22z" />
    <glyph glyph-name="uni1EB1.alt" horiz-adv-x="514" 
d="M310 710h-83l-123 145h123zM195 697q2 -26 20 -44.5t48 -18.5t48 18.5t20 44.5h88q-5 -70 -45 -109.5t-111 -39.5t-111 39.5t-45 109.5h88zM252 495q108 0 156 -50t48 -155v-290h-104l-4 46l-2 1q-58 -55 -141 -55q-76 0 -121 43.5t-45 111.5q0 77 49 118.5t144 41.5h116
q-1 48 -26 68.5t-80 20.5q-70 0 -129 -34l-41 91q38 18 89.5 30t90.5 12zM224 85q56 0 90 22.5t34 57.5v53h-117q-83 0 -83 -67q0 -31 19.5 -48.5t56.5 -17.5z" />
    <glyph glyph-name="uni1EB3.alt" horiz-adv-x="514" 
d="M257 799q-36 0 -84 -32l-24 55q50 50 134 50q40 0 64.5 -19.5t24.5 -58.5q0 -32 -24 -58.5t-52 -38.5h-78q68 49 66 82q0 20 -27 20zM263 550q-74 0 -115.5 37t-46.5 103h91q2 -25 20.5 -42t50.5 -17t50.5 17t20.5 42h91q-5 -66 -46.5 -103t-115.5 -37zM252 495
q108 0 156 -50t48 -155v-290h-104l-4 46l-2 1q-58 -55 -141 -55q-76 0 -121 43.5t-45 111.5q0 77 49 118.5t144 41.5h116q-1 48 -26 68.5t-80 20.5q-70 0 -129 -34l-41 91q38 18 89.5 30t90.5 12zM224 85q56 0 90 22.5t34 57.5v53h-117q-83 0 -83 -67q0 -31 19.5 -48.5
t56.5 -17.5z" />
    <glyph glyph-name="uni1EB5.alt" horiz-adv-x="514" 
d="M198 789q-30 -4 -48 -52l-68 31q34 104 107 104q36 0 77 -24q42 -25 57 -25q36 0 57 52l68 -23q-34 -113 -111 -113q-34 0 -80 28q-41 24 -59 22zM262 634q30 0 48 18.5t20 44.5h88q-5 -70 -45 -109.5t-111 -39.5t-111 39.5t-45 109.5h88q2 -26 20 -44.5t48 -18.5z
M252 495q108 0 156 -50t48 -155v-290h-104l-4 46l-2 1q-58 -55 -141 -55q-76 0 -121 43.5t-45 111.5q0 77 49 118.5t144 41.5h116q-1 48 -26 68.5t-80 20.5q-70 0 -129 -34l-41 91q38 18 89.5 30t90.5 12zM224 85q56 0 90 22.5t34 57.5v53h-117q-83 0 -83 -67
q0 -31 19.5 -48.5t56.5 -17.5z" />
    <glyph glyph-name="uni01CE.alt" horiz-adv-x="514" 
d="M319 552h-117l-105 145h109l54 -77h2l55 77h111zM252 495q108 0 156 -50t48 -155v-290h-104l-4 46l-2 1q-58 -55 -141 -55q-76 0 -121 43.5t-45 111.5q0 77 49 118.5t144 41.5h116q-1 48 -26 68.5t-80 20.5q-70 0 -129 -34l-41 91q38 18 89.5 30t90.5 12zM224 85
q56 0 90 22.5t34 57.5v53h-117q-83 0 -83 -67q0 -31 19.5 -48.5t56.5 -17.5z" />
    <glyph glyph-name="acircumflex.alt" horiz-adv-x="514" 
d="M263 631l-55 -77h-111l109 145h117l105 -145h-109l-54 77h-2zM252 495q108 0 156 -50t48 -155v-290h-104l-4 46l-2 1q-58 -55 -141 -55q-76 0 -121 43.5t-45 111.5q0 77 49 118.5t144 41.5h116q-1 48 -26 68.5t-80 20.5q-70 0 -129 -34l-41 91q38 18 89.5 30t90.5 12z
M224 85q56 0 90 22.5t34 57.5v53h-117q-83 0 -83 -67q0 -31 19.5 -48.5t56.5 -17.5z" />
    <glyph glyph-name="uni1EA5.alt" horiz-adv-x="514" 
d="M482 790h123l-123 -145h-83zM264 631l-55 -77h-111l109 145h117l105 -145h-109l-54 77h-2zM252 495q108 0 156 -50t48 -155v-290h-104l-4 46l-2 1q-58 -55 -141 -55q-76 0 -121 43.5t-45 111.5q0 77 49 118.5t144 41.5h116q-1 48 -26 68.5t-80 20.5q-70 0 -129 -34
l-41 91q38 18 89.5 30t90.5 12zM224 85q56 0 90 22.5t34 57.5v53h-117q-83 0 -83 -67q0 -31 19.5 -48.5t56.5 -17.5z" />
    <glyph glyph-name="uni1EAD.alt" horiz-adv-x="514" 
d="M263 631l-55 -77h-111l109 145h117l105 -145h-109l-54 77h-2zM252 495q108 0 156 -50t48 -155v-290h-104l-4 46l-2 1q-58 -55 -141 -55q-76 0 -121 43.5t-45 111.5q0 77 49 118.5t144 41.5h116q-1 48 -26 68.5t-80 20.5q-70 0 -129 -34l-41 91q38 18 89.5 30t90.5 12z
M224 85q56 0 90 22.5t34 57.5v53h-117q-83 0 -83 -67q0 -31 19.5 -48.5t56.5 -17.5zM263 -78q31 0 53 -22t22 -53q0 -30 -22 -52t-53 -22t-53.5 22t-22.5 52q0 31 22.5 53t53.5 22z" />
    <glyph glyph-name="uni1EA7.alt" horiz-adv-x="514" 
d="M510 645h-83l-123 145h123zM264 631l-55 -77h-111l109 145h117l105 -145h-109l-54 77h-2zM252 495q108 0 156 -50t48 -155v-290h-104l-4 46l-2 1q-58 -55 -141 -55q-76 0 -121 43.5t-45 111.5q0 77 49 118.5t144 41.5h116q-1 48 -26 68.5t-80 20.5q-70 0 -129 -34l-41 91
q38 18 89.5 30t90.5 12zM224 85q56 0 90 22.5t34 57.5v53h-117q-83 0 -83 -67q0 -31 19.5 -48.5t56.5 -17.5z" />
    <glyph glyph-name="uni1EA9.alt" horiz-adv-x="514" 
d="M477 830q40 0 64.5 -19.5t24.5 -58.5q0 -32 -24 -58.5t-52 -38.5h-78q68 49 66 82q0 20 -27 20q-36 0 -84 -32l-24 55q50 50 134 50zM263 631l-55 -77h-111l109 145h117l105 -145h-109l-54 77h-2zM252 495q108 0 156 -50t48 -155v-290h-104l-4 46l-2 1q-58 -55 -141 -55
q-76 0 -121 43.5t-45 111.5q0 77 49 118.5t144 41.5h116q-1 48 -26 68.5t-80 20.5q-70 0 -129 -34l-41 91q38 18 89.5 30t90.5 12zM224 85q56 0 90 22.5t34 57.5v53h-117q-83 0 -83 -67q0 -31 19.5 -48.5t56.5 -17.5z" />
    <glyph glyph-name="uni1EAB.alt" horiz-adv-x="514" 
d="M200 792q-30 -4 -48 -52l-68 31q34 104 107 104q36 0 77 -24q42 -25 57 -25q36 0 57 52l68 -23q-34 -113 -111 -113q-34 0 -80 28q-41 24 -59 22zM207 699h117l105 -145h-109l-54 77h-2l-55 -77h-111zM252 495q108 0 156 -50t48 -155v-290h-104l-4 46l-2 1
q-58 -55 -141 -55q-76 0 -121 43.5t-45 111.5q0 77 49 118.5t144 41.5h116q-1 48 -26 68.5t-80 20.5q-70 0 -129 -34l-41 91q38 18 89.5 30t90.5 12zM224 85q56 0 90 22.5t34 57.5v53h-117q-83 0 -83 -67q0 -31 19.5 -48.5t56.5 -17.5z" />
    <glyph glyph-name="adieresis.alt" horiz-adv-x="514" 
d="M163 562q-31 0 -52.5 22t-21.5 52q0 29 21.5 50.5t52.5 21.5t53 -22t22 -51q0 -30 -22 -51.5t-53 -21.5zM362 562q-31 0 -52.5 22t-21.5 52q0 29 21.5 50.5t52.5 21.5t53 -22t22 -51q0 -30 -22 -51.5t-53 -21.5zM252 495q108 0 156 -50t48 -155v-290h-104l-4 46l-2 1
q-58 -55 -141 -55q-76 0 -121 43.5t-45 111.5q0 77 49 118.5t144 41.5h116q-1 48 -26 68.5t-80 20.5q-70 0 -129 -34l-41 91q38 18 89.5 30t90.5 12zM224 85q56 0 90 22.5t34 57.5v53h-117q-83 0 -83 -67q0 -31 19.5 -48.5t56.5 -17.5z" />
    <glyph glyph-name="uni1EA1.alt" horiz-adv-x="514" 
d="M252 495q108 0 156 -50t48 -155v-290h-104l-4 46l-2 1q-58 -55 -141 -55q-76 0 -121 43.5t-45 111.5q0 77 49 118.5t144 41.5h116q-1 48 -26 68.5t-80 20.5q-70 0 -129 -34l-41 91q38 18 89.5 30t90.5 12zM224 85q56 0 90 22.5t34 57.5v53h-117q-83 0 -83 -67
q0 -31 19.5 -48.5t56.5 -17.5zM263 -78q31 0 53 -22t22 -53q0 -30 -22 -52t-53 -22t-53.5 22t-22.5 52q0 31 22.5 53t53.5 22z" />
    <glyph glyph-name="agrave.alt" horiz-adv-x="514" 
d="M353 554h-111l-124 144l125 -1zM252 495q108 0 156 -50t48 -155v-290h-104l-4 46l-2 1q-58 -55 -141 -55q-76 0 -121 43.5t-45 111.5q0 77 49 118.5t144 41.5h116q-1 48 -26 68.5t-80 20.5q-70 0 -129 -34l-41 91q38 18 89.5 30t90.5 12zM224 85q56 0 90 22.5t34 57.5v53
h-117q-83 0 -83 -67q0 -31 19.5 -48.5t56.5 -17.5z" />
    </font>
</defs>
</svg>
