<?xml version="1.0" standalone="no"?>
<!DOCTYPE svg PUBLIC "-//W3C//DTD SVG 1.1//EN" "http://www.w3.org/Graphics/SVG/1.1/DTD/svg11.dtd" >
<svg xmlns="http://www.w3.org/2000/svg" xmlns:xlink="http://www.w3.org/1999/xlink" version="1.1">
<metadata>
Created by FontForge 20170731 at Sat Jul 15 13:21:44 2017
 By Aleksey,,,
Copyright (c) 2015 by Kostas Bartsokas. All rights reserved.
</metadata>
<defs>
<font id="AvertaStd-Thin" horiz-adv-x="0" >
  <font-face 
    font-family="Averta Std Thin"
    font-weight="200"
    font-stretch="normal"
    units-per-em="1000"
    panose-1="0 0 3 0 0 0 0 0 0 0"
    ascent="800"
    descent="-200"
    x-height="485"
    cap-height="710"
    bbox="-663 -257 1349 1034"
    underline-thickness="22"
    underline-position="-123"
    unicode-range="U+000D-2E18"
  />
<missing-glyph horiz-adv-x="440" 
 />
    <glyph glyph-name=".notdef" horiz-adv-x="440" 
 />
    <glyph glyph-name=".null" 
 />
    <glyph glyph-name="nonmarkingreturn" horiz-adv-x="333" 
 />
    <glyph glyph-name="CR" unicode="&#xd;" 
 />
    <glyph glyph-name="space" unicode=" " horiz-adv-x="278" 
 />
    <glyph glyph-name="exclam" unicode="!" horiz-adv-x="200" 
d="M86 186l-6 550h39l-6 -550h-27zM100 -5q-15 0 -25 10t-10 25t10 24.5t25 9.5t25 -9.5t10 -24.5t-10 -25t-25 -10z" />
    <glyph glyph-name="quotedbl" unicode="&#x22;" horiz-adv-x="263" 
d="M48 488l34 222h38l-44 -222h-28zM142 488l35 222h39l-45 -222h-29z" />
    <glyph glyph-name="numbersign" unicode="#" horiz-adv-x="616" 
d="M141 -27l34 220h-131v30h134l29 182h-144v29h148l34 222h29l-34 -222h188l33 222h29l-34 -222h135v-29h-139l-27 -182h146v-30h-152l-33 -220h-28l33 220h-188l-33 -220h-29zM207 223h188l28 182h-188z" />
    <glyph glyph-name="dollar" unicode="$" horiz-adv-x="546" 
d="M498 168q0 -74 -52.5 -121t-147.5 -49v-123h-32v124q-117 8 -208 94l26 27q91 -88 206 -88q75 0 123 36t48 99q0 29 -10.5 52t-24 37.5t-41.5 28.5t-49 22t-60 20q-35 12 -45.5 15.5t-40.5 15.5t-40.5 19.5t-30.5 22t-27 28.5t-14 34t-7 44q0 70 50 114.5t141 44.5h4v127
h32v-130q95 -13 170 -66l-24 -27q-36 27 -88 44.5t-94 17.5q-68 0 -111 -33t-43 -91q0 -25 11 -46t23.5 -33.5t43 -27t46 -20t55.5 -19.5q46 -15 67 -22.5t54.5 -25t49 -34.5t28 -46t12.5 -65z" />
    <glyph glyph-name="percent" unicode="%" horiz-adv-x="949" 
d="M336 -9l-30 11l306 716l29 -12zM235 327q-83 0 -139.5 54.5t-56.5 140.5q0 81 54.5 137t141.5 56q82 0 139 -54t57 -139q0 -83 -54.5 -139t-141.5 -56zM235 357q74 0 119.5 47.5t45.5 117.5q0 72 -47.5 117t-117.5 45q-73 0 -118.5 -46.5t-45.5 -115.5q0 -74 47 -119.5
t117 -45.5zM705 -4q-82 0 -138.5 54.5t-56.5 139.5q0 82 54.5 137.5t140.5 55.5q84 0 140.5 -53.5t56.5 -139.5q0 -82 -55 -138t-142 -56zM706 26q73 0 119 47t46 117q0 72 -47.5 117.5t-117.5 45.5q-74 0 -120 -46.5t-46 -116.5q0 -72 48 -118t118 -46z" />
    <glyph glyph-name="ampersand" unicode="&#x26;" horiz-adv-x="626" 
d="M264 -4q-93 0 -155.5 55.5t-62.5 144.5q0 63 39 122t103 90v2l-96 107q2 89 55 143.5t143 54.5q68 0 117 -34.5t69 -91.5l-32 -12q-16 48 -55.5 76t-97.5 29q-77 0 -118.5 -42.5t-43.5 -114.5l344 -385h3q49 76 49 177h34q0 -117 -61 -204v-2l98 -111h-43l-76 85h-2
q-79 -89 -211 -89zM266 29q116 0 187 81v2l-242 271q-57 -27 -93.5 -78t-36.5 -108q0 -72 51 -120t134 -48z" />
    <glyph glyph-name="quotesingle" unicode="'" horiz-adv-x="168" 
d="M48 488l34 222h38l-44 -222h-28z" />
    <glyph glyph-name="parenleft" unicode="(" horiz-adv-x="241" 
d="M169 -138q-103 209 -103 436q0 247 109 436l27 -15q-103 -183 -103 -421q0 -217 99 -424z" />
    <glyph glyph-name="parenright" unicode=")" horiz-adv-x="241" 
d="M72 -138l-29 12q99 207 99 424q0 238 -103 421l27 15q109 -189 109 -436q0 -227 -103 -436z" />
    <glyph glyph-name="asterisk" unicode="*" horiz-adv-x="404" 
d="M187 403l4 135l-115 -71l-14 26l120 64l-121 64l15 25l115 -71l-4 135h29l-4 -135l116 72l14 -26l-120 -64l120 -64l-14 -25l-116 70l4 -135h-29z" />
    <glyph glyph-name="plus" unicode="+" horiz-adv-x="582" 
d="M274 45v215h-214v32h214v216h33v-216h215v-32h-215v-215h-33z" />
    <glyph glyph-name="comma" unicode="," horiz-adv-x="167" 
d="M35 -129l34 223h39l-45 -223h-28z" />
    <glyph glyph-name="hyphen" unicode="-" horiz-adv-x="404" 
d="M57 291v34h290v-34h-290z" />
    <glyph glyph-name="period" unicode="." horiz-adv-x="185" 
d="M92 -5q-15 0 -25 10t-10 25t10 24.5t25 9.5t25 -9.5t10 -24.5t-10 -25t-25 -10z" />
    <glyph glyph-name="slash" unicode="/" horiz-adv-x="380" 
d="M12 -115l-28 14l389 852l27 -15z" />
    <glyph glyph-name="zero" unicode="0" horiz-adv-x="611" 
d="M306 -4q-110 0 -179.5 91t-69.5 255q0 154 66 251.5t183 97.5q109 0 178.5 -91.5t69.5 -257.5q0 -152 -65.5 -249t-182.5 -97zM306 30q101 0 156.5 86t55.5 226q0 151 -59 233t-153 82q-101 0 -157 -86.5t-56 -228.5q0 -149 59.5 -230.5t153.5 -81.5z" />
    <glyph glyph-name="one" unicode="1" horiz-adv-x="330" 
d="M200 0v643l-157 -119l-20 27l179 136h33v-687h-35z" />
    <glyph glyph-name="two" unicode="2" horiz-adv-x="491" 
d="M32 0v29l256 251q55 53 85 101.5t30 105.5q0 74 -46 121.5t-119 47.5q-121 0 -172 -114l-30 18q58 130 203 130q82 0 141 -54.5t59 -146.5q0 -110 -122 -229l-231 -224l1 -2h362v-34h-417z" />
    <glyph glyph-name="three" unicode="3" horiz-adv-x="506" 
d="M246 -4q-81 0 -139 33t-85 90l32 15q52 -104 191 -104q78 0 128.5 43.5t50.5 114.5q0 66 -48 110t-137 44h-64v33h73q77 0 118 42t41 96q0 66 -46.5 105t-119.5 39q-110 0 -167 -81l-31 18q68 97 198 97q87 0 144.5 -47.5t57.5 -128.5q0 -49 -30.5 -93t-86.5 -61v-3
q63 -18 98.5 -65.5t35.5 -110.5q0 -82 -61 -134t-153 -52z" />
    <glyph glyph-name="four" unicode="4" horiz-adv-x="541" 
d="M373 0v129h-350v30l353 528h32v-525h106v-33h-106v-129h-35zM65 162h308v462z" />
    <glyph glyph-name="five" unicode="5" horiz-adv-x="534" 
d="M262 429q99 0 164.5 -58t65.5 -159q0 -95 -67 -155.5t-166 -60.5q-71 0 -131 33t-89 87l31 17q26 -47 76 -75t111 -28q86 0 142.5 51t56.5 131q0 86 -56 135t-142 49q-77 0 -135 -41l-27 4l19 329h348v-34h-316l-14 -259q58 34 129 34z" />
    <glyph glyph-name="six" unicode="6" horiz-adv-x="564" 
d="M304 426q97 0 156 -58t59 -156q0 -91 -64 -153.5t-164 -62.5q-102 0 -169 71.5t-67 185.5q0 96 31.5 180t82 139.5t108.5 90.5t115 45l9 -33q-49 -9 -97.5 -37t-93 -72t-76 -110t-40.5 -144q33 51 87.5 82.5t122.5 31.5zM292 30q85 0 138 52.5t53 129.5q0 83 -49.5 131.5
t-133.5 48.5q-78 0 -132 -42.5t-77 -104.5q2 -96 58.5 -155.5t142.5 -59.5z" />
    <glyph glyph-name="seven" unicode="7" horiz-adv-x="483" 
d="M29 687h423v-31l-302 -665l-34 10l298 652h-385v34z" />
    <glyph glyph-name="eight" unicode="8" horiz-adv-x="565" 
d="M280 -4q-104 0 -169 55.5t-65 136.5q0 69 41.5 118.5t110.5 64.5v2q-49 11 -83.5 50.5t-34.5 96.5q0 77 56.5 124t143.5 47q91 0 146.5 -48.5t55.5 -122.5q0 -57 -35.5 -96.5t-83.5 -50.5v-2q69 -14 110.5 -64t41.5 -119q0 -85 -67.5 -138.5t-167.5 -53.5zM280 387
q74 0 120.5 36t46.5 96q0 62 -47 100t-120 38q-75 0 -119.5 -39.5t-44.5 -98.5q0 -60 45.5 -96t118.5 -36zM280 30q89 0 144 46.5t55 113.5q0 74 -54 118.5t-145 44.5q-90 0 -144 -44.5t-54 -118.5q0 -70 57 -115t141 -45z" />
    <glyph glyph-name="nine" unicode="9" horiz-adv-x="568" 
d="M280 691q102 0 169 -73t66 -194q-1 -96 -36 -179.5t-89.5 -137t-113 -87.5t-114.5 -44l-7 33q47 10 97 37t98 71t82.5 111.5t43.5 146.5q-34 -52 -91 -84t-131 -32q-91 0 -149 57.5t-58 150.5q0 94 65.5 159t167.5 65zM258 293q70 0 131 37t90 108q-3 99 -59 159t-139 60
q-89 0 -143.5 -54.5t-54.5 -134.5q0 -79 48.5 -127t126.5 -48z" />
    <glyph glyph-name="colon" unicode=":" horiz-adv-x="177" 
d="M88 420q-15 0 -25 10t-10 25t10 24.5t25 9.5t25 -9.5t10 -24.5t-10 -25t-25 -10zM88 -5q-15 0 -25 10t-10 25t10 24.5t25 9.5t25 -9.5t10 -24.5t-10 -25t-25 -10z" />
    <glyph glyph-name="semicolon" unicode=";" horiz-adv-x="184" 
d="M89 420q-15 0 -25 10t-10 25t10 24.5t25 9.5t25 -9.5t10 -24.5t-10 -25t-25 -10zM36 -129l34 223h39l-45 -223h-28z" />
    <glyph glyph-name="less" unicode="&#x3c;" horiz-adv-x="556" 
d="M492 61l-433 208v25l433 210v-36l-383 -186l383 -185v-36z" />
    <glyph glyph-name="equal" unicode="=" horiz-adv-x="561" 
d="M53 372v32h461v-32h-461zM53 148v32h461v-32h-461z" />
    <glyph glyph-name="greater" unicode="&#x3e;" horiz-adv-x="553" 
d="M72 61v36l383 185l-383 186v36l433 -210v-25z" />
    <glyph glyph-name="question" unicode="?" horiz-adv-x="423" 
d="M175 182v59q0 12 2 24t8.5 24.5t11.5 21.5t16.5 22.5t17 20t20 22t19.5 21.5q39 41 61 79t22 86q0 66 -42.5 104.5t-103.5 38.5q-101 0 -155 -84l-25 26q32 45 79.5 69.5t101.5 24.5q81 0 132 -51t51 -127q0 -55 -25 -97.5t-69 -88.5q-6 -6 -22 -23.5t-22.5 -24.5
t-18 -21t-16 -23t-8.5 -21.5t-4 -23.5v-58h-31zM192 -5q-15 0 -25 10t-10 25t10 24.5t25 9.5t25 -9.5t10 -24.5t-10 -25t-25 -10z" />
    <glyph glyph-name="at" unicode="@" horiz-adv-x="897" 
d="M408 -132q-153 0 -255 102t-102 260q0 53 13.5 108.5t46 112t80.5 100.5t123.5 72t167.5 28q160 0 262 -97t102 -256q0 -29 -6 -61.5t-20 -67.5t-34.5 -62.5t-52.5 -45t-71 -17.5q-76 0 -79 83q-2 18 -1 32l-2 1q-23 -49 -70 -77t-103 -28q-75 0 -127 53t-52 139
q0 37 12.5 74.5t37 70.5t66.5 54t96 21t96 -29.5t61 -79.5l1 1l10 104h34l-26 -283q-2 -26 -2 -33q0 -44 13 -57.5t39 -13.5q49 0 85 40t50 88t14 93q0 146 -93 235.5t-240 89.5q-102 0 -182 -36.5t-126 -96t-69 -125.5t-23 -134q0 -142 92.5 -236.5t233.5 -94.5
q125 0 220 52l17 -24q-101 -59 -237 -59zM413 88q59 0 101.5 32.5t59.5 74t17 82.5q0 68 -40 112.5t-105 44.5q-87 0 -135 -55t-48 -127q0 -71 42 -117.5t108 -46.5z" />
    <glyph glyph-name="A" unicode="A" horiz-adv-x="647" 
d="M28 0l274 710h40l277 -710h-38l-79 204h-357l-79 -204h-38zM157 237h332l-165 430h-2z" />
    <glyph glyph-name="B" unicode="B" horiz-adv-x="615" 
d="M89 0v710h209q103 0 164.5 -41t61.5 -131q0 -59 -32 -103.5t-94 -61.5v-2q68 -11 114 -57t46 -125q0 -87 -61 -138t-182 -51h-226zM124 386h190q45 0 81.5 12.5t64 47.5t27.5 88q0 142 -191 142h-172v-290zM124 34h192q95 0 150 39t55 115q0 79 -53.5 122t-153.5 43h-190
v-319z" />
    <glyph glyph-name="C" unicode="C" horiz-adv-x="716" 
d="M409 -3q-150 0 -249 94.5t-99 260.5q0 157 92 260t255 103q164 0 273 -135l-28 -23q-99 123 -245 123t-228 -92t-82 -236q0 -150 88 -235.5t223 -85.5q147 0 244 122l28 -23q-107 -133 -272 -133z" />
    <glyph glyph-name="D" unicode="D" horiz-adv-x="710" 
d="M89 0v710h192q167 0 268 -98.5t101 -257.5t-100 -256.5t-266 -97.5h-195zM124 34h158q153 0 242 88.5t89 231.5t-91 232.5t-242 89.5h-156v-642z" />
    <glyph glyph-name="E" unicode="E" horiz-adv-x="570" 
d="M89 0v710h416v-34h-381v-304h319v-34h-319v-304h402v-34h-437z" />
    <glyph glyph-name="F" unicode="F" horiz-adv-x="554" 
d="M89 0v710h436v-34h-401v-308h345v-34h-345v-334h-35z" />
    <glyph glyph-name="G" unicode="G" horiz-adv-x="760" 
d="M410 -3q-154 0 -251.5 99t-97.5 258q0 160 97 260.5t251 100.5q158 0 260 -102l-24 -23q-94 90 -236 90q-138 0 -224.5 -90t-86.5 -236q0 -143 86.5 -233t225.5 -90q147 0 238 76v205h-257v34h292v-257q-103 -92 -273 -92z" />
    <glyph glyph-name="H" unicode="H" horiz-adv-x="698" 
d="M89 0v710h35v-358h449v358h36v-710h-36v318h-449v-318h-35z" />
    <glyph glyph-name="I" unicode="I" horiz-adv-x="227" 
d="M95 0v710h36v-710h-36z" />
    <glyph glyph-name="J" unicode="J" horiz-adv-x="472" 
d="M213 -3q-46 0 -97 24t-89 69l21 27q78 -86 164 -86q147 0 147 186v493h35v-497q0 -216 -181 -216z" />
    <glyph glyph-name="K" unicode="K" horiz-adv-x="619" 
d="M89 0v710h35v-465h2l400 465h46l-287 -334l293 -376h-46l-271 349l-137 -158v-191h-35z" />
    <glyph glyph-name="L" unicode="L" horiz-adv-x="534" 
d="M89 0v710h35v-676h386v-34h-421z" />
    <glyph glyph-name="M" unicode="M" horiz-adv-x="857" 
d="M89 0v710h36l303 -512h2l302 512h36v-710h-36v640h-1l-288 -487h-29l-288 487h-1v-640h-36z" />
    <glyph glyph-name="N" unicode="N" horiz-adv-x="733" 
d="M89 0v710h34l483 -649h1v649h36v-710h-36l-481 647h-2v-647h-35z" />
    <glyph glyph-name="O" unicode="O" horiz-adv-x="823" 
d="M413 -4q-150 0 -251 100.5t-101 259.5q0 158 101.5 258.5t250.5 100.5q147 0 248 -100.5t101 -258.5q0 -159 -101 -259.5t-248 -100.5zM413 31q131 0 221 91t90 234t-90 233.5t-221 90.5q-133 0 -224 -91t-91 -233q0 -143 90.5 -234t224.5 -91z" />
    <glyph glyph-name="P" unicode="P" horiz-adv-x="588" 
d="M89 0v710h236q114 0 168 -55.5t54 -148.5q0 -105 -64.5 -156.5t-175.5 -51.5h-183v-298h-35zM124 332h181q106 0 155.5 47.5t49.5 126.5q0 84 -49.5 127t-132.5 43h-204v-344z" />
    <glyph glyph-name="Q" unicode="Q" horiz-adv-x="832" 
d="M774 21l-22 -26l-102 91q-98 -90 -238 -90q-155 0 -253 103.5t-98 256.5q0 151 98 255t253 104q148 0 249 -100.5t101 -258.5q0 -147 -88 -246zM98 356q0 -138 88 -231.5t226 -93.5q123 0 211 80l-99 89l21 26l101 -91q78 89 78 221q0 142 -90 233t-222 91
q-138 0 -226 -93.5t-88 -230.5z" />
    <glyph glyph-name="R" unicode="R" horiz-adv-x="617" 
d="M89 0v710h236q112 0 167.5 -56t55.5 -148q0 -96 -54 -146t-151 -59l215 -301h-43l-214 298h-177v-298h-35zM124 332h182q106 0 155.5 47.5t49.5 126.5q0 84 -49.5 127t-137.5 43h-200v-344z" />
    <glyph glyph-name="S" unicode="S" horiz-adv-x="562" 
d="M284 -4q-68 0 -131.5 27t-109.5 81l25 28q37 -49 95.5 -75t122.5 -26q80 0 133.5 38.5t53.5 106.5q0 19 -5 35.5t-10 28t-19.5 24t-22.5 19.5t-30.5 17.5t-31.5 14.5t-37 15t-37 15l-43.5 18t-40.5 18.5t-40 22t-32.5 25.5t-27.5 31.5t-16 37.5t-7 46q0 73 58 122t147 49
q114 0 207 -76l-23 -29q-87 70 -183 70q-69 0 -119 -36t-50 -100q0 -23 6 -42t21.5 -35t28 -26.5t39 -23.5t41 -19t46.5 -19q6 -2 33 -13t34 -13.5t30 -12.5t29.5 -15t24.5 -16t24 -19t17 -21t15 -26t7.5 -29.5t3.5 -35.5q0 -81 -61.5 -131.5t-164.5 -50.5z" />
    <glyph glyph-name="T" unicode="T" horiz-adv-x="548" 
d="M255 0v676h-229v34h496v-34h-232v-676h-35z" />
    <glyph glyph-name="U" unicode="U" horiz-adv-x="687" 
d="M343 -4q-118 0 -190.5 77.5t-72.5 210.5v426h36v-425q0 -118 62 -186t165 -68t166 68t63 186v425h35v-426q0 -133 -73 -210.5t-191 -77.5z" />
    <glyph glyph-name="V" unicode="V" horiz-adv-x="638" 
d="M302 0l-272 710h39l250 -656h1l250 656h39l-272 -710h-35z" />
    <glyph glyph-name="W" unicode="W" horiz-adv-x="997" 
d="M263 0l-229 710h38l211 -655h1l193 655h43l192 -655h1l212 655h38l-229 -710h-41l-194 659h-1l-195 -659h-40z" />
    <glyph glyph-name="X" unicode="X" horiz-adv-x="616" 
d="M34 0l251 354l-251 356h41l233 -326h1l231 326h43l-252 -356l252 -354h-44l-229 322h-2l-232 -322h-42z" />
    <glyph glyph-name="Y" unicode="Y" horiz-adv-x="565" 
d="M264 0v322l-247 388h43l221 -350h2l222 350h42l-247 -388v-322h-36z" />
    <glyph glyph-name="Z" unicode="Z" horiz-adv-x="593" 
d="M56 0v31l423 644l-1 1h-396v34h444v-32l-423 -643l1 -1h426v-34h-474z" />
    <glyph glyph-name="bracketleft" unicode="[" horiz-adv-x="269" 
d="M79 -141v866h152v-29h-121v-808h121v-29h-152z" />
    <glyph glyph-name="backslash" unicode="\" horiz-adv-x="381" 
d="M377 -115l-388 851l27 15l389 -852z" />
    <glyph glyph-name="bracketright" unicode="]" horiz-adv-x="269" 
d="M190 -141h-152v29h121v808h-121v29h152v-866z" />
    <glyph glyph-name="asciicircum" unicode="^" horiz-adv-x="455" 
d="M66 500l145 210h33l145 -210h-37l-125 181l-124 -181h-37z" />
    <glyph glyph-name="underscore" unicode="_" horiz-adv-x="512" 
d="M-6 -57v29h525v-29h-525z" />
    <glyph glyph-name="grave" unicode="`" horiz-adv-x="507" 
d="M279 550l-115 129h42l113 -129h-40z" />
    <glyph glyph-name="a" unicode="a" horiz-adv-x="594" 
d="M284 -4q-101 0 -170 67.5t-69 174.5q0 106 67 178.5t173 72.5q66 0 120 -35.5t81 -96.5l1 1v127h33v-485h-33v124h-1q-27 -59 -80 -93.5t-122 -34.5zM287 29q84 0 142 58t58 151q0 92 -56 155.5t-144 63.5q-87 0 -147 -61.5t-60 -157.5q0 -89 57.5 -149t149.5 -60z" />
    <glyph glyph-name="b" unicode="b" horiz-adv-x="603" 
d="M316 -4q-69 0 -122 34.5t-80 92.5h-1v-123h-33v736h34v-377h1q28 61 81 95.5t120 34.5q105 0 172 -72.5t67 -178.5q0 -107 -68.5 -174.5t-170.5 -67.5zM314 29q91 0 148.5 60t57.5 149q0 97 -59.5 158t-147.5 61t-144 -63.5t-56 -155.5q0 -93 58 -151t143 -58z" />
    <glyph glyph-name="c" unicode="c" horiz-adv-x="503" 
d="M280 -4q-104 0 -168.5 68.5t-64.5 177.5q0 108 65 177.5t169 69.5q113 0 184 -79l-25 -23q-58 70 -158 70q-89 0 -145 -60.5t-56 -154.5q0 -95 55.5 -154t144.5 -59q103 0 162 68l23 -24q-72 -77 -186 -77z" />
    <glyph glyph-name="d" unicode="d" horiz-adv-x="603" 
d="M287 -4q-102 0 -171.5 67.5t-69.5 174.5q0 106 67.5 178.5t173.5 72.5q66 0 120 -35.5t81 -96.5h2v379h33v-736h-32v126h-2q-25 -59 -79 -94.5t-123 -35.5zM289 29q85 0 143.5 58t58.5 151q0 92 -57 155.5t-145 63.5t-148 -61t-60 -158q0 -89 58 -149t150 -60z" />
    <glyph glyph-name="e" unicode="e" horiz-adv-x="536" 
d="M493 256q0 -16 -1 -18h-411q1 -91 57 -150t142 -59q108 0 168 78l25 -20q-68 -91 -192 -91q-102 0 -168 69.5t-66 176.5q0 106 66.5 176.5t165.5 70.5q94 0 154 -66t60 -167zM278 457q-77 0 -132.5 -53t-63.5 -135h377q-7 85 -55.5 136.5t-125.5 51.5z" />
    <glyph glyph-name="f" unicode="f" horiz-adv-x="315" 
d="M103 0v453h-66v32h66v114q0 71 32.5 106.5t88.5 35.5q51 0 99 -28l-7 -31q-47 26 -91 26q-40 0 -64 -27t-24 -84v-112h166v-32h-166v-453h-34z" />
    <glyph glyph-name="g" unicode="g" horiz-adv-x="589" 
d="M292 -202q-105 0 -198 56l9 33q89 -56 189 -56q95 0 143 50t48 134v121h-1q-26 -58 -78.5 -91.5t-122.5 -33.5q-100 0 -167.5 67t-67.5 174q0 100 66 168.5t169 68.5q66 0 119.5 -32.5t81.5 -88.5h1v117h33v-470q0 -99 -57 -158t-167 -59zM283 44q91 0 146 59t55 150
q0 90 -57 147t-143 57q-90 0 -146.5 -59t-56.5 -145q0 -93 58 -151t144 -58z" />
    <glyph glyph-name="h" unicode="h" horiz-adv-x="554" 
d="M80 0v736h34v-372h1q26 59 78.5 92t122.5 33q79 0 124 -51t45 -146v-292h-33v279q0 92 -38.5 135t-101.5 43q-90 0 -144 -59t-54 -158v-240h-34z" />
    <glyph glyph-name="i" unicode="i" horiz-adv-x="205" 
d="M104 599q-14 0 -24 10t-10 24q0 15 9.5 24t24.5 9t24.5 -9t9.5 -24q0 -14 -9.5 -24t-24.5 -10zM85 0v485h34v-485h-34z" />
    <glyph glyph-name="j" unicode="j" horiz-adv-x="185" 
d="M99 599q-14 0 -24 10t-10 24q0 15 9.5 24t24.5 9t24.5 -9t9.5 -24q0 -14 -9.5 -24t-24.5 -10zM9 -202q-37 0 -67 15l5 33q27 -15 61 -15q73 0 73 91v563h34v-563q0 -124 -106 -124z" />
    <glyph glyph-name="k" unicode="k" horiz-adv-x="490" 
d="M80 0v736h34v-580l1 -1l301 330h45l-191 -209l189 -276h-40l-173 251l-132 -143v-108h-34z" />
    <glyph glyph-name="l" unicode="l" horiz-adv-x="204" 
d="M85 0v736h34v-736h-34z" />
    <glyph glyph-name="m" unicode="m" horiz-adv-x="867" 
d="M80 0v485h34v-120h1q25 58 73 91t106 33q63 0 103.5 -36.5t55.5 -102.5h1q23 65 72.5 102t110.5 37q81 0 122.5 -56t41.5 -155v-278h-34v264q0 96 -34.5 144.5t-99.5 48.5q-73 0 -122.5 -60.5t-49.5 -156.5v-240h-34v264q0 95 -36.5 144t-100.5 49q-75 0 -125.5 -60.5
t-50.5 -156.5v-240h-34z" />
    <glyph glyph-name="n" unicode="n" horiz-adv-x="549" 
d="M80 0v485h34v-121h1q26 59 78 92t119 33q78 0 123 -51.5t45 -146.5v-291h-33v278q0 93 -38.5 136t-101.5 43q-87 0 -140 -59.5t-53 -157.5v-240h-34z" />
    <glyph glyph-name="o" unicode="o" horiz-adv-x="582" 
d="M291 -4q-107 0 -175.5 71.5t-68.5 174.5q0 104 68.5 175.5t175.5 71.5q103 0 173.5 -69.5t70.5 -177.5t-70.5 -177t-173.5 -69zM291 29q89 0 149 59.5t60 153.5t-60 154.5t-149 60.5q-92 0 -151 -62.5t-59 -152.5t58.5 -151.5t151.5 -61.5z" />
    <glyph glyph-name="p" unicode="p" horiz-adv-x="603" 
d="M80 -198v683h34v-127h1q28 61 81.5 96t120.5 35q105 0 171.5 -72.5t66.5 -178.5q0 -107 -68.5 -174.5t-169.5 -67.5q-69 0 -122 34t-80 92h-1v-320h-34zM315 29q91 0 148 60t57 149q0 97 -59.5 158t-146.5 61q-89 0 -145 -63.5t-56 -155.5q0 -93 58 -151t144 -58z" />
    <glyph glyph-name="q" unicode="q" horiz-adv-x="603" 
d="M491 -198v320h-1q-28 -58 -81 -92t-121 -34q-102 0 -171 67.5t-69 174.5q0 106 67.5 178.5t173.5 72.5q65 0 119 -35.5t82 -96.5h1v128h33v-683h-33zM290 29q85 0 143 58t58 151q0 92 -56 155.5t-144 63.5t-148 -61t-60 -158q0 -89 57.5 -149t149.5 -60z" />
    <glyph glyph-name="r" unicode="r" horiz-adv-x="324" 
d="M80 0v485h34v-114h2q23 55 66.5 86.5t102.5 31.5q20 0 30 -1v-37q-22 2 -30 2q-78 0 -124.5 -58.5t-46.5 -153.5v-241h-34z" />
    <glyph glyph-name="s" unicode="s" horiz-adv-x="419" 
d="M213 -4q-103 0 -179 68l18 26q71 -62 161 -62q60 0 95.5 28t35.5 68q0 13 -3.5 23.5t-7.5 18.5t-14 16t-16.5 12.5t-22 11t-24 9.5t-29 10.5t-29.5 10.5q-35 13 -56 22.5t-43.5 25t-32.5 37t-10 49.5q0 51 41.5 85t102.5 34q90 0 159 -58l-20 -26q-58 51 -139 51
q-46 0 -77.5 -24.5t-31.5 -59.5q0 -22 8.5 -38t27.5 -28.5t34 -19.5t45 -18q97 -34 121 -49q53 -33 52 -96q-1 -54 -44.5 -90.5t-121.5 -36.5z" />
    <glyph glyph-name="t" unicode="t" horiz-adv-x="355" 
d="M206 -4q-64 0 -88 34t-24 101v322h-66v32h66v173l34 4v-177h188v-32h-188v-307q0 -61 15.5 -89t62.5 -28q53 0 98 31l9 -32q-50 -32 -107 -32z" />
    <glyph glyph-name="u" unicode="u" horiz-adv-x="538" 
d="M251 -4q-87 0 -135 56t-48 154v279h34v-266q0 -96 40 -143t113 -47q75 0 125.5 60t50.5 157v239h34v-485h-34v118l-1 1q-25 -58 -73 -90.5t-106 -32.5z" />
    <glyph glyph-name="v" unicode="v" horiz-adv-x="499" 
d="M234 0l-206 485h38l184 -437h1l182 437h37l-203 -485h-33z" />
    <glyph glyph-name="w" unicode="w" horiz-adv-x="754" 
d="M204 0l-171 485h35l152 -430h2l137 430h35l139 -430h2l151 430h36l-171 -485h-35l-138 432h-1l-140 -432h-33z" />
    <glyph glyph-name="x" unicode="x" horiz-adv-x="474" 
d="M32 0l184 243l-185 242h43l162 -215h2l163 215h43l-185 -241l185 -244h-42l-164 213h-1l-163 -213h-42z" />
    <glyph glyph-name="y" unicode="y" horiz-adv-x="510" 
d="M158 -198l86 206l-218 477h39l196 -435h1l182 435h38l-287 -683h-37z" />
    <glyph glyph-name="z" unicode="z" horiz-adv-x="444" 
d="M30 0v29l331 423v1h-318v32h365v-28l-332 -424v-2h336v-31h-382z" />
    <glyph glyph-name="braceleft" unicode="{" horiz-adv-x="297" 
d="M211 -141q-42 0 -69.5 25t-27.5 68v245q0 16 -1.5 25.5t-8.5 21.5t-23.5 18.5t-42.5 8.5v30q27 3 43 9t23 18t8.5 21t1.5 26v255q0 41 26 68t71 27h32v-28h-27q-32 0 -52 -19t-20 -52v-247q0 -43 -12.5 -64.5t-48.5 -27.5v-2q37 -7 49 -27.5t12 -64.5v-220
q0 -47 17.5 -66.5t54.5 -19.5h27v-28h-32z" />
    <glyph glyph-name="bar" unicode="|" horiz-adv-x="251" 
d="M109 -115v852h32v-852h-32z" />
    <glyph glyph-name="braceright" unicode="}" horiz-adv-x="297" 
d="M86 -141h-32v28h27q37 0 54.5 19.5t17.5 66.5v220q0 44 12 64.5t49 27.5v2q-36 6 -48.5 27.5t-12.5 64.5v247q0 33 -20 52t-52 19h-27v28h32q45 0 71 -27t26 -68v-255q0 -17 1.5 -26t8.5 -21t23 -18t43 -9v-30q-26 -2 -42.5 -8.5t-23.5 -18.5t-8.5 -21.5t-1.5 -25.5v-245
q0 -43 -27.5 -68t-69.5 -25z" />
    <glyph glyph-name="asciitilde" unicode="~" horiz-adv-x="544" 
d="M373 227q-10 0 -21 2t-18.5 4t-20 7.5t-17.5 8t-19.5 9.5t-17.5 9q-47 26 -83 26q-57 0 -85 -60l-25 10q34 83 108 83q35 0 101 -30q66 -36 98 -36q55 0 79 59l24 -9q-15 -41 -43 -62t-60 -21z" />
    <glyph glyph-name="uni00A0" unicode="&#xa0;" horiz-adv-x="278" 
 />
    <glyph glyph-name="exclamdown" unicode="&#xa1;" horiz-adv-x="200" 
d="M100 489q15 0 25 -10t10 -25t-10 -24.5t-25 -9.5t-25 9.5t-10 24.5t10 25t25 10zM86 298h27l6 -550h-39z" />
    <glyph glyph-name="cent" unicode="&#xa2;" horiz-adv-x="531" 
d="M498 128q-69 -71 -177 -77v-112h-30v111q-105 4 -169.5 72.5t-64.5 173.5q0 106 64.5 174.5t169.5 72.5v121h30v-121q109 -7 175 -79l-25 -22q-64 69 -167 69q-94 0 -152.5 -60t-58.5 -155q0 -94 58 -153t152 -59q50 0 96 18t75 49z" />
    <glyph glyph-name="sterling" unicode="&#xa3;" horiz-adv-x="550" 
d="M45 0v34h91v327h-70v30h70v83q0 108 53 162.5t134 54.5q115 0 174 -98l-24 -24q-50 88 -148 88q-70 0 -112 -48.5t-42 -139.5v-78h177v-30h-176v-327h355v-34h-482z" />
    <glyph glyph-name="currency" unicode="&#xa4;" horiz-adv-x="490" 
d="M426 384q0 -67 -44 -119l77 -76l-21 -21l-76 77q-53 -43 -120 -43t-119 44l-77 -77l-20 21l77 77q-43 51 -43 117q0 68 43 119l-77 78l20 20l78 -78q51 45 119 45q67 0 118 -43l77 77l21 -20l-77 -78q44 -52 44 -120zM243 233q63 0 107.5 45t44.5 107q-1 63 -45 108
t-107 45t-107.5 -45t-44.5 -107q1 -63 45 -108t107 -45z" />
    <glyph glyph-name="yen" unicode="&#xa5;" horiz-adv-x="524" 
d="M509 687l-204 -347h159v-30h-177l-6 -11v-78h183v-30h-183v-191h-35v191h-187v30h187v78l-6 11h-181v30h163l-204 347h42l203 -350h2l204 350h40z" />
    <glyph glyph-name="brokenbar" unicode="&#xa6;" horiz-adv-x="251" 
d="M109 386v351h33v-351h-33zM109 -114v354h33v-354h-33z" />
    <glyph glyph-name="section" unicode="&#xa7;" horiz-adv-x="510" 
d="M362 118q80 -42 80 -119q0 -66 -50 -108.5t-134 -42.5q-124 0 -200 88l23 25q32 -39 79 -59t96 -20q63 0 106.5 30.5t43.5 85.5q0 18 -4.5 33t-18.5 28t-22 20.5t-34.5 18.5t-35 14.5t-42.5 15.5q-106 39 -140 63q-55 39 -55 100q0 46 27 80.5t75 49.5q-75 45 -75 119
q0 62 46 103t121 41q46 0 93.5 -17t82.5 -46l-22 -26q-69 55 -151 55q-54 0 -94 -29t-40 -80q0 -27 11 -47.5t37 -36.5t44.5 -24t58.5 -23q100 -36 128 -54q60 -39 60 -108q0 -92 -94 -130zM90 295q0 -26 11.5 -46t38.5 -36.5t50 -26t68 -25.5q46 -16 66 -25q44 11 70.5 39
t26.5 70q0 13 -2 24t-8.5 21t-11 17t-17 15t-18 12t-23.5 11.5t-24.5 10t-28.5 10.5t-29 11q-56 22 -62 24q-48 -8 -77.5 -35.5t-29.5 -70.5z" />
    <glyph glyph-name="dieresis" unicode="&#xa8;" horiz-adv-x="499" 
d="M173 587q-14 0 -24 9.5t-10 23.5q0 15 9.5 24t24.5 9q14 0 23.5 -9.5t9.5 -23.5t-9.5 -23.5t-23.5 -9.5zM327 587q-15 0 -24.5 9.5t-9.5 23.5q0 15 9.5 24t24.5 9q14 0 23.5 -9.5t9.5 -23.5t-9.5 -23.5t-23.5 -9.5z" />
    <glyph glyph-name="copyright" unicode="&#xa9;" horiz-adv-x="668" 
d="M334 26q-120 0 -204.5 86.5t-84.5 205.5t84.5 205.5t205.5 86.5t204.5 -86t83.5 -206q0 -119 -84 -205.5t-205 -86.5zM334 55q109 0 184.5 78t75.5 185q0 108 -75.5 185.5t-183.5 77.5q-109 0 -185 -78t-76 -185q0 -108 75.5 -185.5t184.5 -77.5zM342 154q-69 0 -114 43
t-45 118q0 72 42 118.5t117 46.5q76 0 126 -61l-22 -18q-41 51 -104 51q-62 0 -96.5 -38t-34.5 -99q0 -63 36.5 -98t94.5 -35q66 0 104 51l22 -19q-48 -60 -126 -60z" />
    <glyph glyph-name="ordfeminine" unicode="&#xaa;" horiz-adv-x="411" 
d="M199 393q-62 0 -104 41t-42 105t41 107t105 43q80 0 121 -67h1v65h30v-291h-30v61h-1q-41 -64 -121 -64zM204 422q50 0 84 32.5t34 84.5t-33 87t-84 35q-52 0 -87 -34t-35 -88q0 -50 33.5 -83.5t87.5 -33.5z" />
    <glyph glyph-name="guillemotleft" unicode="&#xab;" horiz-adv-x="425" 
d="M200 16h-34l-129 228l129 228h34l-127 -228zM356 16h-34l-129 228l129 228h34l-128 -228z" />
    <glyph glyph-name="logicalnot" unicode="&#xac;" horiz-adv-x="569" 
d="M471 182v155h-405v32h437v-187h-32z" />
    <glyph glyph-name="registered" unicode="&#xae;" horiz-adv-x="668" 
d="M335 610q121 0 204.5 -86t83.5 -206q0 -119 -84 -205.5t-205 -86.5q-120 0 -204.5 86.5t-84.5 205.5t84.5 205.5t205.5 86.5zM334 55q109 0 184.5 78t75.5 185q0 108 -75.5 185.5t-183.5 77.5q-109 0 -185 -78t-76 -185q0 -108 75.5 -185.5t184.5 -77.5zM448 389
q0 -83 -83 -94l97 -137h-33l-97 135h-65v-135h-28v324h107q51 0 76.5 -25.5t25.5 -67.5zM267 455v-136h72q81 0 81 70q0 31 -19.5 48.5t-53.5 17.5h-80z" />
    <glyph glyph-name="macron" unicode="&#xaf;" horiz-adv-x="476" 
d="M103 601v32h271v-32h-271z" />
    <glyph glyph-name="degree" unicode="&#xb0;" horiz-adv-x="386" 
d="M193 451q-55 0 -95 38.5t-40 92.5t40.5 93.5t94.5 39.5t94 -40t40 -94q0 -53 -39.5 -91.5t-94.5 -38.5zM193 479q43 0 74.5 30.5t31.5 71.5q0 43 -32 74t-74 31t-74 -31t-32 -73q0 -43 31 -73t75 -30z" />
    <glyph glyph-name="plusminus" unicode="&#xb1;" horiz-adv-x="572" 
d="M269 144v215h-214v32h214v216h33v-216h215v-32h-215v-215h-33zM55 0v32h461v-32h-461z" />
    <glyph glyph-name="uni00B2" unicode="&#xb2;" horiz-adv-x="327" 
d="M23 436v24l161 146q36 34 54.5 61t18.5 58q0 40 -28 68t-72 28q-32 0 -62 -17t-46 -48l-24 17q17 35 53.5 56.5t79.5 21.5q53 0 91.5 -34.5t38.5 -88.5q0 -37 -18.5 -69t-59.5 -69l-135 -123l1 -2h218v-29h-271z" />
    <glyph glyph-name="uni00B3" unicode="&#xb3;" horiz-adv-x="330" 
d="M166 432q-109 0 -147 77l28 13q31 -60 117 -60q50 0 78.5 23t28.5 66q0 35 -30.5 59.5t-82.5 24.5h-39v29h46q45 0 71.5 21.5t26.5 54.5q0 38 -27.5 60t-75.5 22q-70 0 -100 -48l-27 16q41 61 127 61q57 0 95 -28.5t38 -78.5q0 -72 -70 -93v-2q80 -24 80 -104
q0 -50 -38 -81.5t-99 -31.5z" />
    <glyph glyph-name="acute" unicode="&#xb4;" horiz-adv-x="507" 
d="M187 547l122 136h43l-124 -136h-41z" />
    <glyph glyph-name="uni00B5" unicode="&#xb5;" horiz-adv-x="553" 
d="M79 -198v683h34v-264q0 -95 41 -143.5t112 -48.5q75 0 125 59.5t50 156.5v240h34v-485h-31l-3 116h-2q-26 -56 -72.5 -88t-103.5 -32q-108 0 -151 91l-1 -1q2 -74 2 -112v-172h-34z" />
    <glyph glyph-name="paragraph" unicode="&#xb6;" horiz-adv-x="378" 
d="M259 -148v752h-60v-604h-29v404q-56 1 -90.5 31t-34.5 83q0 55 34 85.5t92 30.5h116v-782h-28z" />
    <glyph glyph-name="periodcentered" unicode="&#xb7;" horiz-adv-x="169" 
d="M87 204q-15 0 -25 10t-10 25t10 24.5t25 9.5t25 -9.5t10 -24.5t-10 -25t-25 -10z" />
    <glyph glyph-name="cedilla" unicode="&#xb8;" horiz-adv-x="395" 
d="M178 -185q-28 0 -50 6v27q23 -7 46 -7q27 0 45.5 12.5t18.5 36.5q0 21 -22 37.5t-61 16.5l1 21l19 41h28l-17 -39v-2q33 -2 57.5 -22.5t24.5 -54.5q0 -31 -24 -52t-66 -21z" />
    <glyph glyph-name="uni00B9" unicode="&#xb9;" horiz-adv-x="225" 
d="M129 436v370l-97 -66l-16 25l119 82h25v-411h-31z" />
    <glyph glyph-name="ordmasculine" unicode="&#xba;" horiz-adv-x="408" 
d="M204 392q-67 0 -109 43t-42 106t42 105.5t109 42.5q64 0 107 -41.5t43 -106.5t-43 -107t-107 -42zM204 422q50 0 85 33.5t35 85.5t-35 86t-85 34q-54 0 -87 -34.5t-33 -85.5q0 -50 33.5 -84.5t86.5 -34.5z" />
    <glyph glyph-name="guillemotright" unicode="&#xbb;" horiz-adv-x="425" 
d="M69 16l128 228l-128 228h34l129 -228l-129 -228h-34zM225 16l127 228l-127 228h34l129 -228l-129 -228h-34z" />
    <glyph glyph-name="onequarter" unicode="&#xbc;" horiz-adv-x="704" 
d="M187 -9l-29 11l306 716l29 -12zM129 299v370l-97 -66l-16 25l119 82h25v-411h-31zM583 0v75h-213v25l218 311h25v-307h67v-29h-67v-75h-30zM407 103h177v253z" />
    <glyph glyph-name="onehalf" unicode="&#xbd;" horiz-adv-x="733" 
d="M187 -9l-29 11l306 716l29 -12zM129 299v370l-97 -66l-16 25l119 82h25v-411h-31zM429 0v24l161 146q36 34 54.5 61t18.5 58q0 40 -28 68t-72 28q-32 0 -62 -17t-46 -48l-24 17q17 35 53.5 56.5t79.5 21.5q53 0 91.5 -34.5t38.5 -88.5q0 -37 -18.5 -69t-59.5 -69
l-135 -123l1 -2h218v-29h-271z" />
    <glyph glyph-name="threequarters" unicode="&#xbe;" horiz-adv-x="795" 
d="M278 -9l-29 11l306 716l29 -12zM166 295q-109 0 -147 77l28 13q31 -60 117 -60q50 0 78.5 23t28.5 66q0 35 -30.5 59.5t-82.5 24.5h-39v29h46q45 0 71.5 21.5t26.5 54.5q0 38 -27.5 60t-75.5 22q-70 0 -100 -48l-27 16q41 61 127 61q57 0 95 -28.5t38 -78.5
q0 -72 -70 -93v-2q80 -24 80 -104q0 -50 -38 -81.5t-99 -31.5zM674 0v75h-213v25l218 311h25v-307h67v-29h-67v-75h-30zM498 103h177v253z" />
    <glyph glyph-name="questiondown" unicode="&#xbf;" horiz-adv-x="383" 
d="M231 489q15 0 25 -10t10 -25t-10 -24.5t-25 -9.5t-25 9.5t-10 24.5t10 25t25 10zM248 302v-59q0 -12 -2 -24t-8.5 -24.5t-11.5 -21.5t-16.5 -22.5t-17 -20t-20 -22t-19.5 -21.5q-39 -41 -61 -79t-22 -86q0 -66 42.5 -104.5t103.5 -38.5q101 0 155 84l25 -26
q-32 -45 -79.5 -69.5t-101.5 -24.5q-81 0 -132 51t-51 127q0 55 25 97.5t69 88.5q6 6 22 23.5t22.5 24.5t18 21t16 23t8.5 21.5t4 23.5v58h31z" />
    <glyph glyph-name="Agrave" unicode="&#xc0;" horiz-adv-x="647" 
d="M306 792l-115 125h42l113 -125h-40zM28 0l274 710h40l277 -710h-38l-79 204h-357l-79 -204h-38zM157 237h332l-165 430h-2z" />
    <glyph glyph-name="Aacute" unicode="&#xc1;" horiz-adv-x="647" 
d="M300 792l113 125h42l-116 -125h-39zM28 0l274 710h40l277 -710h-38l-79 204h-357l-79 -204h-38zM157 237h332l-165 430h-2z" />
    <glyph glyph-name="Acircumflex" unicode="&#xc2;" horiz-adv-x="647" 
d="M183 792l123 112h37l120 -112h-40l-98 89h-2l-101 -89h-39zM28 0l274 710h40l277 -710h-38l-79 204h-357l-79 -204h-38zM157 237h332l-165 430h-2z" />
    <glyph glyph-name="Atilde" unicode="&#xc3;" horiz-adv-x="647" 
d="M401 792q-31 0 -87 39q-38 28 -63 28q-41 0 -63 -60l-27 9q27 81 88 81q29 0 79 -32l16.5 -11t19 -12.5t16 -7.5t19.5 -4q42 0 59 60l27 -9q-25 -81 -84 -81zM28 0l274 710h40l277 -710h-38l-79 204h-357l-79 -204h-38zM157 237h332l-165 430h-2z" />
    <glyph glyph-name="Adieresis" unicode="&#xc4;" horiz-adv-x="647" 
d="M247 821q-14 0 -24 9.5t-10 23.5q0 15 9.5 24t24.5 9q14 0 23.5 -9.5t9.5 -23.5t-9.5 -23.5t-23.5 -9.5zM401 821q-15 0 -24.5 9.5t-9.5 23.5q0 15 9.5 24t24.5 9q14 0 23.5 -9.5t9.5 -23.5t-9.5 -23.5t-23.5 -9.5zM28 0l274 710h40l277 -710h-38l-79 204h-357l-79 -204
h-38zM157 237h332l-165 430h-2z" />
    <glyph glyph-name="Aring" unicode="&#xc5;" horiz-adv-x="647" 
d="M322 780q-31 0 -54 23t-23 54t22.5 54t54.5 23t55.5 -22.5t23.5 -54.5q0 -31 -23 -54t-56 -23zM322 809q21 0 36 14t15 34t-15 35t-36 15q-20 0 -34.5 -15t-14.5 -35t14.5 -34t34.5 -14zM28 0l274 710h40l277 -710h-38l-79 204h-357l-79 -204h-38zM157 237h332l-165 430
h-2z" />
    <glyph glyph-name="AE" unicode="&#xc6;" horiz-adv-x="906" 
d="M6 0l404 710h440v-34h-381v-305h322v-34h-322v-303h401v-34h-437v204h-270l-117 -204h-40zM181 237h252v439h-1z" />
    <glyph glyph-name="Ccedilla" unicode="&#xc7;" horiz-adv-x="716" 
d="M409 31q147 0 244 122l28 -23q-107 -133 -272 -133h-4l-13 -30v-2q33 -2 57.5 -22.5t24.5 -54.5q0 -31 -24 -52t-66 -21q-28 0 -50 6v27q23 -7 46 -7q27 0 45.5 12.5t18.5 36.5q0 21 -22 37.5t-61 16.5l1 21l15 33q-138 10 -227 103.5t-89 250.5t92 260t255 103
q164 0 273 -135l-28 -23q-99 123 -245 123t-228 -92t-82 -236q0 -150 88 -235.5t223 -85.5z" />
    <glyph glyph-name="Egrave" unicode="&#xc8;" horiz-adv-x="570" 
d="M322 792l-115 125h42l113 -125h-40zM89 0v710h416v-34h-381v-304h319v-34h-319v-304h402v-34h-437z" />
    <glyph glyph-name="Eacute" unicode="&#xc9;" horiz-adv-x="570" 
d="M216 792l113 125h42l-116 -125h-39zM89 0v710h416v-34h-381v-304h319v-34h-319v-304h402v-34h-437z" />
    <glyph glyph-name="Ecircumflex" unicode="&#xca;" horiz-adv-x="570" 
d="M150 792l123 112h37l120 -112h-40l-98 89h-2l-101 -89h-39zM89 0v710h416v-34h-381v-304h319v-34h-319v-304h402v-34h-437z" />
    <glyph glyph-name="Edieresis" unicode="&#xcb;" horiz-adv-x="570" 
d="M214 821q-14 0 -24 9.5t-10 23.5q0 15 9.5 24t24.5 9q14 0 23.5 -9.5t9.5 -23.5t-9.5 -23.5t-23.5 -9.5zM368 821q-15 0 -24.5 9.5t-9.5 23.5q0 15 9.5 24t24.5 9q14 0 23.5 -9.5t9.5 -23.5t-9.5 -23.5t-23.5 -9.5zM89 0v710h416v-34h-381v-304h319v-34h-319v-304h402
v-34h-437z" />
    <glyph glyph-name="Igrave" unicode="&#xcc;" horiz-adv-x="227" 
d="M91 792l-115 125h42l113 -125h-40zM95 0v710h36v-710h-36z" />
    <glyph glyph-name="Iacute" unicode="&#xcd;" horiz-adv-x="227" 
d="M96 792l113 125h42l-116 -125h-39zM95 0v710h36v-710h-36z" />
    <glyph glyph-name="Icircumflex" unicode="&#xce;" horiz-adv-x="227" 
d="M-27 792l123 112h37l120 -112h-40l-98 89h-2l-101 -89h-39zM95 0v710h36v-710h-36z" />
    <glyph glyph-name="Idieresis" unicode="&#xcf;" horiz-adv-x="227" 
d="M37 821q-14 0 -24 9.5t-10 23.5q0 15 9.5 24t24.5 9q14 0 23.5 -9.5t9.5 -23.5t-9.5 -23.5t-23.5 -9.5zM191 821q-15 0 -24.5 9.5t-9.5 23.5q0 15 9.5 24t24.5 9q14 0 23.5 -9.5t9.5 -23.5t-9.5 -23.5t-23.5 -9.5zM95 0v710h36v-710h-36z" />
    <glyph glyph-name="Eth" unicode="&#xd0;" horiz-adv-x="710" 
d="M281 710q167 0 268 -98.5t101 -257.5t-100 -256.5t-266 -97.5h-195v341h-84v34h84v335h192zM282 34q153 0 242 88.5t89 231.5t-91 232.5t-242 89.5h-156v-301h224v-34h-224v-307h158z" />
    <glyph glyph-name="Ntilde" unicode="&#xd1;" horiz-adv-x="733" 
d="M444 792q-31 0 -87 39q-39 28 -63 28q-41 0 -63 -60l-27 9q27 81 88 81q29 0 79 -32l16.5 -11t19 -12.5t16 -7.5t19.5 -4q42 0 59 60l27 -9q-25 -81 -84 -81zM89 0v710h34l483 -649h1v649h36v-710h-36l-481 647h-2v-647h-35z" />
    <glyph glyph-name="Ograve" unicode="&#xd2;" horiz-adv-x="823" 
d="M399 792l-115 125h42l113 -125h-40zM413 -4q-150 0 -251 100.5t-101 259.5q0 158 101.5 258.5t250.5 100.5q147 0 248 -100.5t101 -258.5q0 -159 -101 -259.5t-248 -100.5zM413 31q131 0 221 91t90 234t-90 233.5t-221 90.5q-133 0 -224 -91t-91 -233q0 -143 90.5 -234
t224.5 -91z" />
    <glyph glyph-name="Oacute" unicode="&#xd3;" horiz-adv-x="823" 
d="M375 792l113 125h42l-116 -125h-39zM413 -4q-150 0 -251 100.5t-101 259.5q0 158 101.5 258.5t250.5 100.5q147 0 248 -100.5t101 -258.5q0 -159 -101 -259.5t-248 -100.5zM413 31q131 0 221 91t90 234t-90 233.5t-221 90.5q-133 0 -224 -91t-91 -233q0 -143 90.5 -234
t224.5 -91z" />
    <glyph glyph-name="Ocircumflex" unicode="&#xd4;" horiz-adv-x="823" 
d="M272 792l123 112h37l120 -112h-40l-98 89h-2l-101 -89h-39zM413 -4q-150 0 -251 100.5t-101 259.5q0 158 101.5 258.5t250.5 100.5q147 0 248 -100.5t101 -258.5q0 -159 -101 -259.5t-248 -100.5zM413 31q131 0 221 91t90 234t-90 233.5t-221 90.5q-133 0 -224 -91
t-91 -233q0 -143 90.5 -234t224.5 -91z" />
    <glyph glyph-name="Otilde" unicode="&#xd5;" horiz-adv-x="823" 
d="M490 792q-31 0 -87 39q-39 28 -63 28q-41 0 -63 -60l-27 9q27 81 88 81q29 0 79 -32l16.5 -11t19 -12.5t16 -7.5t19.5 -4q42 0 59 60l27 -9q-25 -81 -84 -81zM413 -4q-150 0 -251 100.5t-101 259.5q0 158 101.5 258.5t250.5 100.5q147 0 248 -100.5t101 -258.5
q0 -159 -101 -259.5t-248 -100.5zM413 31q131 0 221 91t90 234t-90 233.5t-221 90.5q-133 0 -224 -91t-91 -233q0 -143 90.5 -234t224.5 -91z" />
    <glyph glyph-name="Odieresis" unicode="&#xd6;" horiz-adv-x="823" 
d="M336 821q-14 0 -24 9.5t-10 23.5q0 15 9.5 24t24.5 9q14 0 23.5 -9.5t9.5 -23.5t-9.5 -23.5t-23.5 -9.5zM490 821q-15 0 -24.5 9.5t-9.5 23.5q0 15 9.5 24t24.5 9q14 0 23.5 -9.5t9.5 -23.5t-9.5 -23.5t-23.5 -9.5zM413 -4q-150 0 -251 100.5t-101 259.5
q0 158 101.5 258.5t250.5 100.5q147 0 248 -100.5t101 -258.5q0 -159 -101 -259.5t-248 -100.5zM413 31q131 0 221 91t90 234t-90 233.5t-221 90.5q-133 0 -224 -91t-91 -233q0 -143 90.5 -234t224.5 -91z" />
    <glyph glyph-name="multiply" unicode="&#xd7;" horiz-adv-x="485" 
d="M81 93l-23 22l161 161l-161 161l23 23l160 -161l162 161l23 -22l-162 -162l161 -161l-23 -22l-161 160z" />
    <glyph glyph-name="Oslash" unicode="&#xd8;" horiz-adv-x="823" 
d="M669 606q93 -99 93 -250q0 -159 -101 -259.5t-248 -100.5q-136 0 -234 85l-87 -94l-26 22l89 95q-94 102 -94 252q0 158 101.5 258.5t250.5 100.5q136 0 233 -86l81 86l24 -21zM98 356q0 -135 82 -225l441 471q-86 78 -208 78q-133 0 -224 -91t-91 -233zM413 31
q131 0 221 91t90 234q0 133 -80 223l-440 -472q89 -76 209 -76z" />
    <glyph glyph-name="Ugrave" unicode="&#xd9;" horiz-adv-x="687" 
d="M344 792l-115 125h42l113 -125h-40zM343 -4q-118 0 -190.5 77.5t-72.5 210.5v426h36v-425q0 -118 62 -186t165 -68t166 68t63 186v425h35v-426q0 -133 -73 -210.5t-191 -77.5z" />
    <glyph glyph-name="Uacute" unicode="&#xda;" horiz-adv-x="687" 
d="M290 792l113 125h42l-116 -125h-39zM343 -4q-118 0 -190.5 77.5t-72.5 210.5v426h36v-425q0 -118 62 -186t165 -68t166 68t63 186v425h35v-426q0 -133 -73 -210.5t-191 -77.5z" />
    <glyph glyph-name="Ucircumflex" unicode="&#xdb;" horiz-adv-x="687" 
d="M204 792l123 112h37l120 -112h-40l-98 89h-2l-101 -89h-39zM343 -4q-118 0 -190.5 77.5t-72.5 210.5v426h36v-425q0 -118 62 -186t165 -68t166 68t63 186v425h35v-426q0 -133 -73 -210.5t-191 -77.5z" />
    <glyph glyph-name="Udieresis" unicode="&#xdc;" horiz-adv-x="687" 
d="M268 821q-14 0 -24 9.5t-10 23.5q0 15 9.5 24t24.5 9q14 0 23.5 -9.5t9.5 -23.5t-9.5 -23.5t-23.5 -9.5zM422 821q-15 0 -24.5 9.5t-9.5 23.5q0 15 9.5 24t24.5 9q14 0 23.5 -9.5t9.5 -23.5t-9.5 -23.5t-23.5 -9.5zM343 -4q-118 0 -190.5 77.5t-72.5 210.5v426h36v-425
q0 -118 62 -186t165 -68t166 68t63 186v425h35v-426q0 -133 -73 -210.5t-191 -77.5z" />
    <glyph glyph-name="Yacute" unicode="&#xdd;" horiz-adv-x="565" 
d="M255 792l113 125h42l-116 -125h-39zM264 0v322l-247 388h43l221 -350h2l222 350h42l-247 -388v-322h-36z" />
    <glyph glyph-name="Thorn" unicode="&#xde;" horiz-adv-x="605" 
d="M89 0v710h35v-155h218q115 0 169 -54.5t54 -148.5q0 -105 -64.5 -156.5t-175.5 -51.5h-201v-144h-35zM124 178h204q102 0 151 48t49 127q0 84 -49 126.5t-134 42.5h-221v-344z" />
    <glyph glyph-name="germandbls" unicode="&#xdf;" horiz-adv-x="593" 
d="M214 -4v33h111q85 0 140 52t55 139q0 79 -56 137.5t-149 58.5h-66v31h63q49 0 83 13.5t49.5 34.5t22 40t6.5 39q0 63 -45 98.5t-128 35.5q-88 0 -137 -51t-49 -156v-501h-34v501q0 119 59 179.5t161 60.5q96 0 151.5 -44t55.5 -122q0 -25 -7.5 -49.5t-32.5 -51.5t-66 -39
v-2q70 -23 111.5 -83t41.5 -131q0 -100 -64 -161.5t-161 -61.5h-115z" />
    <glyph glyph-name="agrave" unicode="&#xe0;" horiz-adv-x="594" 
d="M291 564l-115 129h42l113 -129h-40zM284 -4q-101 0 -170 67.5t-69 174.5q0 106 67 178.5t173 72.5q66 0 120 -35.5t81 -96.5l1 1v127h33v-485h-33v124h-1q-27 -59 -80 -93.5t-122 -34.5zM287 29q84 0 142 58t58 151q0 92 -56 155.5t-144 63.5q-87 0 -147 -61.5
t-60 -157.5q0 -89 57.5 -149t149.5 -60z" />
    <glyph glyph-name="aacute" unicode="&#xe1;" horiz-adv-x="594" 
d="M283 561l122 136h43l-124 -136h-41zM284 -4q-101 0 -170 67.5t-69 174.5q0 106 67 178.5t173 72.5q66 0 120 -35.5t81 -96.5l1 1v127h33v-485h-33v124h-1q-27 -59 -80 -93.5t-122 -34.5zM287 29q84 0 142 58t58 151q0 92 -56 155.5t-144 63.5q-87 0 -147 -61.5
t-60 -157.5q0 -89 57.5 -149t149.5 -60z" />
    <glyph glyph-name="acircumflex" unicode="&#xe2;" horiz-adv-x="594" 
d="M149 560l123 131h37l119 -131h-39l-97 106h-2l-102 -106h-39zM284 -4q-101 0 -170 67.5t-69 174.5q0 106 67 178.5t173 72.5q66 0 120 -35.5t81 -96.5l1 1v127h33v-485h-33v124h-1q-27 -59 -80 -93.5t-122 -34.5zM287 29q84 0 142 58t58 151q0 92 -56 155.5t-144 63.5
q-87 0 -147 -61.5t-60 -157.5q0 -89 57.5 -149t149.5 -60z" />
    <glyph glyph-name="atilde" unicode="&#xe3;" horiz-adv-x="594" 
d="M367 577q-7 0 -13.5 1t-14 4t-12 4.5t-13.5 7t-11 7t-12.5 8.5t-11.5 8q-38 27 -62 27q-41 0 -63 -60l-27 9q26 81 88 81q36 0 77 -30q2 -1 16.5 -11.5t20 -13.5t16 -7t19.5 -4q42 0 60 60l27 -9q-12 -40 -34.5 -61t-49.5 -21zM284 -4q-101 0 -170 67.5t-69 174.5
q0 106 67 178.5t173 72.5q66 0 120 -35.5t81 -96.5l1 1v127h33v-485h-33v124h-1q-27 -59 -80 -93.5t-122 -34.5zM287 29q84 0 142 58t58 151q0 92 -56 155.5t-144 63.5q-87 0 -147 -61.5t-60 -157.5q0 -89 57.5 -149t149.5 -60z" />
    <glyph glyph-name="adieresis" unicode="&#xe4;" horiz-adv-x="594" 
d="M211 600q-14 0 -24 9.5t-10 23.5q0 15 9.5 24t24.5 9q14 0 23.5 -9.5t9.5 -23.5t-9.5 -23.5t-23.5 -9.5zM365 600q-15 0 -24.5 9.5t-9.5 23.5q0 15 9.5 24t24.5 9q14 0 23.5 -9.5t9.5 -23.5t-9.5 -23.5t-23.5 -9.5zM284 -4q-101 0 -170 67.5t-69 174.5q0 106 67 178.5
t173 72.5q66 0 120 -35.5t81 -96.5l1 1v127h33v-485h-33v124h-1q-27 -59 -80 -93.5t-122 -34.5zM287 29q84 0 142 58t58 151q0 92 -56 155.5t-144 63.5q-87 0 -147 -61.5t-60 -157.5q0 -89 57.5 -149t149.5 -60z" />
    <glyph glyph-name="aring" unicode="&#xe5;" horiz-adv-x="594" 
d="M288 552q-31 0 -54 23t-23 54t22.5 54t54.5 23t55.5 -22.5t23.5 -54.5q0 -31 -23 -54t-56 -23zM288 581q21 0 36 14t15 34t-15 35t-36 15q-20 0 -34.5 -15t-14.5 -35t14.5 -34t34.5 -14zM284 -4q-101 0 -170 67.5t-69 174.5q0 106 67 178.5t173 72.5q66 0 120 -35.5
t81 -96.5l1 1v127h33v-485h-33v124h-1q-27 -59 -80 -93.5t-122 -34.5zM287 29q84 0 142 58t58 151q0 92 -56 155.5t-144 63.5q-87 0 -147 -61.5t-60 -157.5q0 -89 57.5 -149t149.5 -60z" />
    <glyph glyph-name="ae" unicode="&#xe6;" horiz-adv-x="792" 
d="M746 254v-16h-359q4 -98 51 -153.5t124 -55.5q51 0 82 19t60 59l25 -20q-32 -46 -70.5 -68.5t-96.5 -22.5q-73 0 -118.5 38t-65.5 97h-1q-16 -62 -67.5 -98.5t-121.5 -36.5q-73 0 -112.5 40.5t-39.5 99.5t44 96t131 37h144v22q0 91 -25 128t-88 37q-79 0 -150 -41l-15 28
q77 46 166 46q64 0 96.5 -31t41.5 -97h1q22 59 67.5 93.5t106.5 34.5q82 0 136 -67t54 -168zM389 269h322q-5 85 -46.5 136.5t-108.5 51.5q-72 0 -116 -52t-51 -136zM190 28q69 0 117 43t48 121v47l-143 -1q-62 0 -102 -26t-40 -76q0 -45 31 -76.5t89 -31.5z" />
    <glyph glyph-name="ccedilla" unicode="&#xe7;" horiz-adv-x="503" 
d="M280 -4l-13 -29v-2q33 -2 57.5 -22.5t24.5 -54.5q0 -31 -24 -52t-66 -21q-27 0 -50 6v27q23 -7 46 -7q27 0 45.5 12.5t18.5 36.5q0 21 -22 37.5t-61 16.5l1 21l15 32q-92 10 -148.5 77t-56.5 168q0 108 65 177.5t169 69.5q113 0 184 -79l-25 -23q-58 70 -158 70
q-89 0 -145 -60.5t-56 -154.5q0 -95 55.5 -154t144.5 -59q103 0 162 68l23 -24q-72 -77 -186 -77z" />
    <glyph glyph-name="egrave" unicode="&#xe8;" horiz-adv-x="536" 
d="M325 564h-40l-115 129h42zM493 256q0 -16 -1 -18h-411q1 -91 57 -150t142 -59q108 0 168 78l25 -20q-68 -91 -192 -91q-102 0 -168 69.5t-66 176.5q0 106 66.5 176.5t165.5 70.5q94 0 154 -66t60 -167zM278 457q-77 0 -132.5 -53t-63.5 -135h377q-7 85 -55.5 136.5
t-125.5 51.5z" />
    <glyph glyph-name="eacute" unicode="&#xe9;" horiz-adv-x="536" 
d="M415 697l-124 -136h-41l122 136h43zM493 256q0 -16 -1 -18h-411q1 -91 57 -150t142 -59q108 0 168 78l25 -20q-68 -91 -192 -91q-102 0 -168 69.5t-66 176.5q0 106 66.5 176.5t165.5 70.5q94 0 154 -66t60 -167zM278 457q-77 0 -132.5 -53t-63.5 -135h377
q-7 85 -55.5 136.5t-125.5 51.5z" />
    <glyph glyph-name="ecircumflex" unicode="&#xea;" horiz-adv-x="536" 
d="M281 666l-102 -106h-39l123 131h37l119 -131h-39l-97 106h-2zM493 256q0 -16 -1 -18h-411q1 -91 57 -150t142 -59q108 0 168 78l25 -20q-68 -91 -192 -91q-102 0 -168 69.5t-66 176.5q0 106 66.5 176.5t165.5 70.5q94 0 154 -66t60 -167zM278 457q-77 0 -132.5 -53
t-63.5 -135h377q-7 85 -55.5 136.5t-125.5 51.5z" />
    <glyph glyph-name="edieresis" unicode="&#xeb;" horiz-adv-x="536" 
d="M202 600q-14 0 -24 9.5t-10 23.5q0 15 9.5 24t24.5 9q14 0 23.5 -9.5t9.5 -23.5t-9.5 -23.5t-23.5 -9.5zM356 600q-15 0 -24.5 9.5t-9.5 23.5q0 15 9.5 24t24.5 9q14 0 23.5 -9.5t9.5 -23.5t-9.5 -23.5t-23.5 -9.5zM493 256q0 -16 -1 -18h-411q1 -91 57 -150t142 -59
q108 0 168 78l25 -20q-68 -91 -192 -91q-102 0 -168 69.5t-66 176.5q0 106 66.5 176.5t165.5 70.5q94 0 154 -66t60 -167zM278 457q-77 0 -132.5 -53t-63.5 -135h377q-7 85 -55.5 136.5t-125.5 51.5z" />
    <glyph glyph-name="igrave" unicode="&#xec;" horiz-adv-x="205" 
d="M81 561l-90 136h41l87 -136h-38zM85 0v485h34v-485h-34z" />
    <glyph glyph-name="iacute" unicode="&#xed;" horiz-adv-x="205" 
d="M88 561l122 136h43l-124 -136h-41zM85 0v485h34v-485h-34z" />
    <glyph glyph-name="icircumflex" unicode="&#xee;" horiz-adv-x="205" 
d="M-37 560l123 131h37l119 -131h-39l-97 106h-2l-102 -106h-39zM85 0v485h34v-485h-34z" />
    <glyph glyph-name="idieresis" unicode="&#xef;" horiz-adv-x="205" 
d="M25 600q-14 0 -24 9.5t-10 23.5q0 15 9.5 24t24.5 9q14 0 23.5 -9.5t9.5 -23.5t-9.5 -23.5t-23.5 -9.5zM179 600q-15 0 -24.5 9.5t-9.5 23.5q0 15 9.5 24t24.5 9q14 0 23.5 -9.5t9.5 -23.5t-9.5 -23.5t-23.5 -9.5zM85 0v485h34v-485h-34z" />
    <glyph glyph-name="eth" unicode="&#xf0;" horiz-adv-x="582" 
d="M436 547q98 -132 98 -293q0 -114 -67.5 -186t-176.5 -72q-102 0 -172.5 68.5t-70.5 176.5q0 103 67.5 174.5t171.5 71.5q58 0 107.5 -24t81.5 -67q1 -1 3 -5l3 2q-26 76 -71 137q-38 50 -87 90l-70 -79l-24 19l70 79q-66 47 -138 72l11 28q80 -27 148 -77l74 84l25 -19
l-75 -84q54 -43 92 -96zM290 29q93 0 151 62.5t58 158.5q0 88 -60.5 146t-147.5 58q-93 0 -151.5 -61.5t-58.5 -150.5q0 -94 60 -153.5t149 -59.5z" />
    <glyph glyph-name="ntilde" unicode="&#xf1;" horiz-adv-x="549" 
d="M362 577q-7 0 -13.5 1t-14 4t-12 4.5t-13.5 7t-11 7t-12.5 8.5t-11.5 8q-38 27 -62 27q-41 0 -63 -60l-27 9q26 81 88 81q36 0 77 -30q2 -1 16.5 -11.5t20 -13.5t16 -7t19.5 -4q42 0 60 60l27 -9q-12 -40 -34.5 -61t-49.5 -21zM80 0v485h34v-121h1q26 59 78 92t119 33
q78 0 123 -51.5t45 -146.5v-291h-33v278q0 93 -38.5 136t-101.5 43q-87 0 -140 -59.5t-53 -157.5v-240h-34z" />
    <glyph glyph-name="ograve" unicode="&#xf2;" horiz-adv-x="582" 
d="M290 564l-115 129h42l113 -129h-40zM291 -4q-107 0 -175.5 71.5t-68.5 174.5q0 104 68.5 175.5t175.5 71.5q103 0 173.5 -69.5t70.5 -177.5t-70.5 -177t-173.5 -69zM291 29q89 0 149 59.5t60 153.5t-60 154.5t-149 60.5q-92 0 -151 -62.5t-59 -152.5t58.5 -151.5
t151.5 -61.5z" />
    <glyph glyph-name="oacute" unicode="&#xf3;" horiz-adv-x="582" 
d="M270 561l122 136h43l-124 -136h-41zM291 -4q-107 0 -175.5 71.5t-68.5 174.5q0 104 68.5 175.5t175.5 71.5q103 0 173.5 -69.5t70.5 -177.5t-70.5 -177t-173.5 -69zM291 29q89 0 149 59.5t60 153.5t-60 154.5t-149 60.5q-92 0 -151 -62.5t-59 -152.5t58.5 -151.5
t151.5 -61.5z" />
    <glyph glyph-name="ocircumflex" unicode="&#xf4;" horiz-adv-x="582" 
d="M152 560l123 131h37l119 -131h-39l-97 106h-2l-102 -106h-39zM291 -4q-107 0 -175.5 71.5t-68.5 174.5q0 104 68.5 175.5t175.5 71.5q103 0 173.5 -69.5t70.5 -177.5t-70.5 -177t-173.5 -69zM291 29q89 0 149 59.5t60 153.5t-60 154.5t-149 60.5q-92 0 -151 -62.5
t-59 -152.5t58.5 -151.5t151.5 -61.5z" />
    <glyph glyph-name="otilde" unicode="&#xf5;" horiz-adv-x="582" 
d="M370 577q-7 0 -13.5 1t-14 4t-12 4.5t-13.5 7t-11 7t-12.5 8.5t-11.5 8q-38 27 -62 27q-41 0 -63 -60l-27 9q26 81 88 81q36 0 77 -30q2 -1 16.5 -11.5t20 -13.5t16 -7t19.5 -4q42 0 60 60l27 -9q-12 -40 -34.5 -61t-49.5 -21zM291 -4q-107 0 -175.5 71.5t-68.5 174.5
q0 104 68.5 175.5t175.5 71.5q103 0 173.5 -69.5t70.5 -177.5t-70.5 -177t-173.5 -69zM291 29q89 0 149 59.5t60 153.5t-60 154.5t-149 60.5q-92 0 -151 -62.5t-59 -152.5t58.5 -151.5t151.5 -61.5z" />
    <glyph glyph-name="odieresis" unicode="&#xf6;" horiz-adv-x="582" 
d="M214 600q-14 0 -24 9.5t-10 23.5q0 15 9.5 24t24.5 9q14 0 23.5 -9.5t9.5 -23.5t-9.5 -23.5t-23.5 -9.5zM368 600q-15 0 -24.5 9.5t-9.5 23.5q0 15 9.5 24t24.5 9q14 0 23.5 -9.5t9.5 -23.5t-9.5 -23.5t-23.5 -9.5zM291 -4q-107 0 -175.5 71.5t-68.5 174.5
q0 104 68.5 175.5t175.5 71.5q103 0 173.5 -69.5t70.5 -177.5t-70.5 -177t-173.5 -69zM291 29q89 0 149 59.5t60 153.5t-60 154.5t-149 60.5q-92 0 -151 -62.5t-59 -152.5t58.5 -151.5t151.5 -61.5z" />
    <glyph glyph-name="divide" unicode="&#xf7;" horiz-adv-x="585" 
d="M287 435q-14 0 -24 10t-10 24q0 15 9.5 24t24.5 9t24.5 -9t9.5 -24q0 -14 -9.5 -24t-24.5 -10zM64 260v32h461v-32h-461zM287 49q-14 0 -24 10t-10 24q0 15 9.5 24t24.5 9t24.5 -9t9.5 -24q0 -14 -9.5 -24t-24.5 -10z" />
    <glyph glyph-name="oslash" unicode="&#xf8;" horiz-adv-x="582" 
d="M537 475l-62 -66q60 -68 60 -167q0 -108 -70.5 -177t-173.5 -69q-92 0 -157 54l-59 -62l-24 21l60 63q-64 69 -64 170q0 104 68.5 175.5t175.5 71.5q94 0 161 -58l61 64zM81 242q0 -86 53 -145l295 310q-58 50 -138 50q-92 0 -151 -62.5t-59 -152.5zM500 242
q0 85 -49 142l-294 -309q56 -46 134 -46q89 0 149 59.5t60 153.5z" />
    <glyph glyph-name="ugrave" unicode="&#xf9;" horiz-adv-x="538" 
d="M281 564l-115 129h42l113 -129h-40zM251 -4q-87 0 -135 56t-48 154v279h34v-266q0 -96 40 -143t113 -47q75 0 125.5 60t50.5 157v239h34v-485h-34v118l-1 1q-25 -58 -73 -90.5t-106 -32.5z" />
    <glyph glyph-name="uacute" unicode="&#xfa;" horiz-adv-x="538" 
d="M238 561l122 136h43l-124 -136h-41zM251 -4q-87 0 -135 56t-48 154v279h34v-266q0 -96 40 -143t113 -47q75 0 125.5 60t50.5 157v239h34v-485h-34v118l-1 1q-25 -58 -73 -90.5t-106 -32.5z" />
    <glyph glyph-name="ucircumflex" unicode="&#xfb;" horiz-adv-x="538" 
d="M126 560l123 131h37l119 -131h-39l-97 106h-2l-102 -106h-39zM251 -4q-87 0 -135 56t-48 154v279h34v-266q0 -96 40 -143t113 -47q75 0 125.5 60t50.5 157v239h34v-485h-34v118l-1 1q-25 -58 -73 -90.5t-106 -32.5z" />
    <glyph glyph-name="udieresis" unicode="&#xfc;" horiz-adv-x="538" 
d="M188 600q-14 0 -24 9.5t-10 23.5q0 15 9.5 24t24.5 9q14 0 23.5 -9.5t9.5 -23.5t-9.5 -23.5t-23.5 -9.5zM342 600q-15 0 -24.5 9.5t-9.5 23.5q0 15 9.5 24t24.5 9q14 0 23.5 -9.5t9.5 -23.5t-9.5 -23.5t-23.5 -9.5zM251 -4q-87 0 -135 56t-48 154v279h34v-266
q0 -96 40 -143t113 -47q75 0 125.5 60t50.5 157v239h34v-485h-34v118l-1 1q-25 -58 -73 -90.5t-106 -32.5z" />
    <glyph glyph-name="yacute" unicode="&#xfd;" horiz-adv-x="510" 
d="M224 561l122 136h43l-124 -136h-41zM158 -198l86 206l-218 477h39l196 -435h1l182 435h38l-287 -683h-37z" />
    <glyph glyph-name="thorn" unicode="&#xfe;" horiz-adv-x="603" 
d="M80 -198v934h34v-377h1q27 60 80.5 95t120.5 35q105 0 172 -72.5t67 -178.5q0 -107 -68.5 -174.5t-170.5 -67.5q-68 0 -121 34t-80 92h-1v-320h-34zM314 29q91 0 148.5 60t57.5 149q0 97 -59.5 158t-147.5 61t-144 -63.5t-56 -155.5q0 -93 58 -151t143 -58z" />
    <glyph glyph-name="ydieresis" unicode="&#xff;" horiz-adv-x="510" 
d="M179 600q-14 0 -24 9.5t-10 23.5q0 15 9.5 24t24.5 9q14 0 23.5 -9.5t9.5 -23.5t-9.5 -23.5t-23.5 -9.5zM333 600q-15 0 -24.5 9.5t-9.5 23.5q0 15 9.5 24t24.5 9q14 0 23.5 -9.5t9.5 -23.5t-9.5 -23.5t-23.5 -9.5zM158 -198l86 206l-218 477h39l196 -435h1l182 435h38
l-287 -683h-37z" />
    <glyph glyph-name="Amacron" unicode="&#x100;" horiz-adv-x="647" 
d="M188 829v32h271v-32h-271zM28 0l274 710h40l277 -710h-38l-79 204h-357l-79 -204h-38zM157 237h332l-165 430h-2z" />
    <glyph glyph-name="amacron" unicode="&#x101;" horiz-adv-x="594" 
d="M154 614v32h271v-32h-271zM284 -4q-101 0 -170 67.5t-69 174.5q0 106 67 178.5t173 72.5q66 0 120 -35.5t81 -96.5l1 1v127h33v-485h-33v124h-1q-27 -59 -80 -93.5t-122 -34.5zM287 29q84 0 142 58t58 151q0 92 -56 155.5t-144 63.5q-87 0 -147 -61.5t-60 -157.5
q0 -89 57.5 -149t149.5 -60z" />
    <glyph glyph-name="Abreve" unicode="&#x102;" horiz-adv-x="647" 
d="M323 788q-51 0 -86.5 32t-39.5 84h29q3 -35 29 -60.5t68 -25.5t68 25.5t28 60.5h30q-4 -52 -40 -84t-86 -32zM28 0l274 710h40l277 -710h-38l-79 204h-357l-79 -204h-38zM157 237h332l-165 430h-2z" />
    <glyph glyph-name="abreve" unicode="&#x103;" horiz-adv-x="594" 
d="M289 559q-52 0 -87.5 34t-39.5 96h30q3 -44 28.5 -72t68.5 -28q42 0 68 28.5t28 71.5h30q-4 -62 -39.5 -96t-86.5 -34zM284 -4q-101 0 -170 67.5t-69 174.5q0 106 67 178.5t173 72.5q66 0 120 -35.5t81 -96.5l1 1v127h33v-485h-33v124h-1q-27 -59 -80 -93.5t-122 -34.5z
M287 29q84 0 142 58t58 151q0 92 -56 155.5t-144 63.5q-87 0 -147 -61.5t-60 -157.5q0 -89 57.5 -149t149.5 -60z" />
    <glyph glyph-name="Aogonek" unicode="&#x104;" horiz-adv-x="647" 
d="M652 -140l4 -29q-26 -13 -64 -13q-40 0 -63.5 20t-23.5 58q0 27 19 57t55 53l-77 198h-357l-79 -204h-38l274 710h40l277 -710h-3q-36 -17 -57.5 -44.5t-21.5 -55.5q0 -53 58 -53q32 0 57 13zM157 237h332l-165 430h-2z" />
    <glyph glyph-name="aogonek" unicode="&#x105;" horiz-adv-x="594" 
d="M555 -140l4 -29q-26 -13 -64 -13q-40 0 -63.5 20t-23.5 58q0 29 20.5 60t58.5 53v115h-1q-27 -59 -80 -93.5t-122 -34.5q-101 0 -170 67.5t-69 174.5q0 106 67 178.5t173 72.5q66 0 120 -35.5t81 -96.5l1 1v127h33v-485h-1q-36 -17 -57.5 -44.5t-21.5 -55.5q0 -53 58 -53
q32 0 57 13zM287 29q84 0 142 58t58 151q0 92 -56 155.5t-144 63.5q-87 0 -147 -61.5t-60 -157.5q0 -89 57.5 -149t149.5 -60z" />
    <glyph glyph-name="Cacute" unicode="&#x106;" horiz-adv-x="716" 
d="M372 792l113 125h42l-116 -125h-39zM409 -3q-150 0 -249 94.5t-99 260.5q0 157 92 260t255 103q164 0 273 -135l-28 -23q-99 123 -245 123t-228 -92t-82 -236q0 -150 88 -235.5t223 -85.5q147 0 244 122l28 -23q-107 -133 -272 -133z" />
    <glyph glyph-name="cacute" unicode="&#x107;" horiz-adv-x="503" 
d="M256 561l122 136h43l-124 -136h-41zM280 -4q-104 0 -168.5 68.5t-64.5 177.5q0 108 65 177.5t169 69.5q113 0 184 -79l-25 -23q-58 70 -158 70q-89 0 -145 -60.5t-56 -154.5q0 -95 55.5 -154t144.5 -59q103 0 162 68l23 -24q-72 -77 -186 -77z" />
    <glyph glyph-name="Ccircumflex" unicode="&#x108;" horiz-adv-x="716" 
d="M268 792l123 112h37l120 -112h-40l-98 89h-2l-101 -89h-39zM409 -3q-150 0 -249 94.5t-99 260.5q0 157 92 260t255 103q164 0 273 -135l-28 -23q-99 123 -245 123t-228 -92t-82 -236q0 -150 88 -235.5t223 -85.5q147 0 244 122l28 -23q-107 -133 -272 -133z" />
    <glyph glyph-name="ccircumflex" unicode="&#x109;" horiz-adv-x="503" 
d="M136 560l123 131h37l119 -131h-39l-97 106h-2l-102 -106h-39zM280 -4q-104 0 -168.5 68.5t-64.5 177.5q0 108 65 177.5t169 69.5q113 0 184 -79l-25 -23q-58 70 -158 70q-89 0 -145 -60.5t-56 -154.5q0 -95 55.5 -154t144.5 -59q103 0 162 68l23 -24q-72 -77 -186 -77z
" />
    <glyph glyph-name="Cdotaccent" unicode="&#x10a;" horiz-adv-x="716" 
d="M408 820q-14 0 -24 10t-10 24q0 15 9.5 24t24.5 9t24.5 -9t9.5 -24q0 -14 -9.5 -24t-24.5 -10zM409 -3q-150 0 -249 94.5t-99 260.5q0 157 92 260t255 103q164 0 273 -135l-28 -23q-99 123 -245 123t-228 -92t-82 -236q0 -150 88 -235.5t223 -85.5q147 0 244 122l28 -23
q-107 -133 -272 -133z" />
    <glyph glyph-name="cdotaccent" unicode="&#x10b;" horiz-adv-x="503" 
d="M277 599q-14 0 -24 10t-10 24q0 15 9.5 24t24.5 9t24.5 -9t9.5 -24q0 -14 -9.5 -24t-24.5 -10zM280 -4q-104 0 -168.5 68.5t-64.5 177.5q0 108 65 177.5t169 69.5q113 0 184 -79l-25 -23q-58 70 -158 70q-89 0 -145 -60.5t-56 -154.5q0 -95 55.5 -154t144.5 -59
q103 0 162 68l23 -24q-72 -77 -186 -77z" />
    <glyph glyph-name="Ccaron" unicode="&#x10c;" horiz-adv-x="716" 
d="M388 792l-120 112h40l98 -89h2l100 89h40l-123 -112h-37zM409 -3q-150 0 -249 94.5t-99 260.5q0 157 92 260t255 103q164 0 273 -135l-28 -23q-99 123 -245 123t-228 -92t-82 -236q0 -150 88 -235.5t223 -85.5q147 0 244 122l28 -23q-107 -133 -272 -133z" />
    <glyph glyph-name="ccaron" unicode="&#x10d;" horiz-adv-x="503" 
d="M256 560l-120 130h39l99 -105h2l100 105h39l-123 -130h-36zM280 -4q-104 0 -168.5 68.5t-64.5 177.5q0 108 65 177.5t169 69.5q113 0 184 -79l-25 -23q-58 70 -158 70q-89 0 -145 -60.5t-56 -154.5q0 -95 55.5 -154t144.5 -59q103 0 162 68l23 -24q-72 -77 -186 -77z" />
    <glyph glyph-name="Dcaron" unicode="&#x10e;" horiz-adv-x="710" 
d="M307 792l-120 112h40l98 -89h2l100 89h40l-123 -112h-37zM89 0v710h192q167 0 268 -98.5t101 -257.5t-100 -256.5t-266 -97.5h-195zM124 34h158q153 0 242 88.5t89 231.5t-91 232.5t-242 89.5h-156v-642z" />
    <glyph glyph-name="dcaron" unicode="&#x10f;" horiz-adv-x="659" 
d="M612 595l25 163h38l-36 -163h-27zM287 -4q-102 0 -171.5 67.5t-69.5 174.5q0 106 67.5 178.5t173.5 72.5q66 0 120 -35.5t81 -96.5h2v379h33v-736h-32v126h-2q-25 -59 -79 -94.5t-123 -35.5zM289 29q85 0 143.5 58t58.5 151q0 92 -57 155.5t-145 63.5t-148 -61t-60 -158
q0 -89 58 -149t150 -60z" />
    <glyph glyph-name="Dcroat" unicode="&#x110;" horiz-adv-x="710" 
d="M281 710q167 0 268 -98.5t101 -257.5t-100 -256.5t-266 -97.5h-195v341h-84v34h84v335h192zM282 34q153 0 242 88.5t89 231.5t-91 232.5t-242 89.5h-156v-301h224v-34h-224v-307h158z" />
    <glyph glyph-name="dcroat" unicode="&#x111;" horiz-adv-x="599" 
d="M586 614v-29h-63v-585h-32v126h-2q-25 -59 -79 -94.5t-123 -35.5q-102 0 -171.5 67.5t-69.5 174.5q0 106 67.5 178.5t173.5 72.5q66 0 120 -35.5t81 -96.5h2v228h-236v29h236v122h33v-122h63zM289 29q85 0 143.5 58t58.5 151q0 92 -57 155.5t-145 63.5t-148 -61t-60 -158
q0 -89 58 -149t150 -60z" />
    <glyph glyph-name="Emacron" unicode="&#x112;" horiz-adv-x="570" 
d="M155 829v32h271v-32h-271zM89 0v710h416v-34h-381v-304h319v-34h-319v-304h402v-34h-437z" />
    <glyph glyph-name="emacron" unicode="&#x113;" horiz-adv-x="536" 
d="M416 646v-32h-271v32h271zM493 256q0 -16 -1 -18h-411q1 -91 57 -150t142 -59q108 0 168 78l25 -20q-68 -91 -192 -91q-102 0 -168 69.5t-66 176.5q0 106 66.5 176.5t165.5 70.5q94 0 154 -66t60 -167zM278 457q-77 0 -132.5 -53t-63.5 -135h377q-7 85 -55.5 136.5
t-125.5 51.5z" />
    <glyph glyph-name="Ebreve" unicode="&#x114;" horiz-adv-x="570" 
d="M290 788q-51 0 -86.5 32t-39.5 84h29q3 -35 29 -60.5t68 -25.5t68 25.5t28 60.5h30q-4 -52 -40 -84t-86 -32zM89 0v710h416v-34h-381v-304h319v-34h-319v-304h402v-34h-437z" />
    <glyph glyph-name="ebreve" unicode="&#x115;" horiz-adv-x="536" 
d="M280 559q-52 0 -87.5 34t-39.5 96h30q3 -44 28.5 -72t68.5 -28q42 0 68 28.5t28 71.5h30q-4 -62 -39.5 -96t-86.5 -34zM493 256q0 -16 -1 -18h-411q1 -91 57 -150t142 -59q108 0 168 78l25 -20q-68 -91 -192 -91q-102 0 -168 69.5t-66 176.5q0 106 66.5 176.5t165.5 70.5
q94 0 154 -66t60 -167zM278 457q-77 0 -132.5 -53t-63.5 -135h377q-7 85 -55.5 136.5t-125.5 51.5z" />
    <glyph glyph-name="Edotaccent" unicode="&#x116;" horiz-adv-x="570" 
d="M290 820q-14 0 -24 10t-10 24q0 15 9.5 24t24.5 9t24.5 -9t9.5 -24q0 -14 -9.5 -24t-24.5 -10zM89 0v710h416v-34h-381v-304h319v-34h-319v-304h402v-34h-437z" />
    <glyph glyph-name="edotaccent" unicode="&#x117;" horiz-adv-x="536" 
d="M281 599q-14 0 -24 10t-10 24q0 15 9.5 24t24.5 9t24.5 -9t9.5 -24q0 -14 -9.5 -24t-24.5 -10zM493 256q0 -16 -1 -18h-411q1 -91 57 -150t142 -59q108 0 168 78l25 -20q-68 -91 -192 -91q-102 0 -168 69.5t-66 176.5q0 106 66.5 176.5t165.5 70.5q94 0 154 -66t60 -167z
M278 457q-77 0 -132.5 -53t-63.5 -135h377q-7 85 -55.5 136.5t-125.5 51.5z" />
    <glyph glyph-name="Eogonek" unicode="&#x118;" horiz-adv-x="570" 
d="M561 -140l4 -29q-26 -13 -64 -13q-40 0 -63.5 20t-23.5 58q0 57 65 104h-390v710h416v-34h-381v-304h319v-34h-319v-304h402v-34h-1q-36 -17 -57.5 -44.5t-21.5 -55.5q0 -53 58 -53q32 0 57 13z" />
    <glyph glyph-name="eogonek" unicode="&#x119;" horiz-adv-x="536" 
d="M493 256q0 -16 -1 -18h-411q1 -91 57 -150t142 -59q108 0 168 78l25 -20q-54 -74 -147 -88q-35 -19 -55.5 -45t-20.5 -53q0 -52 59 -52q33 0 56 13l4 -30q-24 -13 -63 -13q-41 0 -64.5 20.5t-23.5 57.5q0 54 57 99q-100 2 -164 71.5t-64 174.5q0 106 66.5 176.5
t165.5 70.5q94 0 154 -66t60 -167zM278 457q-77 0 -132.5 -53t-63.5 -135h377q-7 85 -55.5 136.5t-125.5 51.5z" />
    <glyph glyph-name="Ecaron" unicode="&#x11a;" horiz-adv-x="570" 
d="M270 792l-120 112h40l98 -89h2l100 89h40l-123 -112h-37zM89 0v710h416v-34h-381v-304h319v-34h-319v-304h402v-34h-437z" />
    <glyph glyph-name="ecaron" unicode="&#x11b;" horiz-adv-x="536" 
d="M296 560h-36l-120 130h39l99 -105h2l100 105h39zM493 256q0 -16 -1 -18h-411q1 -91 57 -150t142 -59q108 0 168 78l25 -20q-68 -91 -192 -91q-102 0 -168 69.5t-66 176.5q0 106 66.5 176.5t165.5 70.5q94 0 154 -66t60 -167zM278 457q-77 0 -132.5 -53t-63.5 -135h377
q-7 85 -55.5 136.5t-125.5 51.5z" />
    <glyph glyph-name="Gcircumflex" unicode="&#x11c;" horiz-adv-x="760" 
d="M264 792l123 112h37l120 -112h-40l-98 89h-2l-101 -89h-39zM410 -3q-154 0 -251.5 99t-97.5 258q0 160 97 260.5t251 100.5q158 0 260 -102l-24 -23q-94 90 -236 90q-138 0 -224.5 -90t-86.5 -236q0 -143 86.5 -233t225.5 -90q147 0 238 76v205h-257v34h292v-257
q-103 -92 -273 -92z" />
    <glyph glyph-name="gcircumflex" unicode="&#x11d;" horiz-adv-x="589" 
d="M143 560l123 131h37l119 -131h-39l-97 106h-2l-102 -106h-39zM292 -202q-105 0 -198 56l9 33q89 -56 189 -56q95 0 143 50t48 134v121h-1q-26 -58 -78.5 -91.5t-122.5 -33.5q-100 0 -167.5 67t-67.5 174q0 100 66 168.5t169 68.5q66 0 119.5 -32.5t81.5 -88.5h1v117h33
v-470q0 -99 -57 -158t-167 -59zM283 44q91 0 146 59t55 150q0 90 -57 147t-143 57q-90 0 -146.5 -59t-56.5 -145q0 -93 58 -151t144 -58z" />
    <glyph glyph-name="Gbreve" unicode="&#x11e;" horiz-adv-x="760" 
d="M404 788q-51 0 -86.5 32t-39.5 84h29q3 -35 29 -60.5t68 -25.5t68 25.5t28 60.5h30q-4 -52 -40 -84t-86 -32zM410 -3q-154 0 -251.5 99t-97.5 258q0 160 97 260.5t251 100.5q158 0 260 -102l-24 -23q-94 90 -236 90q-138 0 -224.5 -90t-86.5 -236q0 -143 86.5 -233
t225.5 -90q147 0 238 76v205h-257v34h292v-257q-103 -92 -273 -92z" />
    <glyph glyph-name="gbreve" unicode="&#x11f;" horiz-adv-x="589" 
d="M283 559q-52 0 -87.5 34t-39.5 96h30q3 -44 28.5 -72t68.5 -28q42 0 68 28.5t28 71.5h30q-4 -62 -39.5 -96t-86.5 -34zM292 -202q-105 0 -198 56l9 33q89 -56 189 -56q95 0 143 50t48 134v121h-1q-26 -58 -78.5 -91.5t-122.5 -33.5q-100 0 -167.5 67t-67.5 174
q0 100 66 168.5t169 68.5q66 0 119.5 -32.5t81.5 -88.5h1v117h33v-470q0 -99 -57 -158t-167 -59zM283 44q91 0 146 59t55 150q0 90 -57 147t-143 57q-90 0 -146.5 -59t-56.5 -145q0 -93 58 -151t144 -58z" />
    <glyph glyph-name="Gdotaccent" unicode="&#x120;" horiz-adv-x="760" 
d="M404 820q-14 0 -24 10t-10 24q0 15 9.5 24t24.5 9t24.5 -9t9.5 -24q0 -14 -9.5 -24t-24.5 -10zM410 -3q-154 0 -251.5 99t-97.5 258q0 160 97 260.5t251 100.5q158 0 260 -102l-24 -23q-94 90 -236 90q-138 0 -224.5 -90t-86.5 -236q0 -143 86.5 -233t225.5 -90
q147 0 238 76v205h-257v34h292v-257q-103 -92 -273 -92z" />
    <glyph glyph-name="gdotaccent" unicode="&#x121;" horiz-adv-x="589" 
d="M284 599q-14 0 -24 10t-10 24q0 15 9.5 24t24.5 9t24.5 -9t9.5 -24q0 -14 -9.5 -24t-24.5 -10zM292 -202q-105 0 -198 56l9 33q89 -56 189 -56q95 0 143 50t48 134v121h-1q-26 -58 -78.5 -91.5t-122.5 -33.5q-100 0 -167.5 67t-67.5 174q0 100 66 168.5t169 68.5
q66 0 119.5 -32.5t81.5 -88.5h1v117h33v-470q0 -99 -57 -158t-167 -59zM283 44q91 0 146 59t55 150q0 90 -57 147t-143 57q-90 0 -146.5 -59t-56.5 -145q0 -93 58 -151t144 -58z" />
    <glyph glyph-name="Gcommaaccent" unicode="&#x122;" horiz-adv-x="760" 
d="M410 -3q-154 0 -251.5 99t-97.5 258q0 160 97 260.5t251 100.5q158 0 260 -102l-24 -23q-94 90 -236 90q-138 0 -224.5 -90t-86.5 -236q0 -143 86.5 -233t225.5 -90q147 0 238 76v205h-257v34h292v-257q-103 -92 -273 -92zM329 -202l-10 24q39 3 52.5 21t13.5 48
q0 24 -5 54h32q5 -27 5 -54q0 -86 -88 -93z" />
    <glyph glyph-name="gcommaaccent" unicode="&#x123;" horiz-adv-x="589" 
d="M361 700l10 -24q-39 -3 -52.5 -21t-13.5 -48q0 -24 5 -54h-32q-5 27 -5 54q0 86 88 93zM292 -202q-105 0 -198 56l9 33q89 -56 189 -56q95 0 143 50t48 134v121h-1q-26 -58 -78.5 -91.5t-122.5 -33.5q-100 0 -167.5 67t-67.5 174q0 100 66 168.5t169 68.5
q66 0 119.5 -32.5t81.5 -88.5h1v117h33v-470q0 -99 -57 -158t-167 -59zM283 44q91 0 146 59t55 150q0 90 -57 147t-143 57q-90 0 -146.5 -59t-56.5 -145q0 -93 58 -151t144 -58z" />
    <glyph glyph-name="Hcircumflex" unicode="&#x124;" horiz-adv-x="698" 
d="M208 792l123 112h37l120 -112h-40l-98 89h-2l-101 -89h-39zM89 0v710h35v-358h449v358h36v-710h-36v318h-449v-318h-35z" />
    <glyph glyph-name="hcircumflex" unicode="&#x125;" horiz-adv-x="554" 
d="M80 805l123 112h37l120 -112h-40l-98 89h-2l-101 -89h-39zM80 0v736h34v-372h1q26 59 78.5 92t122.5 33q79 0 124 -51t45 -146v-292h-33v279q0 92 -38.5 135t-101.5 43q-90 0 -144 -59t-54 -158v-240h-34z" />
    <glyph glyph-name="Hbar" unicode="&#x126;" horiz-adv-x="698" 
d="M677 570v-29h-68v-541h-36v318h-449v-318h-35v541h-74v29h74v140h35v-140h449v140h36v-140h68zM573 352v189h-449v-189h449z" />
    <glyph glyph-name="hbar" unicode="&#x127;" horiz-adv-x="554" 
d="M316 489q79 0 124 -51t45 -146v-292h-33v279q0 92 -38.5 135t-101.5 43q-90 0 -144 -59t-54 -158v-240h-34v585h-75v29h75v122h34v-122h213v-29h-213v-221h1q26 59 78.5 92t122.5 33z" />
    <glyph glyph-name="Itilde" unicode="&#x128;" horiz-adv-x="227" 
d="M191 792q-31 0 -87 39q-39 28 -63 28q-41 0 -63 -60l-27 9q27 81 88 81q29 0 79 -32l16.5 -11t19 -12.5t16 -7.5t19.5 -4q42 0 59 60l27 -9q-25 -81 -84 -81zM95 0v710h36v-710h-36z" />
    <glyph glyph-name="itilde" unicode="&#x129;" horiz-adv-x="205" 
d="M181 577q-7 0 -13.5 1t-14 4t-12 4.5t-13.5 7t-11 7t-12.5 8.5t-11.5 8q-38 27 -62 27q-41 0 -63 -60l-27 9q26 81 88 81q36 0 77 -30q2 -1 16.5 -11.5t20 -13.5t16 -7t19.5 -4q42 0 60 60l27 -9q-12 -40 -34.5 -61t-49.5 -21zM85 0v485h34v-485h-34z" />
    <glyph glyph-name="Imacron" unicode="&#x12a;" horiz-adv-x="227" 
d="M-22 829v32h271v-32h-271zM95 0v710h36v-710h-36z" />
    <glyph glyph-name="imacron" unicode="&#x12b;" horiz-adv-x="205" 
d="M-32 614v32h271v-32h-271zM85 0v485h34v-485h-34z" />
    <glyph glyph-name="Ibreve" unicode="&#x12c;" horiz-adv-x="227" 
d="M113 788q-51 0 -86.5 32t-39.5 84h29q3 -35 29 -60.5t68 -25.5t68 25.5t28 60.5h30q-4 -52 -40 -84t-86 -32zM95 0v710h36v-710h-36z" />
    <glyph glyph-name="ibreve" unicode="&#x12d;" horiz-adv-x="205" 
d="M103 559q-50 0 -82 34t-35 96h31q2 -46 23 -73.5t63 -27.5q41 0 62.5 27.5t22.5 73.5h31q-4 -62 -35 -96t-81 -34zM85 0v485h34v-485h-34z" />
    <glyph glyph-name="Iogonek" unicode="&#x12e;" horiz-adv-x="227" 
d="M165 -140l4 -29q-26 -13 -64 -13q-40 0 -63.5 20t-23.5 58q0 28 20 58.5t57 53.5v702h36v-710h-2q-36 -17 -57.5 -44.5t-21.5 -55.5q0 -53 58 -53q32 0 57 13z" />
    <glyph glyph-name="iogonek" unicode="&#x12f;" horiz-adv-x="205" 
d="M104 599q-14 0 -24 10t-10 24q0 15 9.5 24t24.5 9t24.5 -9t9.5 -24q0 -14 -9.5 -24t-24.5 -10zM154 -140l4 -29q-26 -13 -64 -13q-40 0 -63.5 20t-23.5 58q0 28 20.5 59t57.5 54v476h34v-485h-1q-36 -17 -57.5 -44.5t-21.5 -55.5q0 -53 58 -53q32 0 57 13z" />
    <glyph glyph-name="Idotaccent" unicode="&#x130;" horiz-adv-x="227" 
d="M113 820q-14 0 -24 10t-10 24q0 15 9.5 24t24.5 9t24.5 -9t9.5 -24q0 -14 -9.5 -24t-24.5 -10zM95 0v710h36v-710h-36z" />
    <glyph glyph-name="dotlessi" unicode="&#x131;" horiz-adv-x="205" 
d="M85 0v485h34v-485h-34z" />
    <glyph glyph-name="IJ" unicode="&#x132;" horiz-adv-x="699" 
d="M95 0v710h36v-710h-36zM440 -3q-46 0 -97 24t-89 69l21 27q78 -86 164 -86q147 0 147 186v493h35v-497q0 -216 -181 -216z" />
    <glyph glyph-name="ij" unicode="&#x133;" horiz-adv-x="390" 
d="M104 599q-14 0 -24 10t-10 24q0 15 9.5 24t24.5 9t24.5 -9t9.5 -24q0 -14 -9.5 -24t-24.5 -10zM304 599q-14 0 -24 10t-10 24q0 15 9.5 24t24.5 9t24.5 -9t9.5 -24q0 -14 -9.5 -24t-24.5 -10zM85 0v485h34v-485h-34zM214 -202q-37 0 -67 15l5 33q27 -15 61 -15
q73 0 73 91v563h34v-563q0 -124 -106 -124z" />
    <glyph glyph-name="Jcircumflex" unicode="&#x134;" horiz-adv-x="472" 
d="M238 792l123 112h37l120 -112h-40l-98 89h-2l-101 -89h-39zM213 -3q-46 0 -97 24t-89 69l21 27q78 -86 164 -86q147 0 147 186v493h35v-497q0 -216 -181 -216z" />
    <glyph glyph-name="jcircumflex" unicode="&#x135;" horiz-adv-x="185" 
d="M-42 560l123 131h37l119 -131h-39l-97 106h-2l-102 -106h-39zM9 -202q-37 0 -67 15l5 33q27 -15 61 -15q73 0 73 91v563h34v-563q0 -124 -106 -124z" />
    <glyph glyph-name="Kcommaaccent" unicode="&#x136;" horiz-adv-x="619" 
d="M89 0v710h35v-465h2l400 465h46l-287 -334l293 -376h-46l-271 349l-137 -158v-191h-35zM246 -202l-10 24q39 3 52.5 21t13.5 48q0 24 -5 54h32q5 -27 5 -54q0 -86 -88 -93z" />
    <glyph glyph-name="kcommaaccent" unicode="&#x137;" horiz-adv-x="490" 
d="M80 0v736h34v-580l1 -1l301 330h45l-191 -209l189 -276h-40l-173 251l-132 -143v-108h-34zM186 -202l-10 24q39 3 52.5 21t13.5 48q0 24 -5 54h32q5 -27 5 -54q0 -86 -88 -93z" />
    <glyph glyph-name="kgreenlandic" unicode="&#x138;" horiz-adv-x="516" 
d="M80 0v485h34v-331h1l316 331h46l-204 -213l214 -272h-44l-194 247l-135 -141v-106h-34z" />
    <glyph glyph-name="Lacute" unicode="&#x139;" horiz-adv-x="534" 
d="M186 792l113 125h42l-116 -125h-39zM89 0v710h35v-676h386v-34h-421z" />
    <glyph glyph-name="lacute" unicode="&#x13a;" horiz-adv-x="204" 
d="M82 805l113 125h42l-116 -125h-39zM85 0v736h34v-736h-34z" />
    <glyph glyph-name="Lcommaaccent" unicode="&#x13b;" horiz-adv-x="534" 
d="M89 0v710h35v-676h386v-34h-421zM221 -202l-10 24q39 3 52.5 21t13.5 48q0 24 -5 54h32q5 -27 5 -54q0 -86 -88 -93z" />
    <glyph glyph-name="lcommaaccent" unicode="&#x13c;" horiz-adv-x="204" 
d="M85 0v736h34v-736h-34zM36 -202l-10 24q39 3 52.5 21t13.5 48q0 24 -5 54h32q5 -27 5 -54q0 -86 -88 -93z" />
    <glyph glyph-name="Lcaron" unicode="&#x13d;" horiz-adv-x="534" 
d="M280 594l25 163h38l-36 -163h-27zM89 0v710h35v-676h386v-34h-421z" />
    <glyph glyph-name="lcaron" unicode="&#x13e;" horiz-adv-x="255" 
d="M208 595l25 163h38l-36 -163h-27zM85 0v736h34v-736h-34z" />
    <glyph glyph-name="Ldot" unicode="&#x13f;" horiz-adv-x="534" 
d="M89 0v710h35v-676h386v-34h-421zM380 302q-15 0 -25 10t-10 25t10 24.5t25 9.5t25 -9.5t10 -24.5t-10 -25t-25 -10z" />
    <glyph glyph-name="ldot" unicode="&#x140;" horiz-adv-x="242" 
d="M85 0v736h34v-736h-34zM224 235q-15 0 -25 10t-10 25t10 24.5t25 9.5t25 -9.5t10 -24.5t-10 -25t-25 -10z" />
    <glyph glyph-name="Lslash" unicode="&#x141;" horiz-adv-x="561" 
d="M151 34h386v-34h-421v300l-93 -40v35l93 40v375h35v-360l119 51v-35l-119 -51v-281z" />
    <glyph glyph-name="lslash" unicode="&#x142;" horiz-adv-x="223" 
d="M212 381v-32l-81 -32v-317h-34v304l-89 -35v32l89 35v400h34v-387z" />
    <glyph glyph-name="Nacute" unicode="&#x143;" horiz-adv-x="733" 
d="M292 792l113 125h42l-116 -125h-39zM89 0v710h34l483 -649h1v649h36v-710h-36l-481 647h-2v-647h-35z" />
    <glyph glyph-name="nacute" unicode="&#x144;" horiz-adv-x="549" 
d="M240 561l122 136h43l-124 -136h-41zM80 0v485h34v-121h1q26 59 78 92t119 33q78 0 123 -51.5t45 -146.5v-291h-33v278q0 93 -38.5 136t-101.5 43q-87 0 -140 -59.5t-53 -157.5v-240h-34z" />
    <glyph glyph-name="Ncommaaccent" unicode="&#x145;" horiz-adv-x="733" 
d="M89 0v710h34l483 -649h1v649h36v-710h-36l-481 647h-2v-647h-35zM300 -202l-10 24q39 3 52.5 21t13.5 48q0 24 -5 54h32q5 -27 5 -54q0 -86 -88 -93z" />
    <glyph glyph-name="ncommaaccent" unicode="&#x146;" horiz-adv-x="549" 
d="M80 0v485h34v-121h1q26 59 78 92t119 33q78 0 123 -51.5t45 -146.5v-291h-33v278q0 93 -38.5 136t-101.5 43q-87 0 -140 -59.5t-53 -157.5v-240h-34zM212 -202l-10 24q39 3 52.5 21t13.5 48q0 24 -5 54h32q5 -27 5 -54q0 -86 -88 -93z" />
    <glyph glyph-name="Ncaron" unicode="&#x147;" horiz-adv-x="733" 
d="M346 792l-120 112h40l98 -89h2l100 89h40l-123 -112h-37zM89 0v710h34l483 -649h1v649h36v-710h-36l-481 647h-2v-647h-35z" />
    <glyph glyph-name="ncaron" unicode="&#x148;" horiz-adv-x="549" 
d="M264 560l-120 130h39l99 -105h2l100 105h39l-123 -130h-36zM80 0v485h34v-121h1q26 59 78 92t119 33q78 0 123 -51.5t45 -146.5v-291h-33v278q0 93 -38.5 136t-101.5 43q-87 0 -140 -59.5t-53 -157.5v-240h-34z" />
    <glyph glyph-name="napostrophe" unicode="&#x149;" horiz-adv-x="603" 
d="M22 537l26 173h37l-35 -173h-28zM133 0v485h34v-121h1q26 59 78 92t119 33q78 0 123 -51.5t45 -146.5v-291h-33v278q0 93 -38.5 136t-101.5 43q-87 0 -140 -59.5t-53 -157.5v-240h-34z" />
    <glyph glyph-name="Eng" unicode="&#x14a;" horiz-adv-x="732" 
d="M607 710h35v-732q0 -94 -37.5 -137t-119.5 -43q-43 0 -74 14l2 33q27 -14 70 -14q60 0 92 31.5t32 114.5v23l-481 647h-2v-647h-35v710h34l482 -649h2v649z" />
    <glyph glyph-name="eng" unicode="&#x14b;" horiz-adv-x="549" 
d="M338 -202q-33 0 -66 14l4 31q26 -13 60 -13q59 0 84.5 27t25.5 103v318q0 93 -38.5 136t-101.5 43q-86 0 -139 -59.5t-53 -157.5v-240h-34v485h34v-121h1q26 59 77.5 92t118.5 33q78 0 123.5 -51.5t45.5 -146.5v-330q0 -84 -32 -123.5t-110 -39.5z" />
    <glyph glyph-name="Omacron" unicode="&#x14c;" horiz-adv-x="823" 
d="M277 829v32h271v-32h-271zM413 -4q-150 0 -251 100.5t-101 259.5q0 158 101.5 258.5t250.5 100.5q147 0 248 -100.5t101 -258.5q0 -159 -101 -259.5t-248 -100.5zM413 31q131 0 221 91t90 234t-90 233.5t-221 90.5q-133 0 -224 -91t-91 -233q0 -143 90.5 -234t224.5 -91z
" />
    <glyph glyph-name="omacron" unicode="&#x14d;" horiz-adv-x="582" 
d="M157 614v32h271v-32h-271zM291 -4q-107 0 -175.5 71.5t-68.5 174.5q0 104 68.5 175.5t175.5 71.5q103 0 173.5 -69.5t70.5 -177.5t-70.5 -177t-173.5 -69zM291 29q89 0 149 59.5t60 153.5t-60 154.5t-149 60.5q-92 0 -151 -62.5t-59 -152.5t58.5 -151.5t151.5 -61.5z" />
    <glyph glyph-name="Obreve" unicode="&#x14e;" horiz-adv-x="823" 
d="M412 788q-51 0 -86.5 32t-39.5 84h29q3 -35 29 -60.5t68 -25.5t68 25.5t28 60.5h30q-4 -52 -40 -84t-86 -32zM413 -4q-150 0 -251 100.5t-101 259.5q0 158 101.5 258.5t250.5 100.5q147 0 248 -100.5t101 -258.5q0 -159 -101 -259.5t-248 -100.5zM413 31q131 0 221 91
t90 234t-90 233.5t-221 90.5q-133 0 -224 -91t-91 -233q0 -143 90.5 -234t224.5 -91z" />
    <glyph glyph-name="obreve" unicode="&#x14f;" horiz-adv-x="582" 
d="M292 559q-52 0 -87.5 34t-39.5 96h30q3 -44 28.5 -72t68.5 -28q42 0 68 28.5t28 71.5h30q-4 -62 -39.5 -96t-86.5 -34zM291 -4q-107 0 -175.5 71.5t-68.5 174.5q0 104 68.5 175.5t175.5 71.5q103 0 173.5 -69.5t70.5 -177.5t-70.5 -177t-173.5 -69zM291 29q89 0 149 59.5
t60 153.5t-60 154.5t-149 60.5q-92 0 -151 -62.5t-59 -152.5t58.5 -151.5t151.5 -61.5z" />
    <glyph glyph-name="Ohungarumlaut" unicode="&#x150;" horiz-adv-x="823" 
d="M326 792l121 136h42l-124 -136h-39zM459 792l121 136h42l-125 -136h-38zM413 -4q-150 0 -251 100.5t-101 259.5q0 158 101.5 258.5t250.5 100.5q147 0 248 -100.5t101 -258.5q0 -159 -101 -259.5t-248 -100.5zM413 31q131 0 221 91t90 234t-90 233.5t-221 90.5
q-133 0 -224 -91t-91 -233q0 -143 90.5 -234t224.5 -91z" />
    <glyph glyph-name="ohungarumlaut" unicode="&#x151;" horiz-adv-x="582" 
d="M206 560l121 136h42l-124 -136h-39zM339 560l121 136h42l-125 -136h-38zM291 -4q-107 0 -175.5 71.5t-68.5 174.5q0 104 68.5 175.5t175.5 71.5q103 0 173.5 -69.5t70.5 -177.5t-70.5 -177t-173.5 -69zM291 29q89 0 149 59.5t60 153.5t-60 154.5t-149 60.5
q-92 0 -151 -62.5t-59 -152.5t58.5 -151.5t151.5 -61.5z" />
    <glyph glyph-name="OE" unicode="&#x152;" horiz-adv-x="936" 
d="M490 34h402v-34h-476q-156 0 -255.5 104t-99.5 253t99.5 251.5t255.5 101.5h456v-34h-382v-304h324v-34h-324v-304zM416 35h40v640h-40q-134 2 -226 -88t-92 -230q0 -141 92 -232t226 -90z" />
    <glyph glyph-name="oe" unicode="&#x153;" horiz-adv-x="822" 
d="M790 253q0 -11 -1 -15h-355q3 -98 49 -153.5t123 -55.5q52 0 83 19t59 59l25 -20q-62 -91 -166 -91q-78 0 -124 41.5t-65 105.5h-2q-19 -67 -68 -107t-111 -40q-92 0 -146.5 69.5t-54.5 176.5q0 106 56 176.5t145 70.5q62 0 110 -40t68 -107h2q20 68 67 107.5t116 39.5
q82 0 136 -67t54 -169zM237 29q70 0 116.5 59.5t46.5 153.5t-47 154.5t-115 60.5q-74 0 -120.5 -61t-46.5 -154t45.5 -153t120.5 -60zM435 269h320q-5 85 -46.5 136.5t-108.5 51.5q-72 0 -115.5 -52t-49.5 -136z" />
    <glyph glyph-name="Racute" unicode="&#x154;" horiz-adv-x="617" 
d="M228 792l113 125h42l-116 -125h-39zM89 0v710h236q112 0 167.5 -56t55.5 -148q0 -96 -54 -146t-151 -59l215 -301h-43l-214 298h-177v-298h-35zM124 332h182q106 0 155.5 47.5t49.5 126.5q0 84 -49.5 127t-137.5 43h-200v-344z" />
    <glyph glyph-name="racute" unicode="&#x155;" horiz-adv-x="324" 
d="M124 560l122 136h43l-124 -136h-41zM80 0v485h34v-114h2q23 55 66.5 86.5t102.5 31.5q20 0 30 -1v-37q-22 2 -30 2q-78 0 -124.5 -58.5t-46.5 -153.5v-241h-34z" />
    <glyph glyph-name="Rcommaaccent" unicode="&#x156;" horiz-adv-x="617" 
d="M89 0v710h236q112 0 167.5 -56t55.5 -148q0 -96 -54 -146t-151 -59l215 -301h-43l-214 298h-177v-298h-35zM124 332h182q106 0 155.5 47.5t49.5 126.5q0 84 -49.5 127t-137.5 43h-200v-344zM232 -202l-10 24q39 3 52.5 21t13.5 48q0 24 -5 54h32q5 -27 5 -54
q0 -86 -88 -93z" />
    <glyph glyph-name="rcommaaccent" unicode="&#x157;" horiz-adv-x="324" 
d="M80 0v485h34v-114h2q23 55 66.5 86.5t102.5 31.5q20 0 30 -1v-37q-22 2 -30 2q-78 0 -124.5 -58.5t-46.5 -153.5v-241h-34zM32 -202l-10 24q39 3 52.5 21t13.5 48q0 24 -5 54h32q5 -27 5 -54q0 -86 -88 -93z" />
    <glyph glyph-name="Rcaron" unicode="&#x158;" horiz-adv-x="617" 
d="M282 792l-120 112h40l98 -89h2l100 89h40l-123 -112h-37zM89 0v710h236q112 0 167.5 -56t55.5 -148q0 -96 -54 -146t-151 -59l215 -301h-43l-214 298h-177v-298h-35zM124 332h182q106 0 155.5 47.5t49.5 126.5q0 84 -49.5 127t-137.5 43h-200v-344z" />
    <glyph glyph-name="rcaron" unicode="&#x159;" horiz-adv-x="324" 
d="M178 560l-120 130h39l99 -105h2l100 105h39l-123 -130h-36zM80 0v485h34v-114h2q23 55 66.5 86.5t102.5 31.5q20 0 30 -1v-37q-22 2 -30 2q-78 0 -124.5 -58.5t-46.5 -153.5v-241h-34z" />
    <glyph glyph-name="Sacute" unicode="&#x15a;" horiz-adv-x="562" 
d="M237 792l113 125h42l-116 -125h-39zM284 -4q-68 0 -131.5 27t-109.5 81l25 28q37 -49 95.5 -75t122.5 -26q80 0 133.5 38.5t53.5 106.5q0 19 -5 35.5t-10 28t-19.5 24t-22.5 19.5t-30.5 17.5t-31.5 14.5t-37 15t-37 15l-43.5 18t-40.5 18.5t-40 22t-32.5 25.5t-27.5 31.5
t-16 37.5t-7 46q0 73 58 122t147 49q114 0 207 -76l-23 -29q-87 70 -183 70q-69 0 -119 -36t-50 -100q0 -23 6 -42t21.5 -35t28 -26.5t39 -23.5t41 -19t46.5 -19q6 -2 33 -13t34 -13.5t30 -12.5t29.5 -15t24.5 -16t24 -19t17 -21t15 -26t7.5 -29.5t3.5 -35.5
q0 -81 -61.5 -131.5t-164.5 -50.5z" />
    <glyph glyph-name="sacute" unicode="&#x15b;" horiz-adv-x="419" 
d="M192 561l122 136h43l-124 -136h-41zM213 -4q-103 0 -179 68l18 26q71 -62 161 -62q60 0 95.5 28t35.5 68q0 13 -3.5 23.5t-7.5 18.5t-14 16t-16.5 12.5t-22 11t-24 9.5t-29 10.5t-29.5 10.5q-35 13 -56 22.5t-43.5 25t-32.5 37t-10 49.5q0 51 41.5 85t102.5 34
q90 0 159 -58l-20 -26q-58 51 -139 51q-46 0 -77.5 -24.5t-31.5 -59.5q0 -22 8.5 -38t27.5 -28.5t34 -19.5t45 -18q97 -34 121 -49q53 -33 52 -96q-1 -54 -44.5 -90.5t-121.5 -36.5z" />
    <glyph glyph-name="Scircumflex" unicode="&#x15c;" horiz-adv-x="562" 
d="M141 792l123 112h37l120 -112h-40l-98 89h-2l-101 -89h-39zM284 -4q-68 0 -131.5 27t-109.5 81l25 28q37 -49 95.5 -75t122.5 -26q80 0 133.5 38.5t53.5 106.5q0 19 -5 35.5t-10 28t-19.5 24t-22.5 19.5t-30.5 17.5t-31.5 14.5t-37 15t-37 15l-43.5 18t-40.5 18.5t-40 22
t-32.5 25.5t-27.5 31.5t-16 37.5t-7 46q0 73 58 122t147 49q114 0 207 -76l-23 -29q-87 70 -183 70q-69 0 -119 -36t-50 -100q0 -23 6 -42t21.5 -35t28 -26.5t39 -23.5t41 -19t46.5 -19q6 -2 33 -13t34 -13.5t30 -12.5t29.5 -15t24.5 -16t24 -19t17 -21t15 -26t7.5 -29.5
t3.5 -35.5q0 -81 -61.5 -131.5t-164.5 -50.5z" />
    <glyph glyph-name="scircumflex" unicode="&#x15d;" horiz-adv-x="419" 
d="M74 560l123 131h37l119 -131h-39l-97 106h-2l-102 -106h-39zM213 -4q-103 0 -179 68l18 26q71 -62 161 -62q60 0 95.5 28t35.5 68q0 13 -3.5 23.5t-7.5 18.5t-14 16t-16.5 12.5t-22 11t-24 9.5t-29 10.5t-29.5 10.5q-35 13 -56 22.5t-43.5 25t-32.5 37t-10 49.5
q0 51 41.5 85t102.5 34q90 0 159 -58l-20 -26q-58 51 -139 51q-46 0 -77.5 -24.5t-31.5 -59.5q0 -22 8.5 -38t27.5 -28.5t34 -19.5t45 -18q97 -34 121 -49q53 -33 52 -96q-1 -54 -44.5 -90.5t-121.5 -36.5z" />
    <glyph glyph-name="Scedilla" unicode="&#x15e;" horiz-adv-x="562" 
d="M290 -4l-13 -29v-2q33 -2 57.5 -22.5t24.5 -54.5q0 -31 -24 -52t-66 -21q-27 0 -50 6v27q23 -7 46 -7q27 0 45.5 12.5t18.5 36.5q0 21 -22 37.5t-61 16.5l1 21l15 32q-136 9 -219 107l25 28q37 -49 95.5 -75t122.5 -26q80 0 133.5 38.5t53.5 106.5q0 19 -5 35.5t-10 28
t-19.5 24t-22.5 19.5t-30.5 17.5t-31.5 14.5t-37 15t-37 15l-43.5 18t-40.5 18.5t-40 22t-32.5 25.5t-27.5 31.5t-16 37.5t-7 46q0 73 58 122t147 49q114 0 207 -76l-23 -29q-87 70 -183 70q-69 0 -119 -36t-50 -100q0 -23 6 -42t21.5 -35t28 -26.5t39 -23.5t41 -19
t46.5 -19q6 -2 33 -13t34 -13.5t30 -12.5t29.5 -15t24.5 -16t24 -19t17 -21t15 -26t7.5 -29.5t3.5 -35.5q0 -80 -60 -130.5t-160 -51.5z" />
    <glyph glyph-name="scedilla" unicode="&#x15f;" horiz-adv-x="419" 
d="M206 268q97 -34 121 -49q53 -33 52 -96q-1 -54 -44.5 -90.5t-121.5 -36.5h-7l-13 -29v-2q33 -2 57.5 -22.5t24.5 -54.5q0 -31 -24 -52t-66 -21q-27 0 -50 6v27q23 -7 46 -7q27 0 45.5 12.5t18.5 36.5q0 21 -22 37.5t-61 16.5l1 21l15 33q-83 11 -144 66l18 26
q71 -62 161 -62q60 0 95.5 28t35.5 68q0 13 -3.5 23.5t-7.5 18.5t-14 16t-16.5 12.5t-22 11t-24 9.5t-29 10.5t-29.5 10.5q-35 13 -56 22.5t-43.5 25t-32.5 37t-10 49.5q0 51 41.5 85t102.5 34q90 0 159 -58l-20 -26q-58 51 -139 51q-46 0 -77.5 -24.5t-31.5 -59.5
q0 -22 8.5 -38t27.5 -28.5t34 -19.5t45 -18z" />
    <glyph glyph-name="Scaron" unicode="&#x160;" horiz-adv-x="562" 
d="M261 792l-120 112h40l98 -89h2l100 89h40l-123 -112h-37zM284 -4q-68 0 -131.5 27t-109.5 81l25 28q37 -49 95.5 -75t122.5 -26q80 0 133.5 38.5t53.5 106.5q0 19 -5 35.5t-10 28t-19.5 24t-22.5 19.5t-30.5 17.5t-31.5 14.5t-37 15t-37 15l-43.5 18t-40.5 18.5t-40 22
t-32.5 25.5t-27.5 31.5t-16 37.5t-7 46q0 73 58 122t147 49q114 0 207 -76l-23 -29q-87 70 -183 70q-69 0 -119 -36t-50 -100q0 -23 6 -42t21.5 -35t28 -26.5t39 -23.5t41 -19t46.5 -19q6 -2 33 -13t34 -13.5t30 -12.5t29.5 -15t24.5 -16t24 -19t17 -21t15 -26t7.5 -29.5
t3.5 -35.5q0 -81 -61.5 -131.5t-164.5 -50.5z" />
    <glyph glyph-name="scaron" unicode="&#x161;" horiz-adv-x="419" 
d="M194 560l-120 130h39l99 -105h2l100 105h39l-123 -130h-36zM213 -4q-103 0 -179 68l18 26q71 -62 161 -62q60 0 95.5 28t35.5 68q0 13 -3.5 23.5t-7.5 18.5t-14 16t-16.5 12.5t-22 11t-24 9.5t-29 10.5t-29.5 10.5q-35 13 -56 22.5t-43.5 25t-32.5 37t-10 49.5
q0 51 41.5 85t102.5 34q90 0 159 -58l-20 -26q-58 51 -139 51q-46 0 -77.5 -24.5t-31.5 -59.5q0 -22 8.5 -38t27.5 -28.5t34 -19.5t45 -18q97 -34 121 -49q53 -33 52 -96q-1 -54 -44.5 -90.5t-121.5 -36.5z" />
    <glyph glyph-name="uni0162" unicode="&#x162;" horiz-adv-x="548" 
d="M281 0l-14 -33v-2q33 -2 57.5 -22.5t24.5 -54.5q0 -31 -24 -52t-66 -21q-27 0 -50 6v27q23 -7 46 -7q27 0 45.5 12.5t18.5 36.5q0 21 -22 37.5t-61 16.5l1 21l18 39v672h-229v34h496v-34h-232v-676h-9z" />
    <glyph glyph-name="uni0163" unicode="&#x163;" horiz-adv-x="355" 
d="M316 453h-188v-307q0 -61 15.5 -89t62.5 -28q53 0 98 31l9 -32q-50 -32 -107 -32h-7l-13 -29v-2q33 -2 57.5 -22.5t24.5 -54.5q0 -31 -24 -52t-66 -21q-28 0 -50 6v27q23 -7 46 -7q27 0 45.5 12.5t18.5 36.5q0 21 -22 37.5t-61 16.5l1 21l16 34q-44 9 -61 42t-17 90v322
h-66v32h66v173l34 4v-177h188v-32z" />
    <glyph glyph-name="Tcaron" unicode="&#x164;" horiz-adv-x="548" 
d="M253 792l-120 112h40l98 -89h2l100 89h40l-123 -112h-37zM255 0v676h-229v34h496v-34h-232v-676h-35z" />
    <glyph glyph-name="tcaron" unicode="&#x165;" horiz-adv-x="355" 
d="M215 595l25 163h38l-36 -163h-27zM206 -4q-64 0 -88 34t-24 101v322h-66v32h66v173l34 4v-177h188v-32h-188v-307q0 -61 15.5 -89t62.5 -28q53 0 98 31l9 -32q-50 -32 -107 -32z" />
    <glyph glyph-name="Tbar" unicode="&#x166;" horiz-adv-x="548" 
d="M522 676h-232v-287h122v-31h-122v-358h-35v358h-121v31h121v287h-229v34h496v-34z" />
    <glyph glyph-name="tbar" unicode="&#x167;" horiz-adv-x="355" 
d="M316 453h-188v-154h167v-29h-167v-124q0 -61 15.5 -89t62.5 -28q53 0 98 31l9 -32q-50 -32 -107 -32q-64 0 -88 34t-24 101v139h-51v29h51v154h-66v32h66v173l34 4v-177h188v-32z" />
    <glyph glyph-name="Utilde" unicode="&#x168;" horiz-adv-x="687" 
d="M422 792q-31 0 -87 39q-38 28 -63 28q-41 0 -63 -60l-27 9q27 81 88 81q29 0 79 -32l16.5 -11t19 -12.5t16 -7.5t19.5 -4q42 0 59 60l27 -9q-25 -81 -84 -81zM343 -4q-118 0 -190.5 77.5t-72.5 210.5v426h36v-425q0 -118 62 -186t165 -68t166 68t63 186v425h35v-426
q0 -133 -73 -210.5t-191 -77.5z" />
    <glyph glyph-name="utilde" unicode="&#x169;" horiz-adv-x="538" 
d="M344 577q-7 0 -13.5 1t-14 4t-12 4.5t-13.5 7t-11 7t-12.5 8.5t-11.5 8q-38 27 -62 27q-41 0 -63 -60l-27 9q26 81 88 81q36 0 77 -30q2 -1 16.5 -11.5t20 -13.5t16 -7t19.5 -4q42 0 60 60l27 -9q-12 -40 -34.5 -61t-49.5 -21zM251 -4q-87 0 -135 56t-48 154v279h34v-266
q0 -96 40 -143t113 -47q75 0 125.5 60t50.5 157v239h34v-485h-34v118l-1 1q-25 -58 -73 -90.5t-106 -32.5z" />
    <glyph glyph-name="Umacron" unicode="&#x16a;" horiz-adv-x="687" 
d="M209 829v32h271v-32h-271zM343 -4q-118 0 -190.5 77.5t-72.5 210.5v426h36v-425q0 -118 62 -186t165 -68t166 68t63 186v425h35v-426q0 -133 -73 -210.5t-191 -77.5z" />
    <glyph glyph-name="umacron" unicode="&#x16b;" horiz-adv-x="538" 
d="M131 614v32h271v-32h-271zM251 -4q-87 0 -135 56t-48 154v279h34v-266q0 -96 40 -143t113 -47q75 0 125.5 60t50.5 157v239h34v-485h-34v118l-1 1q-25 -58 -73 -90.5t-106 -32.5z" />
    <glyph glyph-name="Ubreve" unicode="&#x16c;" horiz-adv-x="687" 
d="M344 788q-51 0 -86.5 32t-39.5 84h29q3 -35 29 -60.5t68 -25.5t68 25.5t28 60.5h30q-4 -52 -40 -84t-86 -32zM343 -4q-118 0 -190.5 77.5t-72.5 210.5v426h36v-425q0 -118 62 -186t165 -68t166 68t63 186v425h35v-426q0 -133 -73 -210.5t-191 -77.5z" />
    <glyph glyph-name="ubreve" unicode="&#x16d;" horiz-adv-x="538" 
d="M266 559q-52 0 -87.5 34t-39.5 96h30q3 -44 28.5 -72t68.5 -28q42 0 68 28.5t28 71.5h30q-4 -62 -39.5 -96t-86.5 -34zM251 -4q-87 0 -135 56t-48 154v279h34v-266q0 -96 40 -143t113 -47q75 0 125.5 60t50.5 157v239h34v-485h-34v118l-1 1q-25 -58 -73 -90.5t-106 -32.5
z" />
    <glyph glyph-name="Uring" unicode="&#x16e;" horiz-adv-x="687" 
d="M343 780q-31 0 -54 23t-23 54t23 54t54 23q32 0 55.5 -22.5t23.5 -54.5q0 -31 -23 -54t-56 -23zM343 809q21 0 36 14t15 34t-15 35t-36 15q-20 0 -34.5 -15t-14.5 -35t14.5 -34t34.5 -14zM343 -4q-118 0 -190.5 77.5t-72.5 210.5v426h36v-425q0 -118 62 -186t165 -68
t166 68t63 186v425h35v-426q0 -133 -73 -210.5t-191 -77.5z" />
    <glyph glyph-name="uring" unicode="&#x16f;" horiz-adv-x="538" 
d="M265 552q-31 0 -54 23t-23 54t23 54t54 23q32 0 55.5 -22.5t23.5 -54.5q0 -31 -23 -54t-56 -23zM265 581q21 0 36 14t15 34t-15 35t-36 15q-20 0 -34.5 -15t-14.5 -35t14.5 -34t34.5 -14zM251 -4q-87 0 -135 56t-48 154v279h34v-266q0 -96 40 -143t113 -47q75 0 125.5 60
t50.5 157v239h34v-485h-34v118l-1 1q-25 -58 -73 -90.5t-106 -32.5z" />
    <glyph glyph-name="Uhungarumlaut" unicode="&#x170;" horiz-adv-x="687" 
d="M258 792l121 136h42l-124 -136h-39zM391 792l121 136h42l-125 -136h-38zM343 -4q-118 0 -190.5 77.5t-72.5 210.5v426h36v-425q0 -118 62 -186t165 -68t166 68t63 186v425h35v-426q0 -133 -73 -210.5t-191 -77.5z" />
    <glyph glyph-name="uhungarumlaut" unicode="&#x171;" horiz-adv-x="538" 
d="M180 560l121 136h42l-124 -136h-39zM313 560l121 136h42l-125 -136h-38zM251 -4q-87 0 -135 56t-48 154v279h34v-266q0 -96 40 -143t113 -47q75 0 125.5 60t50.5 157v239h34v-485h-34v118l-1 1q-25 -58 -73 -90.5t-106 -32.5z" />
    <glyph glyph-name="Uogonek" unicode="&#x172;" horiz-adv-x="687" 
d="M572 710h35v-426q0 -118 -58.5 -193.5t-157.5 -90.5q-34 -18 -54.5 -45t-20.5 -54q0 -52 59 -52q31 0 56 12l5 -29q-28 -13 -64 -13q-40 0 -64 20.5t-24 57.5q0 53 57 98v1q-117 1 -189 78.5t-72 209.5v426h36v-425q0 -118 62 -186t165 -68t166 68t63 186v425z" />
    <glyph glyph-name="uogonek" unicode="&#x173;" horiz-adv-x="538" 
d="M500 -140l4 -29q-26 -13 -64 -13q-40 0 -63.5 20t-23.5 58q0 28 20.5 59t57.5 54v109l-1 1q-25 -58 -73 -90.5t-106 -32.5q-87 0 -135 56t-48 154v279h34v-266q0 -96 40 -143t113 -47q75 0 125.5 60t50.5 157v239h34v-485h-1q-36 -17 -57.5 -44.5t-21.5 -55.5
q0 -53 58 -53q32 0 57 13z" />
    <glyph glyph-name="Wcircumflex" unicode="&#x174;" horiz-adv-x="997" 
d="M358 792l123 112h37l120 -112h-40l-98 89h-2l-101 -89h-39zM263 0l-229 710h38l211 -655h1l193 655h43l192 -655h1l212 655h38l-229 -710h-41l-194 659h-1l-195 -659h-40z" />
    <glyph glyph-name="wcircumflex" unicode="&#x175;" horiz-adv-x="754" 
d="M237 560l123 131h37l119 -131h-39l-97 106h-2l-102 -106h-39zM204 0l-171 485h35l152 -430h2l137 430h35l139 -430h2l151 430h36l-171 -485h-35l-138 432h-1l-140 -432h-33z" />
    <glyph glyph-name="Ycircumflex" unicode="&#x176;" horiz-adv-x="565" 
d="M143 792l123 112h37l120 -112h-40l-98 89h-2l-101 -89h-39zM264 0v322l-247 388h43l221 -350h2l222 350h42l-247 -388v-322h-36z" />
    <glyph glyph-name="ycircumflex" unicode="&#x177;" horiz-adv-x="510" 
d="M117 560l123 131h37l119 -131h-39l-97 106h-2l-102 -106h-39zM158 -198l86 206l-218 477h39l196 -435h1l182 435h38l-287 -683h-37z" />
    <glyph glyph-name="Ydieresis" unicode="&#x178;" horiz-adv-x="565" 
d="M207 821q-14 0 -24 9.5t-10 23.5q0 15 9.5 24t24.5 9q14 0 23.5 -9.5t9.5 -23.5t-9.5 -23.5t-23.5 -9.5zM361 821q-15 0 -24.5 9.5t-9.5 23.5q0 15 9.5 24t24.5 9q14 0 23.5 -9.5t9.5 -23.5t-9.5 -23.5t-23.5 -9.5zM264 0v322l-247 388h43l221 -350h2l222 350h42
l-247 -388v-322h-36z" />
    <glyph glyph-name="Zacute" unicode="&#x179;" horiz-adv-x="593" 
d="M217 792l113 125h42l-116 -125h-39zM56 0v31l423 644l-1 1h-396v34h444v-32l-423 -643l1 -1h426v-34h-474z" />
    <glyph glyph-name="zacute" unicode="&#x17a;" horiz-adv-x="444" 
d="M204 561l122 136h43l-124 -136h-41zM30 0v29l331 423v1h-318v32h365v-28l-332 -424v-2h336v-31h-382z" />
    <glyph glyph-name="Zdotaccent" unicode="&#x17b;" horiz-adv-x="593" 
d="M291 820q-14 0 -24 10t-10 24q0 15 9.5 24t24.5 9t24.5 -9t9.5 -24q0 -14 -9.5 -24t-24.5 -10zM56 0v31l423 644l-1 1h-396v34h444v-32l-423 -643l1 -1h426v-34h-474z" />
    <glyph glyph-name="zdotaccent" unicode="&#x17c;" horiz-adv-x="444" 
d="M220 599q-14 0 -24 10t-10 24q0 15 9.5 24t24.5 9t24.5 -9t9.5 -24q0 -14 -9.5 -24t-24.5 -10zM30 0v29l331 423v1h-318v32h365v-28l-332 -424v-2h336v-31h-382z" />
    <glyph glyph-name="Zcaron" unicode="&#x17d;" horiz-adv-x="593" 
d="M271 792l-120 112h40l98 -89h2l100 89h40l-123 -112h-37zM56 0v31l423 644l-1 1h-396v34h444v-32l-423 -643l1 -1h426v-34h-474z" />
    <glyph glyph-name="zcaron" unicode="&#x17e;" horiz-adv-x="444" 
d="M199 560l-120 130h39l99 -105h2l100 105h39l-123 -130h-36zM30 0v29l331 423v1h-318v32h365v-28l-332 -424v-2h336v-31h-382z" />
    <glyph glyph-name="longs" unicode="&#x17f;" horiz-adv-x="292" 
d="M103 0v453h-66v32h66v114q0 71 32.5 106.5t88.5 35.5q51 0 99 -28l-7 -31q-47 26 -91 26q-40 0 -64 -27t-24 -84v-597h-34z" />
    <glyph glyph-name="uni018F" unicode="&#x18f;" horiz-adv-x="767" 
d="M360 715q159 0 253 -102.5t94 -257.5q0 -156 -94 -257.5t-239 -101.5q-139 0 -233.5 86t-94.5 243v19h623v11q-1 143 -85 234t-226 91q-130 0 -240 -87l-24 26q116 96 266 96zM373 31q120 0 200.5 77t93.5 202h-585q2 -126 84 -202.5t207 -76.5z" />
    <glyph glyph-name="florin" unicode="&#x192;" horiz-adv-x="511" 
d="M83 -98q-70 0 -115 40l18 26q37 -33 95 -33q91 0 105 117l52 382h-79l4 32h79l17 129q21 146 139 146q67 0 114 -40l-18 -25q-40 31 -95 31q-90 0 -106 -117l-15 -124h164l-4 -32h-165l-53 -386q-18 -146 -137 -146z" />
    <glyph glyph-name="uni019D" unicode="&#x19d;" horiz-adv-x="733" 
d="M607 710h36v-710h-36l-481 647h-1v-722q0 -127 -108 -127q-34 0 -65 14l3 33q25 -14 60 -14q74 0 74 90v789h36v-3l481 -646h1v649z" />
    <glyph glyph-name="Ohorn" unicode="&#x1a0;" horiz-adv-x="862" 
d="M781 774h33v-76q0 -75 -24.5 -111t-74.5 -43q47 -83 47 -188q0 -159 -101 -259.5t-248 -100.5q-150 0 -251 100.5t-101 259.5q0 158 101.5 258.5t250.5 100.5q88 0 162.5 -38t121.5 -106q44 4 64 32t20 95v76zM413 31q131 0 221 91t90 234t-90 233.5t-221 90.5
q-133 0 -224 -91t-91 -233q0 -143 90.5 -234t224.5 -91z" />
    <glyph glyph-name="ohorn" unicode="&#x1a1;" horiz-adv-x="651" 
d="M589 565h33v-76q0 -76 -26 -112.5t-77 -42.5q16 -45 16 -92q0 -108 -70.5 -177t-173.5 -69q-107 0 -175.5 71.5t-68.5 174.5q0 104 68.5 175.5t175.5 71.5q70 0 127.5 -33.5t88.5 -92.5q42 3 62 31t20 95v76zM291 29q89 0 149 59.5t60 153.5t-60 154.5t-149 60.5
q-92 0 -151 -62.5t-59 -152.5t58.5 -151.5t151.5 -61.5z" />
    <glyph glyph-name="Uhorn" unicode="&#x1af;" horiz-adv-x="748" 
d="M693 774h33v-76q0 -82 -29.5 -118t-89.5 -38v-258q0 -133 -73 -210.5t-191 -77.5t-190.5 77.5t-72.5 210.5v426h36v-425q0 -118 62 -186t165 -68t166 68t63 186v425h35v-139q45 3 65.5 31t20.5 96v76z" />
    <glyph glyph-name="uhorn" unicode="&#x1b0;" horiz-adv-x="610" 
d="M549 565h33v-76q0 -82 -29 -117.5t-88 -38.5v-333h-34v118l-1 1q-25 -58 -73 -90.5t-106 -32.5q-87 0 -135 56t-48 154v279h34v-266q0 -96 40 -143t113 -47q75 0 125.5 60t50.5 157v239h34v-123q44 3 64 31.5t20 95.5v76z" />
    <glyph glyph-name="uni01CD" unicode="&#x1cd;" horiz-adv-x="647" 
d="M303 792l-120 112h40l98 -89h2l100 89h40l-123 -112h-37zM28 0l274 710h40l277 -710h-38l-79 204h-357l-79 -204h-38zM157 237h332l-165 430h-2z" />
    <glyph glyph-name="uni01CE" unicode="&#x1ce;" horiz-adv-x="594" 
d="M269 560l-120 130h39l99 -105h2l100 105h39l-123 -130h-36zM284 -4q-101 0 -170 67.5t-69 174.5q0 106 67 178.5t173 72.5q66 0 120 -35.5t81 -96.5l1 1v127h33v-485h-33v124h-1q-27 -59 -80 -93.5t-122 -34.5zM287 29q84 0 142 58t58 151q0 92 -56 155.5t-144 63.5
q-87 0 -147 -61.5t-60 -157.5q0 -89 57.5 -149t149.5 -60z" />
    <glyph glyph-name="uni01CF" unicode="&#x1cf;" horiz-adv-x="227" 
d="M93 792l-120 112h40l98 -89h2l100 89h40l-123 -112h-37zM95 0v710h36v-710h-36z" />
    <glyph glyph-name="uni01D0" unicode="&#x1d0;" horiz-adv-x="205" 
d="M83 560l-120 130h39l99 -105h2l100 105h39l-123 -130h-36zM85 0v485h34v-485h-34z" />
    <glyph glyph-name="uni01D1" unicode="&#x1d1;" horiz-adv-x="823" 
d="M392 792l-120 112h40l98 -89h2l100 89h40l-123 -112h-37zM413 -4q-150 0 -251 100.5t-101 259.5q0 158 101.5 258.5t250.5 100.5q147 0 248 -100.5t101 -258.5q0 -159 -101 -259.5t-248 -100.5zM413 31q131 0 221 91t90 234t-90 233.5t-221 90.5q-133 0 -224 -91
t-91 -233q0 -143 90.5 -234t224.5 -91z" />
    <glyph glyph-name="uni01D2" unicode="&#x1d2;" horiz-adv-x="582" 
d="M272 560l-120 130h39l99 -105h2l100 105h39l-123 -130h-36zM291 -4q-107 0 -175.5 71.5t-68.5 174.5q0 104 68.5 175.5t175.5 71.5q103 0 173.5 -69.5t70.5 -177.5t-70.5 -177t-173.5 -69zM291 29q89 0 149 59.5t60 153.5t-60 154.5t-149 60.5q-92 0 -151 -62.5
t-59 -152.5t58.5 -151.5t151.5 -61.5z" />
    <glyph glyph-name="uni01D3" unicode="&#x1d3;" horiz-adv-x="687" 
d="M324 792l-120 112h40l98 -89h2l100 89h40l-123 -112h-37zM343 -4q-118 0 -190.5 77.5t-72.5 210.5v426h36v-425q0 -118 62 -186t165 -68t166 68t63 186v425h35v-426q0 -133 -73 -210.5t-191 -77.5z" />
    <glyph glyph-name="uni01D4" unicode="&#x1d4;" horiz-adv-x="538" 
d="M246 560l-120 130h39l99 -105h2l100 105h39l-123 -130h-36zM251 -4q-87 0 -135 56t-48 154v279h34v-266q0 -96 40 -143t113 -47q75 0 125.5 60t50.5 157v239h34v-485h-34v118l-1 1q-25 -58 -73 -90.5t-106 -32.5z" />
    <glyph glyph-name="uni01D5" unicode="&#x1d5;" horiz-adv-x="687" 
d="M209 951v29h271v-29h-271zM268 808q-14 0 -24 10t-10 24t10 23t24 9q15 0 24.5 -9t9.5 -23t-9.5 -24t-24.5 -10zM419 808q-14 0 -24 10t-10 24t10 23t24 9q15 0 24.5 -9t9.5 -23t-9.5 -24t-24.5 -10zM343 -4q-118 0 -190.5 77.5t-72.5 210.5v426h36v-425q0 -118 62 -186
t165 -68t166 68t63 186v425h35v-426q0 -133 -73 -210.5t-191 -77.5z" />
    <glyph glyph-name="uni01D6" unicode="&#x1d6;" horiz-adv-x="538" 
d="M131 757v32h271v-32h-271zM189 601q-14 0 -24 9.5t-10 23.5q0 15 9.5 23.5t24.5 8.5t24 -8.5t9 -23.5q0 -14 -9.5 -23.5t-23.5 -9.5zM343 601q-15 0 -25 9.5t-10 23.5q0 15 10 23.5t25 8.5t24 -8.5t9 -23.5q0 -14 -9.5 -23.5t-23.5 -9.5zM251 -4q-87 0 -135 56t-48 154
v279h34v-266q0 -96 40 -143t113 -47q75 0 125.5 60t50.5 157v239h34v-485h-34v118l-1 1q-25 -58 -73 -90.5t-106 -32.5z" />
    <glyph glyph-name="uni01D7" unicode="&#x1d7;" horiz-adv-x="687" 
d="M330 893l118 134h43l-125 -134h-36zM268 808q-14 0 -24 10t-10 24t10 23t24 9q15 0 24.5 -9t9.5 -23t-9.5 -24t-24.5 -10zM419 808q-14 0 -24 10t-10 24t10 23t24 9q15 0 24.5 -9t9.5 -23t-9.5 -24t-24.5 -10zM343 -4q-118 0 -190.5 77.5t-72.5 210.5v426h36v-425
q0 -118 62 -186t165 -68t166 68t63 186v425h35v-426q0 -133 -73 -210.5t-191 -77.5z" />
    <glyph glyph-name="uni01D8" unicode="&#x1d8;" horiz-adv-x="538" 
d="M244 698l122 136h43l-127 -136h-38zM189 601q-14 0 -24 9.5t-10 23.5q0 15 9.5 23.5t24.5 8.5t24 -8.5t9 -23.5q0 -14 -9.5 -23.5t-23.5 -9.5zM343 601q-15 0 -25 9.5t-10 23.5q0 15 10 23.5t25 8.5t24 -8.5t9 -23.5q0 -14 -9.5 -23.5t-23.5 -9.5zM251 -4q-87 0 -135 56
t-48 154v279h34v-266q0 -96 40 -143t113 -47q75 0 125.5 60t50.5 157v239h34v-485h-34v118l-1 1q-25 -58 -73 -90.5t-106 -32.5z" />
    <glyph glyph-name="uni01D9" unicode="&#x1d9;" horiz-adv-x="687" 
d="M331 914l-120 112h40l98 -89h2l100 89h40l-123 -112h-37zM268 808q-14 0 -24 10t-10 24t10 23t24 9q15 0 24.5 -9t9.5 -23t-9.5 -24t-24.5 -10zM419 808q-14 0 -24 10t-10 24t10 23t24 9q15 0 24.5 -9t9.5 -23t-9.5 -24t-24.5 -10zM343 -4q-118 0 -190.5 77.5
t-72.5 210.5v426h36v-425q0 -118 62 -186t165 -68t166 68t63 186v425h35v-426q0 -133 -73 -210.5t-191 -77.5z" />
    <glyph glyph-name="uni01DA" unicode="&#x1da;" horiz-adv-x="538" 
d="M246 710l-120 130h39l99 -105h2l100 105h39l-123 -130h-36zM189 601q-14 0 -24 9.5t-10 23.5q0 15 9.5 23.5t24.5 8.5t24 -8.5t9 -23.5q0 -14 -9.5 -23.5t-23.5 -9.5zM343 601q-15 0 -25 9.5t-10 23.5q0 15 10 23.5t25 8.5t24 -8.5t9 -23.5q0 -14 -9.5 -23.5t-23.5 -9.5z
M251 -4q-87 0 -135 56t-48 154v279h34v-266q0 -96 40 -143t113 -47q75 0 125.5 60t50.5 157v239h34v-485h-34v118l-1 1q-25 -58 -73 -90.5t-106 -32.5z" />
    <glyph glyph-name="uni01DB" unicode="&#x1db;" horiz-adv-x="687" 
d="M327 893l-124 134h42l118 -134h-36zM268 808q-14 0 -24 10t-10 24t10 23t24 9q15 0 24.5 -9t9.5 -23t-9.5 -24t-24.5 -10zM419 808q-14 0 -24 10t-10 24t10 23t24 9q15 0 24.5 -9t9.5 -23t-9.5 -24t-24.5 -10zM343 -4q-118 0 -190.5 77.5t-72.5 210.5v426h36v-425
q0 -118 62 -186t165 -68t166 68t63 186v425h35v-426q0 -133 -73 -210.5t-191 -77.5z" />
    <glyph glyph-name="uni01DC" unicode="&#x1dc;" horiz-adv-x="538" 
d="M293 698h-37l-128 136h43zM189 601q-14 0 -24 9.5t-10 23.5q0 15 9.5 23.5t24.5 8.5t24 -8.5t9 -23.5q0 -14 -9.5 -23.5t-23.5 -9.5zM343 601q-15 0 -25 9.5t-10 23.5q0 15 10 23.5t25 8.5t24 -8.5t9 -23.5q0 -14 -9.5 -23.5t-23.5 -9.5zM251 -4q-87 0 -135 56t-48 154
v279h34v-266q0 -96 40 -143t113 -47q75 0 125.5 60t50.5 157v239h34v-485h-34v118l-1 1q-25 -58 -73 -90.5t-106 -32.5z" />
    <glyph glyph-name="Gcaron" unicode="&#x1e6;" horiz-adv-x="760" 
d="M384 792l-120 112h40l98 -89h2l100 89h40l-123 -112h-37zM410 -3q-154 0 -251.5 99t-97.5 258q0 160 97 260.5t251 100.5q158 0 260 -102l-24 -23q-94 90 -236 90q-138 0 -224.5 -90t-86.5 -236q0 -143 86.5 -233t225.5 -90q147 0 238 76v205h-257v34h292v-257
q-103 -92 -273 -92z" />
    <glyph glyph-name="gcaron" unicode="&#x1e7;" horiz-adv-x="589" 
d="M263 560l-120 130h39l99 -105h2l100 105h39l-123 -130h-36zM292 -202q-105 0 -198 56l9 33q89 -56 189 -56q95 0 143 50t48 134v121h-1q-26 -58 -78.5 -91.5t-122.5 -33.5q-100 0 -167.5 67t-67.5 174q0 100 66 168.5t169 68.5q66 0 119.5 -32.5t81.5 -88.5h1v117h33
v-470q0 -99 -57 -158t-167 -59zM283 44q91 0 146 59t55 150q0 90 -57 147t-143 57q-90 0 -146.5 -59t-56.5 -145q0 -93 58 -151t144 -58z" />
    <glyph glyph-name="uni01EA" unicode="&#x1ea;" horiz-adv-x="823" 
d="M446 -3q-34 -17 -54 -43.5t-20 -53.5q0 -53 58 -53q32 0 57 13l4 -29q-26 -13 -64 -13q-40 0 -63.5 20t-23.5 58q0 55 59 100q-144 5 -241 105t-97 255q0 158 101.5 258.5t250.5 100.5q147 0 248 -100.5t101 -258.5q0 -150 -90 -248.5t-226 -110.5zM98 356
q0 -143 90.5 -234t224.5 -91q131 0 221 91t90 234t-90 233.5t-221 90.5q-133 0 -224 -91t-91 -233z" />
    <glyph glyph-name="uni01EB" unicode="&#x1eb;" horiz-adv-x="582" 
d="M319 -3q-34 -17 -54 -43.5t-20 -53.5q0 -53 58 -53q32 0 57 13l4 -29q-26 -13 -64 -13q-40 0 -63.5 20t-23.5 58q0 55 60 100v1q-100 7 -163 77t-63 168q0 104 68.5 175.5t175.5 71.5q103 0 173.5 -69.5t70.5 -177.5q0 -100 -61.5 -167.5t-154.5 -77.5zM81 242
q0 -90 58.5 -151.5t151.5 -61.5q89 0 149 59.5t60 153.5t-60 154.5t-149 60.5q-92 0 -151 -62.5t-59 -152.5z" />
    <glyph glyph-name="Aringacute" unicode="&#x1fa;" horiz-adv-x="647" 
d="M322 780q-31 0 -54 23t-23 54t22.5 54t54.5 23q43 0 67 -37l88 58h50l-127 -85q1 -4 1 -13q0 -31 -23 -54t-56 -23zM322 907q-20 0 -34.5 -15t-14.5 -35t14.5 -34t34.5 -14q21 0 36 14t15 34t-15 35t-36 15zM342 710l277 -710h-38l-79 204h-357l-79 -204h-38l274 710h40z
M157 237h332l-165 430h-2z" />
    <glyph glyph-name="aringacute" unicode="&#x1fb;" horiz-adv-x="594" 
d="M288 553q-31 0 -54 23t-23 54q0 32 22.5 54.5t54.5 22.5q40 0 63 -31l87 56h50l-124 -81q3 -11 3 -21q0 -31 -23 -54t-56 -23zM288 680q-20 0 -34.5 -15t-14.5 -35t14.5 -34t34.5 -14q21 0 36 14t15 34t-15 35t-36 15zM487 485h33v-485h-33v124h-1q-27 -59 -80 -93.5
t-122 -34.5q-101 0 -170 67.5t-69 174.5q0 106 67 178.5t173 72.5q66 0 120 -35.5t81 -96.5l1 1v127zM287 29q84 0 142 58t58 151q0 92 -56 155.5t-144 63.5q-87 0 -147 -61.5t-60 -157.5q0 -89 57.5 -149t149.5 -60z" />
    <glyph glyph-name="AEacute" unicode="&#x1fc;" horiz-adv-x="906" 
d="M429 792l113 125h42l-116 -125h-39zM6 0l404 710h440v-34h-381v-305h322v-34h-322v-303h401v-34h-437v204h-270l-117 -204h-40zM181 237h252v439h-1z" />
    <glyph glyph-name="aeacute" unicode="&#x1fd;" horiz-adv-x="792" 
d="M520 697l-124 -136h-41l122 136h43zM746 254v-16h-359q4 -98 51 -153.5t124 -55.5q51 0 82 19t60 59l25 -20q-32 -46 -70.5 -68.5t-96.5 -22.5q-73 0 -118.5 38t-65.5 97h-1q-16 -62 -67.5 -98.5t-121.5 -36.5q-73 0 -112.5 40.5t-39.5 99.5t44 96t131 37h144v22
q0 91 -25 128t-88 37q-79 0 -150 -41l-15 28q77 46 166 46q64 0 96.5 -31t41.5 -97h1q22 59 67.5 93.5t106.5 34.5q82 0 136 -67t54 -168zM389 269h322q-5 85 -46.5 136.5t-108.5 51.5q-72 0 -116 -52t-51 -136zM190 28q69 0 117 43t48 121v47l-143 -1q-62 0 -102 -26
t-40 -76q0 -45 31 -76.5t89 -31.5z" />
    <glyph glyph-name="Oslashacute" unicode="&#x1fe;" horiz-adv-x="823" 
d="M530 917l-116 -125h-39l113 125h42zM669 606q93 -99 93 -250q0 -159 -101 -259.5t-248 -100.5q-136 0 -234 85l-87 -94l-26 22l89 95q-94 102 -94 252q0 158 101.5 258.5t250.5 100.5q136 0 233 -86l81 86l24 -21zM98 356q0 -135 82 -225l441 471q-86 78 -208 78
q-133 0 -224 -91t-91 -233zM413 31q131 0 221 91t90 234q0 133 -80 223l-440 -472q89 -76 209 -76z" />
    <glyph glyph-name="oslashacute" unicode="&#x1ff;" horiz-adv-x="582" 
d="M435 697l-124 -136h-41l122 136h43zM537 475l-62 -66q60 -68 60 -167q0 -108 -70.5 -177t-173.5 -69q-92 0 -157 54l-59 -62l-24 21l60 63q-64 69 -64 170q0 104 68.5 175.5t175.5 71.5q94 0 161 -58l61 64zM81 242q0 -86 53 -145l295 310q-58 50 -138 50
q-92 0 -151 -62.5t-59 -152.5zM500 242q0 85 -49 142l-294 -309q56 -46 134 -46q89 0 149 59.5t60 153.5z" />
    <glyph glyph-name="Scommaaccent" unicode="&#x218;" horiz-adv-x="562" 
d="M284 -4q-68 0 -131.5 27t-109.5 81l25 28q37 -49 95.5 -75t122.5 -26q80 0 133.5 38.5t53.5 106.5q0 19 -5 35.5t-10 28t-19.5 24t-22.5 19.5t-30.5 17.5t-31.5 14.5t-37 15t-37 15l-43.5 18t-40.5 18.5t-40 22t-32.5 25.5t-27.5 31.5t-16 37.5t-7 46q0 73 58 122t147 49
q114 0 207 -76l-23 -29q-87 70 -183 70q-69 0 -119 -36t-50 -100q0 -23 6 -42t21.5 -35t28 -26.5t39 -23.5t41 -19t46.5 -19q6 -2 33 -13t34 -13.5t30 -12.5t29.5 -15t24.5 -16t24 -19t17 -21t15 -26t7.5 -29.5t3.5 -35.5q0 -81 -61.5 -131.5t-164.5 -50.5zM216 -202l-10 24
q39 3 52.5 21t13.5 48q0 24 -5 54h32q5 -27 5 -54q0 -86 -88 -93z" />
    <glyph glyph-name="scommaaccent" unicode="&#x219;" horiz-adv-x="419" 
d="M213 -4q-103 0 -179 68l18 26q71 -62 161 -62q60 0 95.5 28t35.5 68q0 13 -3.5 23.5t-7.5 18.5t-14 16t-16.5 12.5t-22 11t-24 9.5t-29 10.5t-29.5 10.5q-35 13 -56 22.5t-43.5 25t-32.5 37t-10 49.5q0 51 41.5 85t102.5 34q90 0 159 -58l-20 -26q-58 51 -139 51
q-46 0 -77.5 -24.5t-31.5 -59.5q0 -22 8.5 -38t27.5 -28.5t34 -19.5t45 -18q97 -34 121 -49q53 -33 52 -96q-1 -54 -44.5 -90.5t-121.5 -36.5zM132 -202l-10 24q39 3 52.5 21t13.5 48q0 24 -5 54h32q5 -27 5 -54q0 -86 -88 -93z" />
    <glyph glyph-name="uni021A" unicode="&#x21a;" horiz-adv-x="548" 
d="M255 0v676h-229v34h496v-34h-232v-676h-35zM206 -202l-10 24q39 3 52.5 21t13.5 48q0 24 -5 54h32q5 -27 5 -54q0 -86 -88 -93z" />
    <glyph glyph-name="uni021B" unicode="&#x21b;" horiz-adv-x="355" 
d="M206 -4q-64 0 -88 34t-24 101v322h-66v32h66v173l34 4v-177h188v-32h-188v-307q0 -61 15.5 -89t62.5 -28q53 0 98 31l9 -32q-50 -32 -107 -32zM125 -202l-10 24q39 3 52.5 21t13.5 48q0 24 -5 54h32q5 -27 5 -54q0 -86 -88 -93z" />
    <glyph glyph-name="uni0232" unicode="&#x232;" horiz-adv-x="565" 
d="M148 829v32h271v-32h-271zM264 0v322l-247 388h43l221 -350h2l222 350h42l-247 -388v-322h-36z" />
    <glyph glyph-name="uni0233" unicode="&#x233;" horiz-adv-x="510" 
d="M122 614v32h271v-32h-271zM158 -198l86 206l-218 477h39l196 -435h1l182 435h38l-287 -683h-37z" />
    <glyph glyph-name="uni0237" unicode="&#x237;" horiz-adv-x="185" 
d="M9 -202q-37 0 -67 15l5 33q27 -15 61 -15q73 0 73 91v563h34v-563q0 -124 -106 -124z" />
    <glyph glyph-name="uni0251" unicode="&#x251;" horiz-adv-x="594" 
d="M284 -4q-101 0 -170 67.5t-69 174.5q0 106 67 178.5t173 72.5q66 0 120 -35.5t81 -96.5l1 1v127h33v-485h-33v124h-1q-27 -59 -80 -93.5t-122 -34.5zM287 29q84 0 142 58t58 151q0 92 -56 155.5t-144 63.5q-87 0 -147 -61.5t-60 -157.5q0 -89 57.5 -149t149.5 -60z" />
    <glyph glyph-name="uni0259" unicode="&#x259;" horiz-adv-x="540" 
d="M256 489q103 0 170 -69.5t67 -176.5q0 -110 -60 -178.5t-167 -68.5q-100 0 -160.5 65t-61.5 165q0 13 2 21h413q-1 93 -58.5 151.5t-145.5 58.5q-82 0 -157 -43l-15 27q81 48 173 48zM266 29q85 0 135 50.5t57 136.5h-379q3 -85 54.5 -136t132.5 -51z" />
    <glyph glyph-name="uni0261" unicode="&#x261;" horiz-adv-x="589" 
d="M292 -202q-105 0 -198 56l9 33q89 -56 189 -56q95 0 143 50t48 134v121h-1q-26 -58 -78.5 -91.5t-122.5 -33.5q-100 0 -167.5 67t-67.5 174q0 100 66 168.5t169 68.5q66 0 119.5 -32.5t81.5 -88.5h1v117h33v-470q0 -99 -57 -158t-167 -59zM283 44q91 0 146 59t55 150
q0 90 -57 147t-143 57q-90 0 -146.5 -59t-56.5 -145q0 -93 58 -151t144 -58z" />
    <glyph glyph-name="uni0272" unicode="&#x272;" horiz-adv-x="549" 
d="M312 489q78 0 123 -51.5t45 -146.5v-291h-33v278q0 93 -38.5 136t-101.5 43q-87 0 -140 -59.5t-53 -157.5v-316q0 -126 -107 -126q-36 0 -65 14l4 31q25 -13 60 -13q74 0 74 92v563h34v-121h1q26 59 78 92t119 33z" />
    <glyph glyph-name="uni02BB" unicode="&#x2bb;" horiz-adv-x="165" 
d="M66 439l9 222h28l2 -222h-39z" />
    <glyph glyph-name="uni02BC" unicode="&#x2bc;" horiz-adv-x="122" 
d="M29 537l26 173h36l-34 -173h-28z" />
    <glyph glyph-name="uni02BE" unicode="&#x2be;" horiz-adv-x="195" 
d="M42 476l-4 28q45 3 73 29.5t28 69.5t-28 69t-73 28l4 29q59 -4 93.5 -39.5t34.5 -86.5t-34.5 -87t-93.5 -40z" />
    <glyph glyph-name="uni02BF" unicode="&#x2bf;" horiz-adv-x="218" 
d="M176 476q-59 4 -93.5 40t-34.5 87t34.5 86.5t93.5 39.5l4 -29q-45 -2 -73 -28t-28 -69t28 -69.5t73 -29.5z" />
    <glyph glyph-name="circumflex" unicode="&#x2c6;" horiz-adv-x="523" 
d="M122 547l123 131h37l119 -131h-39l-97 106h-2l-102 -106h-39z" />
    <glyph glyph-name="caron" unicode="&#x2c7;" horiz-adv-x="523" 
d="M242 547l-120 130h39l99 -105h2l100 105h39l-123 -130h-36z" />
    <glyph glyph-name="uni02C8" unicode="&#x2c8;" horiz-adv-x="159" 
d="M64 675h32v-271h-32v271z" />
    <glyph glyph-name="uni02C9" unicode="&#x2c9;" horiz-adv-x="401" 
d="M65 615v32h271v-32h-271z" />
    <glyph glyph-name="uni02CA" unicode="&#x2ca;" horiz-adv-x="290" 
d="M77 561l122 136h43l-124 -136h-41z" />
    <glyph glyph-name="uni02CB" unicode="&#x2cb;" horiz-adv-x="289" 
d="M171 564l-115 129h42l113 -129h-40z" />
    <glyph glyph-name="uni02CC" unicode="&#x2cc;" horiz-adv-x="159" 
d="M64 129h32v-271h-32v271z" />
    <glyph glyph-name="breve" unicode="&#x2d8;" horiz-adv-x="476" 
d="M238 546q-52 0 -87.5 34t-39.5 96h30q3 -44 28.5 -72t68.5 -28q42 0 68 28.5t28 71.5h30q-4 -62 -39.5 -96t-86.5 -34z" />
    <glyph glyph-name="dotaccent" unicode="&#x2d9;" horiz-adv-x="483" 
d="M242 586q-14 0 -24 10t-10 24q0 15 9.5 24t24.5 9t24.5 -9t9.5 -24q0 -14 -9.5 -24t-24.5 -10z" />
    <glyph glyph-name="ring" unicode="&#x2da;" horiz-adv-x="438" 
d="M218 538q-31 0 -54 23t-23 54t22.5 54t54.5 23t55.5 -22.5t23.5 -54.5q0 -31 -23 -54t-56 -23zM218 567q21 0 36 14t15 34t-15 35t-36 15q-20 0 -34.5 -15t-14.5 -35t14.5 -34t34.5 -14z" />
    <glyph glyph-name="ogonek" unicode="&#x2db;" horiz-adv-x="467" 
d="M270 -182q-40 0 -63.5 20t-23.5 58q0 30 22.5 62.5t64.5 55.5l24 -14q-36 -17 -57.5 -44.5t-21.5 -55.5q0 -53 58 -53q32 0 57 13l4 -29q-26 -13 -64 -13z" />
    <glyph glyph-name="tilde" unicode="&#x2dc;" horiz-adv-x="524" 
d="M340 564q-7 0 -13.5 1t-14 4t-12 4.5t-13.5 7t-11 7t-12.5 8.5t-11.5 8q-38 27 -62 27q-41 0 -63 -60l-27 9q26 81 88 81q36 0 77 -30q2 -1 16.5 -11.5t20 -13.5t16 -7t19.5 -4q42 0 60 60l27 -9q-12 -40 -34.5 -61t-49.5 -21z" />
    <glyph glyph-name="hungarumlaut" unicode="&#x2dd;" horiz-adv-x="519" 
d="M111 547l121 136h42l-124 -136h-39zM244 547l121 136h42l-125 -136h-38z" />
    <glyph glyph-name="gravecomb" unicode="&#x300;" 
d="M-468 550l-115 129h42l113 -129h-40z" />
    <glyph glyph-name="acutecomb" unicode="&#x301;" 
d="M-573 547l122 136h43l-124 -136h-41z" />
    <glyph glyph-name="uni0302" unicode="&#x302;" 
d="M-640 547l123 131h37l119 -131h-39l-97 106h-2l-102 -106h-39z" />
    <glyph glyph-name="tildecomb" unicode="&#x303;" 
d="M-422 564q-7 0 -13.5 1t-14 4t-12 4.5t-13.5 7t-11 7t-12.5 8.5t-11.5 8q-38 27 -62 27q-41 0 -63 -60l-27 9q26 81 88 81q36 0 77 -30q2 -1 16.5 -11.5t20 -13.5t16 -7t19.5 -4q42 0 60 60l27 -9q-12 -40 -34.5 -61t-49.5 -21z" />
    <glyph glyph-name="uni0304" unicode="&#x304;" 
d="M-635 601v32h271v-32h-271z" />
    <glyph glyph-name="uni0306" unicode="&#x306;" 
d="M-500 546q-52 0 -87.5 34t-39.5 96h30q3 -44 28.5 -72t68.5 -28q42 0 68 28.5t28 71.5h30q-4 -62 -39.5 -96t-86.5 -34z" />
    <glyph glyph-name="uni0307" unicode="&#x307;" 
d="M-499 586q-14 0 -24 10t-10 24q0 15 9.5 24t24.5 9t24.5 -9t9.5 -24q0 -14 -9.5 -24t-24.5 -10z" />
    <glyph glyph-name="uni0308" unicode="&#x308;" 
d="M-578 587q-14 0 -24 9.5t-10 23.5q0 15 9.5 24t24.5 9q14 0 23.5 -9.5t9.5 -23.5t-9.5 -23.5t-23.5 -9.5zM-424 587q-15 0 -24.5 9.5t-9.5 23.5q0 15 9.5 24t24.5 9q14 0 23.5 -9.5t9.5 -23.5t-9.5 -23.5t-23.5 -9.5z" />
    <glyph glyph-name="hookabovecomb" unicode="&#x309;" 
d="M-525 541q2 2 14 10t15.5 11t14 10.5t15 12t12.5 11.5t11.5 12.5t8 12t6 13t1.5 12.5q0 41 -56 41t-90 -32l-9 29q50 32 102 32q37 0 60.5 -17.5t23.5 -52.5q0 -16 -7.5 -31.5t-27 -32t-25.5 -21t-28 -20.5h-41z" />
    <glyph glyph-name="uni030A" unicode="&#x30a;" 
d="M-501 539q-31 0 -54 23t-23 54q0 32 23 54.5t54 22.5q32 0 55.5 -22.5t23.5 -54.5q0 -31 -23 -54t-56 -23zM-501 568q21 0 36 14t15 34t-15 35t-36 15q-20 0 -34.5 -15t-14.5 -35t14.5 -34t34.5 -14z" />
    <glyph glyph-name="uni030B" unicode="&#x30b;" 
d="M-586 547l121 136h42l-124 -136h-39zM-453 547l121 136h42l-125 -136h-38z" />
    <glyph glyph-name="uni030C" unicode="&#x30c;" 
d="M-520 547l-120 130h39l99 -105h2l100 105h39l-123 -130h-36z" />
    <glyph glyph-name="uni0312" unicode="&#x312;" 
d="M-504 539q-5 28 -5 54q0 88 88 93l10 -24q-39 -3 -52.5 -21t-13.5 -48q0 -24 5 -54h-32z" />
    <glyph glyph-name="uni0313" unicode="&#x313;" 
d="M-474 685q5 -28 5 -54q0 -88 -88 -93l-10 24q39 3 52.5 21t13.5 48q0 24 -5 54h32z" />
    <glyph glyph-name="uni031B" unicode="&#x31b;" 
d="M-501 478v29q50 1 72.5 28.5t22.5 98.5v76h33v-76q0 -85 -32 -120.5t-96 -35.5z" />
    <glyph glyph-name="dotbelowcomb" unicode="&#x323;" 
d="M-500 -118q14 0 24 -10t10 -24q0 -15 -9.5 -24t-24.5 -9t-24.5 9t-9.5 24q0 14 9.5 24t24.5 10z" />
    <glyph glyph-name="uni0324" unicode="&#x324;" 
d="M-578 -119q15 0 24.5 -9.5t9.5 -23.5q0 -15 -9.5 -24t-24.5 -9q-14 0 -23.5 9.5t-9.5 23.5t9.5 23.5t23.5 9.5zM-424 -119q14 0 24 -9.5t10 -23.5q0 -15 -9.5 -24t-24.5 -9q-14 0 -23.5 9.5t-9.5 23.5t9.5 23.5t23.5 9.5z" />
    <glyph glyph-name="uni0326" unicode="&#x326;" 
d="M-579 -202l-10 24q39 3 52.5 21t13.5 48q0 24 -5 54h32q5 -27 5 -54q0 -86 -88 -93z" />
    <glyph glyph-name="uni0327" unicode="&#x327;" 
d="M-526 -185q-28 0 -50 6v27q23 -7 46 -7q27 0 45.5 12.5t18.5 36.5q0 21 -22 37.5t-61 16.5l1 21l19 41h28l-17 -39v-2q33 -2 57.5 -22.5t24.5 -54.5q0 -31 -24 -52t-66 -21z" />
    <glyph glyph-name="uni0328" unicode="&#x328;" 
d="M-525 -182q-40 0 -63.5 20t-23.5 58q0 30 22.5 62.5t64.5 55.5l24 -14q-36 -17 -57.5 -44.5t-21.5 -55.5q0 -53 58 -53q32 0 57 13l4 -29q-26 -13 -64 -13z" />
    <glyph glyph-name="uni032E" unicode="&#x32e;" 
d="M-500 -209q-51 0 -86.5 34t-39.5 96h30q2 -43 28 -71.5t68 -28.5q43 0 68.5 28t28.5 72h30q-4 -62 -39.5 -96t-87.5 -34z" />
    <glyph glyph-name="uni0331" unicode="&#x331;" 
d="M-364 -175h-271v32h271v-32z" />
    <glyph glyph-name="uni0335" unicode="&#x335;" 
d="M-623 270v29h252v-29h-252z" />
    <glyph glyph-name="uni0374" unicode="&#x374;" horiz-adv-x="236" 
d="M47 489l54 232h36l-58 -232h-32z" />
    <glyph glyph-name="uni0375" unicode="&#x375;" horiz-adv-x="218" 
d="M77 -138l54 233h36l-58 -233h-32z" />
    <glyph glyph-name="uni037E" unicode="&#x37e;" horiz-adv-x="184" 
d="M89 420q-15 0 -25 10t-10 25t10 24.5t25 9.5t25 -9.5t10 -24.5t-10 -25t-25 -10zM36 -129l34 223h39l-45 -223h-28z" />
    <glyph glyph-name="tonos" unicode="&#x384;" horiz-adv-x="459" 
d="M189 547l60 155h40l-64 -155h-36z" />
    <glyph glyph-name="dieresistonos" unicode="&#x385;" horiz-adv-x="594" 
d="M270 548l54 155h36l-58 -155h-32zM165 586q-14 0 -23.5 10t-9.5 24q0 15 9.5 24t23.5 9q15 0 24.5 -9t9.5 -24q0 -14 -10 -24t-24 -10zM423 587q-14 0 -23.5 9.5t-9.5 23.5t9.5 23.5t23.5 9.5t24 -9.5t10 -23.5t-10 -23.5t-24 -9.5z" />
    <glyph glyph-name="Alphatonos" unicode="&#x386;" horiz-adv-x="647" 
d="M28 0l274 710h40l277 -710h-38l-79 204h-357l-79 -204h-38zM7 547l76 155h40l-81 -155h-35zM157 237h332l-165 430h-2z" />
    <glyph glyph-name="anoteleia" unicode="&#x387;" horiz-adv-x="185" 
d="M92 420q-15 0 -25 10t-10 25t10 24.5t25 9.5t25 -9.5t10 -24.5t-10 -25t-25 -10z" />
    <glyph glyph-name="Epsilontonos" unicode="&#x388;" horiz-adv-x="570" 
d="M89 0v710h416v-34h-381v-304h319v-34h-319v-304h402v-34h-437zM-118 547l76 155h40l-81 -155h-35z" />
    <glyph glyph-name="Etatonos" unicode="&#x389;" horiz-adv-x="698" 
d="M89 0v710h35v-358h449v358h36v-710h-36v318h-449v-318h-35zM-118 547l76 155h40l-81 -155h-35z" />
    <glyph glyph-name="Iotatonos" unicode="&#x38a;" horiz-adv-x="227" 
d="M95 0v710h36v-710h-36zM-112 547l76 155h40l-81 -155h-35z" />
    <glyph glyph-name="Omicrontonos" unicode="&#x38c;" horiz-adv-x="823" 
d="M413 -4q-150 0 -251 100.5t-101 259.5q0 158 101.5 258.5t250.5 100.5q147 0 248 -100.5t101 -258.5q0 -159 -101 -259.5t-248 -100.5zM-62 547l76 155h40l-81 -155h-35zM413 31q131 0 221 91t90 234t-90 233.5t-221 90.5q-133 0 -224 -91t-91 -233q0 -143 90.5 -234
t224.5 -91z" />
    <glyph glyph-name="Upsilontonos" unicode="&#x38e;" horiz-adv-x="565" 
d="M264 0v322l-247 388h43l221 -350h2l222 350h42l-247 -388v-322h-36zM-144 547l76 155h40l-81 -155h-35z" />
    <glyph glyph-name="Omegatonos" unicode="&#x38f;" horiz-adv-x="781" 
d="M72 0v34h192v1q-95 51 -149 137t-54 195q0 149 92 248t237 99t238 -99t93 -248q0 -108 -54 -194.5t-149 -137.5l1 -1h190v-34h-255v34q108 48 169 134t61 199q0 135 -82 223.5t-212 88.5q-129 0 -210.5 -88.5t-81.5 -223.5q0 -113 61 -199t168 -134v-34h-255zM-63 547
l76 155h40l-81 -155h-35z" />
    <glyph glyph-name="iotadieresistonos" unicode="&#x390;" horiz-adv-x="239" 
d="M88 562l54 155h36l-58 -155h-32zM-17 600q-14 0 -23.5 10t-9.5 24q0 15 9.5 24t23.5 9q15 0 24.5 -9t9.5 -24q0 -14 -10 -24t-24 -10zM241 601q-14 0 -23.5 9.5t-9.5 23.5t9.5 23.5t23.5 9.5t24 -9.5t10 -23.5t-10 -23.5t-24 -9.5zM168 -4q-50 0 -66.5 29.5t-16.5 80.5
v379h33v-367q0 -30 2.5 -46.5t15.5 -29.5t38 -13q28 0 50 9l4 -31q-33 -11 -60 -11z" />
    <glyph glyph-name="Alpha" unicode="&#x391;" horiz-adv-x="647" 
d="M28 0l274 710h40l277 -710h-38l-79 204h-357l-79 -204h-38zM157 237h332l-165 430h-2z" />
    <glyph glyph-name="Beta" unicode="&#x392;" horiz-adv-x="615" 
d="M89 0v710h209q103 0 164.5 -41t61.5 -131q0 -59 -32 -103.5t-94 -61.5v-2q68 -11 114 -57t46 -125q0 -87 -61 -138t-182 -51h-226zM124 386h190q45 0 81.5 12.5t64 47.5t27.5 88q0 142 -191 142h-172v-290zM124 34h192q95 0 150 39t55 115q0 79 -53.5 122t-153.5 43h-190
v-319z" />
    <glyph glyph-name="Gamma" unicode="&#x393;" horiz-adv-x="536" 
d="M89 0v710h427v-34h-392v-676h-35z" />
    <glyph glyph-name="uni0394" unicode="&#x394;" horiz-adv-x="632" 
d="M30 0v30l264 680h41l266 -680v-30h-571zM70 34h491l-245 632h-1z" />
    <glyph glyph-name="Epsilon" unicode="&#x395;" horiz-adv-x="570" 
d="M89 0v710h416v-34h-381v-304h319v-34h-319v-304h402v-34h-437z" />
    <glyph glyph-name="Zeta" unicode="&#x396;" horiz-adv-x="593" 
d="M56 0v31l423 644l-1 1h-396v34h444v-32l-423 -643l1 -1h426v-34h-474z" />
    <glyph glyph-name="Eta" unicode="&#x397;" horiz-adv-x="698" 
d="M89 0v710h35v-358h449v358h36v-710h-36v318h-449v-318h-35z" />
    <glyph glyph-name="Theta" unicode="&#x398;" horiz-adv-x="831" 
d="M413 -4q-150 0 -251 100.5t-101 259.5q0 158 101.5 258.5t250.5 100.5q147 0 248 -100.5t101 -258.5q0 -159 -101 -259.5t-248 -100.5zM413 31q131 0 221 91t90 234t-90 233.5t-221 90.5q-133 0 -224 -91t-91 -233q0 -143 90.5 -234t224.5 -91zM207 335v34h413v-34h-413z
" />
    <glyph glyph-name="Iota" unicode="&#x399;" horiz-adv-x="227" 
d="M95 0v710h36v-710h-36z" />
    <glyph glyph-name="Kappa" unicode="&#x39a;" horiz-adv-x="619" 
d="M89 0v710h35v-465h2l400 465h46l-287 -334l293 -376h-46l-271 349l-137 -158v-191h-35z" />
    <glyph glyph-name="Lambda" unicode="&#x39b;" horiz-adv-x="648" 
d="M29 0l273 710h41l276 -710h-40l-255 664h-2l-254 -664h-39z" />
    <glyph glyph-name="Mu" unicode="&#x39c;" horiz-adv-x="857" 
d="M89 0v710h36l303 -512h2l302 512h36v-710h-36v640h-1l-288 -487h-29l-288 487h-1v-640h-36z" />
    <glyph glyph-name="Nu" unicode="&#x39d;" horiz-adv-x="733" 
d="M89 0v710h34l483 -649h1v649h36v-710h-36l-481 647h-2v-647h-35z" />
    <glyph glyph-name="Xi" unicode="&#x39e;" horiz-adv-x="600" 
d="M70 675v35h460v-35h-460zM107 335v34h385v-34h-385zM63 0v35h474v-35h-474z" />
    <glyph glyph-name="Omicron" unicode="&#x39f;" horiz-adv-x="823" 
d="M413 -4q-150 0 -251 100.5t-101 259.5q0 158 101.5 258.5t250.5 100.5q147 0 248 -100.5t101 -258.5q0 -159 -101 -259.5t-248 -100.5zM413 31q131 0 221 91t90 234t-90 233.5t-221 90.5q-133 0 -224 -91t-91 -233q0 -143 90.5 -234t224.5 -91z" />
    <glyph glyph-name="Pi" unicode="&#x3a0;" horiz-adv-x="677" 
d="M89 0v710h499v-710h-36v676h-428v-676h-35z" />
    <glyph glyph-name="Rho" unicode="&#x3a1;" horiz-adv-x="588" 
d="M89 0v710h236q114 0 168 -55.5t54 -148.5q0 -105 -64.5 -156.5t-175.5 -51.5h-183v-298h-35zM124 332h181q106 0 155.5 47.5t49.5 126.5q0 84 -49.5 127t-132.5 43h-204v-344z" />
    <glyph glyph-name="Sigma" unicode="&#x3a3;" horiz-adv-x="559" 
d="M56 0v29l213 328l-213 323v30h457v-34h-408l-1 -2l209 -317l-209 -320v-3h409v-34h-457z" />
    <glyph glyph-name="Tau" unicode="&#x3a4;" horiz-adv-x="548" 
d="M255 0v676h-229v34h496v-34h-232v-676h-35z" />
    <glyph glyph-name="Upsilon" unicode="&#x3a5;" horiz-adv-x="565" 
d="M264 0v322l-247 388h43l221 -350h2l222 350h42l-247 -388v-322h-36z" />
    <glyph glyph-name="Phi" unicode="&#x3a6;" horiz-adv-x="840" 
d="M439 664q157 0 251.5 -82.5t94.5 -221.5q0 -129 -95 -208.5t-250 -79.5h-2v-72h-36v72h-2q-156 1 -250.5 80t-94.5 208q0 139 94 221.5t251 82.5h2v64h36v-64h1zM92 360q0 -113 83.5 -183t225.5 -71h1v524h-2q-144 0 -226 -73.5t-82 -196.5zM439 106q142 0 225.5 70.5
t83.5 183.5q0 122 -82 195.5t-227 74.5h-2v-524h2z" />
    <glyph glyph-name="Chi" unicode="&#x3a7;" horiz-adv-x="616" 
d="M34 0l251 354l-251 356h41l233 -326h1l231 326h43l-252 -356l252 -354h-44l-229 322h-2l-232 -322h-42z" />
    <glyph glyph-name="Psi" unicode="&#x3a8;" horiz-adv-x="773" 
d="M662 710h36l-1 -253q0 -135 -69 -206t-224 -72v-179h-36v179q-149 1 -220.5 70.5t-71.5 207.5l1 253h36l-1 -251q0 -119 59 -182t197 -64v497h36v-497q134 1 195.5 61t61.5 185z" />
    <glyph glyph-name="uni03A9" unicode="&#x3a9;" horiz-adv-x="781" 
d="M72 0v34h192v1q-95 51 -149 137t-54 195q0 149 92 248t237 99t238 -99t93 -248q0 -108 -54 -194.5t-149 -137.5l1 -1h190v-34h-255v34q108 48 169 134t61 199q0 135 -82 223.5t-212 88.5q-129 0 -210.5 -88.5t-81.5 -223.5q0 -113 61 -199t168 -134v-34h-255z" />
    <glyph glyph-name="Iotadieresis" unicode="&#x3aa;" horiz-adv-x="227" 
d="M2 820q-14 0 -23.5 10t-9.5 24q0 15 9.5 24t23.5 9q15 0 24.5 -9t9.5 -24q0 -14 -10 -24t-24 -10zM225 821q-15 0 -24.5 9.5t-9.5 23.5t9.5 23.5t24.5 9.5t24.5 -9.5t9.5 -23.5t-9.5 -23.5t-24.5 -9.5zM95 0v710h36v-710h-36z" />
    <glyph glyph-name="Upsilondieresis" unicode="&#x3ab;" horiz-adv-x="565" 
d="M166 820q-14 0 -23.5 10t-9.5 24q0 15 9.5 24t23.5 9q15 0 24.5 -9t9.5 -24q0 -14 -10 -24t-24 -10zM389 821q-15 0 -24.5 9.5t-9.5 23.5t9.5 23.5t24.5 9.5t24.5 -9.5t9.5 -23.5t-9.5 -23.5t-24.5 -9.5zM264 0v322l-247 388h43l221 -350h2l222 350h42l-247 -388v-322
h-36z" />
    <glyph glyph-name="alphatonos" unicode="&#x3ac;" horiz-adv-x="610" 
d="M280 561l60 155h40l-64 -155h-36zM272 -4q-96 0 -161.5 67.5t-65.5 174.5t64.5 179t168.5 72q71 0 125 -39.5t77 -108.5h1l10 144h35l-21 -228v-129q0 -47 10 -73t41 -26q24 0 40 8l4 -31q-28 -10 -51 -10q-73 0 -75 111v28q-28 -63 -81 -101t-121 -38zM273 29
q79 0 136.5 58t64.5 151q0 94 -53 156.5t-141 62.5q-85 0 -143 -61t-58 -158q0 -88 54.5 -148.5t139.5 -60.5z" />
    <glyph glyph-name="epsilontonos" unicode="&#x3ad;" horiz-adv-x="456" 
d="M321 716l-64 -155h-36l60 155h40zM232 29q90 0 174 44l16 -28q-96 -49 -195 -49q-81 0 -129.5 33.5t-48.5 98.5q0 42 24.5 75t69.5 48q-38 17 -59.5 46t-21.5 59q0 63 45.5 98t126.5 35q96 0 188 -50l-14 -28q-91 46 -172 46q-67 0 -103 -28t-36 -74q0 -34 33 -63t95 -29
h87v-30h-103q-64 0 -94.5 -32t-30.5 -72q0 -50 39.5 -75t108.5 -25z" />
    <glyph glyph-name="etatonos" unicode="&#x3ae;" horiz-adv-x="550" 
d="M264 561l60 155h40l-64 -155h-36zM446 -198v476q0 92 -38.5 135.5t-101.5 43.5q-86 0 -139 -60t-53 -157v-240h-34v485h34v-119h1q27 58 78.5 90.5t117.5 32.5q78 0 123.5 -51.5t45.5 -146.5v-489h-34z" />
    <glyph glyph-name="iotatonos" unicode="&#x3af;" horiz-adv-x="238" 
d="M87 560l60 155h40l-64 -155h-36zM168 -4q-50 0 -66.5 29.5t-16.5 80.5v379h33v-367q0 -30 2.5 -46.5t15.5 -29.5t38 -13q28 0 50 9l4 -31q-33 -11 -60 -11z" />
    <glyph glyph-name="upsilondieresistonos" unicode="&#x3b0;" horiz-adv-x="543" 
d="M250 563l54 155h36l-58 -155h-32zM145 601q-14 0 -23.5 10t-9.5 24q0 15 9.5 24t23.5 9q15 0 24.5 -9t9.5 -24q0 -14 -10 -24t-24 -10zM403 602q-14 0 -23.5 9.5t-9.5 23.5t9.5 23.5t23.5 9.5t24 -9.5t10 -23.5t-10 -23.5t-24 -9.5zM271 -4q-91 0 -146 60t-55 171v258h33
v-248q0 -106 47.5 -157t120.5 -51q78 0 123 50t45 158v248h33v-258q0 -112 -52.5 -171.5t-148.5 -59.5z" />
    <glyph glyph-name="alpha" unicode="&#x3b1;" horiz-adv-x="610" 
d="M272 -4q-96 0 -161.5 67.5t-65.5 174.5t64.5 179t168.5 72q71 0 125 -39.5t77 -108.5h1l10 144h35l-21 -228v-129q0 -47 10 -73t41 -26q24 0 40 8l4 -31q-28 -10 -51 -10q-73 0 -75 111v28q-28 -63 -81 -101t-121 -38zM273 29q79 0 136.5 58t64.5 151q0 94 -53 156.5
t-141 62.5q-85 0 -143 -61t-58 -158q0 -88 54.5 -148.5t139.5 -60.5z" />
    <glyph glyph-name="beta" unicode="&#x3b2;" horiz-adv-x="565" 
d="M80 -198v699q0 119 57 179.5t155 60.5q84 0 137.5 -49.5t53.5 -125.5q0 -53 -24 -100t-84 -68v-1q70 -21 108 -73t38 -118q0 -91 -60 -150.5t-158 -59.5q-134 0 -188 118h-1v-312h-34zM301 29q85 0 135.5 49.5t50.5 126.5q0 75 -52 124.5t-148 49.5h-44v31h41
q41 1 72 11.5t48 26t28 37.5t14 40.5t3 38.5q0 63 -43 103.5t-114 40.5q-82 0 -130 -51t-48 -155v-278q0 -81 51.5 -138t135.5 -57z" />
    <glyph glyph-name="gamma" unicode="&#x3b3;" horiz-adv-x="501" 
d="M241 -198v43v40.5t-0.5 32.5t-2.5 33t-5.5 26t-8.5 28l-195 480h38l182 -454h3l182 454h37l-203 -501q3 -12 4.5 -24t2 -30t0.5 -31v-44.5v-52.5h-34z" />
    <glyph glyph-name="delta" unicode="&#x3b4;" horiz-adv-x="566" 
d="M333 480q81 -25 134.5 -85.5t53.5 -157.5q0 -107 -69 -174t-169 -67q-103 0 -170 69.5t-67 171.5q0 85 50 148.5t130 97.5q-120 44 -120 134q0 54 47.5 88.5t129.5 35.5q104 0 192 -51l-12 -29q-89 47 -178 47q-68 0 -106.5 -25t-38.5 -66q0 -37 25 -62.5t80 -45.5
q20 -8 88 -29zM283 29q86 0 144.5 57.5t58.5 150.5q0 88 -48.5 143t-132.5 77q-16 4 -37 11q-85 -28 -136 -90.5t-51 -140.5q0 -89 57 -148.5t145 -59.5z" />
    <glyph glyph-name="epsilon" unicode="&#x3b5;" horiz-adv-x="456" 
d="M232 29q90 0 174 44l16 -28q-96 -49 -195 -49q-81 0 -129.5 33.5t-48.5 98.5q0 42 24.5 75t69.5 48q-38 17 -59.5 46t-21.5 59q0 63 45.5 98t126.5 35q96 0 188 -50l-14 -28q-91 46 -172 46q-67 0 -103 -28t-36 -74q0 -34 33 -63t95 -29h87v-30h-103q-64 0 -94.5 -32
t-30.5 -72q0 -50 39.5 -75t108.5 -25z" />
    <glyph glyph-name="zeta" unicode="&#x3b6;" horiz-adv-x="438" 
d="M363 -201l-32 15q57 69 57 115q0 17 -4.5 27.5t-21.5 20.5t-31 15.5t-53 18.5q-41 15 -65 24t-54.5 24.5t-47.5 30.5t-33.5 36.5t-23 49t-6.5 61.5q1 109 93 229.5t245 236.5v2h-312v31h371v-28q-160 -116 -260.5 -240t-101.5 -231q0 -30 6 -53.5t21.5 -42t29.5 -31
t44 -26.5t50 -22t61 -22q38 -13 54.5 -19.5t37.5 -19t28.5 -28.5t7.5 -40q0 -61 -60 -134z" />
    <glyph glyph-name="eta" unicode="&#x3b7;" horiz-adv-x="550" 
d="M446 -198v476q0 92 -38.5 135.5t-101.5 43.5q-86 0 -139 -60t-53 -157v-240h-34v485h34v-119h1q27 58 78.5 90.5t117.5 32.5q78 0 123.5 -51.5t45.5 -146.5v-489h-34z" />
    <glyph glyph-name="theta" unicode="&#x3b8;" horiz-adv-x="557" 
d="M283 741q107 0 171.5 -92t64.5 -280q0 -109 -23 -190t-77 -132t-136 -51q-108 0 -172.5 92.5t-64.5 280.5q0 168 58 270t179 102zM283 708q-99 0 -148.5 -84t-53.5 -229h403q-4 159 -58 236t-143 77zM283 29q102 0 151 90t50 244h-403q1 -169 55.5 -251.5t146.5 -82.5z
" />
    <glyph glyph-name="iota" unicode="&#x3b9;" horiz-adv-x="238" 
d="M168 -4q-50 0 -66.5 29.5t-16.5 80.5v379h33v-367q0 -30 2.5 -46.5t15.5 -29.5t38 -13q28 0 50 9l4 -31q-33 -11 -60 -11z" />
    <glyph glyph-name="kappa" unicode="&#x3ba;" horiz-adv-x="522" 
d="M80 0v485h34v-320l2 -1l337 321h47l-216 -205l223 -280h-43l-204 256l-146 -137v-119h-34z" />
    <glyph glyph-name="lambda" unicode="&#x3bb;" horiz-adv-x="529" 
d="M494 0h-36q-105 286 -167 444v-1h-1l-218 -443h-38l239 489q-19 51 -39 99q-24 61 -49.5 91t-68.5 30q-14 0 -45 -9l-4 31q24 10 52 10q54 0 87.5 -37t60.5 -107q170 -441 227 -597z" />
    <glyph glyph-name="uni03BC" unicode="&#x3bc;" horiz-adv-x="553" 
d="M79 -198v683h34v-264q0 -95 41 -143.5t112 -48.5q75 0 125 59.5t50 156.5v240h34v-485h-31l-3 116h-2q-26 -56 -72.5 -88t-103.5 -32q-108 0 -151 91l-1 -1q2 -74 2 -112v-172h-34z" />
    <glyph glyph-name="nu" unicode="&#x3bd;" horiz-adv-x="499" 
d="M234 0l-206 485h38l184 -437h1l182 437h37l-203 -485h-33z" />
    <glyph glyph-name="xi" unicode="&#x3be;" horiz-adv-x="452" 
d="M364 -201l-31 15q58 72 58 112q1 32 -26 47t-131 52q-88 31 -137.5 76.5t-49.5 120.5q0 62 41.5 113t113.5 70v1q-116 38 -116 157q0 79 54 128.5t134 49.5q85 0 173 -51l-12 -29q-87 47 -160 47q-65 1 -109.5 -40.5t-44.5 -103.5q0 -76 53 -110.5t134 -34.5h79v-31h-101
q-92 0 -148 -49.5t-56 -115.5q0 -63 44 -101.5t124 -66.5q115 -41 142 -61q35 -25 34 -66q-1 -54 -62 -129z" />
    <glyph glyph-name="omicron" unicode="&#x3bf;" horiz-adv-x="567" 
d="M284 -4q-107 0 -173 71t-66 175t66.5 175.5t172.5 71.5q103 0 171 -69t68 -178q0 -108 -68 -177t-171 -69zM284 29q88 0 146.5 59.5t58.5 153.5q0 95 -58.5 154.5t-146.5 59.5q-92 0 -149 -61.5t-57 -152.5q0 -90 57 -151.5t149 -61.5z" />
    <glyph glyph-name="pi" unicode="&#x3c0;" horiz-adv-x="593" 
d="M576 485v-32h-110v-454h-33v454h-285v-453h-34v453h-93v32h555z" />
    <glyph glyph-name="rho" unicode="&#x3c1;" horiz-adv-x="582" 
d="M68 -198v436q0 110 65.5 180.5t163.5 70.5q106 0 173 -72.5t67 -178.5q0 -107 -68 -174.5t-168 -67.5q-68 0 -120 33.5t-79 89.5h-1v-317h-33zM297 29q92 0 148.5 60t56.5 149q0 97 -58.5 158t-146.5 61q-87 0 -141.5 -63.5t-54.5 -155.5q0 -93 56.5 -151t139.5 -58z" />
    <glyph glyph-name="uni03C2" unicode="&#x3c2;" horiz-adv-x="486" 
d="M358 -201l-31 15q59 67 59 106q0 32 -22 48t-86 43q-59 23 -94.5 41.5t-70.5 47.5t-51 68t-16 92q0 100 63 164.5t166 64.5q49 0 97.5 -20.5t83.5 -58.5l-24 -23q-28 32 -69.5 51t-86.5 19q-88 0 -142 -56t-54 -141q0 -45 14.5 -79t46.5 -59.5t65 -42t88 -38.5
q35 -14 52 -22.5t38 -22.5t29 -31t8 -41q0 -56 -63 -125z" />
    <glyph glyph-name="sigma" unicode="&#x3c3;" horiz-adv-x="567" 
d="M278 -4q-99 0 -166 67t-67 174q0 105 66.5 176.5t173.5 71.5h266v-32h-163v-2q126 -78 126 -216q0 -101 -66.5 -170t-169.5 -69zM278 29q89 0 145 59.5t56 148.5q0 146 -149 216h-45q-92 0 -148.5 -62t-56.5 -154q0 -93 57 -150.5t141 -57.5z" />
    <glyph glyph-name="tau" unicode="&#x3c4;" horiz-adv-x="442" 
d="M270 -4q-64 0 -85.5 31t-21.5 99v327h-156v32h401v-32h-212v-311q0 -60 14 -86.5t62 -26.5q56 0 109 32l9 -31q-55 -34 -120 -34z" />
    <glyph glyph-name="upsilon" unicode="&#x3c5;" horiz-adv-x="542" 
d="M271 -4q-91 0 -146 60t-55 171v258h33v-248q0 -106 47.5 -157t120.5 -51q78 0 123 50t45 158v248h33v-258q0 -112 -52.5 -171.5t-148.5 -59.5z" />
    <glyph glyph-name="phi" unicode="&#x3c6;" horiz-adv-x="673" 
d="M626 262q0 -113 -76 -189t-203 -76v-195h-34v195q-115 0 -190 66.5t-75 178.5q0 138 106 251l30 -13q-101 -111 -101 -237q0 -97 64.5 -155t165.5 -59v275q0 94 39 139.5t92 45.5q79 0 130.5 -65t51.5 -162zM347 29q114 1 179 67t65 165q0 80 -38.5 138t-105.5 58
q-42 0 -71 -38t-29 -116v-274z" />
    <glyph glyph-name="chi" unicode="&#x3c7;" horiz-adv-x="498" 
d="M458 -202q-32 0 -53 19t-40 60l-117 242h-1l-185 -317h-39l208 354l-115 237q-16 33 -31.5 48t-37.5 15q-6 0 -18 -2l-5 30q17 5 28 5q32 0 53.5 -19.5t40.5 -59.5l103 -218h2l171 293h39l-193 -329l127 -263q30 -62 68 -62q10 0 19 3l4 -31q-17 -5 -28 -5z" />
    <glyph glyph-name="psi" unicode="&#x3c8;" horiz-adv-x="668" 
d="M568 485h34v-258q0 -111 -67 -170.5t-188 -60.5v-194h-34v194q-116 1 -181 60.5t-65 170.5v258h33v-247q0 -107 58.5 -157.5t154.5 -51.5v598h34v-598q102 1 161.5 51t59.5 158v247z" />
    <glyph glyph-name="omega" unicode="&#x3c9;" horiz-adv-x="736" 
d="M219 -4q-76 0 -123.5 67.5t-47.5 173.5q0 144 105 256l29 -12q-100 -111 -100 -242q0 -96 39.5 -153t99.5 -57q66 0 98.5 57t32.5 159v118h33v-118q0 -102 32.5 -159t98.5 -57q61 0 100 57t39 153q0 131 -100 242l30 12q105 -112 105 -256q0 -106 -47.5 -173.5
t-124.5 -67.5q-115 0 -149 132h-1q-34 -132 -149 -132z" />
    <glyph glyph-name="iotadieresis" unicode="&#x3ca;" horiz-adv-x="238" 
d="M-13 599q-14 0 -23.5 10t-9.5 24q0 15 9.5 24t23.5 9q15 0 24.5 -9t9.5 -24q0 -14 -10 -24t-24 -10zM210 600q-15 0 -24.5 9.5t-9.5 23.5t9.5 23.5t24.5 9.5t24.5 -9.5t9.5 -23.5t-9.5 -23.5t-24.5 -9.5zM168 -4q-50 0 -66.5 29.5t-16.5 80.5v379h33v-367
q0 -30 2.5 -46.5t15.5 -29.5t38 -13q28 0 50 9l4 -31q-33 -11 -60 -11z" />
    <glyph glyph-name="upsilondieresis" unicode="&#x3cb;" horiz-adv-x="542" 
d="M157 600q-14 0 -23.5 10t-9.5 24q0 15 9.5 24t23.5 9q15 0 24.5 -9t9.5 -24q0 -14 -10 -24t-24 -10zM380 601q-15 0 -24.5 9.5t-9.5 23.5t9.5 23.5t24.5 9.5t24.5 -9.5t9.5 -23.5t-9.5 -23.5t-24.5 -9.5zM271 -4q-91 0 -146 60t-55 171v258h33v-248q0 -106 47.5 -157
t120.5 -51q78 0 123 50t45 158v248h33v-258q0 -112 -52.5 -171.5t-148.5 -59.5z" />
    <glyph glyph-name="omicrontonos" unicode="&#x3cc;" horiz-adv-x="567" 
d="M267 561l60 155h40l-64 -155h-36zM284 -4q-107 0 -173 71t-66 175t66.5 175.5t172.5 71.5q103 0 171 -69t68 -178q0 -108 -68 -177t-171 -69zM284 29q88 0 146.5 59.5t58.5 153.5q0 95 -58.5 154.5t-146.5 59.5q-92 0 -149 -61.5t-57 -152.5q0 -90 57 -151.5t149 -61.5z
" />
    <glyph glyph-name="upsilontonos" unicode="&#x3cd;" horiz-adv-x="542" 
d="M257 561l60 155h40l-64 -155h-36zM271 -4q-91 0 -146 60t-55 171v258h33v-248q0 -106 47.5 -157t120.5 -51q78 0 123 50t45 158v248h33v-258q0 -112 -52.5 -171.5t-148.5 -59.5z" />
    <glyph glyph-name="omegatonos" unicode="&#x3ce;" horiz-adv-x="736" 
d="M352 561l60 155h40l-64 -155h-36zM219 -4q-76 0 -123.5 67.5t-47.5 173.5q0 144 105 256l29 -12q-100 -111 -100 -242q0 -96 39.5 -153t99.5 -57q66 0 98.5 57t32.5 159v118h33v-118q0 -102 32.5 -159t98.5 -57q61 0 100 57t39 153q0 131 -100 242l30 12
q105 -112 105 -256q0 -106 -47.5 -173.5t-124.5 -67.5q-115 0 -149 132h-1q-34 -132 -149 -132z" />
    <glyph glyph-name="uni03D7" unicode="&#x3d7;" horiz-adv-x="557" 
d="M193 -216q-105 0 -185 48l7 34q75 -50 176 -50q83 0 152 43t135 137v4q-166 62 -227 249l-137 -140v-109h-34v485h34v-326l1 -1l317 327h46l-203 -210q32 -99 97 -166.5t153 -87.5v-17q-79 -115 -156.5 -167.5t-175.5 -52.5z" />
    <glyph glyph-name="uni1E0C" unicode="&#x1e0c;" horiz-adv-x="710" 
d="M89 0v710h192q167 0 268 -98.5t101 -257.5t-100 -256.5t-266 -97.5h-195zM124 34h158q153 0 242 88.5t89 231.5t-91 232.5t-242 89.5h-156v-642zM326 -118q14 0 24 -10t10 -24q0 -15 -9.5 -24t-24.5 -9t-24.5 9t-9.5 24q0 14 9.5 24t24.5 10z" />
    <glyph glyph-name="uni1E0D" unicode="&#x1e0d;" horiz-adv-x="603" 
d="M287 -4q-102 0 -171.5 67.5t-69.5 174.5q0 106 67.5 178.5t173.5 72.5q66 0 120 -35.5t81 -96.5h2v379h33v-736h-32v126h-2q-25 -59 -79 -94.5t-123 -35.5zM289 29q85 0 143.5 58t58.5 151q0 92 -57 155.5t-145 63.5t-148 -61t-60 -158q0 -89 58 -149t150 -60zM301 -118
q14 0 24 -10t10 -24q0 -15 -9.5 -24t-24.5 -9t-24.5 9t-9.5 24q0 14 9.5 24t24.5 10z" />
    <glyph glyph-name="uni1E0E" unicode="&#x1e0e;" horiz-adv-x="710" 
d="M89 0v710h192q167 0 268 -98.5t101 -257.5t-100 -256.5t-266 -97.5h-195zM124 34h158q153 0 242 88.5t89 231.5t-91 232.5t-242 89.5h-156v-642zM462 -175h-271v32h271v-32z" />
    <glyph glyph-name="uni1E0F" unicode="&#x1e0f;" horiz-adv-x="603" 
d="M287 -4q-102 0 -171.5 67.5t-69.5 174.5q0 106 67.5 178.5t173.5 72.5q66 0 120 -35.5t81 -96.5h2v379h33v-736h-32v126h-2q-25 -59 -79 -94.5t-123 -35.5zM289 29q85 0 143.5 58t58.5 151q0 92 -57 155.5t-145 63.5t-148 -61t-60 -158q0 -89 58 -149t150 -60zM437 -175
h-271v32h271v-32z" />
    <glyph glyph-name="uni1E20" unicode="&#x1e20;" horiz-adv-x="760" 
d="M269 829v32h271v-32h-271zM410 -3q-154 0 -251.5 99t-97.5 258q0 160 97 260.5t251 100.5q158 0 260 -102l-24 -23q-94 90 -236 90q-138 0 -224.5 -90t-86.5 -236q0 -143 86.5 -233t225.5 -90q147 0 238 76v205h-257v34h292v-257q-103 -92 -273 -92z" />
    <glyph glyph-name="uni1E21" unicode="&#x1e21;" horiz-adv-x="589" 
d="M148 614v32h271v-32h-271zM292 -202q-105 0 -198 56l9 33q89 -56 189 -56q95 0 143 50t48 134v121h-1q-26 -58 -78.5 -91.5t-122.5 -33.5q-100 0 -167.5 67t-67.5 174q0 100 66 168.5t169 68.5q66 0 119.5 -32.5t81.5 -88.5h1v117h33v-470q0 -99 -57 -158t-167 -59z
M283 44q91 0 146 59t55 150q0 90 -57 147t-143 57q-90 0 -146.5 -59t-56.5 -145q0 -93 58 -151t144 -58z" />
    <glyph glyph-name="uni1E24" unicode="&#x1e24;" horiz-adv-x="698" 
d="M89 0v710h35v-358h449v358h36v-710h-36v318h-449v-318h-35zM348 -118q14 0 24 -10t10 -24q0 -15 -9.5 -24t-24.5 -9t-24.5 9t-9.5 24q0 14 9.5 24t24.5 10z" />
    <glyph glyph-name="uni1E25" unicode="&#x1e25;" horiz-adv-x="554" 
d="M80 0v736h34v-372h1q26 59 78.5 92t122.5 33q79 0 124 -51t45 -146v-292h-33v279q0 92 -38.5 135t-101.5 43q-90 0 -144 -59t-54 -158v-240h-34zM282 -118q14 0 24 -10t10 -24q0 -15 -9.5 -24t-24.5 -9t-24.5 9t-9.5 24q0 14 9.5 24t24.5 10z" />
    <glyph glyph-name="uni1E2A" unicode="&#x1e2a;" horiz-adv-x="698" 
d="M89 0v710h35v-358h449v358h36v-710h-36v318h-449v-318h-35zM348 -209q-51 0 -86.5 34t-39.5 96h30q2 -43 28 -71.5t68 -28.5q43 0 68.5 28t28.5 72h30q-4 -62 -39.5 -96t-87.5 -34z" />
    <glyph glyph-name="uni1E2B" unicode="&#x1e2b;" horiz-adv-x="554" 
d="M80 0v736h34v-372h1q26 59 78.5 92t122.5 33q79 0 124 -51t45 -146v-292h-33v279q0 92 -38.5 135t-101.5 43q-90 0 -144 -59t-54 -158v-240h-34zM282 -209q-51 0 -86.5 34t-39.5 96h30q2 -43 28 -71.5t68 -28.5q43 0 68.5 28t28.5 72h30q-4 -62 -39.5 -96t-87.5 -34z" />
    <glyph glyph-name="uni1E30" unicode="&#x1e30;" horiz-adv-x="619" 
d="M250 792l113 125h42l-116 -125h-39zM89 0v710h35v-465h2l400 465h46l-287 -334l293 -376h-46l-271 349l-137 -158v-191h-35z" />
    <glyph glyph-name="uni1E31" unicode="&#x1e31;" horiz-adv-x="490" 
d="M80 0v736h34v-580l1 -1l301 330h45l-191 -209l189 -276h-40l-173 251l-132 -143v-108h-34zM207 560l122 136h43l-124 -136h-41z" />
    <glyph glyph-name="uni1E36" unicode="&#x1e36;" horiz-adv-x="534" 
d="M89 0v710h35v-676h386v-34h-421zM299 -118q14 0 24 -10t10 -24q0 -15 -9.5 -24t-24.5 -9t-24.5 9t-9.5 24q0 14 9.5 24t24.5 10z" />
    <glyph glyph-name="uni1E37" unicode="&#x1e37;" horiz-adv-x="204" 
d="M85 0v736h34v-736h-34zM114 -118q14 0 24 -10t10 -24q0 -15 -9.5 -24t-24.5 -9t-24.5 9t-9.5 24q0 14 9.5 24t24.5 10z" />
    <glyph glyph-name="uni1E38" unicode="&#x1e38;" horiz-adv-x="534" 
d="M125 829v32h271v-32h-271zM89 0v710h35v-676h386v-34h-421zM299 -118q14 0 24 -10t10 -24q0 -15 -9.5 -24t-24.5 -9t-24.5 9t-9.5 24q0 14 9.5 24t24.5 10z" />
    <glyph glyph-name="uni1E39" unicode="&#x1e39;" horiz-adv-x="204" 
d="M-32 842v32h271v-32h-271zM85 0v736h34v-736h-34zM114 -118q14 0 24 -10t10 -24q0 -15 -9.5 -24t-24.5 -9t-24.5 9t-9.5 24q0 14 9.5 24t24.5 10z" />
    <glyph glyph-name="uni1E3A" unicode="&#x1e3a;" horiz-adv-x="534" 
d="M89 0v710h35v-676h386v-34h-421zM435 -175h-271v32h271v-32z" />
    <glyph glyph-name="uni1E3B" unicode="&#x1e3b;" horiz-adv-x="204" 
d="M85 0v736h34v-736h-34zM250 -175h-271v32h271v-32z" />
    <glyph glyph-name="uni1E42" unicode="&#x1e42;" horiz-adv-x="857" 
d="M89 0v710h36l303 -512h2l302 512h36v-710h-36v640h-1l-288 -487h-29l-288 487h-1v-640h-36zM427 -118q14 0 24 -10t10 -24q0 -15 -9.5 -24t-24.5 -9t-24.5 9t-9.5 24q0 14 9.5 24t24.5 10z" />
    <glyph glyph-name="uni1E43" unicode="&#x1e43;" horiz-adv-x="867" 
d="M80 0v485h34v-120h1q25 58 73 91t106 33q63 0 103.5 -36.5t55.5 -102.5h1q23 65 72.5 102t110.5 37q81 0 122.5 -56t41.5 -155v-278h-34v264q0 96 -34.5 144.5t-99.5 48.5q-73 0 -122.5 -60.5t-49.5 -156.5v-240h-34v264q0 95 -36.5 144t-100.5 49q-75 0 -125.5 -60.5
t-50.5 -156.5v-240h-34zM445 -118q14 0 24 -10t10 -24q0 -15 -9.5 -24t-24.5 -9t-24.5 9t-9.5 24q0 14 9.5 24t24.5 10z" />
    <glyph glyph-name="uni1E44" unicode="&#x1e44;" horiz-adv-x="733" 
d="M366 820q-14 0 -24 10t-10 24q0 15 9.5 24t24.5 9t24.5 -9t9.5 -24q0 -14 -9.5 -24t-24.5 -10zM89 0v710h34l483 -649h1v649h36v-710h-36l-481 647h-2v-647h-35z" />
    <glyph glyph-name="uni1E45" unicode="&#x1e45;" horiz-adv-x="549" 
d="M285 599q-14 0 -24 10t-10 24q0 15 9.5 24t24.5 9t24.5 -9t9.5 -24q0 -14 -9.5 -24t-24.5 -10zM80 0v485h34v-121h1q26 59 78 92t119 33q78 0 123 -51.5t45 -146.5v-291h-33v278q0 93 -38.5 136t-101.5 43q-87 0 -140 -59.5t-53 -157.5v-240h-34z" />
    <glyph glyph-name="uni1E46" unicode="&#x1e46;" horiz-adv-x="733" 
d="M89 0v710h34l483 -649h1v649h36v-710h-36l-481 647h-2v-647h-35zM378 -118q14 0 24 -10t10 -24q0 -15 -9.5 -24t-24.5 -9t-24.5 9t-9.5 24q0 14 9.5 24t24.5 10z" />
    <glyph glyph-name="uni1E47" unicode="&#x1e47;" horiz-adv-x="549" 
d="M80 0v485h34v-121h1q26 59 78 92t119 33q78 0 123 -51.5t45 -146.5v-291h-33v278q0 93 -38.5 136t-101.5 43q-87 0 -140 -59.5t-53 -157.5v-240h-34zM290 -118q14 0 24 -10t10 -24q0 -15 -9.5 -24t-24.5 -9t-24.5 9t-9.5 24q0 14 9.5 24t24.5 10z" />
    <glyph glyph-name="uni1E48" unicode="&#x1e48;" horiz-adv-x="733" 
d="M89 0v710h34l483 -649h1v649h36v-710h-36l-481 647h-2v-647h-35zM514 -175h-271v32h271v-32z" />
    <glyph glyph-name="uni1E49" unicode="&#x1e49;" horiz-adv-x="549" 
d="M80 0v485h34v-121h1q26 59 78 92t119 33q78 0 123 -51.5t45 -146.5v-291h-33v278q0 93 -38.5 136t-101.5 43q-87 0 -140 -59.5t-53 -157.5v-240h-34zM426 -175h-271v32h271v-32z" />
    <glyph glyph-name="uni1E5A" unicode="&#x1e5a;" horiz-adv-x="617" 
d="M89 0v710h236q112 0 167.5 -56t55.5 -148q0 -96 -54 -146t-151 -59l215 -301h-43l-214 298h-177v-298h-35zM124 332h182q106 0 155.5 47.5t49.5 126.5q0 84 -49.5 127t-137.5 43h-200v-344zM310 -118q14 0 24 -10t10 -24q0 -15 -9.5 -24t-24.5 -9t-24.5 9t-9.5 24
q0 14 9.5 24t24.5 10z" />
    <glyph glyph-name="uni1E5B" unicode="&#x1e5b;" horiz-adv-x="324" 
d="M80 0v485h34v-114h2q23 55 66.5 86.5t102.5 31.5q20 0 30 -1v-37q-22 2 -30 2q-78 0 -124.5 -58.5t-46.5 -153.5v-241h-34zM110 -118q14 0 24 -10t10 -24q0 -15 -9.5 -24t-24.5 -9t-24.5 9t-9.5 24q0 14 9.5 24t24.5 10z" />
    <glyph glyph-name="uni1E5C" unicode="&#x1e5c;" horiz-adv-x="617" 
d="M167 829v32h271v-32h-271zM89 0v710h236q112 0 167.5 -56t55.5 -148q0 -96 -54 -146t-151 -59l215 -301h-43l-214 298h-177v-298h-35zM124 332h182q106 0 155.5 47.5t49.5 126.5q0 84 -49.5 127t-137.5 43h-200v-344zM310 -118q14 0 24 -10t10 -24q0 -15 -9.5 -24
t-24.5 -9t-24.5 9t-9.5 24q0 14 9.5 24t24.5 10z" />
    <glyph glyph-name="uni1E5D" unicode="&#x1e5d;" horiz-adv-x="324" 
d="M63 614v32h271v-32h-271zM80 0v485h34v-114h2q23 55 66.5 86.5t102.5 31.5q20 0 30 -1v-37q-22 2 -30 2q-78 0 -124.5 -58.5t-46.5 -153.5v-241h-34zM110 -118q14 0 24 -10t10 -24q0 -15 -9.5 -24t-24.5 -9t-24.5 9t-9.5 24q0 14 9.5 24t24.5 10z" />
    <glyph glyph-name="uni1E5E" unicode="&#x1e5e;" horiz-adv-x="617" 
d="M89 0v710h236q112 0 167.5 -56t55.5 -148q0 -96 -54 -146t-151 -59l215 -301h-43l-214 298h-177v-298h-35zM124 332h182q106 0 155.5 47.5t49.5 126.5q0 84 -49.5 127t-137.5 43h-200v-344zM446 -175h-271v32h271v-32z" />
    <glyph glyph-name="uni1E5F" unicode="&#x1e5f;" horiz-adv-x="324" 
d="M80 0v485h34v-114h2q23 55 66.5 86.5t102.5 31.5q20 0 30 -1v-37q-22 2 -30 2q-78 0 -124.5 -58.5t-46.5 -153.5v-241h-34zM246 -175h-271v32h271v-32z" />
    <glyph glyph-name="uni1E60" unicode="&#x1e60;" horiz-adv-x="562" 
d="M281 820q-14 0 -24 10t-10 24q0 15 9.5 24t24.5 9t24.5 -9t9.5 -24q0 -14 -9.5 -24t-24.5 -10zM284 -4q-68 0 -131.5 27t-109.5 81l25 28q37 -49 95.5 -75t122.5 -26q80 0 133.5 38.5t53.5 106.5q0 19 -5 35.5t-10 28t-19.5 24t-22.5 19.5t-30.5 17.5t-31.5 14.5t-37 15
t-37 15l-43.5 18t-40.5 18.5t-40 22t-32.5 25.5t-27.5 31.5t-16 37.5t-7 46q0 73 58 122t147 49q114 0 207 -76l-23 -29q-87 70 -183 70q-69 0 -119 -36t-50 -100q0 -23 6 -42t21.5 -35t28 -26.5t39 -23.5t41 -19t46.5 -19q6 -2 33 -13t34 -13.5t30 -12.5t29.5 -15t24.5 -16
t24 -19t17 -21t15 -26t7.5 -29.5t3.5 -35.5q0 -81 -61.5 -131.5t-164.5 -50.5z" />
    <glyph glyph-name="uni1E61" unicode="&#x1e61;" horiz-adv-x="419" 
d="M215 599q-14 0 -24 10t-10 24q0 15 9.5 24t24.5 9t24.5 -9t9.5 -24q0 -14 -9.5 -24t-24.5 -10zM213 -4q-103 0 -179 68l18 26q71 -62 161 -62q60 0 95.5 28t35.5 68q0 13 -3.5 23.5t-7.5 18.5t-14 16t-16.5 12.5t-22 11t-24 9.5t-29 10.5t-29.5 10.5q-35 13 -56 22.5
t-43.5 25t-32.5 37t-10 49.5q0 51 41.5 85t102.5 34q90 0 159 -58l-20 -26q-58 51 -139 51q-46 0 -77.5 -24.5t-31.5 -59.5q0 -22 8.5 -38t27.5 -28.5t34 -19.5t45 -18q97 -34 121 -49q53 -33 52 -96q-1 -54 -44.5 -90.5t-121.5 -36.5z" />
    <glyph glyph-name="uni1E62" unicode="&#x1e62;" horiz-adv-x="562" 
d="M284 -4q-68 0 -131.5 27t-109.5 81l25 28q37 -49 95.5 -75t122.5 -26q80 0 133.5 38.5t53.5 106.5q0 19 -5 35.5t-10 28t-19.5 24t-22.5 19.5t-30.5 17.5t-31.5 14.5t-37 15t-37 15l-43.5 18t-40.5 18.5t-40 22t-32.5 25.5t-27.5 31.5t-16 37.5t-7 46q0 73 58 122t147 49
q114 0 207 -76l-23 -29q-87 70 -183 70q-69 0 -119 -36t-50 -100q0 -23 6 -42t21.5 -35t28 -26.5t39 -23.5t41 -19t46.5 -19q6 -2 33 -13t34 -13.5t30 -12.5t29.5 -15t24.5 -16t24 -19t17 -21t15 -26t7.5 -29.5t3.5 -35.5q0 -81 -61.5 -131.5t-164.5 -50.5zM294 -118
q14 0 24 -10t10 -24q0 -15 -9.5 -24t-24.5 -9t-24.5 9t-9.5 24q0 14 9.5 24t24.5 10z" />
    <glyph glyph-name="uni1E63" unicode="&#x1e63;" horiz-adv-x="419" 
d="M213 -4q-103 0 -179 68l18 26q71 -62 161 -62q60 0 95.5 28t35.5 68q0 13 -3.5 23.5t-7.5 18.5t-14 16t-16.5 12.5t-22 11t-24 9.5t-29 10.5t-29.5 10.5q-35 13 -56 22.5t-43.5 25t-32.5 37t-10 49.5q0 51 41.5 85t102.5 34q90 0 159 -58l-20 -26q-58 51 -139 51
q-46 0 -77.5 -24.5t-31.5 -59.5q0 -22 8.5 -38t27.5 -28.5t34 -19.5t45 -18q97 -34 121 -49q53 -33 52 -96q-1 -54 -44.5 -90.5t-121.5 -36.5zM210 -118q14 0 24 -10t10 -24q0 -15 -9.5 -24t-24.5 -9t-24.5 9t-9.5 24q0 14 9.5 24t24.5 10z" />
    <glyph glyph-name="uni1E6C" unicode="&#x1e6c;" horiz-adv-x="548" 
d="M255 0v676h-229v34h496v-34h-232v-676h-35zM284 -118q14 0 24 -10t10 -24q0 -15 -9.5 -24t-24.5 -9t-24.5 9t-9.5 24q0 14 9.5 24t24.5 10z" />
    <glyph glyph-name="uni1E6D" unicode="&#x1e6d;" horiz-adv-x="355" 
d="M206 -4q-64 0 -88 34t-24 101v322h-66v32h66v173l34 4v-177h188v-32h-188v-307q0 -61 15.5 -89t62.5 -28q53 0 98 31l9 -32q-50 -32 -107 -32zM203 -118q14 0 24 -10t10 -24q0 -15 -9.5 -24t-24.5 -9t-24.5 9t-9.5 24q0 14 9.5 24t24.5 10z" />
    <glyph glyph-name="uni1E6E" unicode="&#x1e6e;" horiz-adv-x="548" 
d="M255 0v676h-229v34h496v-34h-232v-676h-35zM420 -175h-271v32h271v-32z" />
    <glyph glyph-name="uni1E6F" unicode="&#x1e6f;" horiz-adv-x="355" 
d="M206 -4q-64 0 -88 34t-24 101v322h-66v32h66v173l34 4v-177h188v-32h-188v-307q0 -61 15.5 -89t62.5 -28q53 0 98 31l9 -32q-50 -32 -107 -32zM339 -175h-271v32h271v-32z" />
    <glyph glyph-name="Wgrave" unicode="&#x1e80;" horiz-adv-x="997" 
d="M481 792l-115 125h42l113 -125h-40zM263 0l-229 710h38l211 -655h1l193 655h43l192 -655h1l212 655h38l-229 -710h-41l-194 659h-1l-195 -659h-40z" />
    <glyph glyph-name="wgrave" unicode="&#x1e81;" horiz-adv-x="754" 
d="M355 564l-115 129h42l113 -129h-40zM204 0l-171 485h35l152 -430h2l137 430h35l139 -430h2l151 430h36l-171 -485h-35l-138 432h-1l-140 -432h-33z" />
    <glyph glyph-name="Wacute" unicode="&#x1e82;" horiz-adv-x="997" 
d="M476 792l113 125h42l-116 -125h-39zM263 0l-229 710h38l211 -655h1l193 655h43l192 -655h1l212 655h38l-229 -710h-41l-194 659h-1l-195 -659h-40z" />
    <glyph glyph-name="wacute" unicode="&#x1e83;" horiz-adv-x="754" 
d="M355 561l122 136h43l-124 -136h-41zM204 0l-171 485h35l152 -430h2l137 430h35l139 -430h2l151 430h36l-171 -485h-35l-138 432h-1l-140 -432h-33z" />
    <glyph glyph-name="Wdieresis" unicode="&#x1e84;" horiz-adv-x="997" 
d="M422 821q-14 0 -24 9.5t-10 23.5q0 15 9.5 24t24.5 9q14 0 23.5 -9.5t9.5 -23.5t-9.5 -23.5t-23.5 -9.5zM576 821q-15 0 -24.5 9.5t-9.5 23.5q0 15 9.5 24t24.5 9q14 0 23.5 -9.5t9.5 -23.5t-9.5 -23.5t-23.5 -9.5zM263 0l-229 710h38l211 -655h1l193 655h43l192 -655h1
l212 655h38l-229 -710h-41l-194 659h-1l-195 -659h-40z" />
    <glyph glyph-name="wdieresis" unicode="&#x1e85;" horiz-adv-x="754" 
d="M299 600q-14 0 -24 9.5t-10 23.5q0 15 9.5 24t24.5 9q14 0 23.5 -9.5t9.5 -23.5t-9.5 -23.5t-23.5 -9.5zM453 600q-15 0 -24.5 9.5t-9.5 23.5q0 15 9.5 24t24.5 9q14 0 23.5 -9.5t9.5 -23.5t-9.5 -23.5t-23.5 -9.5zM204 0l-171 485h35l152 -430h2l137 430h35l139 -430h2
l151 430h36l-171 -485h-35l-138 432h-1l-140 -432h-33z" />
    <glyph glyph-name="uni1E8E" unicode="&#x1e8e;" horiz-adv-x="565" 
d="M283 820q-14 0 -24 10t-10 24q0 15 9.5 24t24.5 9t24.5 -9t9.5 -24q0 -14 -9.5 -24t-24.5 -10zM264 0v322l-247 388h43l221 -350h2l222 350h42l-247 -388v-322h-36z" />
    <glyph glyph-name="uni1E8F" unicode="&#x1e8f;" horiz-adv-x="510" 
d="M258 599q-14 0 -24 10t-10 24q0 15 9.5 24t24.5 9t24.5 -9t9.5 -24q0 -14 -9.5 -24t-24.5 -10zM158 -198l86 206l-218 477h39l196 -435h1l182 435h38l-287 -683h-37z" />
    <glyph glyph-name="uni1E92" unicode="&#x1e92;" horiz-adv-x="593" 
d="M56 0v31l423 644l-1 1h-396v34h444v-32l-423 -643l1 -1h426v-34h-474zM291 -118q14 0 24 -10t10 -24q0 -15 -9.5 -24t-24.5 -9t-24.5 9t-9.5 24q0 14 9.5 24t24.5 10z" />
    <glyph glyph-name="uni1E93" unicode="&#x1e93;" horiz-adv-x="444" 
d="M30 0v29l331 423v1h-318v32h365v-28l-332 -424v-2h336v-31h-382zM219 -118q14 0 24 -10t10 -24q0 -15 -9.5 -24t-24.5 -9t-24.5 9t-9.5 24q0 14 9.5 24t24.5 10z" />
    <glyph glyph-name="uni1E97" unicode="&#x1e97;" horiz-adv-x="355" 
d="M69 744q-14 0 -24 9.5t-10 23.5q0 15 9.5 24t24.5 9q14 0 23.5 -9.5t9.5 -23.5t-9.5 -23.5t-23.5 -9.5zM223 744q-15 0 -24.5 9.5t-9.5 23.5q0 15 9.5 24t24.5 9q14 0 23.5 -9.5t9.5 -23.5t-9.5 -23.5t-23.5 -9.5zM206 -4q-64 0 -88 34t-24 101v322h-66v32h66v173l34 4
v-177h188v-32h-188v-307q0 -61 15.5 -89t62.5 -28q53 0 98 31l9 -32q-50 -32 -107 -32z" />
    <glyph glyph-name="uni1E9E" unicode="&#x1e9e;" horiz-adv-x="704" 
d="M446 379q7 -3 21 -8q42 -16 62.5 -24.5t52 -26.5t46 -35t26 -45t11.5 -62q0 -80 -61.5 -131t-163.5 -51q-139 0 -230 98l18 34q38 -48 94.5 -72.5t119.5 -24.5q78 0 132 38.5t54 106.5q0 17 -2.5 31.5t-10.5 27t-14 22t-20.5 19.5t-22.5 15.5t-28 14.5t-29 13t-33 13.5
t-33 12.5q-61 24 -88 38l149 273l-1 2q-97 22 -203 22q-102 0 -148.5 -41t-46.5 -130v-509h-36v512q0 103 56 153t171 50q112 0 260 -34l-153 -281z" />
    <glyph glyph-name="uni1EA0" unicode="&#x1ea0;" horiz-adv-x="647" 
d="M28 0l274 710h40l277 -710h-38l-79 204h-357l-79 -204h-38zM157 237h332l-165 430h-2zM323 -118q14 0 24 -10t10 -24q0 -15 -9.5 -24t-24.5 -9t-24.5 9t-9.5 24q0 14 9.5 24t24.5 10z" />
    <glyph glyph-name="uni1EA1" unicode="&#x1ea1;" horiz-adv-x="594" 
d="M284 -4q-101 0 -170 67.5t-69 174.5q0 106 67 178.5t173 72.5q66 0 120 -35.5t81 -96.5l1 1v127h33v-485h-33v124h-1q-27 -59 -80 -93.5t-122 -34.5zM287 29q84 0 142 58t58 151q0 92 -56 155.5t-144 63.5q-87 0 -147 -61.5t-60 -157.5q0 -89 57.5 -149t149.5 -60z
M290 -118q14 0 24 -10t10 -24q0 -15 -9.5 -24t-24.5 -9t-24.5 9t-9.5 24q0 14 9.5 24t24.5 10z" />
    <glyph glyph-name="uni1EA2" unicode="&#x1ea2;" horiz-adv-x="647" 
d="M304 782q6 5 24 17t26 18.5t19.5 16.5t16.5 19.5t5 19.5q0 41 -56 41q-24 0 -50 -9t-40 -22l-9 28q48 31 102 31q37 0 60.5 -17t23.5 -52q0 -12 -4.5 -22.5t-16.5 -22t-18 -16.5t-23 -17t-19 -13h-41zM28 0l274 710h40l277 -710h-38l-79 204h-357l-79 -204h-38zM157 237
h332l-165 430h-2z" />
    <glyph glyph-name="uni1EA3" unicode="&#x1ea3;" horiz-adv-x="594" 
d="M264 554q2 2 14 10t15.5 11t14 10.5t15 12t12.5 11.5t11.5 12.5t8 12t6 13t1.5 12.5q0 41 -56 41t-90 -32l-9 29q50 32 102 32q37 0 60.5 -17.5t23.5 -52.5q0 -16 -7.5 -31.5t-27 -32t-25.5 -21t-28 -20.5h-41zM284 -4q-101 0 -170 67.5t-69 174.5q0 106 67 178.5
t173 72.5q66 0 120 -35.5t81 -96.5l1 1v127h33v-485h-33v124h-1q-27 -59 -80 -93.5t-122 -34.5zM287 29q84 0 142 58t58 151q0 92 -56 155.5t-144 63.5q-87 0 -147 -61.5t-60 -157.5q0 -89 57.5 -149t149.5 -60z" />
    <glyph glyph-name="uni1EA4" unicode="&#x1ea4;" horiz-adv-x="647" 
d="M453 852l118 135h43l-125 -135h-36zM183 792l123 112h37l120 -112h-40l-98 89h-2l-101 -89h-39zM28 0l274 710h40l277 -710h-38l-79 204h-357l-79 -204h-38zM157 237h332l-165 430h-2z" />
    <glyph glyph-name="uni1EA5" unicode="&#x1ea5;" horiz-adv-x="594" 
d="M391 641l118 136h43l-125 -136h-36zM151 561l123 131h37l119 -131h-39l-97 106h-2l-102 -106h-39zM284 -4q-101 0 -170 67.5t-69 174.5q0 106 67 178.5t173 72.5q66 0 120 -35.5t81 -96.5l1 1v127h33v-485h-33v124h-1q-27 -59 -80 -93.5t-122 -34.5zM287 29q84 0 142 58
t58 151q0 92 -56 155.5t-144 63.5q-87 0 -147 -61.5t-60 -157.5q0 -89 57.5 -149t149.5 -60z" />
    <glyph glyph-name="uni1EA6" unicode="&#x1ea6;" horiz-adv-x="647" 
d="M487 851l-125 134h43l118 -134h-36zM183 792l123 112h37l120 -112h-40l-98 89h-2l-101 -89h-39zM28 0l274 710h40l277 -710h-38l-79 204h-357l-79 -204h-38zM157 237h332l-165 430h-2z" />
    <glyph glyph-name="uni1EA7" unicode="&#x1ea7;" horiz-adv-x="594" 
d="M454 641l-125 136h43l118 -136h-36zM147 562l123 131h37l119 -131h-39l-97 106h-2l-102 -106h-39zM284 -4q-101 0 -170 67.5t-69 174.5q0 106 67 178.5t173 72.5q66 0 120 -35.5t81 -96.5l1 1v127h33v-485h-33v124h-1q-27 -59 -80 -93.5t-122 -34.5zM287 29q84 0 142 58
t58 151q0 92 -56 155.5t-144 63.5q-87 0 -147 -61.5t-60 -157.5q0 -89 57.5 -149t149.5 -60z" />
    <glyph glyph-name="uni1EA8" unicode="&#x1ea8;" horiz-adv-x="647" 
d="M448 853q7 5 23 16t24.5 17.5t19 16t15.5 18.5t5 18q0 38 -54 38t-85 -29l-9 26q46 29 97 29q35 0 57.5 -16t22.5 -48q0 -11 -4.5 -21t-15.5 -21t-17 -16t-22.5 -16t-17.5 -12h-39zM183 792l123 112h37l120 -112h-40l-98 89h-2l-101 -89h-39zM28 0l274 710h40l277 -710
h-38l-79 204h-357l-79 -204h-38zM157 237h332l-165 430h-2z" />
    <glyph glyph-name="uni1EA9" unicode="&#x1ea9;" horiz-adv-x="594" 
d="M408 636q66 46 82 68q12 17 12 32q0 40 -54 40q-53 0 -86 -31l-9 28q48 30 98 30q36 0 58.5 -16.5t22.5 -50.5q0 -7 -2 -13.5t-4 -12t-7 -12.5t-8 -11t-10.5 -10.5t-10.5 -9.5t-12 -9.5t-11 -7.5t-11 -8l-9 -6h-39zM148 560l123 131h37l119 -131h-39l-97 106h-2
l-102 -106h-39zM284 -4q-101 0 -170 67.5t-69 174.5q0 106 67 178.5t173 72.5q66 0 120 -35.5t81 -96.5l1 1v127h33v-485h-33v124h-1q-27 -59 -80 -93.5t-122 -34.5zM287 29q84 0 142 58t58 151q0 92 -56 155.5t-144 63.5q-87 0 -147 -61.5t-60 -157.5q0 -89 57.5 -149
t149.5 -60z" />
    <glyph glyph-name="uni1EAA" unicode="&#x1eaa;" horiz-adv-x="647" 
d="M406 923q-30 0 -86 39q-38 28 -62 28q-41 0 -63 -60l-27 9q27 80 88 80q26 0 78 -31l16.5 -11t19 -12.5t16 -7.5t18.5 -4q42 0 59 59l27 -9q-25 -80 -84 -80zM183 792l123 112h37l120 -112h-40l-98 89h-2l-101 -89h-39zM28 0l274 710h40l277 -710h-38l-79 204h-357
l-79 -204h-38zM157 237h332l-165 430h-2z" />
    <glyph glyph-name="uni1EAB" unicode="&#x1eab;" horiz-adv-x="594" 
d="M153 760l-27 10q27 80 87 80q31 0 75 -29q4 -3 14.5 -10t16 -10t13.5 -7.5t15 -6.5t14 -2q43 0 60 61l27 -9q-23 -82 -85 -82q-32 0 -87 40q-38 25 -61 25q-40 0 -62 -60zM150 560l123 131h37l119 -131h-39l-97 106h-2l-102 -106h-39zM284 -4q-101 0 -170 67.5t-69 174.5
q0 106 67 178.5t173 72.5q66 0 120 -35.5t81 -96.5l1 1v127h33v-485h-33v124h-1q-27 -59 -80 -93.5t-122 -34.5zM287 29q84 0 142 58t58 151q0 92 -56 155.5t-144 63.5q-87 0 -147 -61.5t-60 -157.5q0 -89 57.5 -149t149.5 -60z" />
    <glyph glyph-name="uni1EAC" unicode="&#x1eac;" horiz-adv-x="647" 
d="M183 792l123 112h37l120 -112h-40l-98 89h-2l-101 -89h-39zM28 0l274 710h40l277 -710h-38l-79 204h-357l-79 -204h-38zM157 237h332l-165 430h-2zM323 -118q14 0 24 -10t10 -24q0 -15 -9.5 -24t-24.5 -9t-24.5 9t-9.5 24q0 14 9.5 24t24.5 10z" />
    <glyph glyph-name="uni1EAD" unicode="&#x1ead;" horiz-adv-x="594" 
d="M149 560l123 131h37l119 -131h-39l-97 106h-2l-102 -106h-39zM284 -4q-101 0 -170 67.5t-69 174.5q0 106 67 178.5t173 72.5q66 0 120 -35.5t81 -96.5l1 1v127h33v-485h-33v124h-1q-27 -59 -80 -93.5t-122 -34.5zM287 29q84 0 142 58t58 151q0 92 -56 155.5t-144 63.5
q-87 0 -147 -61.5t-60 -157.5q0 -89 57.5 -149t149.5 -60zM290 -118q14 0 24 -10t10 -24q0 -15 -9.5 -24t-24.5 -9t-24.5 9t-9.5 24q0 14 9.5 24t24.5 10z" />
    <glyph glyph-name="uni1EAE" unicode="&#x1eae;" horiz-adv-x="647" 
d="M303 887l118 134h43l-125 -134h-36zM324 785q-54 0 -92 28.5t-42 75.5h31q3 -31 30.5 -54t72.5 -23t72.5 23t29.5 54h32q-5 -47 -43 -75.5t-91 -28.5zM28 0l274 710h40l277 -710h-38l-79 204h-357l-79 -204h-38zM157 237h332l-165 430h-2z" />
    <glyph glyph-name="uni1EAF" unicode="&#x1eaf;" horiz-adv-x="594" 
d="M263 693l118 136h43l-125 -136h-36zM289 559q-52 0 -87.5 34t-39.5 96h30q3 -44 28.5 -72t68.5 -28q42 0 68 28.5t28 71.5h30q-4 -62 -39.5 -96t-86.5 -34zM284 -4q-101 0 -170 67.5t-69 174.5q0 106 67 178.5t173 72.5q66 0 120 -35.5t81 -96.5l1 1v127h33v-485h-33v124
h-1q-27 -59 -80 -93.5t-122 -34.5zM287 29q84 0 142 58t58 151q0 92 -56 155.5t-144 63.5q-87 0 -147 -61.5t-60 -157.5q0 -89 57.5 -149t149.5 -60z" />
    <glyph glyph-name="uni1EB0" unicode="&#x1eb0;" horiz-adv-x="647" 
d="M311 887l-125 134h43l118 -134h-36zM323 785q-54 0 -92 28.5t-42 75.5h31q3 -31 30.5 -54t72.5 -23t72.5 23t29.5 54h32q-5 -47 -43 -75.5t-91 -28.5zM28 0l274 710h40l277 -710h-38l-79 204h-357l-79 -204h-38zM157 237h332l-165 430h-2z" />
    <glyph glyph-name="uni1EB1" unicode="&#x1eb1;" horiz-adv-x="594" 
d="M289 693l-125 136h43l118 -136h-36zM289 559q-52 0 -87.5 34t-39.5 96h30q3 -44 28.5 -72t68.5 -28q42 0 68 28.5t28 71.5h30q-4 -62 -39.5 -96t-86.5 -34zM284 -4q-101 0 -170 67.5t-69 174.5q0 106 67 178.5t173 72.5q66 0 120 -35.5t81 -96.5l1 1v127h33v-485h-33v124
h-1q-27 -59 -80 -93.5t-122 -34.5zM287 29q84 0 142 58t58 151q0 92 -56 155.5t-144 63.5q-87 0 -147 -61.5t-60 -157.5q0 -89 57.5 -149t149.5 -60z" />
    <glyph glyph-name="uni1EB2" unicode="&#x1eb2;" horiz-adv-x="647" 
d="M294 890q6 4 22 15t23.5 16.5t17.5 15t14.5 18t4.5 17.5q0 37 -51 37q-49 0 -81 -28l-8 25q46 28 92 28q33 0 54.5 -15.5t21.5 -46.5q0 -11 -4.5 -20.5t-14.5 -19.5t-16.5 -15t-21 -15t-16.5 -12h-37zM323 785q-54 0 -92 28.5t-42 75.5h31q3 -31 30.5 -54t72.5 -23
t72.5 23t29.5 54h32q-5 -47 -43 -75.5t-91 -28.5zM28 0l274 710h40l277 -710h-38l-79 204h-357l-79 -204h-38zM157 237h332l-165 430h-2z" />
    <glyph glyph-name="uni1EB3" unicode="&#x1eb3;" horiz-adv-x="594" 
d="M260 677q66 46 82 68q12 17 12 32q0 40 -54 40q-53 0 -86 -31l-9 28q48 30 98 30q36 0 58.5 -16.5t22.5 -50.5q0 -7 -2 -13.5t-4 -12t-7 -12.5t-8 -11t-10.5 -10.5t-10.5 -9.5t-12 -9.5t-11 -7.5t-11 -7l-9 -7h-39zM288 559q-52 0 -88 33.5t-40 95.5h30q4 -44 29.5 -71.5
t68.5 -27.5q42 0 68 28t28 71h31q-4 -62 -39.5 -95.5t-87.5 -33.5zM284 -4q-101 0 -170 67.5t-69 174.5q0 106 67 178.5t173 72.5q66 0 120 -35.5t81 -96.5l1 1v127h33v-485h-33v124h-1q-27 -59 -80 -93.5t-122 -34.5zM287 29q84 0 142 58t58 151q0 92 -56 155.5t-144 63.5
q-87 0 -147 -61.5t-60 -157.5q0 -89 57.5 -149t149.5 -60z" />
    <glyph glyph-name="uni1EB4" unicode="&#x1eb4;" horiz-adv-x="647" 
d="M403 910q-30 0 -86 39q-39 28 -62 28q-41 0 -63 -60l-27 9q27 80 88 80q26 0 78 -31l16.5 -11t19 -12.5t16 -7.5t18.5 -4q42 0 59 59l27 -9q-25 -80 -84 -80zM323 785q-54 0 -92 28.5t-42 75.5h31q3 -31 30.5 -54t72.5 -23t72.5 23t29.5 54h32q-5 -47 -43 -75.5
t-91 -28.5zM28 0l274 710h40l277 -710h-38l-79 204h-357l-79 -204h-38zM157 237h332l-165 430h-2z" />
    <glyph glyph-name="uni1EB5" unicode="&#x1eb5;" horiz-adv-x="594" 
d="M154 745l-27 10q27 80 87 80q32 0 75 -29q4 -3 14.5 -10t16 -10t13.5 -7.5t15 -6.5t14 -2q43 0 60 61l27 -9q-23 -82 -85 -82q-32 0 -87 40q-38 25 -61 25q-40 0 -62 -60zM289 559q-52 0 -87.5 34t-39.5 96h30q3 -44 28.5 -72t68.5 -28q42 0 68 28.5t28 71.5h30
q-4 -62 -39.5 -96t-86.5 -34zM284 -4q-101 0 -170 67.5t-69 174.5q0 106 67 178.5t173 72.5q66 0 120 -35.5t81 -96.5l1 1v127h33v-485h-33v124h-1q-27 -59 -80 -93.5t-122 -34.5zM287 29q84 0 142 58t58 151q0 92 -56 155.5t-144 63.5q-87 0 -147 -61.5t-60 -157.5
q0 -89 57.5 -149t149.5 -60z" />
    <glyph glyph-name="uni1EB6" unicode="&#x1eb6;" horiz-adv-x="647" 
d="M323 788q-51 0 -86.5 32t-39.5 84h29q3 -35 29 -60.5t68 -25.5t68 25.5t28 60.5h30q-4 -52 -40 -84t-86 -32zM28 0l274 710h40l277 -710h-38l-79 204h-357l-79 -204h-38zM157 237h332l-165 430h-2zM323 -118q14 0 24 -10t10 -24q0 -15 -9.5 -24t-24.5 -9t-24.5 9t-9.5 24
q0 14 9.5 24t24.5 10z" />
    <glyph glyph-name="uni1EB7" unicode="&#x1eb7;" horiz-adv-x="594" 
d="M289 559q-52 0 -87.5 34t-39.5 96h30q3 -44 28.5 -72t68.5 -28q42 0 68 28.5t28 71.5h30q-4 -62 -39.5 -96t-86.5 -34zM284 -4q-101 0 -170 67.5t-69 174.5q0 106 67 178.5t173 72.5q66 0 120 -35.5t81 -96.5l1 1v127h33v-485h-33v124h-1q-27 -59 -80 -93.5t-122 -34.5z
M287 29q84 0 142 58t58 151q0 92 -56 155.5t-144 63.5q-87 0 -147 -61.5t-60 -157.5q0 -89 57.5 -149t149.5 -60zM290 -118q14 0 24 -10t10 -24q0 -15 -9.5 -24t-24.5 -9t-24.5 9t-9.5 24q0 14 9.5 24t24.5 10z" />
    <glyph glyph-name="uni1EB8" unicode="&#x1eb8;" horiz-adv-x="570" 
d="M89 0v710h416v-34h-381v-304h319v-34h-319v-304h402v-34h-437zM303 -118q14 0 24 -10t10 -24q0 -15 -9.5 -24t-24.5 -9t-24.5 9t-9.5 24q0 14 9.5 24t24.5 10z" />
    <glyph glyph-name="uni1EB9" unicode="&#x1eb9;" horiz-adv-x="536" 
d="M493 256q0 -16 -1 -18h-411q1 -91 57 -150t142 -59q108 0 168 78l25 -20q-68 -91 -192 -91q-102 0 -168 69.5t-66 176.5q0 106 66.5 176.5t165.5 70.5q94 0 154 -66t60 -167zM278 457q-77 0 -132.5 -53t-63.5 -135h377q-7 85 -55.5 136.5t-125.5 51.5zM285 -118
q14 0 24 -10t10 -24q0 -15 -9.5 -24t-24.5 -9t-24.5 9t-9.5 24q0 14 9.5 24t24.5 10z" />
    <glyph glyph-name="uni1EBA" unicode="&#x1eba;" horiz-adv-x="570" 
d="M271 782q6 5 24 17t26 18.5t19.5 16.5t16.5 19.5t5 19.5q0 41 -56 41q-24 0 -50 -9t-40 -22l-9 28q48 31 102 31q37 0 60.5 -17t23.5 -52q0 -12 -4.5 -22.5t-16.5 -22t-18 -16.5t-23 -17t-19 -13h-41zM89 0v710h416v-34h-381v-304h319v-34h-319v-304h402v-34h-437z" />
    <glyph glyph-name="uni1EBB" unicode="&#x1ebb;" horiz-adv-x="536" 
d="M297 700q-56 0 -90 -32l-9 29q50 32 102 32q37 0 60.5 -17.5t23.5 -52.5q0 -16 -7.5 -31.5t-27 -32t-25.5 -21t-28 -20.5h-41q2 2 14 10t15.5 11t14 10.5t15 12t12.5 11.5t11.5 12.5t8 12t6 13t1.5 12.5q0 41 -56 41zM493 256q0 -16 -1 -18h-411q1 -91 57 -150t142 -59
q108 0 168 78l25 -20q-68 -91 -192 -91q-102 0 -168 69.5t-66 176.5q0 106 66.5 176.5t165.5 70.5q94 0 154 -66t60 -167zM278 457q-77 0 -132.5 -53t-63.5 -135h377q-7 85 -55.5 136.5t-125.5 51.5z" />
    <glyph glyph-name="uni1EBC" unicode="&#x1ebc;" horiz-adv-x="570" 
d="M368 792q-31 0 -87 39q-38 28 -63 28q-41 0 -63 -60l-27 9q27 81 88 81q29 0 79 -32l16.5 -11t19 -12.5t16 -7.5t19.5 -4q42 0 59 60l27 -9q-25 -81 -84 -81zM89 0v710h416v-34h-381v-304h319v-34h-319v-304h402v-34h-437z" />
    <glyph glyph-name="uni1EBD" unicode="&#x1ebd;" horiz-adv-x="536" 
d="M208 644q-41 0 -63 -60l-27 9q26 81 88 81q36 0 77 -30q2 -1 16.5 -11.5t20 -13.5t16 -7t19.5 -4q42 0 60 60l27 -9q-12 -40 -34.5 -61t-49.5 -21q-7 0 -13.5 1t-14 4t-12 4.5t-13.5 7t-11 7t-12.5 8.5t-11.5 8q-38 27 -62 27zM493 256q0 -16 -1 -18h-411q1 -91 57 -150
t142 -59q108 0 168 78l25 -20q-68 -91 -192 -91q-102 0 -168 69.5t-66 176.5q0 106 66.5 176.5t165.5 70.5q94 0 154 -66t60 -167zM278 457q-77 0 -132.5 -53t-63.5 -135h377q-7 85 -55.5 136.5t-125.5 51.5z" />
    <glyph glyph-name="uni1EBE" unicode="&#x1ebe;" horiz-adv-x="570" 
d="M420 852l118 135h43l-125 -135h-36zM150 792l123 112h37l120 -112h-40l-98 89h-2l-101 -89h-39zM89 0v710h416v-34h-381v-304h319v-34h-319v-304h402v-34h-437z" />
    <glyph glyph-name="uni1EBF" unicode="&#x1ebf;" horiz-adv-x="536" 
d="M543 777l-125 -136h-36l118 136h43zM283 667l-102 -106h-39l123 131h37l119 -131h-39l-97 106h-2zM279 489q94 0 154 -66t60 -167q0 -16 -1 -18h-411q1 -91 57 -150t142 -59q108 0 168 78l25 -20q-68 -91 -192 -91q-102 0 -168 69.5t-66 176.5q0 106 66.5 176.5
t165.5 70.5zM278 457q-77 0 -132.5 -53t-63.5 -135h377q-7 85 -55.5 136.5t-125.5 51.5z" />
    <glyph glyph-name="uni1EC0" unicode="&#x1ec0;" horiz-adv-x="570" 
d="M454 851l-125 134h43l118 -134h-36zM150 792l123 112h37l120 -112h-40l-98 89h-2l-101 -89h-39zM89 0v710h416v-34h-381v-304h319v-34h-319v-304h402v-34h-437z" />
    <glyph glyph-name="uni1EC1" unicode="&#x1ec1;" horiz-adv-x="536" 
d="M481 641h-36l-125 136h43zM279 668l-102 -106h-39l123 131h37l119 -131h-39l-97 106h-2zM493 256q0 -16 -1 -18h-411q1 -91 57 -150t142 -59q108 0 168 78l25 -20q-68 -91 -192 -91q-102 0 -168 69.5t-66 176.5q0 106 66.5 176.5t165.5 70.5q94 0 154 -66t60 -167z
M278 457q-77 0 -132.5 -53t-63.5 -135h377q-7 85 -55.5 136.5t-125.5 51.5z" />
    <glyph glyph-name="uni1EC2" unicode="&#x1ec2;" horiz-adv-x="570" 
d="M415 853q7 5 23 16t24.5 17.5t19 16t15.5 18.5t5 18q0 38 -54 38t-85 -29l-9 26q46 29 97 29q35 0 57.5 -16t22.5 -48q0 -11 -4.5 -21t-15.5 -21t-17 -16t-22.5 -16t-17.5 -12h-39zM150 792l123 112h37l120 -112h-40l-98 89h-2l-101 -89h-39zM89 0v710h416v-34h-381v-304
h319v-34h-319v-304h402v-34h-437z" />
    <glyph glyph-name="uni1EC3" unicode="&#x1ec3;" horiz-adv-x="536" 
d="M442 803q36 0 58.5 -16.5t22.5 -50.5q0 -7 -2 -13.5t-4 -12t-7 -12.5t-8 -11t-10.5 -10.5t-10.5 -9.5t-12 -9.5t-11 -7.5t-11 -8l-9 -6h-39q66 46 82 68q12 17 12 32q0 40 -54 40q-53 0 -86 -31l-9 28q48 30 98 30zM280 666l-102 -106h-39l123 131h37l119 -131h-39
l-97 106h-2zM279 489q94 0 154 -66t60 -167q0 -16 -1 -18h-411q1 -91 57 -150t142 -59q108 0 168 78l25 -20q-68 -91 -192 -91q-102 0 -168 69.5t-66 176.5q0 106 66.5 176.5t165.5 70.5zM278 457q-77 0 -132.5 -53t-63.5 -135h377q-7 85 -55.5 136.5t-125.5 51.5z" />
    <glyph glyph-name="uni1EC4" unicode="&#x1ec4;" horiz-adv-x="570" 
d="M373 923q-30 0 -86 39q-38 28 -62 28q-41 0 -63 -60l-27 9q27 80 88 80q26 0 78 -31l16.5 -11t19 -12.5t16 -7.5t18.5 -4q42 0 59 59l27 -9q-25 -80 -84 -80zM150 792l123 112h37l120 -112h-40l-98 89h-2l-101 -89h-39zM89 0v710h416v-34h-381v-304h319v-34h-319v-304
h402v-34h-437z" />
    <glyph glyph-name="uni1EC5" unicode="&#x1ec5;" horiz-adv-x="536" 
d="M206 820q-40 0 -62 -60l-27 10q27 80 87 80q32 0 75 -29q4 -3 14.5 -10t16 -10t13.5 -7.5t15 -6.5t14 -2q43 0 60 61l27 -9q-23 -82 -85 -82q-32 0 -87 40q-37 25 -61 25zM264 691h37l119 -131h-39l-97 106h-2l-102 -106h-39zM493 256q0 -16 -1 -18h-411q1 -91 57 -150
t142 -59q108 0 168 78l25 -20q-68 -91 -192 -91q-102 0 -168 69.5t-66 176.5q0 106 66.5 176.5t165.5 70.5q94 0 154 -66t60 -167zM278 457q-77 0 -132.5 -53t-63.5 -135h377q-7 85 -55.5 136.5t-125.5 51.5z" />
    <glyph glyph-name="uni1EC6" unicode="&#x1ec6;" horiz-adv-x="570" 
d="M150 792l123 112h37l120 -112h-40l-98 89h-2l-101 -89h-39zM89 0v710h416v-34h-381v-304h319v-34h-319v-304h402v-34h-437zM303 -118q14 0 24 -10t10 -24q0 -15 -9.5 -24t-24.5 -9t-24.5 9t-9.5 24q0 14 9.5 24t24.5 10z" />
    <glyph glyph-name="uni1EC7" unicode="&#x1ec7;" horiz-adv-x="536" 
d="M281 666l-102 -106h-39l123 131h37l119 -131h-39l-97 106h-2zM493 256q0 -16 -1 -18h-411q1 -91 57 -150t142 -59q108 0 168 78l25 -20q-68 -91 -192 -91q-102 0 -168 69.5t-66 176.5q0 106 66.5 176.5t165.5 70.5q94 0 154 -66t60 -167zM278 457q-77 0 -132.5 -53
t-63.5 -135h377q-7 85 -55.5 136.5t-125.5 51.5zM285 -118q14 0 24 -10t10 -24q0 -15 -9.5 -24t-24.5 -9t-24.5 9t-9.5 24q0 14 9.5 24t24.5 10z" />
    <glyph glyph-name="uni1EC8" unicode="&#x1ec8;" horiz-adv-x="227" 
d="M94 782q6 5 24 17t26 18.5t19.5 16.5t16.5 19.5t5 19.5q0 41 -56 41q-24 0 -50 -9t-40 -22l-9 28q48 31 102 31q37 0 60.5 -17t23.5 -52q0 -12 -4.5 -22.5t-16.5 -22t-18 -16.5t-23 -17t-19 -13h-41zM95 0v710h36v-710h-36z" />
    <glyph glyph-name="uni1EC9" unicode="&#x1ec9;" horiz-adv-x="205" 
d="M78 554q2 2 14 10t15.5 11t14 10.5t15 12t12.5 11.5t11.5 12.5t8 12t6 13t1.5 12.5q0 41 -56 41t-90 -32l-9 29q50 32 102 32q37 0 60.5 -17.5t23.5 -52.5q0 -16 -7.5 -31.5t-27 -32t-25.5 -21t-28 -20.5h-41zM85 0v485h34v-485h-34z" />
    <glyph glyph-name="uni1ECA" unicode="&#x1eca;" horiz-adv-x="227" 
d="M95 0v710h36v-710h-36zM114 -118q14 0 24 -10t10 -24q0 -15 -9.5 -24t-24.5 -9t-24.5 9t-9.5 24q0 14 9.5 24t24.5 10z" />
    <glyph glyph-name="uni1ECB" unicode="&#x1ecb;" horiz-adv-x="205" 
d="M104 599q-14 0 -24 10t-10 24q0 15 9.5 24t24.5 9t24.5 -9t9.5 -24q0 -14 -9.5 -24t-24.5 -10zM85 0v485h34v-485h-34zM103 -118q14 0 24 -10t10 -24q0 -15 -9.5 -24t-24.5 -9t-24.5 9t-9.5 24q0 14 9.5 24t24.5 10z" />
    <glyph glyph-name="uni1ECC" unicode="&#x1ecc;" horiz-adv-x="823" 
d="M413 -4q-150 0 -251 100.5t-101 259.5q0 158 101.5 258.5t250.5 100.5q147 0 248 -100.5t101 -258.5q0 -159 -101 -259.5t-248 -100.5zM413 31q131 0 221 91t90 234t-90 233.5t-221 90.5q-133 0 -224 -91t-91 -233q0 -143 90.5 -234t224.5 -91zM412 -118q14 0 24 -10
t10 -24q0 -15 -9.5 -24t-24.5 -9t-24.5 9t-9.5 24q0 14 9.5 24t24.5 10z" />
    <glyph glyph-name="uni1ECD" unicode="&#x1ecd;" horiz-adv-x="582" 
d="M291 -4q-107 0 -175.5 71.5t-68.5 174.5q0 104 68.5 175.5t175.5 71.5q103 0 173.5 -69.5t70.5 -177.5t-70.5 -177t-173.5 -69zM291 29q89 0 149 59.5t60 153.5t-60 154.5t-149 60.5q-92 0 -151 -62.5t-59 -152.5t58.5 -151.5t151.5 -61.5zM291 -118q14 0 24 -10t10 -24
q0 -15 -9.5 -24t-24.5 -9t-24.5 9t-9.5 24q0 14 9.5 24t24.5 10z" />
    <glyph glyph-name="uni1ECE" unicode="&#x1ece;" horiz-adv-x="823" 
d="M393 782q6 5 24 17t26 18.5t19.5 16.5t16.5 19.5t5 19.5q0 41 -56 41q-24 0 -50 -9t-40 -22l-9 28q48 31 102 31q37 0 60.5 -17t23.5 -52q0 -12 -4.5 -22.5t-16.5 -22t-18 -16.5t-23 -17t-19 -13h-41zM413 -4q-150 0 -251 100.5t-101 259.5q0 158 101.5 258.5
t250.5 100.5q147 0 248 -100.5t101 -258.5q0 -159 -101 -259.5t-248 -100.5zM413 31q131 0 221 91t90 234t-90 233.5t-221 90.5q-133 0 -224 -91t-91 -233q0 -143 90.5 -234t224.5 -91z" />
    <glyph glyph-name="uni1ECF" unicode="&#x1ecf;" horiz-adv-x="582" 
d="M267 554q2 2 14 10t15.5 11t14 10.5t15 12t12.5 11.5t11.5 12.5t8 12t6 13t1.5 12.5q0 41 -56 41t-90 -32l-9 29q50 32 102 32q37 0 60.5 -17.5t23.5 -52.5q0 -16 -7.5 -31.5t-27 -32t-25.5 -21t-28 -20.5h-41zM291 -4q-107 0 -175.5 71.5t-68.5 174.5q0 104 68.5 175.5
t175.5 71.5q103 0 173.5 -69.5t70.5 -177.5t-70.5 -177t-173.5 -69zM291 29q89 0 149 59.5t60 153.5t-60 154.5t-149 60.5q-92 0 -151 -62.5t-59 -152.5t58.5 -151.5t151.5 -61.5z" />
    <glyph glyph-name="uni1ED0" unicode="&#x1ed0;" horiz-adv-x="823" 
d="M542 852l118 135h43l-125 -135h-36zM272 792l123 112h37l120 -112h-40l-98 89h-2l-101 -89h-39zM413 -4q-150 0 -251 100.5t-101 259.5q0 158 101.5 258.5t250.5 100.5q147 0 248 -100.5t101 -258.5q0 -159 -101 -259.5t-248 -100.5zM413 31q131 0 221 91t90 234
t-90 233.5t-221 90.5q-133 0 -224 -91t-91 -233q0 -143 90.5 -234t224.5 -91z" />
    <glyph glyph-name="uni1ED1" unicode="&#x1ed1;" horiz-adv-x="582" 
d="M394 641l118 136h43l-125 -136h-36zM154 561l123 131h37l119 -131h-39l-97 106h-2l-102 -106h-39zM291 -4q-107 0 -175.5 71.5t-68.5 174.5q0 104 68.5 175.5t175.5 71.5q103 0 173.5 -69.5t70.5 -177.5t-70.5 -177t-173.5 -69zM291 29q89 0 149 59.5t60 153.5t-60 154.5
t-149 60.5q-92 0 -151 -62.5t-59 -152.5t58.5 -151.5t151.5 -61.5z" />
    <glyph glyph-name="uni1ED2" unicode="&#x1ed2;" horiz-adv-x="823" 
d="M576 851l-125 134h43l118 -134h-36zM272 792l123 112h37l120 -112h-40l-98 89h-2l-101 -89h-39zM413 -4q-150 0 -251 100.5t-101 259.5q0 158 101.5 258.5t250.5 100.5q147 0 248 -100.5t101 -258.5q0 -159 -101 -259.5t-248 -100.5zM413 31q131 0 221 91t90 234
t-90 233.5t-221 90.5q-133 0 -224 -91t-91 -233q0 -143 90.5 -234t224.5 -91z" />
    <glyph glyph-name="uni1ED3" unicode="&#x1ed3;" horiz-adv-x="582" 
d="M457 641l-125 136h43l118 -136h-36zM150 562l123 131h37l119 -131h-39l-97 106h-2l-102 -106h-39zM291 -4q-107 0 -175.5 71.5t-68.5 174.5q0 104 68.5 175.5t175.5 71.5q103 0 173.5 -69.5t70.5 -177.5t-70.5 -177t-173.5 -69zM291 29q89 0 149 59.5t60 153.5t-60 154.5
t-149 60.5q-92 0 -151 -62.5t-59 -152.5t58.5 -151.5t151.5 -61.5z" />
    <glyph glyph-name="uni1ED4" unicode="&#x1ed4;" horiz-adv-x="823" 
d="M537 853q7 5 23 16t24.5 17.5t19 16t15.5 18.5t5 18q0 38 -54 38t-85 -29l-9 26q46 29 97 29q35 0 57.5 -16t22.5 -48q0 -11 -4.5 -21t-15.5 -21t-17 -16t-22.5 -16t-17.5 -12h-39zM272 792l123 112h37l120 -112h-40l-98 89h-2l-101 -89h-39zM413 -4q-150 0 -251 100.5
t-101 259.5q0 158 101.5 258.5t250.5 100.5q147 0 248 -100.5t101 -258.5q0 -159 -101 -259.5t-248 -100.5zM413 31q131 0 221 91t90 234t-90 233.5t-221 90.5q-133 0 -224 -91t-91 -233q0 -143 90.5 -234t224.5 -91z" />
    <glyph glyph-name="uni1ED5" unicode="&#x1ed5;" horiz-adv-x="582" 
d="M411 636q66 46 82 68q12 17 12 32q0 40 -54 40q-53 0 -86 -31l-9 28q48 30 98 30q36 0 58.5 -16.5t22.5 -50.5q0 -7 -2 -13.5t-4 -12t-7 -12.5t-8 -11t-10.5 -10.5t-10.5 -9.5t-12 -9.5t-11 -7.5t-11 -8l-9 -6h-39zM151 560l123 131h37l119 -131h-39l-97 106h-2
l-102 -106h-39zM291 -4q-107 0 -175.5 71.5t-68.5 174.5q0 104 68.5 175.5t175.5 71.5q103 0 173.5 -69.5t70.5 -177.5t-70.5 -177t-173.5 -69zM291 29q89 0 149 59.5t60 153.5t-60 154.5t-149 60.5q-92 0 -151 -62.5t-59 -152.5t58.5 -151.5t151.5 -61.5z" />
    <glyph glyph-name="uni1ED6" unicode="&#x1ed6;" horiz-adv-x="823" 
d="M495 923q-30 0 -86 39q-38 28 -62 28q-41 0 -63 -60l-27 9q27 80 88 80q26 0 78 -31l16.5 -11t19 -12.5t16 -7.5t18.5 -4q42 0 59 59l27 -9q-25 -80 -84 -80zM272 792l123 112h37l120 -112h-40l-98 89h-2l-101 -89h-39zM413 -4q-150 0 -251 100.5t-101 259.5
q0 158 101.5 258.5t250.5 100.5q147 0 248 -100.5t101 -258.5q0 -159 -101 -259.5t-248 -100.5zM413 31q131 0 221 91t90 234t-90 233.5t-221 90.5q-133 0 -224 -91t-91 -233q0 -143 90.5 -234t224.5 -91z" />
    <glyph glyph-name="uni1ED7" unicode="&#x1ed7;" horiz-adv-x="582" 
d="M156 760l-27 10q27 80 87 80q32 0 75 -29q4 -3 14.5 -10t16 -10t13.5 -7.5t15 -6.5t14 -2q43 0 60 61l27 -9q-23 -82 -85 -82q-32 0 -87 40q-37 25 -61 25q-40 0 -62 -60zM153 560l123 131h37l119 -131h-39l-97 106h-2l-102 -106h-39zM291 -4q-107 0 -175.5 71.5
t-68.5 174.5q0 104 68.5 175.5t175.5 71.5q103 0 173.5 -69.5t70.5 -177.5t-70.5 -177t-173.5 -69zM291 29q89 0 149 59.5t60 153.5t-60 154.5t-149 60.5q-92 0 -151 -62.5t-59 -152.5t58.5 -151.5t151.5 -61.5z" />
    <glyph glyph-name="uni1ED8" unicode="&#x1ed8;" horiz-adv-x="823" 
d="M272 792l123 112h37l120 -112h-40l-98 89h-2l-101 -89h-39zM413 -4q-150 0 -251 100.5t-101 259.5q0 158 101.5 258.5t250.5 100.5q147 0 248 -100.5t101 -258.5q0 -159 -101 -259.5t-248 -100.5zM413 31q131 0 221 91t90 234t-90 233.5t-221 90.5q-133 0 -224 -91
t-91 -233q0 -143 90.5 -234t224.5 -91zM412 -118q14 0 24 -10t10 -24q0 -15 -9.5 -24t-24.5 -9t-24.5 9t-9.5 24q0 14 9.5 24t24.5 10z" />
    <glyph glyph-name="uni1ED9" unicode="&#x1ed9;" horiz-adv-x="582" 
d="M152 560l123 131h37l119 -131h-39l-97 106h-2l-102 -106h-39zM291 -4q-107 0 -175.5 71.5t-68.5 174.5q0 104 68.5 175.5t175.5 71.5q103 0 173.5 -69.5t70.5 -177.5t-70.5 -177t-173.5 -69zM291 29q89 0 149 59.5t60 153.5t-60 154.5t-149 60.5q-92 0 -151 -62.5
t-59 -152.5t58.5 -151.5t151.5 -61.5zM291 -118q14 0 24 -10t10 -24q0 -15 -9.5 -24t-24.5 -9t-24.5 9t-9.5 24q0 14 9.5 24t24.5 10z" />
    <glyph glyph-name="uni1EDA" unicode="&#x1eda;" horiz-adv-x="862" 
d="M530 917l-116 -125h-39l113 125h42zM781 774h33v-76q0 -75 -24.5 -111t-74.5 -43q47 -83 47 -188q0 -159 -101 -259.5t-248 -100.5q-150 0 -251 100.5t-101 259.5q0 158 101.5 258.5t250.5 100.5q88 0 162.5 -38t121.5 -106q44 4 64 32t20 95v76zM413 31q131 0 221 91
t90 234t-90 233.5t-221 90.5q-133 0 -224 -91t-91 -233q0 -143 90.5 -234t224.5 -91z" />
    <glyph glyph-name="uni1EDB" unicode="&#x1edb;" horiz-adv-x="651" 
d="M435 697l-124 -136h-41l122 136h43zM589 565h33v-76q0 -76 -26 -112.5t-77 -42.5q16 -45 16 -92q0 -108 -70.5 -177t-173.5 -69q-107 0 -175.5 71.5t-68.5 174.5q0 104 68.5 175.5t175.5 71.5q70 0 127.5 -33.5t88.5 -92.5q42 3 62 31t20 95v76zM291 29q89 0 149 59.5
t60 153.5t-60 154.5t-149 60.5q-92 0 -151 -62.5t-59 -152.5t58.5 -151.5t151.5 -61.5z" />
    <glyph glyph-name="uni1EDC" unicode="&#x1edc;" horiz-adv-x="862" 
d="M439 792h-40l-115 125h42zM781 774h33v-76q0 -75 -24.5 -111t-74.5 -43q47 -83 47 -188q0 -159 -101 -259.5t-248 -100.5q-150 0 -251 100.5t-101 259.5q0 158 101.5 258.5t250.5 100.5q88 0 162.5 -38t121.5 -106q44 4 64 32t20 95v76zM413 31q131 0 221 91t90 234
t-90 233.5t-221 90.5q-133 0 -224 -91t-91 -233q0 -143 90.5 -234t224.5 -91z" />
    <glyph glyph-name="uni1EDD" unicode="&#x1edd;" horiz-adv-x="651" 
d="M330 564h-40l-115 129h42zM589 565h33v-76q0 -76 -26 -112.5t-77 -42.5q16 -45 16 -92q0 -108 -70.5 -177t-173.5 -69q-107 0 -175.5 71.5t-68.5 174.5q0 104 68.5 175.5t175.5 71.5q70 0 127.5 -33.5t88.5 -92.5q42 3 62 31t20 95v76zM291 29q89 0 149 59.5t60 153.5
t-60 154.5t-149 60.5q-92 0 -151 -62.5t-59 -152.5t58.5 -151.5t151.5 -61.5z" />
    <glyph glyph-name="uni1EDE" unicode="&#x1ede;" horiz-adv-x="862" 
d="M428 914q-24 0 -50 -9t-40 -22l-9 28q48 31 102 31q37 0 60.5 -17t23.5 -52q0 -12 -4.5 -22.5t-16.5 -22t-18 -16.5t-23 -17t-19 -13h-41q6 5 24 17t26 18.5t19.5 16.5t16.5 19.5t5 19.5q0 41 -56 41zM781 774h33v-76q0 -75 -24.5 -111t-74.5 -43q47 -83 47 -188
q0 -159 -101 -259.5t-248 -100.5q-150 0 -251 100.5t-101 259.5q0 158 101.5 258.5t250.5 100.5q88 0 162.5 -38t121.5 -106q44 4 64 32t20 95v76zM413 31q131 0 221 91t90 234t-90 233.5t-221 90.5q-133 0 -224 -91t-91 -233q0 -143 90.5 -234t224.5 -91z" />
    <glyph glyph-name="uni1EDF" unicode="&#x1edf;" horiz-adv-x="651" 
d="M309 700q-56 0 -90 -32l-9 29q50 32 102 32q37 0 60.5 -17.5t23.5 -52.5q0 -16 -7.5 -31.5t-27 -32t-25.5 -21t-28 -20.5h-41q2 2 14 10t15.5 11t14 10.5t15 12t12.5 11.5t11.5 12.5t8 12t6 13t1.5 12.5q0 41 -56 41zM589 565h33v-76q0 -76 -26 -112.5t-77 -42.5
q16 -45 16 -92q0 -108 -70.5 -177t-173.5 -69q-107 0 -175.5 71.5t-68.5 174.5q0 104 68.5 175.5t175.5 71.5q70 0 127.5 -33.5t88.5 -92.5q42 3 62 31t20 95v76zM291 29q89 0 149 59.5t60 153.5t-60 154.5t-149 60.5q-92 0 -151 -62.5t-59 -152.5t58.5 -151.5t151.5 -61.5z
" />
    <glyph glyph-name="uni1EE0" unicode="&#x1ee0;" horiz-adv-x="862" 
d="M340 859q-41 0 -63 -60l-27 9q27 81 88 81q29 0 79 -32l16.5 -11t19 -12.5t16 -7.5t19.5 -4q42 0 59 60l27 -9q-25 -81 -84 -81q-31 0 -87 39q-39 28 -63 28zM781 774h33v-76q0 -75 -24.5 -111t-74.5 -43q47 -83 47 -188q0 -159 -101 -259.5t-248 -100.5
q-150 0 -251 100.5t-101 259.5q0 158 101.5 258.5t250.5 100.5q88 0 162.5 -38t121.5 -106q44 4 64 32t20 95v76zM413 31q131 0 221 91t90 234t-90 233.5t-221 90.5q-133 0 -224 -91t-91 -233q0 -143 90.5 -234t224.5 -91z" />
    <glyph glyph-name="uni1EE1" unicode="&#x1ee1;" horiz-adv-x="651" 
d="M220 644q-41 0 -63 -60l-27 9q26 81 88 81q36 0 77 -30q2 -1 16.5 -11.5t20 -13.5t16 -7t19.5 -4q42 0 60 60l27 -9q-12 -40 -34.5 -61t-49.5 -21q-7 0 -13.5 1t-14 4t-12 4.5t-13.5 7t-11 7t-12.5 8.5t-11.5 8q-38 27 -62 27zM589 565h33v-76q0 -76 -26 -112.5
t-77 -42.5q16 -45 16 -92q0 -108 -70.5 -177t-173.5 -69q-107 0 -175.5 71.5t-68.5 174.5q0 104 68.5 175.5t175.5 71.5q70 0 127.5 -33.5t88.5 -92.5q42 3 62 31t20 95v76zM291 29q89 0 149 59.5t60 153.5t-60 154.5t-149 60.5q-92 0 -151 -62.5t-59 -152.5t58.5 -151.5
t151.5 -61.5z" />
    <glyph glyph-name="uni1EE2" unicode="&#x1ee2;" horiz-adv-x="862" 
d="M781 774h33v-76q0 -75 -24.5 -111t-74.5 -43q47 -83 47 -188q0 -159 -101 -259.5t-248 -100.5q-150 0 -251 100.5t-101 259.5q0 158 101.5 258.5t250.5 100.5q88 0 162.5 -38t121.5 -106q44 4 64 32t20 95v76zM413 31q131 0 221 91t90 234t-90 233.5t-221 90.5
q-133 0 -224 -91t-91 -233q0 -143 90.5 -234t224.5 -91zM412 -118q14 0 24 -10t10 -24q0 -15 -9.5 -24t-24.5 -9t-24.5 9t-9.5 24q0 14 9.5 24t24.5 10z" />
    <glyph glyph-name="uni1EE3" unicode="&#x1ee3;" horiz-adv-x="651" 
d="M589 565h33v-76q0 -76 -26 -112.5t-77 -42.5q16 -45 16 -92q0 -108 -70.5 -177t-173.5 -69q-107 0 -175.5 71.5t-68.5 174.5q0 104 68.5 175.5t175.5 71.5q70 0 127.5 -33.5t88.5 -92.5q42 3 62 31t20 95v76zM291 29q89 0 149 59.5t60 153.5t-60 154.5t-149 60.5
q-92 0 -151 -62.5t-59 -152.5t58.5 -151.5t151.5 -61.5zM291 -118q14 0 24 -10t10 -24q0 -15 -9.5 -24t-24.5 -9t-24.5 9t-9.5 24q0 14 9.5 24t24.5 10z" />
    <glyph glyph-name="uni1EE4" unicode="&#x1ee4;" horiz-adv-x="687" 
d="M343 -4q-118 0 -190.5 77.5t-72.5 210.5v426h36v-425q0 -118 62 -186t165 -68t166 68t63 186v425h35v-426q0 -133 -73 -210.5t-191 -77.5zM343 -118q14 0 24 -10t10 -24q0 -15 -9.5 -24t-24.5 -9t-24.5 9t-9.5 24q0 14 9.5 24t24.5 10z" />
    <glyph glyph-name="uni1EE5" unicode="&#x1ee5;" horiz-adv-x="538" 
d="M251 -4q-87 0 -135 56t-48 154v279h34v-266q0 -96 40 -143t113 -47q75 0 125.5 60t50.5 157v239h34v-485h-34v118l-1 1q-25 -58 -73 -90.5t-106 -32.5zM268 -118q14 0 24 -10t10 -24q0 -15 -9.5 -24t-24.5 -9t-24.5 9t-9.5 24q0 14 9.5 24t24.5 10z" />
    <glyph glyph-name="uni1EE6" unicode="&#x1ee6;" horiz-adv-x="687" 
d="M325 782q6 5 24 17t26 18.5t19.5 16.5t16.5 19.5t5 19.5q0 41 -56 41q-24 0 -50 -9t-40 -22l-9 28q48 31 102 31q37 0 60.5 -17t23.5 -52q0 -12 -4.5 -22.5t-16.5 -22t-18 -16.5t-23 -17t-19 -13h-41zM343 -4q-118 0 -190.5 77.5t-72.5 210.5v426h36v-425q0 -118 62 -186
t165 -68t166 68t63 186v425h35v-426q0 -133 -73 -210.5t-191 -77.5z" />
    <glyph glyph-name="uni1EE7" unicode="&#x1ee7;" horiz-adv-x="538" 
d="M241 554q2 2 14 10t15.5 11t14 10.5t15 12t12.5 11.5t11.5 12.5t8 12t6 13t1.5 12.5q0 41 -56 41t-90 -32l-9 29q50 32 102 32q37 0 60.5 -17.5t23.5 -52.5q0 -16 -7.5 -31.5t-27 -32t-25.5 -21t-28 -20.5h-41zM251 -4q-87 0 -135 56t-48 154v279h34v-266q0 -96 40 -143
t113 -47q75 0 125.5 60t50.5 157v239h34v-485h-34v118l-1 1q-25 -58 -73 -90.5t-106 -32.5z" />
    <glyph glyph-name="uni1EE8" unicode="&#x1ee8;" horiz-adv-x="748" 
d="M445 917l-116 -125h-39l113 125h42zM693 774h33v-76q0 -82 -29.5 -118t-89.5 -38v-258q0 -133 -73 -210.5t-191 -77.5t-190.5 77.5t-72.5 210.5v426h36v-425q0 -118 62 -186t165 -68t166 68t63 186v425h35v-139q45 3 65.5 31t20.5 96v76z" />
    <glyph glyph-name="uni1EE9" unicode="&#x1ee9;" horiz-adv-x="610" 
d="M403 697l-124 -136h-41l122 136h43zM549 565h33v-76q0 -82 -29 -117.5t-88 -38.5v-333h-34v118l-1 1q-25 -58 -73 -90.5t-106 -32.5q-87 0 -135 56t-48 154v279h34v-266q0 -96 40 -143t113 -47q75 0 125.5 60t50.5 157v239h34v-123q44 3 64 31.5t20 95.5v76z" />
    <glyph glyph-name="uni1EEA" unicode="&#x1eea;" horiz-adv-x="748" 
d="M384 792h-40l-115 125h42zM693 774h33v-76q0 -82 -29.5 -118t-89.5 -38v-258q0 -133 -73 -210.5t-191 -77.5t-190.5 77.5t-72.5 210.5v426h36v-425q0 -118 62 -186t165 -68t166 68t63 186v425h35v-139q45 3 65.5 31t20.5 96v76z" />
    <glyph glyph-name="uni1EEB" unicode="&#x1eeb;" horiz-adv-x="610" 
d="M303 564h-40l-115 129h42zM549 565h33v-76q0 -82 -29 -117.5t-88 -38.5v-333h-34v118l-1 1q-25 -58 -73 -90.5t-106 -32.5q-87 0 -135 56t-48 154v279h34v-266q0 -96 40 -143t113 -47q75 0 125.5 60t50.5 157v239h34v-123q44 3 64 31.5t20 95.5v76z" />
    <glyph glyph-name="uni1EEC" unicode="&#x1eec;" horiz-adv-x="748" 
d="M360 914q-24 0 -50 -9t-40 -22l-9 28q48 31 102 31q37 0 60.5 -17t23.5 -52q0 -12 -4.5 -22.5t-16.5 -22t-18 -16.5t-23 -17t-19 -13h-41q6 5 24 17t26 18.5t19.5 16.5t16.5 19.5t5 19.5q0 41 -56 41zM693 774h33v-76q0 -82 -29.5 -118t-89.5 -38v-258q0 -133 -73 -210.5
t-191 -77.5t-190.5 77.5t-72.5 210.5v426h36v-425q0 -118 62 -186t165 -68t166 68t63 186v425h35v-139q45 3 65.5 31t20.5 96v76z" />
    <glyph glyph-name="uni1EED" unicode="&#x1eed;" horiz-adv-x="610" 
d="M283 700q-56 0 -90 -32l-9 29q50 32 102 32q37 0 60.5 -17.5t23.5 -52.5q0 -16 -7.5 -31.5t-27 -32t-25.5 -21t-28 -20.5h-41q2 2 14 10t15.5 11t14 10.5t15 12t12.5 11.5t11.5 12.5t8 12t6 13t1.5 12.5q0 41 -56 41zM549 565h33v-76q0 -82 -29 -117.5t-88 -38.5v-333
h-34v118l-1 1q-25 -58 -73 -90.5t-106 -32.5q-87 0 -135 56t-48 154v279h34v-266q0 -96 40 -143t113 -47q75 0 125.5 60t50.5 157v239h34v-123q44 3 64 31.5t20 95.5v76z" />
    <glyph glyph-name="uni1EEE" unicode="&#x1eee;" horiz-adv-x="748" 
d="M272 859q-41 0 -63 -60l-27 9q27 81 88 81q29 0 79 -32l16.5 -11t19 -12.5t16 -7.5t19.5 -4q42 0 59 60l27 -9q-25 -81 -84 -81q-31 0 -87 39q-38 28 -63 28zM693 774h33v-76q0 -82 -29.5 -118t-89.5 -38v-258q0 -133 -73 -210.5t-191 -77.5t-190.5 77.5t-72.5 210.5v426
h36v-425q0 -118 62 -186t165 -68t166 68t63 186v425h35v-139q45 3 65.5 31t20.5 96v76z" />
    <glyph glyph-name="uni1EEF" unicode="&#x1eef;" horiz-adv-x="610" 
d="M194 644q-41 0 -63 -60l-27 9q26 81 88 81q36 0 77 -30q2 -1 16.5 -11.5t20 -13.5t16 -7t19.5 -4q42 0 60 60l27 -9q-12 -40 -34.5 -61t-49.5 -21q-7 0 -13.5 1t-14 4t-12 4.5t-13.5 7t-11 7t-12.5 8.5t-11.5 8q-38 27 -62 27zM549 565h33v-76q0 -82 -29 -117.5
t-88 -38.5v-333h-34v118l-1 1q-25 -58 -73 -90.5t-106 -32.5q-87 0 -135 56t-48 154v279h34v-266q0 -96 40 -143t113 -47q75 0 125.5 60t50.5 157v239h34v-123q44 3 64 31.5t20 95.5v76z" />
    <glyph glyph-name="uni1EF0" unicode="&#x1ef0;" horiz-adv-x="748" 
d="M693 774h33v-76q0 -82 -29.5 -118t-89.5 -38v-258q0 -133 -73 -210.5t-191 -77.5t-190.5 77.5t-72.5 210.5v426h36v-425q0 -118 62 -186t165 -68t166 68t63 186v425h35v-139q45 3 65.5 31t20.5 96v76zM343 -118q14 0 24 -10t10 -24q0 -15 -9.5 -24t-24.5 -9t-24.5 9
t-9.5 24q0 14 9.5 24t24.5 10z" />
    <glyph glyph-name="uni1EF1" unicode="&#x1ef1;" horiz-adv-x="610" 
d="M549 565h33v-76q0 -82 -29 -117.5t-88 -38.5v-333h-34v118l-1 1q-25 -58 -73 -90.5t-106 -32.5q-87 0 -135 56t-48 154v279h34v-266q0 -96 40 -143t113 -47q75 0 125.5 60t50.5 157v239h34v-123q44 3 64 31.5t20 95.5v76zM268 -118q14 0 24 -10t10 -24q0 -15 -9.5 -24
t-24.5 -9t-24.5 9t-9.5 24q0 14 9.5 24t24.5 10z" />
    <glyph glyph-name="Ygrave" unicode="&#x1ef2;" horiz-adv-x="565" 
d="M294 792l-115 125h42l113 -125h-40zM264 0v322l-247 388h43l221 -350h2l222 350h42l-247 -388v-322h-36z" />
    <glyph glyph-name="ygrave" unicode="&#x1ef3;" horiz-adv-x="510" 
d="M262 564l-115 129h42l113 -129h-40zM158 -198l86 206l-218 477h39l196 -435h1l182 435h38l-287 -683h-37z" />
    <glyph glyph-name="uni1EF4" unicode="&#x1ef4;" horiz-adv-x="565" 
d="M264 0v322l-247 388h43l221 -350h2l222 350h42l-247 -388v-322h-36zM282 -118q14 0 24 -10t10 -24q0 -15 -9.5 -24t-24.5 -9t-24.5 9t-9.5 24q0 14 9.5 24t24.5 10z" />
    <glyph glyph-name="uni1EF5" unicode="&#x1ef5;" horiz-adv-x="510" 
d="M158 -198l86 206l-218 477h39l196 -435h1l182 435h38l-287 -683h-37zM373 -118q14 0 24 -10t10 -24q0 -15 -9.5 -24t-24.5 -9t-24.5 9t-9.5 24q0 14 9.5 24t24.5 10z" />
    <glyph glyph-name="uni1EF6" unicode="&#x1ef6;" horiz-adv-x="565" 
d="M264 782q6 5 24 17t26 18.5t19.5 16.5t16.5 19.5t5 19.5q0 41 -56 41q-24 0 -50 -9t-40 -22l-9 28q48 31 102 31q37 0 60.5 -17t23.5 -52q0 -12 -4.5 -22.5t-16.5 -22t-18 -16.5t-23 -17t-19 -13h-41zM264 0v322l-247 388h43l221 -350h2l222 350h42l-247 -388v-322h-36z
" />
    <glyph glyph-name="uni1EF7" unicode="&#x1ef7;" horiz-adv-x="510" 
d="M232 554q2 2 14 10t15.5 11t14 10.5t15 12t12.5 11.5t11.5 12.5t8 12t6 13t1.5 12.5q0 41 -56 41t-90 -32l-9 29q50 32 102 32q37 0 60.5 -17.5t23.5 -52.5q0 -16 -7.5 -31.5t-27 -32t-25.5 -21t-28 -20.5h-41zM158 -198l86 206l-218 477h39l196 -435h1l182 435h38
l-287 -683h-37z" />
    <glyph glyph-name="uni1EF8" unicode="&#x1ef8;" horiz-adv-x="565" 
d="M361 792q-31 0 -87 39q-39 28 -63 28q-41 0 -63 -60l-27 9q27 81 88 81q29 0 79 -32l16.5 -11t19 -12.5t16 -7.5t19.5 -4q42 0 59 60l27 -9q-25 -81 -84 -81zM264 0v322l-247 388h43l221 -350h2l222 350h42l-247 -388v-322h-36z" />
    <glyph glyph-name="uni1EF9" unicode="&#x1ef9;" horiz-adv-x="510" 
d="M335 577q-7 0 -13.5 1t-14 4t-12 4.5t-13.5 7t-11 7t-12.5 8.5t-11.5 8q-38 27 -62 27q-41 0 -63 -60l-27 9q26 81 88 81q36 0 77 -30q2 -1 16.5 -11.5t20 -13.5t16 -7t19.5 -4q42 0 60 60l27 -9q-12 -40 -34.5 -61t-49.5 -21zM158 -198l86 206l-218 477h39l196 -435h1
l182 435h38l-287 -683h-37z" />
    <glyph glyph-name="uni2002" unicode="&#x2002;" horiz-adv-x="467" 
 />
    <glyph glyph-name="uni2003" unicode="&#x2003;" horiz-adv-x="934" 
 />
    <glyph glyph-name="uni2007" unicode="&#x2007;" horiz-adv-x="586" 
 />
    <glyph glyph-name="uni2009" unicode="&#x2009;" horiz-adv-x="24" 
 />
    <glyph glyph-name="uni2010" unicode="&#x2010;" horiz-adv-x="404" 
d="M57 291v34h290v-34h-290z" />
    <glyph glyph-name="figuredash" unicode="&#x2012;" horiz-adv-x="586" 
d="M57 281v31h472v-31h-472z" />
    <glyph glyph-name="endash" unicode="&#x2013;" horiz-adv-x="580" 
d="M57 281v31h466v-31h-466z" />
    <glyph glyph-name="emdash" unicode="&#x2014;" horiz-adv-x="1047" 
d="M57 281v31h933v-31h-933z" />
    <glyph glyph-name="uni2015" unicode="&#x2015;" horiz-adv-x="1189" 
d="M57 281v31h1075v-31h-1075z" />
    <glyph glyph-name="quoteleft" unicode="&#x2018;" horiz-adv-x="168" 
d="M120 710l-34 -222h-38l44 222h28z" />
    <glyph glyph-name="quoteright" unicode="&#x2019;" horiz-adv-x="168" 
d="M48 488l34 222h38l-44 -222h-28z" />
    <glyph glyph-name="quotesinglbase" unicode="&#x201a;" horiz-adv-x="167" 
d="M35 -76l34 223h39l-45 -223h-28z" />
    <glyph glyph-name="quotedblleft" unicode="&#x201c;" horiz-adv-x="263" 
d="M121 710l-35 -222h-39l45 222h29zM215 710l-34 -222h-38l44 222h28z" />
    <glyph glyph-name="quotedblright" unicode="&#x201d;" horiz-adv-x="263" 
d="M48 488l34 222h38l-44 -222h-28zM142 488l35 222h39l-45 -222h-29z" />
    <glyph glyph-name="quotedblbase" unicode="&#x201e;" horiz-adv-x="262" 
d="M35 -74l34 222h38l-44 -222h-28zM129 -74l35 222h39l-45 -222h-29z" />
    <glyph glyph-name="dagger" unicode="&#x2020;" horiz-adv-x="393" 
d="M198 270l-15 31l2 141v113h-22l-106 -3v32l106 -2h21v102h30l-3 -102h19l106 2v-32l-106 3h-20v-113l4 -141z" />
    <glyph glyph-name="daggerdbl" unicode="&#x2021;" horiz-adv-x="393" 
d="M184 62v101l-127 -1v31l106 -2h22v123l-2 67l2 66v108h-22l-106 -3v32l106 -2h21l-1 102h31l-3 -102l125 1v-31l-106 3h-20v-108l4 -66l-4 -67v-123h20l106 3v-31h-125l3 -101h-30z" />
    <glyph glyph-name="bullet" unicode="&#x2022;" horiz-adv-x="378" 
d="M189 228q-37 0 -63 25.5t-26 62.5t26 62.5t63 25.5t63 -25.5t26 -62.5t-26 -62.5t-63 -25.5z" />
    <glyph glyph-name="ellipsis" unicode="&#x2026;" horiz-adv-x="1000" 
d="M162 -5q-15 0 -25 10t-10 25t10 24.5t25 9.5t25 -9.5t10 -24.5t-10 -25t-25 -10zM495 -5q-15 0 -25 10t-10 25t10 24.5t25 9.5t25 -9.5t10 -24.5t-10 -25t-25 -10zM829 -5q-15 0 -25 10t-10 25t10 24.5t25 9.5t25 -9.5t10 -24.5t-10 -25t-25 -10z" />
    <glyph glyph-name="perthousand" unicode="&#x2030;" horiz-adv-x="1395" 
d="M336 -9l-30 11l306 716l29 -12zM235 327q-83 0 -139.5 54.5t-56.5 140.5q0 81 54.5 137t141.5 56q82 0 139 -54t57 -139q0 -83 -54.5 -139t-141.5 -56zM235 357q74 0 119.5 47.5t45.5 117.5q0 72 -47.5 117t-117.5 45q-73 0 -118.5 -46.5t-45.5 -115.5q0 -74 47 -119.5
t117 -45.5zM705 -4q-82 0 -138.5 54.5t-56.5 139.5q0 82 54.5 137.5t140.5 55.5q84 0 140.5 -53.5t56.5 -139.5q0 -82 -55 -138t-142 -56zM1152 -4q-83 0 -140 54.5t-57 139.5q0 82 55 137.5t142 55.5q83 0 140 -53.5t57 -139.5q0 -82 -55.5 -138t-141.5 -56zM706 26
q73 0 119 47t46 117q0 72 -47.5 117.5t-117.5 45.5q-74 0 -120 -46.5t-46 -116.5q0 -72 48 -118t118 -46zM1152 26q74 0 119.5 47t45.5 117q0 72 -47.5 117.5t-117.5 45.5q-74 0 -119.5 -46.5t-45.5 -116.5q0 -72 47.5 -118t117.5 -46z" />
    <glyph glyph-name="minute" unicode="&#x2032;" horiz-adv-x="207" 
d="M48 488l73 222h38l-83 -222h-28z" />
    <glyph glyph-name="second" unicode="&#x2033;" horiz-adv-x="312" 
d="M48 488l73 222h38l-83 -222h-28zM153 488l73 222h38l-83 -222h-28z" />
    <glyph glyph-name="guilsinglleft" unicode="&#x2039;" horiz-adv-x="270" 
d="M201 471l-128 -228l128 -228h-34l-129 228l129 228h34z" />
    <glyph glyph-name="guilsinglright" unicode="&#x203a;" horiz-adv-x="270" 
d="M69 16l128 228l-128 228h34l129 -228l-129 -228h-34z" />
    <glyph glyph-name="uni203D" unicode="&#x203d;" horiz-adv-x="423" 
d="M208 741q81 0 132 -51t51 -127q0 -55 -24.5 -97t-69.5 -89q-6 -6 -22 -23.5t-22.5 -24.5t-18 -21t-16 -23t-8.5 -21.5t-4 -23.5v-58h-30l-5 435h39l-4 -293h1q14 20 61 71q41 44 63 81.5t22 84.5q0 66 -42.5 105t-103.5 39q-101 0 -155 -84l-25 26q32 45 79.5 69.5
t101.5 24.5zM191 64q15 0 25 -9.5t10 -24.5t-10 -25t-25 -10t-25 10t-10 25t10 24.5t25 9.5z" />
    <glyph glyph-name="uni2042" unicode="&#x2042;" horiz-adv-x="835" 
d="M398 403l4 135l-115 -71l-14 26l120 64l-121 64l15 25l115 -71l-4 135h29l-4 -135l116 72l14 -26l-120 -64l120 -64l-14 -25l-116 70l4 -135h-29zM187 68l4 135l-115 -71l-14 26l120 64l-121 64l15 25l115 -71l-4 135h29l-4 -135l116 72l14 -26l-120 -64l120 -64l-14 -25
l-116 70l4 -135h-29zM618 68l4 135l-115 -71l-14 26l120 64l-121 64l15 25l115 -71l-4 135h29l-4 -135l116 72l14 -26l-120 -64l120 -64l-14 -25l-116 70l4 -135h-29z" />
    <glyph glyph-name="fraction" unicode="&#x2044;" horiz-adv-x="229" 
d="M-21 -9l-29 11l306 716l29 -12z" />
    <glyph glyph-name="uni2051" unicode="&#x2051;" horiz-adv-x="404" 
d="M187 403l4 135l-115 -71l-14 26l120 64l-121 64l15 25l115 -71l-4 135h29l-4 -135l116 72l14 -26l-120 -64l120 -64l-14 -25l-116 70l4 -135h-29zM187 56l4 135l-115 -72l-14 27l120 63l-121 64l15 26l115 -70l-4 135h29l-4 -135l116 71l14 -27l-120 -63l120 -64l-14 -25
l-116 70l4 -135h-29z" />
    <glyph glyph-name="uni2070" unicode="&#x2070;" horiz-adv-x="382" 
d="M191 432q-73 0 -118.5 55.5t-45.5 153.5q0 94 43.5 152.5t120.5 58.5q73 0 119 -56t46 -155q0 -93 -44 -151t-121 -58zM191 463q63 0 98.5 48.5t35.5 129.5q0 87 -37 133.5t-97 46.5q-63 0 -97.5 -49t-34.5 -131q0 -85 36.5 -131.5t95.5 -46.5z" />
    <glyph glyph-name="colonmonetary" unicode="&#x20a1;" horiz-adv-x="576" 
d="M356 30q98 0 173 54l20 -28q-86 -60 -193 -60q-70 0 -132 30l-36 -77l-25 11l37 80q-30 17 -58 48l-64 -139l-25 11l70 152q-64 89 -64 230q0 161 81.5 255t215.5 94q12 0 34 -2l23 50l26 -12l-19 -42q33 -6 68 -20l34 74l27 -12l-35 -75q15 -8 30 -18l-21 -29
q-12 9 -24 15l-261 -562q55 -28 118 -28zM96 342q0 -115 45 -191l234 505q-6 1 -19 1q-117 0 -188.5 -84t-71.5 -231zM159 124q25 -32 55 -52l259 562q-35 15 -68 19z" />
    <glyph glyph-name="lira" unicode="&#x20a4;" horiz-adv-x="550" 
d="M172 34h355v-34h-482v34h91v231h-70v30h70v91h-70v30h70v58q0 108 53 162.5t134 54.5q115 0 174 -98l-24 -24q-50 88 -148 88q-70 0 -112 -48.5t-42 -139.5v-53h177v-30h-177v-91h177v-30h-176v-231z" />
    <glyph glyph-name="uni20A6" unicode="&#x20a6;" horiz-adv-x="610" 
d="M596 379h-56v-90h56v-30h-56v-259h-37l-164 259h-234v-259h-36v259h-56v30h56v90h-56v30h56v278h37l175 -278h224v278h35v-278h56v-30zM105 627v-218h139l-138 218h-1zM105 289h215l-57 90h-158v-90zM505 289v90h-205l57 -90h148zM505 58v201h-129l128 -201h1z" />
    <glyph glyph-name="peseta" unicode="&#x20a7;" horiz-adv-x="632" 
d="M612 501v-30h-80q-4 -95 -66.5 -141t-162.5 -46h-155v-284h-35v471h-89v30h89v186h207q202 0 212 -186h80zM148 653v-152h347q-4 79 -50 115.5t-121 36.5h-176zM303 317q95 0 142 41.5t51 112.5h-348v-154h155z" />
    <glyph glyph-name="dong" unicode="&#x20ab;" horiz-adv-x="599" 
d="M523 614h63v-29h-63v-585h-32v126h-2q-25 -59 -79 -94.5t-123 -35.5q-102 0 -171.5 67.5t-69.5 174.5q0 106 67.5 178.5t173.5 72.5q66 0 120 -35.5t81 -96.5h2v228h-236v29h236v122h33v-122zM289 29q85 0 143.5 58t58.5 151q0 92 -57 155.5t-145 63.5t-148 -61t-60 -158
q0 -89 58 -149t150 -60zM65 -126v32h461v-32h-461z" />
    <glyph glyph-name="Euro" unicode="&#x20ac;" horiz-adv-x="585" 
d="M538 84l20 -28q-86 -60 -192 -60q-107 0 -189.5 67.5t-102.5 203.5h-61v30h58q-2 28 -2 45q0 15 2 45h-58v31h61q19 128 97 200.5t195 72.5q105 0 187 -57l-21 -29q-71 52 -166 52q-101 0 -169 -63t-86 -176h336v-31h-340q-2 -28 -2 -45t2 -45h340v-30h-337
q19 -119 91 -178t165 -59q97 0 172 54z" />
    <glyph glyph-name="uni20AE" unicode="&#x20ae;" horiz-adv-x="527" 
d="M498 653h-218v-278l152 61l16 -28l-168 -68v-78l152 62l16 -29l-168 -67v-228h-36v213l-142 -57l-15 28l157 64v77l-142 -57l-17 28l159 64v293h-214v34h468v-34z" />
    <glyph glyph-name="uni20B1" unicode="&#x20b1;" horiz-adv-x="632" 
d="M612 548v-29h-82q2 -22 2 -35t-2 -37h82v-29h-88q-38 -134 -221 -134h-155v-284h-35v418h-89v29h89v72h-89v29h89v139h207q175 0 205 -139h87zM326 653h-178v-106h340q-29 106 -162 106zM148 519v-72h345q3 16 3 36q0 14 -2 36h-346zM305 317q148 0 181 102h-338v-102
h157z" />
    <glyph glyph-name="uni20B2" unicode="&#x20b2;" horiz-adv-x="622" 
d="M563 346v-277q-83 -73 -205 -73v-121h-31v122q-113 11 -190.5 97t-77.5 248q0 152 72.5 244.5t195.5 103.5v102h31v-101q107 0 188 -58l-21 -29q-74 53 -167 53v-311h205zM96 342q0 -145 66 -222.5t165 -87.5v624q-105 -11 -168 -94t-63 -220zM528 87v225h-170v-281
q104 0 170 56z" />
    <glyph glyph-name="uni20B4" unicode="&#x20b4;" horiz-adv-x="542" 
d="M468 116l25 -28q-92 -91 -229 -91q-99 0 -151 41.5t-52 106.5q0 39 19.5 72t46.5 51h-77v30h110q23 13 68.5 39t70.5 40h-249v30h289q102 51 102 128q0 56 -44 88t-110 32q-96 0 -182 -62l-24 29q99 67 206 67q89 0 140 -43.5t51 -109.5q0 -43 -25.5 -76.5t-59.5 -52.5
h97v-30h-133q-73 -42 -139 -79h272v-30h-317q-76 -45 -76 -119q0 -55 46 -86t122 -31q120 0 203 84z" />
    <glyph glyph-name="uni20B5" unicode="&#x20b5;" horiz-adv-x="578" 
d="M550 58q-84 -62 -192 -62v-121h-31v122q-113 11 -190.5 97t-77.5 248q0 152 72.5 244.5t195.5 103.5v102h31v-101q107 0 188 -58l-21 -29q-74 53 -167 53v-627q98 0 172 55zM96 342q0 -145 66.5 -222.5t164.5 -87.5v624q-105 -11 -168 -94t-63 -220z" />
    <glyph glyph-name="uni20B8" unicode="&#x20b8;" horiz-adv-x="523" 
d="M30 687h464v-31h-464v31zM30 535v31h464v-31h-216v-535h-36v535h-212z" />
    <glyph glyph-name="uni20B9" unicode="&#x20b9;" horiz-adv-x="556" 
d="M522 656h-199v-1q71 -36 86 -120h113v-31h-109v-10q0 -86 -57 -139.5t-166 -53.5h-74l327 -301h-51l-330 305v30h131q87 0 135 41.5t48 119.5v8h-314v31h310q-12 58 -57 89.5t-115 31.5h-138v31h460v-31z" />
    <glyph glyph-name="uni20BA" unicode="&#x20ba;" horiz-adv-x="499" 
d="M442 168l32 -13q-56 -155 -236 -155h-158v238l-63 -31l-12 28l75 37v78l-63 -31l-13 28l76 38v302h35v-285l221 109l12 -28l-233 -115v-78l221 109l12 -28l-233 -115v-223h119q86 0 135.5 33.5t72.5 101.5z" />
    <glyph glyph-name="uni20BC" unicode="&#x20bc;" horiz-adv-x="726" 
d="M381 691q124 -6 195 -82t71 -206v-403h-35v403q0 114 -61 181t-169 73v-545h-34v545q-111 -4 -172.5 -71t-61.5 -183v-403h-35v403q0 131 72 207t198 81v83h32v-83z" />
    <glyph glyph-name="uni20BD" unicode="&#x20bd;" horiz-adv-x="580" 
d="M325 287h-155v-89h248v-31h-248v-167h-36v167h-106v31h106v89h-106v31h106v369h208q212 0 212 -202q0 -101 -62.5 -149.5t-166.5 -48.5zM170 653v-334h153q99 0 146.5 45.5t47.5 119.5q0 88 -46.5 128.5t-125.5 40.5h-175z" />
    <glyph glyph-name="uni2113" unicode="&#x2113;" horiz-adv-x="432" 
d="M395 100l19 -16q-64 -88 -167 -88q-70 0 -108.5 44t-40.5 117q-29 -24 -55 -43l-13 18q11 9 34 27t34 28l2 275q1 115 43 166t107 51q52 0 79 -38t27 -108q0 -144 -202 -329v-24q0 -82 31 -120t76 -38q39 0 75 23.5t59 54.5zM252 652q-98 0 -98 -182v-233
q88 85 132 156.5t44 140.5q0 60 -18 89t-60 29z" />
    <glyph glyph-name="uni2116" unicode="&#x2116;" horiz-adv-x="1143" 
d="M917 414q-67 0 -109 43t-42 106t42 105.5t109 42.5q64 0 107 -41.5t43 -106.5t-43 -107t-107 -42zM89 0v710h34l483 -649h1v649h36v-710h-36l-481 647h-2v-647h-35zM917 444q50 0 85 33.5t35 85.5t-35 86t-85 34q-54 0 -87 -34.5t-33 -85.5q0 -50 33.5 -84.5t86.5 -34.5z
M774 316v30h290v-30h-290z" />
    <glyph glyph-name="uni2117" unicode="&#x2117;" horiz-adv-x="668" 
d="M334 26q-120 0 -204.5 86.5t-84.5 205.5t84.5 205.5t205.5 86.5t204.5 -86t83.5 -206q0 -119 -84 -205.5t-205 -86.5zM334 55q109 0 184.5 78t75.5 185q0 108 -75.5 185.5t-183.5 77.5q-109 0 -185 -78t-76 -185q0 -108 75.5 -185.5t184.5 -77.5zM239 158v324h107
q51 0 76.5 -25.5t25.5 -67.5q0 -49 -29 -72.5t-80 -23.5h-72v-135h-28zM267 319h72q81 0 81 70q0 31 -19.5 48.5t-53.5 17.5h-80v-136z" />
    <glyph glyph-name="uni2120" unicode="&#x2120;" horiz-adv-x="690" 
d="M158 386q-81 0 -124 50l19 19q38 -42 104 -42q43 0 65.5 16t22.5 44q0 26 -19 38t-71 25q-54 14 -81 34.5t-27 55.5q0 39 30 62t77 23q58 0 110 -34l-15 -24q-44 31 -95 31q-34 0 -56.5 -15.5t-22.5 -42.5q0 -22 20.5 -36t71.5 -28q56 -15 81.5 -32.5t25.5 -56.5
q0 -41 -31 -64t-85 -23zM330 387v323h30l127 -221l127 221h31v-323h-30v269l-117 -202h-22l-118 202v-269h-28z" />
    <glyph glyph-name="trademark" unicode="&#x2122;" horiz-adv-x="662" 
d="M119 387v296h-100v27h230v-27h-101v-296h-29zM303 387v323h30l127 -221l127 221h30v-323h-29v269l-117 -202h-22l-118 202v-269h-28z" />
    <glyph glyph-name="uni2126" unicode="&#x2126;" horiz-adv-x="781" 
d="M72 0v34h192v1q-95 51 -149 137t-54 195q0 149 92 248t237 99t238 -99t93 -248q0 -108 -54 -194.5t-149 -137.5l1 -1h190v-34h-255v34q108 48 169 134t61 199q0 135 -82 223.5t-212 88.5q-129 0 -210.5 -88.5t-81.5 -223.5q0 -113 61 -199t168 -134v-34h-255z" />
    <glyph glyph-name="estimated" unicode="&#x212e;" horiz-adv-x="775" 
d="M387 -10q-144 0 -235 93t-91 228q0 141 94.5 231t231.5 90q144 0 235.5 -93t91.5 -228v-9h-564v-173q43 -60 108 -88t130 -28q59 0 115.5 23.5t90.5 63.5h37q-40 -51 -107.5 -80.5t-136.5 -29.5zM150 327h468l1 175q-39 51 -103 78.5t-128 27.5q-69 0 -134 -29.5
t-102 -85.5z" />
    <glyph glyph-name="partialdiff" unicode="&#x2202;" horiz-adv-x="551" 
d="M271 691q65 0 113.5 -40t74 -103.5t37.5 -129t12 -130.5q0 -143 -64.5 -217.5t-170.5 -74.5q-102 0 -166 61t-64 154q0 100 60 160t158 60q68 0 123 -32.5t87 -85.5l1 1q-2 61 -13.5 117t-34 109.5t-64 85.5t-96.5 32q-27 0 -57 -8t-47 -15.5t-54 -25.5l-11 32
q97 50 176 50zM273 32q84 0 138.5 57t60.5 163q-24 61 -78 103t-130 42q-85 0 -135 -51t-50 -135q0 -78 53.5 -128.5t140.5 -50.5z" />
    <glyph glyph-name="emptyset" unicode="&#x2205;" horiz-adv-x="676" 
d="M554 512q73 -83 73 -194q0 -119 -84.5 -205t-204.5 -86q-111 0 -194 75l-40 -40l-21 21l41 41q-74 84 -74 194q0 119 84 205t205 86q112 0 194 -76l35 35l21 -21zM81 318q0 -99 64 -173l366 366q-72 67 -172 67q-108 0 -183 -76.5t-75 -183.5zM338 58q108 0 183 76.5
t75 183.5q0 98 -64 172l-366 -366q72 -66 172 -66z" />
    <glyph glyph-name="uni2206" unicode="&#x2206;" horiz-adv-x="632" 
d="M30 0v30l264 680h41l266 -680v-30h-571zM70 34h491l-245 632h-1z" />
    <glyph glyph-name="product" unicode="&#x220f;" horiz-adv-x="660" 
d="M82 -100v810h497v-810h-35v776h-427v-776h-35z" />
    <glyph glyph-name="summation" unicode="&#x2211;" horiz-adv-x="575" 
d="M55 -93v29l229 374l-229 370v30h488v-34h-440v-2l224 -364l-224 -367l1 -2h439v-34h-488z" />
    <glyph glyph-name="minus" unicode="&#x2212;" horiz-adv-x="593" 
d="M66 260v32h461v-32h-461z" />
    <glyph glyph-name="radical" unicode="&#x221a;" horiz-adv-x="655" 
d="M304 0l-167 499h-106v33h133l160 -480h2l336 770h32l-360 -822h-30z" />
    <glyph glyph-name="infinity" unicode="&#x221e;" horiz-adv-x="761" 
d="M556 425q63 0 108.5 -44.5t45.5 -108.5t-45.5 -108.5t-108.5 -44.5q-99 0 -176 124q-77 -124 -174 -124q-64 0 -109.5 44.5t-45.5 108.5q0 65 45.5 109t109.5 44q97 0 174 -124q78 124 176 124zM207 150q81 0 155 122q-75 122 -155 122q-52 0 -88 -35t-36 -87
q0 -51 36.5 -86.5t87.5 -35.5zM555 150q51 0 87 35.5t36 86.5q0 52 -36 87t-87 35q-82 0 -156 -122q35 -58 72 -90t84 -32z" />
    <glyph glyph-name="integral" unicode="&#x222b;" horiz-adv-x="290" 
d="M-15 -168h-15l1 29h8q46 0 59 19.5t24 89.5l90 596q12 76 31.5 101t75.5 25q6 0 13 -0.5t8 -0.5l-2 -27h-12q-47 0 -59 -18t-23 -91l-89 -599q-13 -75 -33 -99.5t-77 -24.5z" />
    <glyph glyph-name="uni2236" unicode="&#x2236;" horiz-adv-x="185" 
d="M88 482q-15 0 -25 10t-10 25t10 24.5t25 9.5t25 -9.5t10 -24.5t-10 -25t-25 -10zM88 57q-15 0 -25 10t-10 25t10 24.5t25 9.5t25 -9.5t10 -24.5t-10 -25t-25 -10z" />
    <glyph glyph-name="approxequal" unicode="&#x2248;" horiz-adv-x="590" 
d="M407 337q-36 0 -104 24.5t-106 24.5q-69 0 -120 -39l-11 25q55 46 133 46q46 0 109.5 -24.5t99.5 -24.5q50 0 105 51l11 -27q-58 -56 -117 -56zM407 123q-36 0 -104 24t-106 24q-69 0 -120 -39l-11 25q60 47 133 47q46 -1 109 -25t100 -24q50 0 105 49l11 -26
q-57 -55 -117 -55z" />
    <glyph glyph-name="notequal" unicode="&#x2260;" horiz-adv-x="561" 
d="M513 372h-169l-89 -192h258v-32h-273l-65 -139l-26 11l59 128h-156v32h171l90 192h-261v32h275l66 141l26 -12l-60 -129h154v-32z" />
    <glyph glyph-name="lessequal" unicode="&#x2264;" horiz-adv-x="561" 
d="M497 137l-433 208v25l433 210v-36l-383 -186l383 -185v-36zM497 0h-434v32h434v-32z" />
    <glyph glyph-name="greaterequal" unicode="&#x2265;" horiz-adv-x="562" 
d="M72 137v36l383 185l-383 186v36l433 -210v-25zM72 0v32h434v-32h-434z" />
    <glyph glyph-name="lozenge" unicode="&#x25ca;" horiz-adv-x="427" 
d="M213 0l-172 338l172 339l173 -339zM213 66l135 272l-136 272l-133 -272z" />
    <glyph glyph-name="uni2713" unicode="&#x2713;" horiz-adv-x="588" 
d="M212 115l-193 200l22 21l165 -172l362 593l27 -17z" />
    <glyph glyph-name="uni2715" unicode="&#x2715;" horiz-adv-x="384" 
d="M36 100l-22 21l157 155l-157 156l22 22l156 -156l156 156l22 -21l-157 -157l156 -156l-22 -20l-155 154z" />
    <glyph glyph-name="uni2E18" unicode="&#x2e18;" horiz-adv-x="383" 
d="M232 421q-15 0 -25 9.5t-10 24.5t10 25t25 10t25 -10t10 -25t-10 -24.5t-25 -9.5zM371 -136l25 -26q-32 -45 -79.5 -69.5t-101.5 -24.5q-81 0 -132 51t-51 127q0 55 24.5 97t69.5 89q6 6 22 23.5t22.5 24.5t18 21t16 23t8.5 21.5t4 23.5v58h30l5 -435h-39l4 293h-1
q-14 -20 -61 -71q-41 -44 -63 -81.5t-22 -84.5q0 -66 42.5 -105t103.5 -39q101 0 155 84z" />
    <glyph glyph-name="uni00A40301" horiz-adv-x="472" 
d="M355 792l113 125h42l-116 -125h-39zM213 -3q-46 0 -97 24t-89 69l21 27q78 -86 164 -86q147 0 147 186v493h35v-497q0 -216 -181 -216z" />
    <glyph glyph-name="Tdieresis" horiz-adv-x="548" 
d="M195 839q-14 0 -24 9.5t-10 23.5q0 15 9.5 24t24.5 9q14 0 23.5 -9.5t9.5 -23.5t-9.5 -23.5t-23.5 -9.5zM349 839q-15 0 -24.5 9.5t-9.5 23.5q0 15 9.5 24t24.5 9q14 0 23.5 -9.5t9.5 -23.5t-9.5 -23.5t-23.5 -9.5zM255 0v676h-229v34h496v-34h-232v-676h-35z" />
    <glyph glyph-name="Q.alt" horiz-adv-x="822" 
d="M762 356q0 -113 -54 -199t-144 -128l157 -132l-21 -28l-171 146q-54 -19 -117 -19q-155 0 -253 103.5t-98 256.5q0 151 98 255t253 104q148 0 249 -100.5t101 -258.5zM98 356q0 -137 88 -231t226 -94q132 0 222 90.5t90 234.5q0 143 -90 233.5t-222 90.5
q-138 0 -226 -93.5t-88 -230.5z" />
    <glyph glyph-name="i.loclTRK" horiz-adv-x="205" 
d="M104 599q-14 0 -24 10t-10 24q0 15 9.5 24t24.5 9t24.5 -9t9.5 -24q0 -14 -9.5 -24t-24.5 -10zM85 0v485h34v-485h-34z" />
    <glyph glyph-name="uni006A0301" horiz-adv-x="185" 
d="M82 574l122 136h43l-124 -136h-41zM9 -202q-37 0 -67 15l5 33q27 -15 61 -15q73 0 73 91v563h34v-563q0 -124 -106 -124z" />
    <glyph glyph-name="a.alt" horiz-adv-x="484" 
d="M243 489q169 0 169 -213v-276h-32l-1 88h-1q-26 -40 -73.5 -66t-104.5 -26q-80 0 -121.5 40t-41.5 101q0 62 44.5 100t134.5 38h163v3q0 179 -137 179q-79 0 -153 -43l-14 29q77 46 168 46zM202 28q73 0 125 42t52 95v79h-163q-65 0 -105 -27.5t-40 -79.5q0 -47 32.5 -78
t98.5 -31z" />
    <glyph glyph-name="aacute.alt" horiz-adv-x="484" 
d="M378 696l-124 -136h-41l122 136h43zM243 489q169 0 169 -213v-276h-32l-1 88h-1q-26 -40 -73.5 -66t-104.5 -26q-80 0 -121.5 40t-41.5 101q0 62 44.5 100t134.5 38h163v3q0 179 -137 179q-79 0 -153 -43l-14 29q77 46 168 46zM202 28q73 0 125 42t52 95v79h-163
q-65 0 -105 -27.5t-40 -79.5q0 -47 32.5 -78t98.5 -31z" />
    <glyph glyph-name="abreve.alt" horiz-adv-x="484" 
d="M256 559q-52 0 -87.5 34t-39.5 96h30q3 -44 28.5 -72t68.5 -28q42 0 68 28.5t28 71.5h30q-4 -62 -39.5 -96t-86.5 -34zM243 489q169 0 169 -213v-276h-32l-1 88h-1q-26 -40 -73.5 -66t-104.5 -26q-80 0 -121.5 40t-41.5 101q0 62 44.5 100t134.5 38h163v3q0 179 -137 179
q-79 0 -153 -43l-14 29q77 46 168 46zM202 28q73 0 125 42t52 95v79h-163q-65 0 -105 -27.5t-40 -79.5q0 -47 32.5 -78t98.5 -31z" />
    <glyph glyph-name="uni1EAF.alt" horiz-adv-x="484" 
d="M391 829l-125 -136h-36l118 136h43zM256 559q-52 0 -87.5 34t-39.5 96h30q3 -44 28.5 -72t68.5 -28q42 0 68 28.5t28 71.5h30q-4 -62 -39.5 -96t-86.5 -34zM243 489q169 0 169 -213v-276h-32l-1 88h-1q-26 -40 -73.5 -66t-104.5 -26q-80 0 -121.5 40t-41.5 101
q0 62 44.5 100t134.5 38h163v3q0 179 -137 179q-79 0 -153 -43l-14 29q77 46 168 46zM202 28q73 0 125 42t52 95v79h-163q-65 0 -105 -27.5t-40 -79.5q0 -47 32.5 -78t98.5 -31z" />
    <glyph glyph-name="uni1EB7.alt" horiz-adv-x="484" 
d="M256 559q-52 0 -87.5 34t-39.5 96h30q3 -44 28.5 -72t68.5 -28q42 0 68 28.5t28 71.5h30q-4 -62 -39.5 -96t-86.5 -34zM243 489q169 0 169 -213v-276h-32l-1 88h-1q-26 -40 -73.5 -66t-104.5 -26q-80 0 -121.5 40t-41.5 101q0 62 44.5 100t134.5 38h163v3q0 179 -137 179
q-79 0 -153 -43l-14 29q77 46 168 46zM202 28q73 0 125 42t52 95v79h-163q-65 0 -105 -27.5t-40 -79.5q0 -47 32.5 -78t98.5 -31zM253 -118q14 0 24 -10t10 -24q0 -15 -9.5 -24t-24.5 -9t-24.5 9t-9.5 24q0 14 9.5 24t24.5 10z" />
    </font>
</defs>
</svg>
